osu file format v14

[General]
AudioFilename: Adventure Club - Fade (feat Zak Waters).mp3
AudioLeadIn: 0
PreviewTime: 57911
Countdown: 0
SampleSet: Soft
StackLeniency: 0.7
Mode: 0
LetterboxInBreaks: 0
WidescreenStoryboard: 0

[Editor]
Bookmarks: 14976,88409,102737,131394,160050
DistanceSpacing: 1.2
BeatDivisor: 3
GridSize: 4
TimelineZoom: 1

[Metadata]
Title:Fade (feat. Zak Waters)
TitleUnicode:Fade (feat. Zak Waters)
Artist:Adventure Club
ArtistUnicode:Adventure Club
Creator:Come[Back]Home
Version:Insane
Source:
Tags:electro cbh dubstep melodic wub Strategas Max -M4x Gero red blue dance
BeatmapID:1260116
BeatmapSetID:416426

[Difficulty]
HPDrainRate:6
CircleSize:4
OverallDifficulty:7.5
ApproachRate:9
SliderMultiplier:1.8
SliderTickRate:1

[Events]
//Background and Video events
0,0,"BG.jpg",0,0
//Break Periods
2,30573,44102
2,87887,89773
2,102215,105296
//Storyboard Layer 0 (Background)
//Storyboard Layer 1 (Fail)
//Storyboard Layer 2 (Pass)
//Storyboard Layer 3 (Foreground)
//Storyboard Sound Samples

[TimingPoints]
1717,447.761194029851,4,2,0,70,1,0
2164,-133.333333333333,4,2,1,70,0,0
16045,-133.333333333333,4,2,1,50,0,0
30373,-166.666666666667,4,2,1,50,0,0
44702,-166.666666666667,4,2,1,30,0,0
48284,-166.666666666667,4,2,1,40,0,0
48731,-166.666666666667,4,2,1,40,0,0
49627,-166.666666666667,4,2,1,40,0,0
50522,-166.666666666667,4,2,1,40,0,0
51418,-166.666666666667,4,2,1,40,0,0
51866,-166.666666666667,4,2,1,50,0,0
52314,-142.857142857143,4,2,1,60,0,0
52761,-125,4,2,1,60,0,0
53209,-111.111111111111,4,2,1,60,0,0
53657,-100,4,2,1,60,0,0
54105,-90.9090909090909,4,2,1,60,0,0
54552,-83.3333333333333,4,2,1,60,0,0
55000,-76.9230769230769,4,2,1,60,0,0
55448,-76.9230769230769,4,2,1,70,0,0
59030,-76.9230769230769,4,2,1,70,0,1
59478,-66.6666666666667,4,2,1,70,0,1
62612,-76.9230769230769,4,2,1,70,0,1
63508,-66.6666666666667,4,2,1,70,0,1
66194,-100,4,2,1,70,0,1
67090,-66.6666666666667,4,2,1,70,0,1
69776,-76.9230769230769,4,2,1,70,0,1
70672,-66.6666666666667,4,2,1,70,0,1
73358,-76.9230769230769,4,2,1,70,0,1
73806,-66.6666666666667,4,2,1,70,0,1
76940,-76.9230769230769,4,2,1,70,0,1
77836,-66.6666666666667,4,2,1,70,0,1
80522,-100,4,2,1,70,0,1
81418,-66.6666666666667,4,2,1,70,0,1
84105,-76.9230769230769,4,2,1,70,0,1
85000,-66.6666666666667,4,2,1,70,0,1
87687,-100,4,2,1,30,0,0
88881,-100,4,2,1,50,0,0
89478,-100,4,2,1,30,0,0
90373,-100,4,2,1,55,0,0
91269,-83.3333333333333,4,2,1,55,0,0
100224,-83.3333333333333,4,2,1,40,0,0
101119,-83.3333333333333,4,2,1,25,0,0
105597,-125,4,2,1,30,0,0
116343,-100,4,2,1,40,0,0
123508,-100,4,2,1,50,0,0
125299,-83.3333333333333,4,2,1,60,0,0
126194,-71.4285714285714,4,2,1,60,0,0
127090,-71.4285714285714,4,2,1,70,0,0
130672,-76.9230769230769,4,2,1,70,0,1
131119,-58.8235294117647,4,2,1,70,0,1
131567,-76.9230769230769,4,2,1,70,0,1
132463,-58.8235294117647,4,2,1,70,0,1
134254,-76.9230769230769,4,2,1,70,0,1
135149,-58.8235294117647,4,2,1,70,0,1
136045,-76.9230769230769,4,2,1,70,0,1
138284,-58.8235294117647,4,2,1,70,0,1
141418,-76.9230769230769,4,2,1,70,0,1
142314,-58.8235294117647,4,2,1,70,0,1
143209,-76.9230769230769,4,2,1,70,0,1
145299,-58.8235294117647,4,2,1,70,0,1
145896,-76.9230769230769,4,2,1,70,0,1
146791,-58.8235294117647,4,2,1,70,0,1
148582,-76.9230769230769,4,2,1,70,0,1
149478,-58.8235294117647,4,2,1,70,0,1
150373,-76.9230769230769,4,2,1,70,0,1
152612,-58.8235294117647,4,2,1,70,0,1
155746,-76.9230769230769,4,2,1,70,0,1
156642,-58.8235294117647,4,2,1,70,0,1
157537,-100,4,2,1,70,0,1
157985,-100,4,2,1,5,0,1
158433,-100,4,2,1,70,0,1
158881,-100,4,2,1,5,0,1
159328,-100,4,2,1,70,0,0

[Colours]
Combo1 : 192,192,192
Combo2 : 170,85,0
Combo3 : 128,128,128
Combo4 : 128,64,64

[HitObjects]
94,332,16045,6,0,B|135:272|135:272|114:199,1,135.000005149842,2|0,0:0|0:0,0:0:0:0:
86,136,16717,1,0,0:0:0:0:
152,89,16940,2,0,L|224:97,1,67.5000025749208,8|0,0:0|0:0,0:0:0:0:
287,52,17388,1,0,0:0:0:0:
292,132,17612,1,2,0:0:0:0:
360,88,17836,5,2,0:0:0:0:
362,168,18060,1,0,0:0:0:0:
361,188,18172,1,0,0:0:0:0:
361,208,18284,1,2,0:0:0:0:
361,228,18396,1,0,0:0:0:0:
361,248,18508,1,0,0:0:0:0:
415,307,18731,1,8,0:0:0:0:
285,342,18955,1,0,0:0:0:0:
441,226,19179,2,0,P|475:245|502:288,1,67.5000025749208,0|0,0:0|0:0,0:0:0:0:
283,232,19627,6,0,L|296:90,1,135.000005149842,2|0,0:0|0:0,0:0:0:0:
364,54,20299,1,0,0:0:0:0:
286,78,20522,2,0,L|192:69,1,67.5000025749208,8|0,0:0|0:0,0:0:0:0:
150,26,20970,1,0,0:0:0:0:
110,185,21194,1,2,0:0:0:0:
150,26,21418,5,2,0:0:0:0:
196,223,21642,1,0,0:0:0:0:
216,220,21754,1,0,0:0:0:0:
236,217,21866,1,2,0:0:0:0:
256,214,21978,1,0,0:0:0:0:
276,211,22090,1,0,0:0:0:0:
329,271,22314,1,8,0:0:0:0:
391,135,22537,1,2,0:0:0:0:
418,312,22761,1,0,0:0:0:0:
312,188,22985,1,8,0:0:0:0:
484,73,23209,6,0,L|349:81,1,135.000005149842,2|0,0:0|0:0,0:0:0:0:
283,33,23881,1,0,0:0:0:0:
403,224,24105,2,0,P|411:191|401:136,1,67.5000025749208,8|0,0:0|0:0,0:0:0:0:
265,168,24552,2,0,P|297:178|331:175,1,67.5000025749208,0|2,0:0|0:0,0:0:0:0:
303,98,25000,5,2,0:0:0:0:
226,245,25224,1,0,0:0:0:0:
244,252,25335,1,0,0:0:0:0:
264,257,25447,1,2,0:0:0:0:
284,261,25559,1,0,0:0:0:0:
304,262,25671,1,0,0:0:0:0:
313,58,25896,2,0,P|280:116|288:182,1,135.000005149842,8|0,0:0|0:0,0:0:0:0:
319,256,26567,1,0,0:0:0:0:
75,181,26791,6,0,P|137:157|201:176,1,135.000005149842,2|0,0:0|0:0,0:0:0:0:
255,236,27463,1,0,0:0:0:0:
111,313,27687,1,8,0:0:0:0:
295,310,27911,2,0,P|326:278|310:175,1,135.000005149842,0|2,0:0|0:0,0:0:0:0:
268,132,28582,5,2,0:0:0:0:
117,235,28806,1,0,0:0:0:0:
136,239,28918,1,0,0:0:0:0:
156,239,29030,1,2,0:0:0:0:
177,237,29142,1,0,0:0:0:0:
196,231,29253,1,0,0:0:0:0:
156,159,29478,1,8,0:0:0:0:
243,335,29702,5,2,0:0:0:0:
322,134,29925,1,0,0:0:0:0:
243,335,30149,1,2,0:0:0:0:
235,94,30373,1,2,0:0:0:0:
107,315,44702,5,2,0:0:0:0:
107,315,45597,1,2,0:0:0:0:
107,315,46493,5,2,0:0:0:0:
107,315,47388,1,2,0:0:0:0:
107,315,48284,5,2,0:0:0:0:
231,348,48731,1,2,0:0:0:0:
107,315,49179,1,2,0:0:0:0:
231,348,49627,1,2,0:0:0:0:
193,223,50075,5,2,0:0:0:0:
445,283,50522,1,2,0:0:0:0:
193,223,50970,1,2,0:0:0:0:
445,283,51418,1,2,0:0:0:0:
193,223,51866,6,0,L|180:120,1,71.9999978027344,2|0,0:0|0:0,0:0:0:0:
183,151,52314,6,0,L|286:166,1,83.9999974365235,2|0,0:0|0:0,0:0:0:0:
266,163,52761,6,0,L|283:275,1,96,2|0,0:0|0:0,0:0:0:0:
280,257,53209,6,0,L|401:278,1,107.999996704102,2|0,0:0|0:0,0:0:0:0:
386,275,53657,6,0,L|362:140,1,120,2|0,0:0|0:0,0:0:0:0:
364,156,54105,6,0,P|316:145|261:60,1,132.00000402832,2|0,0:0|0:0,0:0:0:0:
264,83,54552,6,0,L|100:103,1,143.999995605469,2|0,0:0|0:0,0:0:0:0:
121,100,55000,6,0,B|161:193|161:193|124:258,1,155.999992858887,2|0,0:0|0:0,0:0:0:0:
85,321,55448,6,0,P|116:335|166:324,1,77.9999964294435,2|2,0:0|0:0,0:0:0:0:
229,267,55746,1,2,0:0:0:0:
311,221,55896,6,0,P|348:213|384:228,1,77.9999964294435,2|2,0:0|0:0,0:0:0:0:
456,287,56194,1,2,0:0:0:0:
495,206,56343,6,0,L|486:114,1,77.9999964294435,2|2,0:0|0:0,0:0:0:0:
479,34,56642,1,2,0:0:0:0:
402,88,56791,5,2,0:0:0:0:
487,128,56940,1,2,0:0:0:0:
394,1,57090,1,2,0:0:0:0:
316,201,57239,5,2,0:0:0:0:
137,319,59030,6,0,L|115:157,1,155.999992858887,2|0,0:0|0:0,0:0:0:0:
116,164,59478,6,0,L|303:198,1,180.000006866455,0|0,0:0|0:0,0:0:0:0:
293,196,59925,6,0,L|311:311,2,90.0000034332277,8|0|0,0:0|0:0|0:0,0:0:0:0:
369,119,60373,1,0,0:0:0:0:
401,221,60522,1,0,0:0:0:0:
471,138,60672,1,2,0:0:0:0:
423,41,60821,6,0,P|383:27|313:38,1,90.0000034332277,6|0,0:0|0:0,0:0:0:0:
243,84,61119,2,0,P|198:86|155:72,1,90.0000034332277,0|0,0:0|0:0,0:0:0:0:
63,15,61418,1,0,0:0:0:0:
63,15,61567,1,2,0:0:0:0:
29,118,61717,6,0,L|40:215,1,90.0000034332277,8|0,0:0|0:0,0:0:0:0:
46,314,62015,1,0,0:0:0:0:
134,252,62164,2,0,L|223:262,1,90.0000034332277,6|0,0:0|0:0,0:0:0:0:
331,274,62463,1,0,0:0:0:0:
284,192,62612,6,0,B|254:115|254:115|286:18,1,155.999992858887,6|0,0:0|0:0,0:0:0:0:
371,47,63060,2,0,L|344:124,1,77.9999964294435,0|0,0:0|0:0,0:0:0:0:
379,207,63358,1,0,0:0:0:0:
285,262,63508,6,0,L|182:248,2,90.0000034332277,8|0|0,0:0|0:0|0:0,0:0:0:0:
374,322,63955,2,0,P|403:319|474:283,1,90.0000034332277,0|0,0:0|0:0,0:0:0:0:
485,190,64254,1,2,0:0:0:0:
386,146,64403,6,0,P|379:181|394:250,2,90.0000034332277,6|0|0,0:0|0:0|0:0,0:0:0:0:
475,85,64851,1,0,0:0:0:0:
376,41,65000,1,0,0:0:0:0:
286,100,65149,1,2,0:0:0:0:
195,40,65299,6,0,L|95:53,1,90.0000034332277,8|0,0:0|0:0,0:0:0:0:
36,133,65597,1,0,0:0:0:0:
121,198,65746,1,6,0:0:0:0:
21,241,65896,1,0,0:0:0:0:
132,96,66045,1,4,0:0:0:0:
195,307,66194,6,0,L|184:383,2,60,6|0|0,0:0|0:0|0:0,0:0:0:0:
230,243,66642,2,0,L|221:183,2,60,0|0|0,0:0|0:0|0:0,0:0:0:0:
332,207,67090,6,0,L|439:197,1,90.0000034332277,8|0,0:0|0:0,0:0:0:0:
485,111,67388,1,0,0:0:0:0:
385,68,67537,2,0,L|276:80,1,90.0000034332277,0|0,0:0|0:0,0:0:0:0:
224,160,67836,1,0,0:0:0:0:
120,129,67985,6,0,P|109:78|116:15,2,90.0000034332277,6|0|0,0:0|0:0|0:0,0:0:0:0:
151,232,68433,1,0,0:0:0:0:
114,333,68582,2,0,P|69:303|45:252,1,90.0000034332277,0|0,0:0|0:0,0:0:0:0:
151,232,68881,6,0,L|254:244,1,90.0000034332277,8|0,0:0|0:0,0:0:0:0:
347,257,69179,1,0,0:0:0:0:
281,342,69328,1,4,0:0:0:0:
388,357,69478,2,0,L|491:369,1,90.0000034332277,0|2,0:0|0:0,0:0:0:0:
448,278,69776,6,0,B|435:223|435:223|436:171|436:171|429:121,1,155.999992858887,6|0,0:0|0:0,0:0:0:0:
347,76,70224,2,0,L|262:97,1,77.9999964294435,0|0,0:0|0:0,0:0:0:0:
185,58,70522,1,0,0:0:0:0:
175,166,70672,6,0,B|169:207|169:207|142:147,1,90.0000034332277,8|0,0:0|0:0,0:0:0:0:
97,67,70970,1,0,0:0:0:0:
49,163,71119,2,0,L|26:265,1,90.0000034332277,0|0,0:0|0:0,0:0:0:0:
7,357,71418,1,0,0:0:0:0:
106,315,71567,6,0,L|224:304,1,90.0000034332277,6|0,0:0|0:0,0:0:0:0:
286,365,71866,1,0,0:0:0:0:
288,257,72015,1,0,0:0:0:0:
381,311,72164,1,0,0:0:0:0:
195,306,72314,1,2,0:0:0:0:
382,210,72463,5,8,0:0:0:0:
286,365,72612,1,2,0:0:0:0:
200,157,72761,1,2,0:0:0:0:
352,57,72911,2,0,L|339:267,1,180.000006866455,12|6,0:0|0:0,0:0:0:0:
307,163,73358,6,0,L|298:319,1,155.999992858887,2|0,0:0|0:0,0:0:0:0:
215,248,73806,6,0,L|229:48,1,180.000006866455,0|0,0:0|0:0,0:0:0:0:
138,130,74254,6,0,L|127:237,1,90.0000034332277,8|0,0:0|0:0,0:0:0:0:
116,326,74552,1,0,0:0:0:0:
219,358,74702,2,0,L|316:348,1,90.0000034332277,0|0,0:0|0:0,0:0:0:0:
415,339,75000,1,2,0:0:0:0:
350,252,75149,6,0,P|329:196|328:133,1,90.0000034332277,6|0,0:0|0:0,0:0:0:0:
512,159,75448,2,0,P|470:176|426:183,1,90.0000034332277,0|0,0:0|0:0,0:0:0:0:
303,26,75746,2,0,P|347:32|388:50,1,90.0000034332277,0|2,0:0|0:0,0:0:0:0:
321,135,76045,5,8,0:0:0:0:
213,126,76194,1,0,0:0:0:0:
344,137,76343,1,0,0:0:0:0:
191,125,76493,1,6,0:0:0:0:
275,275,76642,1,0,0:0:0:0:
253,54,76791,1,0,0:0:0:0:
126,247,76940,6,0,L|312:233,1,155.999992858887,6|0,0:0|0:0,0:0:0:0:
375,229,77388,2,0,L|463:223,1,77.9999964294435,0|0,0:0|0:0,0:0:0:0:
507,300,77687,1,0,0:0:0:0:
403,149,77836,6,0,L|416:43,2,90.0000034332277,8|0|0,0:0|0:0|0:0,0:0:0:0:
222,90,78284,2,0,P|266:81|310:92,1,90.0000034332277,0|0,0:0|0:0,0:0:0:0:
263,189,78582,1,2,0:0:0:0:
167,238,78731,6,0,L|72:224,1,90.0000034332277,6|0,0:0|0:0,0:0:0:0:
118,41,79030,2,0,L|132:131,1,90.0000034332277,0|0,0:0|0:0,0:0:0:0:
261,331,79328,2,0,L|274:241,1,90.0000034332277,0|2,0:0|0:0,0:0:0:0:
365,183,79627,5,8,0:0:0:0:
265,224,79776,1,0,0:0:0:0:
365,183,79925,1,0,0:0:0:0:
337,358,80075,1,6,0:0:0:0:
289,133,80224,1,0,0:0:0:0:
337,358,80373,1,4,0:0:0:0:
484,217,80522,6,0,L|422:226,1,60,6|0,0:0|0:0,0:0:0:0:
298,245,80821,2,0,L|358:254,1,60,0|0,0:0|0:0,0:0:0:0:
229,225,81119,2,0,L|169:233,1,60,0|0,0:0|0:0,0:0:0:0:
86,304,81418,6,0,P|62:250|65:203,1,90.0000034332277,8|0,0:0|0:0,0:0:0:0:
72,111,81717,1,0,0:0:0:0:
178,125,81866,2,0,L|279:117,1,90.0000034332277,0|0,0:0|0:0,0:0:0:0:
375,112,82164,1,0,0:0:0:0:
326,209,82314,6,0,L|318:309,2,90.0000034332277,6|0|0,0:0|0:0|0:0,0:0:0:0:
224,245,82761,1,0,0:0:0:0:
122,206,82911,1,0,0:0:0:0:
135,312,83060,1,0,0:0:0:0:
205,136,83209,6,0,L|197:46,1,90.0000034332277,8|0,0:0|0:0,0:0:0:0:
101,96,83508,1,0,0:0:0:0:
122,201,83657,2,0,P|161:234|210:241,1,90.0000034332277,4|0,0:0|0:0,0:0:0:0:
296,197,83955,1,2,0:0:0:0:
278,289,84105,6,0,P|218:249|226:144,1,155.999992858887,6|0,0:0|0:0,0:0:0:0:
242,82,84552,2,0,L|325:88,1,77.9999964294435,0|0,0:0|0:0,0:0:0:0:
413,93,84851,1,0,0:0:0:0:
368,191,85000,6,0,P|357:238|370:298,1,90.0000034332277,8|0,0:0|0:0,0:0:0:0:
463,239,85299,1,0,0:0:0:0:
460,131,85448,2,0,P|432:104|374:81,1,90.0000034332277,0|0,0:0|0:0,0:0:0:0:
278,73,85746,1,0,0:0:0:0:
211,158,85896,6,0,L|220:271,1,90.0000034332277,6|0,0:0|0:0,0:0:0:0:
230,354,86194,1,0,0:0:0:0:
137,298,86343,1,0,0:0:0:0:
308,280,86493,1,0,0:0:0:0:
82,217,86642,1,2,0:0:0:0:
210,54,86791,6,0,P|217:102|207:172,1,90.0000034332277,8|2,0:0|0:0,0:0:0:0:
112,105,87090,1,2,0:0:0:0:
305,56,87239,1,12,0:0:0:0:
207,243,87388,1,2,0:0:0:0:
210,54,87537,1,6,0:0:0:0:
341,282,87687,5,2,0:0:0:0:
141,274,90373,5,8,0:0:0:0:
260,193,90672,5,2,0:0:0:0:
141,274,90821,1,8,0:0:0:0:
260,193,91119,5,2,0:0:0:0:
141,274,91269,2,0,L|123:194,1,71.9999978027344,2|0,0:0|0:0,0:0:0:0:
211,206,91567,2,0,L|434:246,1,215.999993408203,0|0,0:0|0:0,0:0:0:0:
479,177,92164,6,0,P|454:132|441:85,1,71.9999978027344,8|0,0:0|0:0,0:0:0:0:
371,71,92463,2,0,P|357:104|338:135,1,71.9999978027344,0|0,0:0|0:0,0:0:0:0:
286,203,92761,1,0,0:0:0:0:
286,203,92911,1,0,0:0:0:0:
122,111,93060,6,0,P|167:85|214:72,1,71.9999978027344,2|0,0:0|0:0,0:0:0:0:
280,310,93358,2,0,P|246:296|215:277,1,71.9999978027344,0|0,0:0|0:0,0:0:0:0:
143,229,93657,1,0,0:0:0:0:
143,229,93806,1,0,0:0:0:0:
318,138,93955,6,0,P|304:171|285:202,1,71.9999978027344,8|0,0:0|0:0,0:0:0:0:
166,96,94254,2,0,P|147:65|133:31,1,71.9999978027344,0|0,0:0|0:0,0:0:0:0:
220,30,94552,1,0,0:0:0:0:
220,30,94702,1,0,0:0:0:0:
192,210,94851,6,0,L|108:202,1,71.9999978027344,2|0,0:0|0:0,0:0:0:0:
144,286,95149,2,0,B|296:300|296:300|352:246,1,215.999993408203,0|0,0:0|0:0,0:0:0:0:
395,187,95746,6,0,L|386:102,1,71.9999978027344,8|0,0:0|0:0,0:0:0:0:
238,143,96045,2,0,P|273:153|309:152,1,71.9999978027344,0|0,0:0|0:0,0:0:0:0:
285,69,96343,1,0,0:0:0:0:
285,69,96493,1,0,0:0:0:0:
198,68,96642,6,0,P|171:87|149:128,1,71.9999978027344,2|0,0:0|0:0,0:0:0:0:
137,205,96940,2,0,B|216:252|216:252|263:235|266:173|240:144,1,215.999993408203,0|0,0:0|0:0,0:0:0:0:
323,116,97537,6,0,P|339:162|343:208,1,71.9999978027344,8|0,0:0|0:0,0:0:0:0:
267,319,97836,2,0,P|274:284|287:251,1,71.9999978027344,0|0,0:0|0:0,0:0:0:0:
354,305,98134,1,0,0:0:0:0:
354,305,98284,1,0,0:0:0:0:
199,262,98433,6,0,L|123:271,1,71.9999978027344,2|0,0:0|0:0,0:0:0:0:
77,340,98731,2,0,B|-3:240|112:232|21:101,1,215.999993408203,0|0,0:0|0:0,0:0:0:0:
105,76,99328,6,0,L|195:85,1,71.9999978027344,8|0,0:0|0:0,0:0:0:0:
156,236,99627,2,0,L|149:165,1,71.9999978027344,0|0,0:0|0:0,0:0:0:0:
233,183,99925,1,0,0:0:0:0:
233,183,100075,1,0,0:0:0:0:
382,226,100224,6,0,L|311:219,1,71.9999978027344,2|0,0:0|0:0,0:0:0:0:
338,7,100522,2,0,L|345:78,1,71.9999978027344,0|0,0:0|0:0,0:0:0:0:
422,38,100821,1,0,0:0:0:0:
422,38,100970,1,0,0:0:0:0:
145,46,101119,6,0,L|235:55,1,71.9999978027344,8|0,0:0|0:0,0:0:0:0:
195,299,101418,2,0,L|187:227,1,71.9999978027344,0|0,0:0|0:0,0:0:0:0:
270,254,101717,1,0,0:0:0:0:
109,335,101866,1,0,0:0:0:0:
216,118,102015,5,2,0:0:0:0:
106,317,105896,6,0,L|94:190,1,96,0|0,0:0|0:0,0:0:0:0:
92,164,106343,1,0,0:0:0:0:
247,239,106791,2,0,L|370:251,1,96,0|0,0:0|0:0,0:0:0:0:
400,254,107239,1,0,0:0:0:0:
456,261,107388,6,0,B|473:232|473:232|465:157,1,96,0|0,0:0|0:0,0:0:0:0:
376,98,107985,2,0,L|379:147,1,48,0|0,0:0|0:0,0:0:0:0:
330,176,108284,2,0,B|323:238|323:238|340:267,1,96,0|0,0:0|0:0,0:0:0:0:
413,356,108881,1,0,0:0:0:0:
356,365,109030,1,0,0:0:0:0:
299,374,109179,5,0,0:0:0:0:
196,321,109478,2,0,P|188:260|165:215,1,96,0|0,0:0|0:0,0:0:0:0:
142,180,109925,1,0,0:0:0:0:
314,195,110373,2,0,P|357:162|384:120,1,96,0|0,0:0|0:0,0:0:0:0:
409,78,110821,1,0,0:0:0:0:
237,99,111269,6,0,L|130:91,1,96,0|0,0:0|0:0,0:0:0:0:
83,87,111717,1,0,0:0:0:0:
201,313,112164,2,0,P|206:265|190:221,1,96,0|0,0:0|0:0,0:0:0:0:
155,174,112612,1,0,0:0:0:0:
314,241,113060,6,0,L|443:232,1,96,0|0,0:0|0:0,0:0:0:0:
467,226,113508,1,0,0:0:0:0:
329,122,113955,2,0,L|228:132,1,96,0|0,0:0|0:0,0:0:0:0:
176,139,114403,1,0,0:0:0:0:
211,183,114552,6,0,L|224:253,1,48,0|0,0:0|0:0,0:0:0:0:
177,269,114851,2,0,L|168:316,1,48,0|0,0:0|0:0,0:0:0:0:
202,362,115149,1,0,0:0:0:0:
202,362,115299,1,0,0:0:0:0:
254,337,115448,6,0,L|316:326,1,48,0|0,0:0|0:0,0:0:0:0:
355,346,115746,2,0,L|402:354,1,48,0|0,0:0|0:0,0:0:0:0:
459,343,116045,1,0,0:0:0:0:
459,343,116194,1,0,0:0:0:0:
427,278,116343,5,2,0:0:0:0:
303,203,116642,2,0,L|161:217,1,120,0|0,0:0|0:0,0:0:0:0:
111,222,117090,1,0,0:0:0:0:
136,154,117239,2,0,L|142:84,1,60,2|0,0:0|0:0,0:0:0:0:
137,22,117537,2,0,P|194:46|211:114,1,120,0|0,0:0|0:0,0:0:0:0:
220,169,117985,1,0,0:0:0:0:
278,211,118134,2,0,L|347:202,1,60,2|0,0:0|0:0,0:0:0:0:
397,243,118433,6,0,L|366:113,1,120,0|0,0:0|0:0,0:0:0:0:
346,57,118881,1,0,0:0:0:0:
296,109,119030,2,0,L|236:131,1,60,2|0,0:0|0:0,0:0:0:0:
189,181,119328,2,0,L|46:165,1,120,0|0,0:0|0:0,0:0:0:0:
22,112,119776,1,0,0:0:0:0:
82,73,119925,2,0,L|144:81,1,60,2|0,0:0|0:0,0:0:0:0:
211,60,120224,6,0,B|281:68|281:68|337:53,1,120,0|0,0:0|0:0,0:0:0:0:
398,34,120672,1,0,0:0:0:0:
440,91,120821,2,0,L|453:157,1,60,2|0,0:0|0:0,0:0:0:0:
461,221,121119,2,0,L|329:212,1,120,0|0,0:0|0:0,0:0:0:0:
303,274,121567,1,0,0:0:0:0:
255,219,121717,6,0,L|242:152,1,60,2|0,0:0|0:0,0:0:0:0:
215,93,122015,2,0,P|193:73|152:52,1,60,0|2,0:0|0:0,0:0:0:0:
99,30,122314,1,0,0:0:0:0:
99,30,122463,1,0,0:0:0:0:
58,89,122612,2,0,L|70:155,1,60,2|0,0:0|0:0,0:0:0:0:
82,219,122911,2,0,P|82:254|74:297,1,60,0|2,0:0|0:0,0:0:0:0:
63,349,123209,1,0,0:0:0:0:
63,349,123358,1,0,0:0:0:0:
131,324,123508,6,0,L|196:333,2,60,2|0|0,0:0|0:0|0:0,0:0:0:0:
144,253,123955,2,0,L|153:188,2,60,2|0|0,0:0|0:0|0:0,0:0:0:0:
216,258,124403,2,0,L|281:267,2,60,2|0|0,0:0|0:0|0:0,0:0:0:0:
229,187,124850,2,0,L|238:122,2,60,2|0|0,0:0|0:0|0:0,0:0:0:0:
314,168,125299,6,0,L|402:164,1,71.9999978027344,2|0,0:0|0:0,0:0:0:0:
471,156,125597,1,0,0:0:0:0:
439,236,125746,2,0,L|431:315,1,71.9999978027344,2|0,0:0|0:0,0:0:0:0:
362,360,126045,1,0,0:0:0:0:
284,295,126194,6,0,P|251:283|187:276,1,83.9999974365235,2|0,0:0|0:0,0:0:0:0:
101,280,126493,1,0,0:0:0:0:
147,190,126642,2,0,P|141:148|127:108,1,83.9999974365235,2|0,0:0|0:0,0:0:0:0:
81,19,126940,1,0,0:0:0:0:
181,32,127090,6,0,L|275:46,1,83.9999974365235,2|2,0:0|0:0,0:0:0:0:
363,56,127388,1,2,0:0:0:0:
298,133,127537,6,0,L|281:226,1,83.9999974365235,2|2,0:0|0:0,0:0:0:0:
268,315,127836,1,2,0:0:0:0:
360,276,127985,6,0,L|451:268,1,83.9999974365235,2|2,0:0|0:0,0:0:0:0:
507,189,128284,1,2,0:0:0:0:
410,161,128433,5,2,0:0:0:0:
463,347,128582,1,2,0:0:0:0:
416,189,128731,1,2,0:0:0:0:
368,379,128881,5,2,0:0:0:0:
120,343,130672,6,0,L|149:170,1,155.999992858887,2|0,0:0|0:0,0:0:0:0:
164,68,131119,6,0,L|269:92,1,102.000001945496,0|0,0:0|0:0,0:0:0:0:
368,26,131418,1,0,0:0:0:0:
427,98,131567,6,0,L|411:274,1,155.999992858887,8|0,0:0|0:0,0:0:0:0:
346,319,132015,2,0,L|308:244,1,77.9999964294435,2|0,0:0|0:0,0:0:0:0:
259,170,132314,1,2,0:0:0:0:
216,284,132463,6,0,B|159:295|159:295|86:287|86:287|12:300,1,204.000003890991,2|0,0:0|0:0,0:0:0:0:
76,193,132911,2,0,P|90:155|86:72,1,102.000001945496,0|0,0:0|0:0,0:0:0:0:
11,2,133209,1,2,0:0:0:0:
115,64,133358,6,0,L|230:45,1,102.000001945496,8|0,0:0|0:0,0:0:0:0:
336,25,133657,1,0,0:0:0:0:
301,142,133806,1,0,0:0:0:0:
451,70,133955,1,0,0:0:0:0:
329,134,134105,1,2,0:0:0:0:
490,222,134254,6,0,L|308:213,1,155.999992858887,2|0,0:0|0:0,0:0:0:0:
265,278,134702,2,0,L|182:273,1,77.9999964294435,0|0,0:0|0:0,0:0:0:0:
111,328,135000,1,0,0:0:0:0:
52,220,135149,6,0,L|70:104,1,102.000001945496,8|0,0:0|0:0,0:0:0:0:
67,119,135373,1,0,0:0:0:0:
67,119,135448,1,0,0:0:0:0:
177,172,135597,2,0,L|294:162,1,102.000001945496,0|0,0:0|0:0,0:0:0:0:
400,149,135896,1,2,0:0:0:0:
356,231,136045,6,0,B|341:351|341:351|389:341,1,155.999992858887,2|0,0:0|0:0,0:0:0:0:
441,276,136493,2,0,L|458:105,1,155.999992858887,0|2,0:0|0:0,0:0:0:0:
387,57,136940,6,0,P|341:68|296:65,1,77.9999964294435,8|0,0:0|0:0,0:0:0:0:
144,21,137239,2,0,P|183:26|222:33,1,77.9999964294435,0|0,0:0|0:0,0:0:0:0:
184,206,137537,2,0,P|169:179|169:125,1,77.9999964294435,2|0,0:0|0:0,0:0:0:0:
314,171,137836,2,0,P|253:150|317:131,1,155.999992858887,2|0,0:0|0:0,0:0:0:0:
411,179,138284,6,0,P|397:221|333:267,1,102.000001945496,0|0,0:0|0:0,0:0:0:0:
238,295,138582,1,0,0:0:0:0:
133,231,138731,2,0,L|149:125,1,102.000001945496,8|0,0:0|0:0,0:0:0:0:
78,28,139030,1,0,0:0:0:0:
148,130,139179,2,0,B|219:160|219:160|365:124,1,204.000003890991,2|0,0:0|0:0,0:0:0:0:
421,35,139627,6,0,P|471:130|433:223,1,204.000003890991,2|0,0:0|0:0,0:0:0:0:
339,285,140075,2,0,L|232:269,1,102.000001945496,0|0,0:0|0:0,0:0:0:0:
238,269,140299,1,0,0:0:0:0:
238,269,140373,1,0,0:0:0:0:
131,330,140522,5,8,0:0:0:0:
67,224,140672,2,0,L|84:110,1,102.000001945496,0|0,0:0|0:0,0:0:0:0:
21,16,140970,1,0,0:0:0:0:
192,117,141119,1,0,0:0:0:0:
38,28,141269,1,2,0:0:0:0:
249,40,141418,6,0,P|281:132|249:189,1,155.999992858887,2|0,0:0|0:0,0:0:0:0:
191,247,141866,2,0,L|215:334,1,77.9999964294435,0|0,0:0|0:0,0:0:0:0:
295,362,142164,1,0,0:0:0:0:
347,250,142314,6,0,L|366:81,1,102.000001945496,8|0,0:0|0:0,0:0:0:0:
461,82,142612,1,0,0:0:0:0:
351,27,142761,2,0,L|223:37,1,102.000001945496,0|0,0:0|0:0,0:0:0:0:
126,42,143060,1,2,0:0:0:0:
131,135,143209,6,0,L|143:310,1,155.999992858887,2|0,0:0|0:0,0:0:0:0:
68,349,143657,1,0,0:0:0:0:
280,234,143955,1,2,0:0:0:0:
359,284,144105,2,0,B|447:306|447:306|524:279,1,155.999992858887,8|2,0:0|0:0,0:0:0:0:
445,215,144552,2,0,L|386:151,1,77.9999964294435,8|0,0:0|0:0,0:0:0:0:
368,66,144851,1,2,0:0:0:0:
279,220,145000,2,0,L|140:214,1,77.9999964294435,2|0,0:0|0:0,0:0:0:0:
102,290,145299,5,0,0:0:0:0:
63,174,145448,2,0,L|77:63,2,102.000001945496,0|0|0,0:0|0:0|0:0,0:0:0:0:
151,142,145896,6,0,L|324:108,1,155.999992858887,8|0,0:0|0:0,0:0:0:0:
460,220,146343,2,0,P|383:228|310:205,1,155.999992858887,2|2,0:0|0:0,0:0:0:0:
210,132,146791,6,0,P|158:113|213:150,1,204.000003890991,2|0,0:0|0:0,0:0:0:0:
259,53,147239,2,0,P|207:27|144:22,1,102.000001945496,0|0,0:0|0:0,0:0:0:0:
43,38,147537,1,2,0:0:0:0:
154,219,147687,6,0,P|175:172|181:122,1,102.000001945496,8|0,0:0|0:0,0:0:0:0:
59,138,147985,1,0,0:0:0:0:
249,221,148134,1,0,0:0:0:0:
82,147,148284,1,0,0:0:0:0:
226,211,148433,1,2,0:0:0:0:
122,52,148582,6,0,L|130:229,1,155.999992858887,2|0,0:0|0:0,0:0:0:0:
79,287,149030,2,0,P|126:301|169:293,1,77.9999964294435,0|0,0:0|0:0,0:0:0:0:
245,279,149328,1,0,0:0:0:0:
353,220,149478,6,0,P|405:199|471:209,1,102.000001945496,8|0,0:0|0:0,0:0:0:0:
450,201,149701,1,0,0:0:0:0:
450,201,149776,1,0,0:0:0:0:
289,358,149925,2,0,P|243:366|179:348,1,102.000001945496,0|0,0:0|0:0,0:0:0:0:
79,299,150224,1,2,0:0:0:0:
155,245,150373,6,0,B|191:213|191:213|170:70,1,155.999992858887,2|0,0:0|0:0,0:0:0:0:
255,56,150821,2,0,L|284:227,1,155.999992858887,0|2,0:0|0:0,0:0:0:0:
233,290,151269,6,0,L|205:376,1,77.9999964294435,8|0,0:0|0:0,0:0:0:0:
117,222,151567,2,0,P|125:260|147:293,1,77.9999964294435,0|0,0:0|0:0,0:0:0:0:
81,53,151866,2,0,P|72:90|51:123,1,77.9999964294435,2|0,0:0|0:0,0:0:0:0:
234,0,152164,2,0,P|220:82|179:162,1,155.999992858887,2|0,0:0|0:0,0:0:0:0:
92,223,152612,6,0,P|92:278|105:342,2,102.000001945496,0|0|0,0:0|0:0|0:0,0:0:0:0:
209,258,153060,2,0,L|334:283,1,102.000001945496,8|0,0:0|0:0,0:0:0:0:
429,301,153358,1,0,0:0:0:0:
391,183,153508,2,0,B|356:65|356:65|318:157,1,204.000003890991,2|2,0:0|0:0,0:0:0:0:
276,27,153955,6,0,B|216:163|216:163|236:228,1,204.000003890991,2|0,0:0|0:0,0:0:0:0:
147,304,154403,2,0,L|112:190,1,102.000001945496,0|0,0:0|0:0,0:0:0:0:
117,206,154627,1,0,0:0:0:0:
117,206,154702,1,0,0:0:0:0:
330,168,154851,6,0,P|288:198|239:208,1,102.000001945496,8|0,0:0|0:0,0:0:0:0:
245,85,155149,1,0,0:0:0:0:
329,273,155299,2,0,L|311:380,2,102.000001945496,0|0|2,0:0|0:0|0:0,0:0:0:0:
415,236,155746,6,0,L|388:63,1,155.999992858887,2|0,0:0|0:0,0:0:0:0:
308,126,156194,2,0,L|217:110,1,77.9999964294435,0|0,0:0|0:0,0:0:0:0:
138,95,156493,1,0,0:0:0:0:
177,210,156642,6,0,L|192:339,1,102.000001945496,8|0,0:0|0:0,0:0:0:0:
299,362,156940,1,0,0:0:0:0:
353,251,157090,2,0,L|341:149,1,102.000001945496,0|0,0:0|0:0,0:0:0:0:
424,59,157388,1,2,0:0:0:0:
260,213,157537,6,0,P|126:214|161:92,1,300,2|0,0:0|0:0,0:0:0:0:
339,86,158433,2,0,P|391:141|364:32,1,300,8|0,0:0|0:0,0:0:0:0:
230,125,159328,5,2,0:0:0:0:
