osu file format v14

[General]
AudioFilename: Adventure Club - Fade (feat Zak Waters).mp3
AudioLeadIn: 0
PreviewTime: 57911
Countdown: 0
SampleSet: Soft
StackLeniency: 0.7
Mode: 0
LetterboxInBreaks: 0
WidescreenStoryboard: 0

[Editor]
Bookmarks: 14976,88409,102737,131394,160050
DistanceSpacing: 1.2
BeatDivisor: 3
GridSize: 4
TimelineZoom: 0.7999994

[Metadata]
Title:Fade (feat. Zak Waters)
TitleUnicode:Fade (feat. Zak Waters)
Artist:Adventure Club
ArtistUnicode:Adventure Club
Creator:Come[Back]Home
Version:Hyper
Source:
Tags:electro cbh dubstep melodic wub Strategas Max -M4x Gero red blue dance
BeatmapID:1307531
BeatmapSetID:416426

[Difficulty]
HPDrainRate:6
CircleSize:4
OverallDifficulty:6
ApproachRate:8.7
SliderMultiplier:1.6
SliderTickRate:1

[Events]
//Background and Video events
0,0,"BG.jpg",0,0
//Break Periods
2,30573,44057
2,87887,89728
2,102215,105251
//Storyboard Layer 0 (Background)
//Storyboard Layer 1 (Fail)
//Storyboard Layer 2 (Pass)
//Storyboard Layer 3 (Foreground)
//Storyboard Sound Samples

[TimingPoints]
1717,447.761194029851,4,2,0,70,1,0
2164,-133.333333333333,4,2,1,70,0,0
16045,-133.333333333333,4,2,1,50,0,0
30373,-166.666666666667,4,2,1,50,0,0
44702,-166.666666666667,4,2,1,30,0,0
48284,-166.666666666667,4,2,1,40,0,0
48731,-166.666666666667,4,2,1,40,0,0
49627,-166.666666666667,4,2,1,40,0,0
50522,-166.666666666667,4,2,1,40,0,0
51418,-166.666666666667,4,2,1,40,0,0
51866,-166.666666666667,4,2,1,50,0,0
52314,-142.857142857143,4,2,1,60,0,0
52761,-125,4,2,1,60,0,0
53209,-111.111111111111,4,2,1,60,0,0
53657,-100,4,2,1,60,0,0
54105,-90.9090909090909,4,2,1,60,0,0
54552,-83.3333333333333,4,2,1,60,0,0
55000,-76.9230769230769,4,2,1,60,0,0
55448,-76.9230769230769,4,2,1,70,0,0
59030,-76.9230769230769,4,2,1,70,0,1
59478,-66.6666666666667,4,2,1,70,0,1
62612,-76.9230769230769,4,2,1,70,0,1
63508,-66.6666666666667,4,2,1,70,0,1
66194,-100,4,2,1,70,0,1
67090,-66.6666666666667,4,2,1,70,0,1
69776,-76.9230769230769,4,2,1,70,0,1
70672,-66.6666666666667,4,2,1,70,0,1
73358,-76.9230769230769,4,2,1,70,0,1
73806,-66.6666666666667,4,2,1,70,0,1
76940,-76.9230769230769,4,2,1,70,0,1
77836,-66.6666666666667,4,2,1,70,0,1
80522,-100,4,2,1,70,0,1
81418,-66.6666666666667,4,2,1,70,0,1
84105,-76.9230769230769,4,2,1,70,0,1
85000,-66.6666666666667,4,2,1,70,0,1
87687,-100,4,2,1,30,0,0
88881,-100,4,2,1,50,0,0
89478,-100,4,2,1,30,0,0
90373,-100,4,2,1,55,0,0
91269,-83.3333333333333,4,2,1,55,0,0
100224,-83.3333333333333,4,2,1,40,0,0
101119,-83.3333333333333,4,2,1,25,0,0
105597,-125,4,2,1,30,0,0
116343,-100,4,2,1,40,0,0
123508,-100,4,2,1,50,0,0
125299,-83.3333333333333,4,2,1,60,0,0
126194,-71.4285714285714,4,2,1,60,0,0
127090,-71.4285714285714,4,2,1,70,0,0
130672,-76.9230769230769,4,2,1,70,0,1
131119,-58.8235294117647,4,2,1,70,0,1
131567,-76.9230769230769,4,2,1,70,0,1
132463,-58.8235294117647,4,2,1,70,0,1
134254,-76.9230769230769,4,2,1,70,0,1
135149,-58.8235294117647,4,2,1,70,0,1
136045,-76.9230769230769,4,2,1,70,0,1
138284,-58.8235294117647,4,2,1,70,0,1
141418,-76.9230769230769,4,2,1,70,0,1
142314,-58.8235294117647,4,2,1,70,0,1
143209,-76.9230769230769,4,2,1,70,0,1
145299,-58.8235294117647,4,2,1,70,0,1
145896,-76.9230769230769,4,2,1,70,0,1
146791,-58.8235294117647,4,2,1,70,0,1
148582,-76.9230769230769,4,2,1,70,0,1
149478,-58.8235294117647,4,2,1,70,0,1
150373,-76.9230769230769,4,2,1,70,0,1
152612,-58.8235294117647,4,2,1,70,0,1
155746,-76.9230769230769,4,2,1,70,0,1
156642,-58.8235294117647,4,2,1,70,0,1
157537,-100,4,2,1,70,0,1
157985,-100,4,2,1,5,0,1
158433,-100,4,2,1,70,0,1
158881,-100,4,2,1,5,0,1
159328,-100,4,2,1,70,0,0

[Colours]
Combo1 : 192,192,192
Combo2 : 170,85,0
Combo3 : 128,128,128
Combo4 : 128,64,64

[HitObjects]
108,330,16045,6,0,L|114:186,1,120.000004577637,2|0,0:0|0:0,0:0:0:0:
84,143,16717,1,0,0:0:0:0:
194,269,16940,2,0,L|269:258,1,60.0000022888184,8|0,0:0|0:0,0:0:0:0:
307,307,17388,1,0,0:0:0:0:
379,142,17612,1,2,0:0:0:0:
439,342,17836,6,0,L|430:379,3,30.0000011444092,2|0|0|0,0:0|0:0|0:0|0:0,0:0:0:0:
317,223,18284,2,0,L|309:193,3,30.0000011444092,2|0|0|0,0:0|0:0|0:0|0:0,0:0:0:0:
300,159,18731,1,8,0:0:0:0:
275,320,18955,1,0,0:0:0:0:
382,150,19179,1,0,0:0:0:0:
235,228,19403,1,0,0:0:0:0:
417,323,19627,6,0,B|442:284|442:284|433:203,1,120.000004577637,2|0,0:0|0:0,0:0:0:0:
420,139,20299,1,0,0:0:0:0:
282,293,20522,2,0,P|259:313|220:327,1,60.0000022888184,8|0,0:0|0:0,0:0:0:0:
135,151,20970,2,0,P|163:161|188:177,1,60.0000022888184,0|2,0:0|0:0,0:0:0:0:
81,325,21418,5,2,0:0:0:0:
78,307,21530,1,0,0:0:0:0:
76,289,21642,1,0,0:0:0:0:
74,271,21754,1,0,0:0:0:0:
72,253,21866,2,0,L|68:220,3,30.0000011444092,2|0|0|0,0:0|0:0|0:0|0:0,0:0:0:0:
66,186,22314,1,8,0:0:0:0:
228,239,22537,1,2,0:0:0:0:
87,193,22761,1,0,0:0:0:0:
266,151,22985,1,8,0:0:0:0:
192,345,23209,6,0,L|186:212,1,120.000004577637,2|0,0:0|0:0,0:0:0:0:
182,152,23881,1,0,0:0:0:0:
332,284,24105,2,0,L|263:272,1,60.0000022888184,8|0,0:0|0:0,0:0:0:0:
202,258,24552,1,0,0:0:0:0:
318,109,24776,1,2,0:0:0:0:
397,318,25000,6,0,L|392:351,3,30.0000011444092,2|0|0|0,0:0|0:0|0:0|0:0,0:0:0:0:
359,363,25448,1,2,0:0:0:0:
341,357,25560,1,0,0:0:0:0:
324,351,25672,1,0,0:0:0:0:
307,345,25784,1,0,0:0:0:0:
290,339,25896,2,0,L|149:348,1,120.000004577637,8|0,0:0|0:0,0:0:0:0:
98,348,26567,1,0,0:0:0:0:
142,175,26791,6,0,B|162:237|162:237|136:286,1,120.000004577637,2|0,0:0|0:0,0:0:0:0:
84,229,27463,1,0,0:0:0:0:
258,276,27687,2,0,L|329:260,1,60.0000022888184,8|0,0:0|0:0,0:0:0:0:
384,287,28134,1,0,0:0:0:0:
298,146,28358,1,2,0:0:0:0:
443,180,28582,6,0,L|394:190,3,30.0000011444092,2|0|0|0,0:0|0:0|0:0|0:0,0:0:0:0:
377,192,29030,2,0,L|327:187,1,30.0000011444092,2|0,0:0|0:0,0:0:0:0:
312,200,29254,2,0,L|282:202,1,30.0000011444092,0|0,0:0|0:0,0:0:0:0:
248,190,29478,1,8,0:0:0:0:
306,343,29702,2,0,P|317:304|315:272,1,60.0000022888184,2|0,0:0|0:0,0:0:0:0:
246,299,30149,1,2,0:0:0:0:
438,262,30373,1,2,0:0:0:0:
147,328,44702,6,0,L|136:227,1,95.9999970703126,2|0,0:0|0:0,0:0:0:0:
35,288,45597,2,0,L|24:187,1,95.9999970703126,2|0,0:0|0:0,0:0:0:0:
365,56,46493,2,0,L|376:157,1,95.9999970703126,2|0,0:0|0:0,0:0:0:0:
477,96,47388,2,0,L|488:197,1,95.9999970703126,2|0,0:0|0:0,0:0:0:0:
431,292,48284,6,0,B|399:301|399:301|361:299|361:299|327:308,1,95.9999970703126,2|2,0:0|0:0,0:0:0:0:
343,78,49179,2,0,B|352:110|352:110|350:148|350:148|356:171,1,95.9999970703126,2|2,0:0|0:0,0:0:0:0:
134,140,50075,2,0,B|166:131|166:131|204:133|204:133|238:124,1,95.9999970703126,2|2,0:0|0:0,0:0:0:0:
222,354,50970,2,0,B|213:322|213:322|215:284|215:284|208:260,1,95.9999970703126,2|2,0:0|0:0,0:0:0:0:
320,290,51866,6,0,P|366:286|407:266,1,63.9999980468751,2|0,0:0|0:0,0:0:0:0:
428,253,52314,6,0,P|434:209|423:160,1,74.6666643880209,2|0,0:0|0:0,0:0:0:0:
391,133,52761,6,0,P|375:97|379:35,1,85.3333333333333,2|0,0:0|0:0,0:0:0:0:
424,6,53209,6,0,L|319:34,1,95.9999970703126,2|0,0:0|0:0,0:0:0:0:
257,46,53657,6,0,P|294:82|303:156,1,106.666666666667,2|0,0:0|0:0,0:0:0:0:
268,207,54105,6,0,P|259:250|316:324,1,117.333336914063,2|0,0:0|0:0,0:0:0:0:
377,340,54552,6,0,P|415:305|451:218,1,127.99999609375,2|0,0:0|0:0,0:0:0:0:
436,140,55000,6,0,P|384:160|297:121,1,138.666660319011,2|0,0:0|0:0,0:0:0:0:
232,72,55448,6,0,P|218:30|218:-2,2,69.3333301595054,2|2|2,0:0|0:0|0:0,0:0:0:0:
152,185,55896,2,0,P|166:143|166:111,2,69.3333301595054,2|2|2,0:0|0:0|0:0,0:0:0:0:
105,253,56343,1,2,0:0:0:0:
188,258,56493,1,2,0:0:0:0:
270,263,56642,1,2,0:0:0:0:
225,333,56791,2,0,P|193:341|139:326,2,69.3333301595054,2|2|2,0:0|0:0|0:0,0:0:0:0:
369,211,57239,1,2,0:0:0:0:
121,337,59030,6,0,L|112:192,1,138.666660319011,2|0,0:0|0:0,0:0:0:0:
112,198,59478,6,0,L|281:237,1,160.000006103516,0|0,0:0|0:0,0:0:0:0:
334,164,59925,6,0,L|238:179,2,80.0000030517579,8|0|0,0:0|0:0|0:0,0:0:0:0:
264,330,60373,2,0,L|168:345,2,80.0000030517579,0|0|2,0:0|0:0|0:0,0:0:0:0:
358,311,60821,6,0,L|446:294,1,80.0000030517579,6|0,0:0|0:0,0:0:0:0:
364,138,61119,2,0,P|368:177|386:212,1,80.0000030517579,0|0,0:0|0:0,0:0:0:0:
484,73,61418,2,0,P|480:112|462:148,1,80.0000030517579,0|2,0:0|0:0,0:0:0:0:
257,81,61717,6,0,P|238:45|234:6,2,80.0000030517579,8|0|0,0:0|0:0|0:0,0:0:0:0:
132,190,62164,2,0,P|128:229|109:264,2,80.0000030517579,6|0|0,0:0|0:0|0:0,0:0:0:0:
50,206,62612,6,0,L|289:174,1,207.999990478516,6|0,0:0|0:0,0:0:0:0:
322,229,63209,1,0,0:0:0:0:
332,146,63358,1,0,0:0:0:0:
351,307,63508,6,0,P|297:309|256:281,2,80.0000030517579,8|0|0,0:0|0:0|0:0,0:0:0:0:
203,195,63955,2,0,P|172:220|157:256,2,80.0000030517579,0|0|2,0:0|0:0|0:0,0:0:0:0:
292,153,64403,5,6,0:0:0:0:
385,132,64552,1,0,0:0:0:0:
479,111,64702,1,0,0:0:0:0:
443,200,64851,2,0,L|422:283,1,80.0000030517579,0|0,0:0|0:0,0:0:0:0:
390,367,65149,1,2,0:0:0:0:
259,243,65299,6,0,L|363:233,2,80.0000030517579,8|0|0,0:0|0:0|0:0,0:0:0:0:
105,101,65746,2,0,L|209:91,2,80.0000030517579,6|0|4,0:0|0:0|0:0,0:0:0:0:
179,301,66194,6,0,L|166:246,1,53.3333333333333,6|0,0:0|0:0,0:0:0:0:
147,176,66493,1,0,0:0:0:0:
299,258,66642,2,0,L|368:265,1,53.3333333333333,0|0,0:0|0:0,0:0:0:0:
426,272,66940,1,0,0:0:0:0:
331,95,67090,6,0,L|343:192,2,80.0000030517579,8|0|0,0:0|0:0|0:0,0:0:0:0:
156,218,67537,2,0,P|174:179|222:150,2,80.0000030517579,0|0|0,0:0|0:0|0:0,0:0:0:0:
259,324,67985,6,0,P|257:284|247:246,1,80.0000030517579,6|0,0:0|0:0,0:0:0:0:
299,164,68284,2,0,P|300:124|310:85,1,80.0000030517579,0|0,0:0|0:0,0:0:0:0:
237,22,68582,2,0,L|146:29,1,80.0000030517579,0|0,0:0|0:0,0:0:0:0:
220,200,68881,6,0,L|200:112,2,80.0000030517579,8|0|0,0:0|0:0|0:0,0:0:0:0:
360,353,69328,2,0,L|380:265,2,80.0000030517579,4|0|2,0:0|0:0|0:0,0:0:0:0:
292,303,69776,6,0,B|156:323|156:323|70:288,1,207.999990478516,6|0,0:0|0:0,0:0:0:0:
15,260,70373,1,0,0:0:0:0:
81,210,70522,1,0,0:0:0:0:
155,148,70672,6,0,L|141:61,2,80.0000030517579,8|0|0,0:0|0:0|0:0,0:0:0:0:
240,104,71119,2,0,L|350:131,1,80.0000030517579,0|0,0:0|0:0,0:0:0:0:
411,146,71418,1,0,0:0:0:0:
334,203,71567,6,0,P|312:240|304:284,1,80.0000030517579,6|0,0:0|0:0,0:0:0:0:
234,342,71866,2,0,P|213:308|204:269,1,80.0000030517579,0|0,0:0|0:0,0:0:0:0:
213,173,72164,2,0,P|233:139|242:100,1,80.0000030517579,0|2,0:0|0:0,0:0:0:0:
146,104,72463,5,8,0:0:0:0:
118,195,72612,1,2,0:0:0:0:
91,286,72761,1,2,0:0:0:0:
26,214,72911,2,0,L|8:37,1,160.000006103516,12|6,0:0|0:0,0:0:0:0:
9,54,73358,6,0,L|150:81,1,138.666660319011,2|0,0:0|0:0,0:0:0:0:
214,147,73806,6,0,L|416:107,1,160.000006103516,0|0,0:0|0:0,0:0:0:0:
453,165,74254,6,0,L|441:264,2,80.0000030517579,8|0|0,0:0|0:0|0:0,0:0:0:0:
291,230,74702,2,0,P|323:207|361:194,2,80.0000030517579,0|0|2,0:0|0:0|0:0,0:0:0:0:
177,99,75149,6,0,P|214:112|246:135,1,80.0000030517579,6|0,0:0|0:0,0:0:0:0:
150,271,75448,2,0,P|154:232|171:196,1,80.0000030517579,0|0,0:0|0:0,0:0:0:0:
77,57,75746,2,0,P|94:93|98:133,1,80.0000030517579,0|2,0:0|0:0,0:0:0:0:
25,197,76045,5,8,0:0:0:0:
116,225,76194,1,0,0:0:0:0:
191,165,76343,1,0,0:0:0:0:
164,72,76493,2,0,L|78:93,2,80.0000030517579,6|0|0,0:0|0:0|0:0,0:0:0:0:
227,18,76940,6,0,L|388:34,1,138.666660319011,6|0,0:0|0:0,0:0:0:0:
431,82,77388,1,0,0:0:0:0:
413,163,77537,1,0,0:0:0:0:
394,244,77687,1,0,0:0:0:0:
320,182,77836,6,0,L|219:197,2,80.0000030517579,8|0|0,0:0|0:0|0:0,0:0:0:0:
280,21,78284,2,0,L|267:100,2,80.0000030517579,0|0|2,0:0|0:0|0:0,0:0:0:0:
111,68,78731,6,0,L|191:57,1,80.0000030517579,6|0,0:0|0:0,0:0:0:0:
176,152,79030,2,0,P|169:191|153:227,1,80.0000030517579,0|0,0:0|0:0,0:0:0:0:
115,377,79328,2,0,P|99:341|93:302,1,80.0000030517579,0|2,0:0|0:0,0:0:0:0:
257,303,79627,6,0,L|345:316,2,80.0000030517579,8|0|0,0:0|0:0|0:0,0:0:0:0:
155,129,80075,2,0,P|116:152|83:190,2,80.0000030517579,6|0|4,0:0|0:0|0:0,0:0:0:0:
286,238,80522,6,0,L|212:228,1,53.3333333333333,6|0,0:0|0:0,0:0:0:0:
158,220,80821,1,0,0:0:0:0:
250,26,80970,2,0,L|260:100,1,53.3333333333333,0|0,0:0|0:0,0:0:0:0:
267,153,81269,1,0,0:0:0:0:
333,319,81418,6,0,P|296:334|247:335,2,80.0000030517579,8|0|0,0:0|0:0|0:0,0:0:0:0:
71,223,81866,2,0,P|98:224|155:244,2,80.0000030517579,0|0|0,0:0|0:0|0:0,0:0:0:0:
208,311,82314,6,0,P|233:279|244:235,1,80.0000030517579,6|0,0:0|0:0,0:0:0:0:
213,150,82612,2,0,P|188:118|177:80,1,80.0000030517579,0|0,0:0|0:0,0:0:0:0:
273,80,82911,1,0,0:0:0:0:
367,94,83060,1,0,0:0:0:0:
461,108,83209,5,8,0:0:0:0:
404,185,83358,1,0,0:0:0:0:
347,263,83508,1,0,0:0:0:0:
441,278,83657,2,0,L|521:262,2,80.0000030517579,4|0|2,0:0|0:0|0:0,0:0:0:0:
331,356,84105,6,0,P|261:309|259:226,1,138.666660319011,6|0,0:0|0:0,0:0:0:0:
388,178,84552,2,0,P|382:212|369:244,1,69.3333301595054,0|0,0:0|0:0,0:0:0:0:
304,192,84851,1,0,0:0:0:0:
175,278,85000,6,0,P|181:312|197:356,2,80.0000030517579,8|0|0,0:0|0:0|0:0,0:0:0:0:
131,106,85448,2,0,P|125:140|110:187,2,80.0000030517579,0|0|0,0:0|0:0|0:0,0:0:0:0:
307,130,85896,6,0,P|274:142|231:152,1,80.0000030517579,6|0,0:0|0:0,0:0:0:0:
407,67,86194,2,0,P|425:114|427:148,1,80.0000030517579,0|0,0:0|0:0,0:0:0:0:
338,288,86493,2,0,P|343:248|359:212,1,80.0000030517579,0|2,0:0|0:0,0:0:0:0:
436,268,86791,5,8,0:0:0:0:
411,360,86940,1,2,0:0:0:0:
317,382,87090,1,2,0:0:0:0:
247,202,87239,5,12,0:0:0:0:
272,110,87388,1,2,0:0:0:0:
366,88,87538,1,6,0:0:0:0:
347,184,87687,5,2,0:0:0:0:
130,316,90373,6,0,L|122:186,1,106.666666666667,8|2,0:0|0:0,0:0:0:0:
277,231,90821,2,0,P|227:249|175:246,1,106.666666666667,8|2,0:0|0:0,0:0:0:0:
225,93,91269,6,0,P|224:124|217:156,1,63.9999980468751,2|0,0:0|0:0,0:0:0:0:
150,119,91567,1,0,0:0:0:0:
303,139,91717,2,0,L|375:130,1,63.9999980468751,0|0,0:0|0:0,0:0:0:0:
443,127,92015,1,0,0:0:0:0:
345,268,92164,6,0,L|273:277,1,63.9999980468751,8|0,0:0|0:0,0:0:0:0:
133,130,92463,2,0,P|162:137|194:165,1,63.9999980468751,0|0,0:0|0:0,0:0:0:0:
233,219,92761,1,0,0:0:0:0:
233,219,92911,1,0,0:0:0:0:
312,87,93060,6,0,P|336:67|367:59,1,63.9999980468751,2|0,0:0|0:0,0:0:0:0:
478,224,93358,2,0,P|449:217|417:189,1,63.9999980468751,0|0,0:0|0:0,0:0:0:0:
372,137,93657,1,0,0:0:0:0:
372,137,93806,1,0,0:0:0:0:
307,279,93955,6,0,L|317:365,1,63.9999980468751,8|0,0:0|0:0,0:0:0:0:
199,128,94254,2,0,L|189:214,1,63.9999980468751,0|0,0:0|0:0,0:0:0:0:
183,267,94552,1,0,0:0:0:0:
183,267,94702,1,0,0:0:0:0:
297,179,94851,6,0,P|335:103|322:41,1,127.99999609375,2|0,0:0|0:0,0:0:0:0:
211,96,95299,2,0,P|177:83|147:63,1,63.9999980468751,0|0,0:0|0:0,0:0:0:0:
94,21,95597,1,0,0:0:0:0:
32,219,95746,6,0,P|66:206|96:186,1,63.9999980468751,8|0,0:0|0:0,0:0:0:0:
271,310,96045,2,0,P|237:297|207:277,1,63.9999980468751,0|0,0:0|0:0,0:0:0:0:
156,231,96343,1,0,0:0:0:0:
156,231,96493,1,0,0:0:0:0:
324,99,96642,6,0,P|316:130|255:216,1,127.99999609375,2|0,0:0|0:0,0:0:0:0:
74,109,97090,2,0,L|157:103,1,63.9999980468751,0|0,0:0|0:0,0:0:0:0:
214,97,97388,1,0,0:0:0:0:
173,288,97537,6,0,P|159:259|152:227,1,63.9999980468751,8|0,0:0|0:0,0:0:0:0:
393,154,97836,2,0,P|406:125|413:93,1,63.9999980468751,0|0,0:0|0:0,0:0:0:0:
428,18,98134,1,0,0:0:0:0:
428,18,98284,1,0,0:0:0:0:
214,97,98433,6,0,P|253:102|358:85,1,127.99999609375,2|0,0:0|0:0,0:0:0:0:
477,214,98881,2,0,P|438:209|397:211,1,63.9999980468751,0|0,0:0|0:0,0:0:0:0:
337,214,99179,1,0,0:0:0:0:
412,369,99328,6,0,P|426:342|433:301,1,63.9999980468751,8|0,0:0|0:0,0:0:0:0:
257,144,99627,2,0,P|243:171|236:212,1,63.9999980468751,0|0,0:0|0:0,0:0:0:0:
231,280,99925,1,0,0:0:0:0:
231,280,100075,1,0,0:0:0:0:
136,119,100224,6,0,P|129:87|115:59,1,63.9999980468751,2|0,0:0|0:0,0:0:0:0:
312,8,100522,2,0,P|297:36|291:67,1,63.9999980468751,0|0,0:0|0:0,0:0:0:0:
282,144,100821,1,0,0:0:0:0:
282,144,100970,1,0,0:0:0:0:
470,98,101119,6,0,P|439:88|413:70,1,63.9999980468751,8|0,0:0|0:0,0:0:0:0:
295,232,101418,2,0,P|325:222|351:204,1,63.9999980468751,0|0,0:0|0:0,0:0:0:0:
415,160,101717,1,0,0:0:0:0:
415,160,101866,1,0,0:0:0:0:
369,325,102015,5,2,0:0:0:0:
176,322,105896,6,0,L|169:198,1,85.3333333333333,0|0,0:0|0:0,0:0:0:0:
171,185,106343,1,0,0:0:0:0:
307,254,106791,2,0,P|355:248|414:220,1,85.3333333333333,0|0,0:0|0:0,0:0:0:0:
436,213,107239,1,0,0:0:0:0:
429,162,107388,6,0,L|412:54,1,85.3333333333333,0|0,0:0|0:0,0:0:0:0:
322,35,107985,2,0,L|279:50,1,42.6666666666667,0|0,0:0|0:0,0:0:0:0:
234,68,108284,2,0,L|132:57,1,85.3333333333333,0|0,0:0|0:0,0:0:0:0:
80,134,108881,2,0,L|106:207,1,42.6666666666667,0|0,0:0|0:0,0:0:0:0:
83,224,109179,5,0,0:0:0:0:
167,282,109478,2,0,B|202:290|202:290|264:271,1,85.3333333333333,0|0,0:0|0:0,0:0:0:0:
296,256,109925,1,0,0:0:0:0:
213,126,110373,2,0,L|198:19,1,85.3333333333333,0|0,0:0|0:0,0:0:0:0:
158,12,110821,1,0,0:0:0:0:
110,158,111269,6,0,L|96:253,1,85.3333333333333,0|0,0:0|0:0,0:0:0:0:
87,292,111717,1,0,0:0:0:0:
227,229,112164,2,0,P|274:207|306:175,1,85.3333333333333,0|0,0:0|0:0,0:0:0:0:
333,146,112612,1,0,0:0:0:0:
238,24,113060,6,0,P|211:72|202:123,1,85.3333333333333,0|0,0:0|0:0,0:0:0:0:
196,151,113508,1,0,0:0:0:0:
315,247,113955,2,0,L|411:227,1,85.3333333333333,0|0,0:0|0:0,0:0:0:0:
447,213,114403,1,0,0:0:0:0:
406,182,114552,6,0,P|385:145|379:77,1,85.3333333333333,0|0,0:0|0:0,0:0:0:0:
294,41,115149,2,0,P|288:60|276:84,1,42.6666666666667,0|0,0:0|0:0,0:0:0:0:
248,122,115448,2,0,P|209:164|175:183,1,85.3333333333333,0|0,0:0|0:0,0:0:0:0:
83,185,116045,2,0,P|70:163|60:139,1,42.6666666666667,0|0,0:0|0:0,0:0:0:0:
41,87,116343,5,2,0:0:0:0:
164,120,116642,2,0,L|278:107,1,106.666666666667,0|0,0:0|0:0,0:0:0:0:
333,100,117090,1,0,0:0:0:0:
305,157,117239,1,2,0:0:0:0:
322,283,117537,2,0,L|430:266,1,106.666666666667,0|0,0:0|0:0,0:0:0:0:
491,259,117985,1,0,0:0:0:0:
450,209,118134,6,0,P|418:160|437:54,1,160,2|0,0:0|0:0,0:0:0:0:
479,21,118731,1,0,0:0:0:0:
479,21,118881,1,0,0:0:0:0:
430,63,119030,2,0,L|259:42,1,160,2|0,0:0|0:0,0:0:0:0:
218,80,119627,2,0,L|231:134,1,53.3333333333333,0|0,0:0|0:0,0:0:0:0:
276,175,119925,6,0,B|265:298|265:298|226:336,1,160,2|0,0:0|0:0,0:0:0:0:
185,359,120522,2,0,L|125:348,1,53.3333333333333,0|0,0:0|0:0,0:0:0:0:
91,299,120821,2,0,P|62:232|76:140,1,160,2|2,0:0|0:0,0:0:0:0:
109,94,121418,1,0,0:0:0:0:
137,151,121567,1,0,0:0:0:0:
196,174,121717,6,0,L|256:162,1,53.3333333333333,2|0,0:0|0:0,0:0:0:0:
299,125,122015,2,0,L|351:135,1,53.3333333333333,0|2,0:0|0:0,0:0:0:0:
410,109,122314,1,0,0:0:0:0:
410,109,122463,1,0,0:0:0:0:
452,156,122612,2,0,P|458:188|458:221,1,53.3333333333333,2|0,0:0|0:0,0:0:0:0:
402,239,122911,2,0,P|396:265|395:291,1,53.3333333333333,0|2,0:0|0:0,0:0:0:0:
398,355,123209,1,0,0:0:0:0:
398,355,123358,1,0,0:0:0:0:
340,326,123508,6,0,L|274:335,2,53.3333333333333,2|0|0,0:0|0:0|0:0,0:0:0:0:
310,269,123955,2,0,L|319:203,2,53.3333333333333,2|0|0,0:0|0:0|0:0,0:0:0:0:
257,232,124403,2,0,L|191:241,2,53.3333333333333,2|0|0,0:0|0:0|0:0,0:0:0:0:
227,175,124850,2,0,L|236:109,2,53.3333333333333,2|0|0,0:0|0:0|0:0,0:0:0:0:
155,144,125299,6,0,L|77:152,1,63.9999980468751,2|0,0:0|0:0,0:0:0:0:
14,157,125597,1,0,0:0:0:0:
55,221,125746,2,0,L|47:287,1,63.9999980468751,2|0,0:0|0:0,0:0:0:0:
39,361,126045,1,0,0:0:0:0:
122,329,126194,6,0,P|152:323|206:324,1,74.6666643880209,2|0,0:0|0:0,0:0:0:0:
270,373,126493,1,0,0:0:0:0:
344,323,126642,2,0,L|354:242,1,74.6666643880209,2|0,0:0|0:0,0:0:0:0:
362,159,126940,1,0,0:0:0:0:
277,191,127090,6,0,L|197:205,2,74.6666643880209,2|2|2,0:0|0:0|0:0,0:0:0:0:
201,47,127537,2,0,P|209:83|225:116,2,74.6666643880209,2|2|2,0:0|0:0|0:0,0:0:0:0:
365,30,127985,6,0,P|331:46|295:54,2,74.6666643880209,2|2|2,0:0|0:0|0:0,0:0:0:0:
437,83,128433,1,2,0:0:0:0:
426,171,128582,1,2,0:0:0:0:
415,259,128731,1,2,0:0:0:0:
342,205,128881,1,2,0:0:0:0:
126,337,130672,6,0,L|113:188,1,138.666660319011,2|0,0:0|0:0,0:0:0:0:
104,90,131119,6,0,L|236:127,2,90.6666683959961,0|0|0,0:0|0:0|0:0,0:0:0:0:
271,68,131567,6,0,P|280:157|208:211,1,138.666660319011,8|0,0:0|0:0,0:0:0:0:
184,240,132015,2,0,P|164:260|134:321,1,69.3333301595054,2|0,0:0|0:0,0:0:0:0:
114,373,132314,1,2,0:0:0:0:
218,343,132463,6,0,B|261:334|261:334|346:339|346:339|399:326,1,181.333336791992,2|0,0:0|0:0,0:0:0:0:
473,248,132911,2,0,L|448:157,1,90.6666683959961,0|0,0:0|0:0,0:0:0:0:
487,58,133209,1,2,0:0:0:0:
381,84,133358,2,0,L|271:78,1,90.6666683959961,8|0,0:0|0:0,0:0:0:0:
181,71,133657,1,0,0:0:0:0:
227,169,133806,2,0,P|231:208|221:273,2,90.6666683959961,0|0|2,0:0|0:0|0:0,0:0:0:0:
137,306,134254,6,0,L|343:283,1,207.999990478516,2|0,0:0|0:0,0:0:0:0:
404,339,134851,1,0,0:0:0:0:
420,257,135000,1,0,0:0:0:0:
340,183,135149,6,0,L|220:196,1,90.6666683959961,8|0,0:0|0:0,0:0:0:0:
140,202,135448,1,0,0:0:0:0:
190,105,135597,2,0,L|194:6,2,90.6666683959961,0|0|2,0:0|0:0|0:0,0:0:0:0:
20,155,136045,6,0,P|58:97|117:62,1,138.666660319011,2|0,0:0|0:0,0:0:0:0:
199,192,136493,2,0,P|166:182|135:167,1,69.3333301595054,0|0,0:0|0:0,0:0:0:0:
71,113,136791,1,2,0:0:0:0:
53,194,136940,6,0,L|65:281,1,69.3333301595054,8|0,0:0|0:0,0:0:0:0:
189,373,137239,2,0,L|198:304,1,69.3333301595054,0|0,0:0|0:0,0:0:0:0:
284,146,137537,2,0,L|215:155,1,69.3333301595054,2|0,0:0|0:0,0:0:0:0:
359,259,137836,2,0,P|417:210|433:131,1,138.666660319011,2|0,0:0|0:0,0:0:0:0:
272,115,138284,6,0,L|141:131,2,90.6666683959961,0|0|0,0:0|0:0|0:0,0:0:0:0:
355,45,138731,1,8,0:0:0:0:
375,152,138881,1,0,0:0:0:0:
290,220,139030,1,0,0:0:0:0:
389,262,139179,2,0,P|474:203|478:120,1,181.333336791992,2|0,0:0|0:0,0:0:0:0:
375,152,139627,6,0,L|167:175,1,181.333336791992,2|0,0:0|0:0,0:0:0:0:
111,256,140075,2,0,P|125:284|127:352,1,90.6666683959961,0|0,0:0|0:0,0:0:0:0:
12,326,140373,1,0,0:0:0:0:
16,208,140522,2,0,P|33:169|25:110,1,90.6666683959961,8|0,0:0|0:0,0:0:0:0:
7,5,140821,1,0,0:0:0:0:
118,43,140970,2,0,L|237:27,1,90.6666683959961,0|0,0:0|0:0,0:0:0:0:
317,75,141269,1,2,0:0:0:0:
317,75,141418,6,0,L|291:289,1,207.999990478516,2|0,0:0|0:0,0:0:0:0:
326,357,142015,1,0,0:0:0:0:
326,357,142164,1,0,0:0:0:0:
216,339,142314,6,0,L|118:358,1,90.6666683959961,8|0,0:0|0:0,0:0:0:0:
146,249,142612,2,0,P|149:215|137:149,1,90.6666683959961,0|0,0:0|0:0,0:0:0:0:
104,56,142911,1,0,0:0:0:0:
104,56,143060,1,2,0:0:0:0:
183,81,143209,6,0,L|391:59,1,207.999990478516,2|0,0:0|0:0,0:0:0:0:
506,178,143955,1,2,0:0:0:0:
453,242,144105,2,0,P|425:196|456:113,1,138.666660319011,8|2,0:0|0:0,0:0:0:0:
322,239,144552,2,0,P|350:285|319:368,1,138.666660319011,8|2,0:0|0:0,0:0:0:0:
268,301,145000,6,0,L|103:323,1,138.666660319011,2|0,0:0|0:0,0:0:0:0:
35,373,145448,6,0,L|42:277,1,90.6666683959961,0|0,0:0|0:0,0:0:0:0:
47,174,145746,1,0,0:0:0:0:
117,219,145896,6,0,B|191:235|191:235|295:205,1,138.666660319011,8|0,0:0|0:0,0:0:0:0:
329,190,146343,2,0,L|321:103,1,69.3333301595054,2|0,0:0|0:0,0:0:0:0:
383,63,146642,1,2,0:0:0:0:
278,34,146791,6,0,B|234:48|234:48|137:44|137:44|90:54,1,181.333336791992,2|0,0:0|0:0,0:0:0:0:
39,143,147239,2,0,P|32:174|50:253,1,90.6666683959961,0|0,0:0|0:0,0:0:0:0:
82,331,147537,1,2,0:0:0:0:
189,310,147687,2,0,P|197:265|189:221,1,90.6666683959961,8|0,0:0|0:0,0:0:0:0:
146,121,147985,1,0,0:0:0:0:
254,131,148134,2,0,L|366:147,2,90.6666683959961,0|0|2,0:0|0:0|0:0,0:0:0:0:
412,99,148582,6,0,P|424:178|299:208,1,207.999990478516,2|0,0:0|0:0,0:0:0:0:
241,196,149179,1,0,0:0:0:0:
241,196,149328,1,0,0:0:0:0:
159,269,149478,6,0,L|173:366,2,90.6666683959961,8|0|0,0:0|0:0|0:0,0:0:0:0:
64,215,149925,1,0,0:0:0:0:
155,154,150075,1,0,0:0:0:0:
159,45,150224,1,2,0:0:0:0:
222,98,150373,6,0,B|296:118|296:118|394:82,1,138.666660319011,2|0,0:0|0:0,0:0:0:0:
404,29,150821,2,0,P|424:55|437:99,1,69.3333301595054,0|0,0:0|0:0,0:0:0:0:
440,172,151119,1,2,0:0:0:0:
289,245,151269,6,0,L|214:234,1,69.3333301595054,8|0,0:0|0:0,0:0:0:0:
78,158,151567,2,0,L|146:147,1,69.3333301595054
290,51,151866,2,0,L|279:119,1,69.3333301595054,2|0,0:0|0:0,0:0:0:0:
430,306,152164,2,0,L|418:147,1,138.666660319011,2|0,0:0|0:0,0:0:0:0:
430,306,152612,6,0,L|340:290,2,90.6666683959961
233,268,153060,2,0,L|246:357,2,90.6666683959961,8|0|0,0:0|0:0|0:0,0:0:0:0:
291,176,153508,2,0,L|105:148,1,181.333336791992,2|2,0:0|0:0,0:0:0:0:
199,85,153955,6,0,P|210:197|148:252,1,181.333336791992,2|0,0:0|0:0,0:0:0:0:
66,284,154403,1,0,0:0:0:0:
161,338,154552,2,0,L|273:323,1,90.6666683959961,0|0,0:0|0:0,0:0:0:0:
356,353,154851,6,0,P|355:305|332:254,1,90.6666683959961,8|0,0:0|0:0,0:0:0:0:
276,177,155149,1,0,0:0:0:0:
383,158,155299,2,0,L|478:172,2,90.6666683959961,0|0|2,0:0|0:0|0:0,0:0:0:0:
318,105,155746,6,0,L|97:153,1,207.999990478516,2|0,0:0|0:0,0:0:0:0:
33,170,156343,1,0,0:0:0:0:
33,170,156493,1,0,0:0:0:0:
101,253,156642,6,0,P|132:271|204:292,1,90.6666683959961,8|0,0:0|0:0,0:0:0:0:
290,307,156940,1,0,0:0:0:0:
257,109,157090,2,0,P|221:137|191:171,1,90.6666683959961,0|0,0:0|0:0,0:0:0:0:
128,259,157388,1,2,0:0:0:0:
290,307,157537,6,0,P|365:309|389:145,1,266.666666666667,2|0,0:0|0:0,0:0:0:0:
430,68,158433,2,0,P|355:66|338:225,1,266.666666666667,8|0,0:0|0:0,0:0:0:0:
395,287,159328,5,2,0:0:0:0:
