osu file format v14

[General]
AudioFilename: Adventure Club - Fade (feat Zak Waters).mp3
AudioLeadIn: 0
PreviewTime: 57911
Countdown: 0
SampleSet: Soft
StackLeniency: 0.7
Mode: 0
LetterboxInBreaks: 0
WidescreenStoryboard: 0

[Editor]
Bookmarks: 14976,88409,102737,131394,160050
DistanceSpacing: 1.6
BeatDivisor: 4
GridSize: 4
TimelineZoom: 1

[Metadata]
Title:Fade (feat. Zak Waters)
TitleUnicode:Fade (feat. Zak Waters)
Artist:Adventure Club
ArtistUnicode:Adventure Club
Creator:Come[Back]Home
Version:Hard
Source:
Tags:electro cbh dubstep melodic wub Strategas Max -M4x Gero red blue dance
BeatmapID:1350007
BeatmapSetID:416426

[Difficulty]
HPDrainRate:5
CircleSize:4
OverallDifficulty:5
ApproachRate:7.5
SliderMultiplier:1.4
SliderTickRate:1

[Events]
//Background and Video events
0,0,"BG.jpg",0,0
//Break Periods
2,30573,43877
2,102215,115518
//Storyboard Layer 0 (Background)
//Storyboard Layer 1 (Fail)
//Storyboard Layer 2 (Pass)
//Storyboard Layer 3 (Foreground)
//Storyboard Sound Samples

[TimingPoints]
1717,447.761194029851,4,2,0,70,1,0
2164,-133.333333333333,4,2,1,70,0,0
16045,-133.333333333333,4,2,1,50,0,0
30373,-166.666666666667,4,2,1,50,0,0
44702,-166.666666666667,4,2,1,30,0,0
45597,-166.666666666667,4,2,1,30,0,0
46493,-166.666666666667,4,2,1,30,0,0
48284,-166.666666666667,4,2,1,40,0,0
48731,-166.666666666667,4,2,1,40,0,0
49627,-166.666666666667,4,2,1,40,0,0
50522,-166.666666666667,4,2,1,40,0,0
51418,-166.666666666667,4,2,1,40,0,0
51866,-166.666666666667,4,2,1,50,0,0
52314,-142.857142857143,4,2,1,60,0,0
52761,-125,4,2,1,60,0,0
53209,-111.111111111111,4,2,1,60,0,0
53657,-100,4,2,1,60,0,0
54105,-90.9090909090909,4,2,1,60,0,0
54552,-83.3333333333333,4,2,1,60,0,0
55000,-76.9230769230769,4,2,1,60,0,0
55448,-76.9230769230769,4,2,1,70,0,0
59030,-76.9230769230769,4,2,1,70,0,1
59478,-66.6666666666667,4,2,1,70,0,1
62612,-76.9230769230769,4,2,1,70,0,1
63508,-66.6666666666667,4,2,1,70,0,1
66194,-100,4,2,1,70,0,1
67090,-66.6666666666667,4,2,1,70,0,1
69776,-76.9230769230769,4,2,1,70,0,1
70672,-66.6666666666667,4,2,1,70,0,1
73358,-76.9230769230769,4,2,1,70,0,1
73806,-66.6666666666667,4,2,1,70,0,1
76940,-76.9230769230769,4,2,1,70,0,1
77836,-66.6666666666667,4,2,1,70,0,1
80522,-100,4,2,1,70,0,1
81418,-66.6666666666667,4,2,1,70,0,1
84105,-76.9230769230769,4,2,1,70,0,1
85000,-66.6666666666667,4,2,1,70,0,1
87687,-100,4,2,1,30,0,0
88881,-100,4,2,1,50,0,0
89478,-100,4,2,1,30,0,0
90373,-100,4,2,1,55,0,0
91269,-83.3333333333333,4,2,1,55,0,0
100224,-83.3333333333333,4,2,1,40,0,0
101119,-83.3333333333333,4,2,1,25,0,0
105597,-125,4,2,1,30,0,0
116343,-100,4,2,1,40,0,0
123508,-100,4,2,1,50,0,0
125299,-83.3333333333333,4,2,1,60,0,0
126194,-71.4285714285714,4,2,1,60,0,0
127090,-71.4285714285714,4,2,1,70,0,0
130672,-76.9230769230769,4,2,1,70,0,1
131119,-58.8235294117647,4,2,1,70,0,1
131567,-76.9230769230769,4,2,1,70,0,1
132463,-58.8235294117647,4,2,1,70,0,1
134254,-76.9230769230769,4,2,1,70,0,1
135149,-58.8235294117647,4,2,1,70,0,1
136045,-76.9230769230769,4,2,1,70,0,1
138284,-58.8235294117647,4,2,1,70,0,1
141418,-76.9230769230769,4,2,1,70,0,1
142314,-58.8235294117647,4,2,1,70,0,1
143209,-76.9230769230769,4,2,1,70,0,1
145299,-58.8235294117647,4,2,1,70,0,1
145896,-76.9230769230769,4,2,1,70,0,1
146791,-58.8235294117647,4,2,1,70,0,1
148582,-76.9230769230769,4,2,1,70,0,1
149478,-58.8235294117647,4,2,1,70,0,1
150373,-76.9230769230769,4,2,1,70,0,1
152612,-58.8235294117647,4,2,1,70,0,1
155746,-76.9230769230769,4,2,1,70,0,1
156642,-58.8235294117647,4,2,1,70,0,1
157537,-100,4,2,1,70,0,1
157985,-100,4,2,1,5,0,1
158433,-100,4,2,1,70,0,1
158881,-100,4,2,1,5,0,1
159328,-100,4,2,1,70,0,0

[Colours]
Combo1 : 192,192,192
Combo2 : 170,85,0
Combo3 : 128,128,128
Combo4 : 128,64,64

[HitObjects]
154,323,16045,6,0,L|141:198,1,105.000004005432,2|0,0:0|0:0,0:0:0:0:
88,153,16717,1,0,0:0:0:0:
157,105,16940,2,0,L|215:115,1,52.5000020027161,8|0,0:0|0:0,0:0:0:0:
281,70,17388,1,0,0:0:0:0:
287,153,17612,1,2,0:0:0:0:
355,104,17836,5,2,0:0:0:0:
466,39,18060,1,0,0:0:0:0:
466,39,18172,1,0,0:0:0:0:
466,38,18284,2,0,P|479:61|482:87,1,52.5000020027161,2|0,0:0|0:0,0:0:0:0:
480,263,18731,2,0,P|476:315|448:359,1,105.000004005432,8|0,0:0|0:0,0:0:0:0:
395,293,19403,1,0,0:0:0:0:
274,377,19627,6,0,P|245:333|241:281,1,105.000004005432,2|0,0:0|0:0,0:0:0:0:
295,217,20299,1,0,0:0:0:0:
212,205,20522,2,0,L|147:220,1,52.5000020027161,8|0,0:0|0:0,0:0:0:0:
77,233,20970,1,0,0:0:0:0:
124,302,21194,1,2,0:0:0:0:
76,371,21418,5,2,0:0:0:0:
9,253,21642,1,0,0:0:0:0:
9,253,21754,1,0,0:0:0:0:
9,253,21866,2,0,P|22:226|26:192,1,52.5000020027161,2|0,0:0|0:0,0:0:0:0:
123,110,22314,2,0,P|128:135|139:159,1,52.5000020027161,8|2,0:0|0:0,0:0:0:0:
169,238,22761,1,0,0:0:0:0:
169,238,22985,1,8,0:0:0:0:
319,143,23209,6,0,P|267:140|218:158,1,105.000004005432,2|0,0:0|0:0,0:0:0:0:
146,203,23881,1,0,0:0:0:0:
162,286,24105,2,0,L|173:344,1,52.5000020027161,8|0,0:0|0:0,0:0:0:0:
248,302,24552,1,0,0:0:0:0:
313,354,24776,1,2,0:0:0:0:
327,271,25000,5,2,0:0:0:0:
245,180,25224,1,0,0:0:0:0:
245,180,25336,1,0,0:0:0:0:
245,180,25448,2,0,L|236:119,1,52.5000020027161,2|0,0:0|0:0,0:0:0:0:
359,52,25896,2,0,L|350:157,1,105.000004005432,8|0,0:0|0:0,0:0:0:0:
340,240,26567,1,0,0:0:0:0:
170,193,26791,6,0,B|233:177|233:177|271:191,1,105.000004005432,2|0,0:0|0:0,0:0:0:0:
231,265,27463,1,0,0:0:0:0:
148,281,27687,2,0,L|85:295,1,52.5000020027161,8|0,0:0|0:0,0:0:0:0:
33,347,28134,1,0,0:0:0:0:
16,264,28358,1,2,0:0:0:0:
96,292,28582,5,2,0:0:0:0:
131,164,28806,1,0,0:0:0:0:
131,164,28918,1,0,0:0:0:0:
131,164,29030,2,0,L|193:170,1,52.5000020027161,2|0,0:0|0:0,0:0:0:0:
252,120,29478,1,8,0:0:0:0:
310,180,29702,2,0,B|320:219|320:219|304:294,1,105.000004005432,2|2,0:0|0:0,0:0:0:0:
119,343,30373,5,2,0:0:0:0:
152,342,44702,6,0,P|180:298|184:250,1,83.9999974365235,2|0,0:0|0:0,0:0:0:0:
94,167,45597,2,0,L|187:155,1,83.9999974365235,2|0,0:0|0:0,0:0:0:0:
302,207,46493,6,0,P|338:189|368:149,1,83.9999974365235,2|0,0:0|0:0,0:0:0:0:
266,31,47388,2,0,P|262:73|275:113,1,83.9999974365235,2|0,0:0|0:0,0:0:0:0:
340,231,48284,6,0,B|350:262|350:262|341:326,1,83.9999974365235,2|2,0:0|0:0,0:0:0:0:
218,260,49179,2,0,B|208:229|208:229|217:165,1,83.9999974365235,2|2,0:0|0:0,0:0:0:0:
323,97,50075,5,2,0:0:0:0:
205,33,50522,1,2,0:0:0:0:
206,167,50970,1,2,0:0:0:0:
323,232,51418,1,2,0:0:0:0:
208,302,51866,6,0,L|126:293,1,55.9999982910157,2|0,0:0|0:0,0:0:0:0:
100,290,52314,6,0,P|115:257|111:206,1,65.3333313395183,2|0,0:0|0:0,0:0:0:0:
86,192,52761,6,0,P|70:158|72:108,1,74.6666666666667,2|0,0:0|0:0,0:0:0:0:
87,56,53209,6,0,L|172:83,1,83.9999974365235,2|0,0:0|0:0,0:0:0:0:
206,145,53657,6,0,L|306:125,1,93.3333333333333,2|0,0:0|0:0,0:0:0:0:
374,156,54105,6,0,B|395:227|395:227|380:281,1,102.666669799805,2|0,0:0|0:0,0:0:0:0:
330,324,54552,6,0,P|279:295|209:293,1,111.999996582031,2|0,0:0|0:0,0:0:0:0:
137,329,55000,6,0,P|92:323|35:250,1,121.333327779134,2|0,0:0|0:0,0:0:0:0:
34,173,55448,6,0,L|49:71,2,60.6666638895672,2|2|2,0:0|0:0|0:0,0:0:0:0:
127,143,55896,2,0,L|112:41,2,60.6666638895672,2|2|2,0:0|0:0|0:0,0:0:0:0:
213,186,56343,2,0,L|228:84,2,60.6666638895672,2|2|2,0:0|0:0|0:0,0:0:0:0:
303,149,56791,2,0,L|288:47,2,60.6666638895672,2|2|2,0:0|0:0|0:0,0:0:0:0:
393,184,57239,5,2,0:0:0:0:
151,354,59030,6,0,P|189:298|179:209,1,121.333327779134,2|0,0:0|0:0,0:0:0:0:
192,245,59478,6,0,L|337:267,1,140.000005340576,0|0,0:0|0:0,0:0:0:0:
393,210,59925,6,0,P|409:243|412:276,2,70.0000026702882,8|0|0,0:0|0:0|0:0,0:0:0:0:
333,150,60373,2,0,P|317:118|313:84,2,70.0000026702882,0|0|2,0:0|0:0|0:0,0:0:0:0:
401,100,60821,5,6,0:0:0:0:
415,103,60970,1,0,0:0:0:0:
428,107,61119,1,0,0:0:0:0:
441,111,61269,2,0,L|431:196,1,70.0000026702882,0|0,0:0|0:0,0:0:0:0:
481,249,61567,1,2,0:0:0:0:
425,312,61717,6,0,L|350:300,1,70.0000026702882,8|0,0:0|0:0,0:0:0:0:
272,291,62015,1,0,0:0:0:0:
321,223,62164,2,0,P|325:182|319:142,2,70.0000026702882,6|0|0,0:0|0:0|0:0,0:0:0:0:
272,291,62612,6,0,L|145:273,1,121.333327779134,6|0,0:0|0:0,0:0:0:0:
78,269,63060,1,0,0:0:0:0:
81,257,63209,1,0,0:0:0:0:
85,244,63358,1,0,0:0:0:0:
91,227,63508,6,0,L|80:153,1,70.0000026702882,8|0,0:0|0:0,0:0:0:0:
59,76,63806,1,0,0:0:0:0:
140,95,63955,2,0,L|220:108,1,70.0000026702882,0|0,0:0|0:0,0:0:0:0:
292,121,64254,1,2,0:0:0:0:
235,183,64403,6,0,P|222:213|213:264,2,70.0000026702882,6|0|0,0:0|0:0|0:0,0:0:0:0:
297,239,64851,2,0,P|310:269|319:320,2,70.0000026702882,0|0|2,0:0|0:0|0:0,0:0:0:0:
343,168,65299,5,8,0:0:0:0:
348,154,65448,1,0,0:0:0:0:
355,138,65597,1,0,0:0:0:0:
363,121,65746,2,0,L|280:135,1,70.0000026702882,6|0,0:0|0:0,0:0:0:0:
210,148,66045,1,4,0:0:0:0:
263,214,66194,6,0,L|258:265,2,46.6666666666667,6|0|0,0:0|0:0|0:0,0:0:0:0:
181,304,66642,2,0,L|186:355,2,46.6666666666667,0|0|0,0:0|0:0|0:0,0:0:0:0:
51,226,67090,6,0,L|142:241,1,70.0000026702882,8|0,0:0|0:0,0:0:0:0:
185,184,67388,1,0,0:0:0:0:
266,165,67537,2,0,P|296:176|336:215,1,70.0000026702882,0|0,0:0|0:0,0:0:0:0:
361,276,67836,1,0,0:0:0:0:
416,213,67985,6,0,L|429:131,2,70.0000026702882,6|0|0,0:0|0:0|0:0,0:0:0:0:
361,276,68433,2,0,L|371:345,2,70.0000026702882,0|0|0,0:0|0:0|0:0,0:0:0:0:
290,322,68881,5,8,0:0:0:0:
275,320,69030,1,0,0:0:0:0:
259,319,69179,1,0,0:0:0:0:
241,318,69328,2,0,L|163:329,1,70.0000026702882,4|0,0:0|0:0,0:0:0:0:
88,340,69627,1,2,0:0:0:0:
121,261,69776,6,0,L|145:123,1,121.333327779134,6|0,0:0|0:0,0:0:0:0:
97,82,70224,1,0,0:0:0:0:
157,41,70373,2,0,L|236:56,1,60.6666638895672,0|0,0:0|0:0,0:0:0:0:
287,97,70672,6,0,L|366:85,2,70.0000026702882,8|0|0,0:0|0:0|0:0,0:0:0:0:
245,169,71119,1,0,0:0:0:0:
252,184,71269,1,0,0:0:0:0:
260,200,71418,1,0,0:0:0:0:
268,212,71567,6,0,L|198:222,2,70.0000026702882,6|0|0,0:0|0:0|0:0,0:0:0:0:
286,294,72015,2,0,P|326:303|382:307,1,70.0000026702882,0|0,0:0|0:0,0:0:0:0:
437,320,72314,1,2,0:0:0:0:
404,242,72463,6,0,P|396:217|387:163,1,70.0000026702882,8|2,0:0|0:0,0:0:0:0:
437,106,72761,1,2,0:0:0:0:
375,47,72911,2,0,L|289:58,1,70.0000026702882,12|0,0:0|0:0,0:0:0:0:
234,11,73209,1,6,0:0:0:0:
199,85,73358,6,0,L|216:213,1,121.333327779134,2|0,0:0|0:0,0:0:0:0:
214,205,73806,6,0,B|182:227|182:227|63:209,1,140.000005340576,0|0,0:0|0:0,0:0:0:0:
32,143,74254,6,0,L|48:63,2,70.0000026702882,8|0|0,0:0|0:0|0:0,0:0:0:0:
114,126,74702,2,0,L|190:138,2,70.0000026702882,0|0|2,0:0|0:0|0:0,0:0:0:0:
126,208,75149,5,6,0:0:0:0:
130,221,75299,1,0,0:0:0:0:
134,234,75448,1,0,0:0:0:0:
138,247,75597,2,0,L|165:323,1,70.0000026702882,0|0,0:0|0:0,0:0:0:0:
238,347,75896,1,2,0:0:0:0:
283,276,76045,6,0,P|295:234|296:190,1,70.0000026702882,8|0,0:0|0:0,0:0:0:0:
287,124,76343,1,0,0:0:0:0:
347,65,76493,2,0,L|430:81,1,70.0000026702882,6|0,0:0|0:0,0:0:0:0:
482,27,76791,1,0,0:0:0:0:
495,110,76940,6,0,L|481:240,1,121.333327779134,6|0,0:0|0:0,0:0:0:0:
471,303,77388,1,0,0:0:0:0:
460,309,77537,1,0,0:0:0:0:
449,315,77687,1,0,0:0:0:0:
437,322,77836,6,0,P|410:299|379:283,2,70.0000026702882,8|0|0,0:0|0:0|0:0,0:0:0:0:
295,294,78284,2,0,P|249:328|209:341,2,70.0000026702882,0|0|2,0:0|0:0|0:0,0:0:0:0:
222,252,78731,6,0,P|203:213|196:178,1,70.0000026702882,6|0,0:0|0:0,0:0:0:0:
152,115,79030,2,0,P|171:76|178:41,1,70.0000026702882,0|0,0:0|0:0,0:0:0:0:
260,41,79328,2,0,L|348:59,1,70.0000026702882,0|2,0:0|0:0,0:0:0:0:
392,109,79627,1,8,0:0:0:0:
386,122,79776,1,0,0:0:0:0:
381,135,79925,1,0,0:0:0:0:
375,147,80075,2,0,L|381:233,1,70.0000026702882,6|0,0:0|0:0,0:0:0:0:
443,271,80373,1,4,0:0:0:0:
379,323,80522,6,0,L|329:314,2,46.6666666666667,6|0|0,0:0|0:0|0:0,0:0:0:0:
266,267,80970,2,0,L|220:275,2,46.6666666666667,0|0|0,0:0|0:0|0:0,0:0:0:0:
142,248,81418,6,0,L|124:158,1,70.0000026702882,8|0,0:0|0:0,0:0:0:0:
69,119,81717,1,0,0:0:0:0:
141,76,81866,2,0,L|231:85,1,70.0000026702882,0|0,0:0|0:0,0:0:0:0:
294,87,82164,1,0,0:0:0:0:
249,158,82314,6,0,P|246:193|249:246,2,70.0000026702882,6|0|0,0:0|0:0|0:0,0:0:0:0:
294,87,82761,2,0,P|296:52|296:17,2,70.0000026702882,0|0|0,0:0|0:0|0:0,0:0:0:0:
216,53,83209,5,8,0:0:0:0:
202,57,83358,1,0,0:0:0:0:
188,61,83508,1,0,0:0:0:0:
174,66,83657,2,0,L|93:93,1,70.0000026702882,4|0,0:0|0:0,0:0:0:0:
30,120,83955,1,2,0:0:0:0:
96,173,84105,6,0,B|110:221|110:221|107:295,1,121.333327779134,6|0,0:0|0:0,0:0:0:0:
168,331,84552,2,0,L|229:320,1,60.6666638895672,0|0,0:0|0:0,0:0:0:0:
298,338,84851,1,0,0:0:0:0:
343,267,85000,6,0,L|336:197,2,70.0000026702882,8|0|0,0:0|0:0|0:0,0:0:0:0:
392,133,85448,1,0,0:0:0:0:
386,120,85597,1,0,0:0:0:0:
380,107,85746,1,0,0:0:0:0:
375,93,85896,2,0,P|340:87|305:92,2,70.0000026702882,6|0|0,0:0|0:0|0:0,0:0:0:0:
228,122,86343,2,0,P|193:127|158:122,2,70.0000026702882,0|0|2,0:0|0:0|0:0,0:0:0:0:
95,67,86791,6,0,P|78:97|74:139,1,70.0000026702882,8|2,0:0|0:0,0:0:0:0:
86,215,87090,1,2,0:0:0:0:
146,272,87239,2,0,L|253:254,1,70.0000026702882,12|2,0:0|0:0,0:0:0:0:
279,314,87537,1,6,0:0:0:0:
224,177,87687,5,2,0:0:0:0:
335,328,90373,6,0,L|351:220,1,93.3333333333333,8|2,0:0|0:0,0:0:0:0:
356,179,90821,2,0,P|339:117|331:77,1,93.3333333333333,8|2,0:0|0:0,0:0:0:0:
281,28,91269,6,0,L|216:38,1,55.9999982910157,2|0,0:0|0:0,0:0:0:0:
148,51,91567,1,0,0:0:0:0:
200,109,91717,2,0,B|216:167|216:167|200:244,1,111.999996582031,0|0,0:0|0:0,0:0:0:0:
186,293,92164,6,0,P|221:295|251:282,1,55.9999982910157,8|0,0:0|0:0,0:0:0:0:
287,225,92463,2,0,P|313:217|341:219,1,55.9999982910157,0|0,0:0|0:0,0:0:0:0:
397,275,92761,1,0,0:0:0:0:
397,275,92911,1,0,0:0:0:0:
455,223,93060,6,0,L|468:165,1,55.9999982910157,2|0,0:0|0:0,0:0:0:0:
430,99,93358,2,0,L|417:44,1,55.9999982910157,0|0,0:0|0:0,0:0:0:0:
347,9,93657,1,0,0:0:0:0:
347,9,93806,1,0,0:0:0:0:
297,69,93955,6,0,P|273:80|222:96,1,55.9999982910157,8|0,0:0|0:0,0:0:0:0:
181,135,94254,2,0,P|157:124|106:108,1,55.9999982910157,0|0,0:0|0:0,0:0:0:0:
52,99,94552,1,0,0:0:0:0:
52,99,94702,1,0,0:0:0:0:
77,172,94851,6,0,L|86:244,1,55.9999982910157,2|0,0:0|0:0,0:0:0:0:
30,285,95149,1,0,0:0:0:0:
89,337,95299,2,0,L|244:324,1,111.999996582031,0|0,0:0|0:0,0:0:0:0:
275,350,95746,6,0,L|336:363,1,55.9999982910157,8|0,0:0|0:0,0:0:0:0:
401,329,96045,2,0,L|455:317,1,55.9999982910157,0|0,0:0|0:0,0:0:0:0:
497,251,96343,1,0,0:0:0:0:
497,251,96493,1,0,0:0:0:0:
441,195,96642,6,0,P|429:165|421:126,1,55.9999982910157,2|0,0:0|0:0,0:0:0:0:
455,70,96940,1,0,0:0:0:0:
381,41,97090,2,0,P|324:27|262:30,1,111.999996582031,0|0,0:0|0:0,0:0:0:0:
198,57,97537,6,0,P|212:99|216:130,1,55.9999982910157,8|0,0:0|0:0,0:0:0:0:
212,189,97836,2,0,P|205:216|195:242,1,55.9999982910157,0|0,0:0|0:0,0:0:0:0:
157,310,98134,1,0,0:0:0:0:
157,310,98284,1,0,0:0:0:0:
227,344,98433,6,0,L|295:338,1,55.9999982910157,2|0,0:0|0:0,0:0:0:0:
358,357,98731,1,0,0:0:0:0:
412,300,98881,2,0,B|431:268|431:268|424:180,1,111.999996582031,0|0,0:0|0:0,0:0:0:0:
395,120,99328,6,0,L|354:81,1,55.9999982910157,8|0,0:0|0:0,0:0:0:0:
275,79,99627,2,0,L|234:118,1,55.9999982910157,0|0,0:0|0:0,0:0:0:0:
181,175,99925,1,0,0:0:0:0:
181,175,100075,1,0,0:0:0:0:
218,243,100224,6,0,P|240:256|277:272,1,55.9999982910157,2|0,0:0|0:0,0:0:0:0:
330,315,100522,2,0,P|355:303|379:289,1,55.9999982910157,0|0,0:0|0:0,0:0:0:0:
447,249,100821,1,0,0:0:0:0:
447,249,100970,1,0,0:0:0:0:
380,207,101119,6,0,P|356:145|358:93,2,111.999996582031,8|0|0,0:0|0:0|0:0,0:0:0:0:
447,249,101866,1,0,0:0:0:0:
317,298,102015,5,2,0:0:0:0:
112,320,116343,5,2,0:0:0:0:
439,242,117239,1,2,0:0:0:0:
162,51,118134,6,0,L|178:193,1,140,2|0,0:0|0:0,0:0:0:0:
304,301,119030,2,0,L|319:161,1,140,2|0,0:0|0:0,0:0:0:0:
457,65,119925,5,2,0:0:0:0:
319,161,120373,1,0,0:0:0:0:
457,65,120821,1,2,0:0:0:0:
319,161,121269,1,2,0:0:0:0:
430,286,121717,6,0,P|459:248|502:136,1,140,2|2,0:0|0:0,0:0:0:0:
261,26,122612,2,0,P|287:90|328:148,1,140,2|2,0:0|0:0,0:0:0:0:
455,257,123508,5,2,0:0:0:0:
304,332,123955,1,2,0:0:0:0:
324,165,124403,1,2,0:0:0:0:
480,102,124851,1,2,0:0:0:0:
286,46,125299,6,0,L|114:69,1,167.999994873047,2|2,0:0|0:0,0:0:0:0:
308,309,126194,6,0,P|241:261|212:144,1,195.999994018555,2|2,0:0|0:0,0:0:0:0:
425,60,127090,6,0,L|418:141,2,65.3333313395183,2|2|2,0:0|0:0|0:0,0:0:0:0:
322,140,127537,2,0,L|315:221,2,65.3333313395183,2|2|2,0:0|0:0|0:0,0:0:0:0:
217,60,127985,2,0,L|210:141,2,65.3333313395183,2|2|2,0:0|0:0|0:0,0:0:0:0:
96,109,128432,2,0,L|90:174,2,65.3333313395183,2|2|2,0:0|0:0|0:0,0:0:0:0:
184,267,128881,5,2,0:0:0:0:
380,328,130672,6,0,L|397:195,1,121.333327779134,2|0,0:0|0:0,0:0:0:0:
472,152,131119,6,0,P|444:127|396:112,1,79.3333348464966,0|0,0:0|0:0,0:0:0:0:
309,113,131418,1,0,0:0:0:0:
256,194,131567,6,0,L|267:329,1,121.333327779134,8|0,0:0|0:0,0:0:0:0:
200,347,132015,2,0,L|131:327,1,60.6666638895672,2|0,0:0|0:0,0:0:0:0:
73,357,132314,1,2,0:0:0:0:
31,296,132463,6,0,L|22:123,1,158.666669692993,2|0,0:0|0:0,0:0:0:0:
100,82,132911,2,0,P|122:117|152:144,1,79.3333348464966,0|0,0:0|0:0,0:0:0:0:
231,190,133209,1,2,0:0:0:0:
317,149,133358,2,0,P|346:122|366:88,2,79.3333348464966,8|0|0,0:0|0:0|0:0,0:0:0:0:
383,217,133806,2,0,P|392:247|401:307,2,79.3333348464966,0|0|2,0:0|0:0|0:0,0:0:0:0:
311,277,134254,6,0,B|249:286|249:286|186:278|186:278|118:285,1,181.999991668702,2|0,0:0|0:0,0:0:0:0:
73,329,134851,1,0,0:0:0:0:
62,257,135000,1,0,0:0:0:0:
112,201,135149,6,0,L|225:189,1,79.3333348464966,8|0,0:0|0:0,0:0:0:0:
247,116,135448,1,0,0:0:0:0:
294,198,135597,2,0,P|286:236|255:273,1,79.3333348464966,0|0,0:0|0:0,0:0:0:0:
185,325,135896,1,2,0:0:0:0:
271,365,136045,6,0,L|397:347,1,121.333327779134,2|0,0:0|0:0,0:0:0:0:
432,287,136493,2,0,P|424:260|418:217,1,60.6666638895672,0|0,0:0|0:0,0:0:0:0:
418,155,136791,1,2,0:0:0:0:
464,99,136940,2,0,P|472:72|478:29,1,60.6666638895672,8|0,0:0|0:0,0:0:0:0:
403,46,137239,2,0,P|373:50|343:52,1,60.6666638895672,0|0,0:0|0:0,0:0:0:0:
296,108,137537,2,0,P|265:103|235:101,1,60.6666638895672,2|0,0:0|0:0,0:0:0:0:
189,158,137836,2,0,P|199:220|194:299,1,121.333327779134,2|0,0:0|0:0,0:0:0:0:
252,328,138284,6,0,L|337:312,1,79.3333348464966,0|0,0:0|0:0,0:0:0:0:
419,343,138582,1,0,0:0:0:0:
471,263,138731,2,0,P|456:218|448:177,1,79.3333348464966,8|0,0:0|0:0,0:0:0:0:
474,94,139030,1,0,0:0:0:0:
385,60,139179,2,0,L|226:76,1,158.666669692993,2|0,0:0|0:0,0:0:0:0:
276,157,139627,6,0,P|257:245|216:323,1,158.666669692993,2|0,0:0|0:0,0:0:0:0:
145,257,140075,2,0,P|130:212|120:157,1,79.3333348464966,0|0,0:0|0:0,0:0:0:0:
110,86,140373,1,0,0:0:0:0:
35,144,140522,2,0,P|26:182|13:220,2,79.3333348464966,8|0|0,0:0|0:0|0:0,0:0:0:0:
110,86,140970,2,0,P|97:48|88:9,2,79.3333348464966,0|0|2,0:0|0:0|0:0,0:0:0:0:
196,123,141418,6,0,B|236:130|236:130|333:117,1,121.333327779134,2|0,0:0|0:0,0:0:0:0:
368,68,141866,2,0,L|440:59,1,60.6666638895672,0|0,0:0|0:0,0:0:0:0:
489,100,142164,1,0,0:0:0:0:
451,164,142314,6,0,L|465:245,1,79.3333348464966,8|0,0:0|0:0,0:0:0:0:
479,335,142612,1,0,0:0:0:0:
390,301,142761,2,0,L|306:292,1,79.3333348464966,0|0,0:0|0:0,0:0:0:0:
216,280,143060,1,2,0:0:0:0:
276,199,143209,6,0,P|294:133|113:58,1,303.333319447836,2|2,0:0|0:0,0:0:0:0:
78,110,144105,2,0,L|95:237,1,121.333327779134,8|2,0:0|0:0,0:0:0:0:
139,286,144552,2,0,P|210:279|267:281,1,121.333327779134,8|2,0:0|0:0,0:0:0:0:
320,320,145000,2,0,P|387:321|409:318,1,60.6666638895672,2|0,0:0|0:0,0:0:0:0:
454,260,145299,6,0,L|441:172,1,79.3333348464966,0|0,0:0|0:0,0:0:0:0:
494,102,145597,1,0,0:0:0:0:
494,102,145746,1,0,0:0:0:0:
409,58,145896,6,0,B|376:54|376:54|311:67|311:67|277:62,1,121.333327779134,8|0,0:0|0:0,0:0:0:0:
237,114,146343,2,0,L|255:242,1,121.333327779134,2|2,0:0|0:0,0:0:0:0:
263,309,146791,6,0,P|345:293|423:251,1,158.666669692993,2|0,0:0|0:0,0:0:0:0:
489,203,147239,2,0,P|476:160|465:111,1,79.3333348464966,0|0,0:0|0:0,0:0:0:0:
452,32,147537,1,2,0:0:0:0:
376,91,147687,2,0,P|366:129|355:167,1,79.3333348464966,8|0,0:0|0:0,0:0:0:0:
320,255,147985,1,0,0:0:0:0:
259,181,148134,2,0,P|246:138|235:89,2,79.3333348464966,0|0|2,0:0|0:0|0:0,0:0:0:0:
226,271,148582,6,0,P|161:277|93:269,1,121.333327779134,2|0,0:0|0:0,0:0:0:0:
51,222,149030,2,0,L|68:152,1,60.6666638895672,0|0,0:0|0:0,0:0:0:0:
42,94,149328,1,0,0:0:0:0:
115,109,149478,6,0,L|204:107,1,79.3333348464966,8|0,0:0|0:0,0:0:0:0:
254,33,149776,1,0,0:0:0:0:
283,123,149925,2,0,P|269:154|235:191,1,79.3333348464966,0|0,0:0|0:0,0:0:0:0:
167,250,150224,1,2,0:0:0:0:
266,287,150373,6,0,L|401:270,1,121.333327779134,2|0,0:0|0:0,0:0:0:0:
436,218,150821,2,0,L|423:156,1,60.6666638895672,0|0,0:0|0:0,0:0:0:0:
468,101,151119,1,2,0:0:0:0:
395,90,151269,2,0,L|329:87,1,60.6666638895672,8|0,0:0|0:0,0:0:0:0:
269,120,151567,2,0,L|208:122,1,60.6666638895672,0|0,0:0|0:0,0:0:0:0:
152,75,151866,2,0,L|86:72,1,60.6666638895672,2|0,0:0|0:0,0:0:0:0:
46,129,152164,2,0,L|65:277,1,121.333327779134,2|0,0:0|0:0,0:0:0:0:
120,297,152612,6,0,L|208:279,1,79.3333348464966,0|0,0:0|0:0,0:0:0:0:
274,338,152911,1,0,0:0:0:0:
336,266,153060,2,0,L|348:174,2,79.3333348464966,8|0|0,0:0|0:0|0:0,0:0:0:0:
257,212,153508,2,0,P|219:135|201:54,1,158.666669692993,2|2,0:0|0:0,0:0:0:0:
135,131,153955,6,0,P|115:207|80:278,1,158.666669692993,2|0,0:0|0:0,0:0:0:0:
129,360,154403,2,0,L|208:347,1,79.3333348464966,0|0,0:0|0:0,0:0:0:0:
299,374,154702,1,0,0:0:0:0:
280,280,154851,2,0,P|268:241|262:202,1,79.3333348464966,8|0,0:0|0:0,0:0:0:0:
253,108,155149,1,0,0:0:0:0:
176,165,155299,2,0,P|169:204|158:242,2,79.3333348464966,0|0|2,0:0|0:0|0:0,0:0:0:0:
253,108,155746,6,0,L|381:112,1,121.333327779134,2|0,0:0|0:0,0:0:0:0:
419,169,156194,2,0,P|411:199|405:238,1,60.6666638895672,0|0,0:0|0:0,0:0:0:0:
420,299,156493,1,0,0:0:0:0:
360,343,156642,6,0,L|271:329,1,79.3333348464966,8|0,0:0|0:0,0:0:0:0:
189,355,156940,1,0,0:0:0:0:
143,270,157090,2,0,P|133:230|129:182,1,79.3333348464966,0|0,0:0|0:0,0:0:0:0:
124,97,157388,1,2,0:0:0:0:
213,139,157537,6,0,P|303:162|404:57,1,233.333333333333,2|0,0:0|0:0,0:0:0:0:
417,21,158433,2,0,L|431:265,1,233.333333333333,8|0,0:0|0:0,0:0:0:0:
432,309,159328,5,2,0:0:0:0:
