osu file format v14

[General]
AudioFilename: Adventure Club - Fade (feat Zak Waters).mp3
AudioLeadIn: 0
PreviewTime: 57911
Countdown: 0
SampleSet: Soft
StackLeniency: 0.4
Mode: 0
LetterboxInBreaks: 0
WidescreenStoryboard: 0

[Editor]
Bookmarks: 14976,31095,45424,102737,117065,160050
DistanceSpacing: 1.4
BeatDivisor: 3
GridSize: 4
TimelineZoom: 1.1

[Metadata]
Title:Fade (feat. Zak Waters)
TitleUnicode:Fade (feat. Zak Waters)
Artist:Adventure Club
ArtistUnicode:Adventure Club
Creator:Come[Back]Home
Version:Gerax's Normal
Source:
Tags:electro cbh dubstep melodic wub Strategas Max -M4x Gero red blue dance
BeatmapID:1452595
BeatmapSetID:416426

[Difficulty]
HPDrainRate:4
CircleSize:3.5
OverallDifficulty:4
ApproachRate:5
SliderMultiplier:1.35
SliderTickRate:1

[Events]
//Background and Video events
0,0,"BG.jpg",0,0
//Break Periods
2,30573,43502
2,102215,115143
//Storyboard Layer 0 (Background)
//Storyboard Layer 1 (Fail)
//Storyboard Layer 2 (Pass)
//Storyboard Layer 3 (Foreground)
//Storyboard Sound Samples

[TimingPoints]
1717,447.761194029851,4,2,1,60,1,0
14254,-100,4,2,1,50,0,0
30149,-100,4,2,1,30,0,0
30373,-100,4,2,1,60,0,0
44702,-100,4,2,1,40,0,0
47836,-100,4,2,1,30,0,0
48284,-100,4,2,1,50,0,0
51866,-100,4,2,1,60,0,0
53657,-100,4,2,1,60,0,0
59030,-100,4,2,1,60,0,1
73060,-100,4,2,1,30,0,1
73209,-100,4,2,1,60,0,1
87687,-100,4,2,1,60,0,0
87836,-100,4,2,1,5,0,0
89478,-100,4,2,1,30,0,0
90373,-100,4,2,1,70,0,0
91269,-100,4,2,1,60,0,0
116343,-100,4,2,1,40,0,0
123508,-100,4,2,1,50,0,0
127090,-100,4,2,1,60,0,0
130672,-100,4,2,1,70,0,1
159328,-100,4,2,1,70,0,0

[Colours]
Combo1 : 192,192,192
Combo2 : 170,85,0
Combo3 : 128,128,128
Combo4 : 128,64,64

[HitObjects]
31,293,14254,6,0,L|107:285,1,67.5,0|0,3:0|3:0,0:0:0:0:
155,361,14702,1,0,3:0:0:0:
223,185,15149,1,8,0:0:0:0:
223,185,15373,2,0,L|363:201,1,135,0|8,3:0|0:0,0:0:0:0:
396,286,16045,6,0,L|256:270,1,135,0|0,3:0|0:0,0:0:0:0:
158,112,16940,2,0,P|199:69|294:80,1,135,8|0,0:0|0:0,0:0:0:0:
305,155,17612,1,0,3:0:0:0:
305,155,17836,1,0,3:0:0:0:
257,338,18284,1,0,3:0:0:0:
441,297,18731,2,0,L|514:290,2,67.5,8|0|0,0:0|0:0|0:0,0:0:0:0:
256,339,19627,6,0,B|280:328|280:328|288:192,1,135,0|0,3:0|0:0,0:0:0:0:
389,60,20522,2,0,L|376:222,1,135,8|0,0:0|0:0,0:0:0:0:
287,221,21194,1,0,3:0:0:0:
287,221,21418,1,0,3:0:0:0:
105,167,21866,1,0,3:0:0:0:
75,353,22314,2,0,L|2:346,1,67.5,8|0,0:0|3:0,0:0:0:0:
52,263,22761,2,0,L|125:270,1,67.5,0|8,0:0|0:0,0:0:0:0:
200,318,23209,6,0,B|252:230|147:201|208:106,1,202.5,0|0,3:0|0:0,0:0:0:0:
283,164,24105,2,0,L|430:154,1,135,8|0,0:0|0:0,0:0:0:0:
482,219,24776,1,0,3:0:0:0:
482,219,25000,1,0,3:0:0:0:
297,260,25448,1,0,3:0:0:0:
314,71,25896,2,0,B|346:94|414:44|446:63,1,135,8|0,0:0|0:0,0:0:0:0:
510,131,26567,1,0,0:0:0:0:
510,131,26791,70,0,P|462:201|444:263,1,135,0|0,3:0|0:0,0:0:0:0:
262,205,27687,1,8,0:0:0:0:
262,205,27911,2,0,P|321:158|384:173,1,135,0|0,0:0|3:0,0:0:0:0:
357,74,28582,5,0,3:0:0:0:
426,249,29030,1,0,3:0:0:0:
255,331,29478,1,8,0:0:0:0:
255,331,29702,2,0,P|177:295|113:288,1,135,0|0,3:0|3:0,0:0:0:0:
34,280,30373,5,0,3:0:0:0:
469,261,44702,6,0,L|200:240,2,270,0|0|0,3:0|3:0|3:0,0:0:0:0:
100,342,47388,2,0,L|190:334,1,67.5,0|0,3:0|0:0,0:0:0:0:
113,257,47836,2,0,L|23:249,1,67.5,0|0,3:0|0:0,0:0:0:0:
91,167,48284,70,0,B|127:175|171:175|171:175|209:263|209:263|248:249|319:254,1,270,0|0,3:0|3:0,0:0:0:0:
490,286,49627,1,0,3:0:0:0:
511,98,50075,2,0,L|376:109,1,135,0|0,3:0|3:0,0:0:0:0:
305,285,50970,2,0,L|470:266,1,135,0|0,3:0|3:0,0:0:0:0:
325,118,51866,5,0,3:0:0:0:
325,118,52090,2,0,P|322:33|384:100,1,202.5,0|0,0:0|3:0,0:0:0:0:
333,255,53209,2,0,L|198:243,2,135,0|0|0,3:0|3:0|3:0,0:0:0:0:
212,109,54552,2,0,L|123:101,1,67.5,0|0,3:0|0:0,0:0:0:0:
108,190,55000,2,0,L|39:247,1,67.5,0|0,3:0|0:0,0:0:0:0:
91,321,55448,5,0,3:0:0:0:
256,192,55560,12,0,57239,3:0:0:0:
455,261,59030,6,0,B|382:270|382:270|339:290|339:290|224:303,1,225,0|0,3:0|0:0,0:0:0:0:
172,303,59925,2,0,P|210:270|188:169,1,135,8|0,0:0|0:0,0:0:0:0:
174,68,60672,1,0,3:0:0:0:
164,54,60821,2,0,L|22:66,1,135,0|0,3:0|0:0,0:0:0:0:
69,185,61567,1,0,3:0:0:0:
76,200,61716,2,0,L|217:212,1,135,8|0,0:0|3:0,0:0:0:0:
397,248,62612,6,0,L|295:258,1,90,0|0,3:0|0:0,0:0:0:0:
273,310,63060,2,0,P|248:303|207:304,2,45
242,365,63508,2,0,L|379:352,1,135,8|0,0:0|0:0,0:0:0:0:
468,266,64254,1,0,3:0:0:0:
451,258,64403,2,0,P|424:189|418:115,1,135,0|0,3:0|0:0,0:0:0:0:
294,98,65149,1,0,3:0:0:0:
291,80,65298,2,0,P|230:36|160:10,1,135,8|0,0:0|3:0,0:0:0:0:
44,151,66194,6,0,L|7:222,2,45,0|0|0,3:0|0:0|0:0,0:0:0:0:
43,214,66642,2,0,L|60:292,2,45
88,258,67090,2,0,P|148:301|218:327,1,135,8|0,0:0|0:0,0:0:0:0:
373,239,67985,2,0,B|341:220|273:270|230:241,1,135,0|0,3:0|0:0,0:0:0:0:
61,183,68881,2,0,P|148:167|209:36,1,225,8|0,0:0|0:0,0:0:0:0:
156,22,69776,6,0,P|91:27|23:47,1,135,0|0,3:0|0:0,0:0:0:0:
135,199,70672,2,0,P|211:207|304:238,1,135,8|0,0:0|0:0,0:0:0:0:
444,288,71567,2,0,P|368:296|275:327,1,135,0|0,3:0|0:0,0:0:0:0:
198,366,72314,1,0,3:0:0:0:
188,350,72463,2,0,P|156:328|126:320,2,45,8|0|0,0:0|3:0|3:0,0:0:0:0:
125,338,72911,2,0,P|86:345|59:360,2,45,8|0|0,0:0|3:0|3:0,0:0:0:0:
62,338,73358,6,0,P|22:274|38:109,1,225,0|0,3:0|0:0,0:0:0:0:
63,77,74254,2,0,B|110:85|110:85|135:106|135:106|189:114,1,135,8|0,0:0|0:0,0:0:0:0:
314,103,75000,1,0,3:0:0:0:
324,117,75149,2,0,B|378:108|378:108|403:87|403:87|450:79,1,135,0|0,3:0|0:0,0:0:0:0:
500,196,75896,1,0,3:0:0:0:
505,213,76045,2,0,P|491:278|455:335,1,135,8|0,0:0|3:0,0:0:0:0:
278,267,76940,6,0,P|268:227|317:219,1,90,0|0,3:0|0:0,0:0:0:0:
361,244,77388,2,0,L|431:239,2,45
328,298,77836,2,0,L|474:307,1,135,8|0,0:0|0:0,0:0:0:0:
495,184,78582,1,0,3:0:0:0:
485,170,78731,2,0,L|339:179,1,135,0|0,3:0|0:0,0:0:0:0:
263,270,79478,1,0,3:0:0:0:
253,285,79627,2,0,P|222:241|112:225,1,135,8|0,0:0|3:0,0:0:0:0:
15,351,80522,6,0,P|35:358|93:368,2,45,0|0|0,3:0|0:0|0:0,0:0:0:0:
69,318,80970,2,0,P|94:309|139:281,2,45
121,282,81418,2,0,P|105:228|109:137,1,135,8|0,0:0|0:0,0:0:0:0:
265,46,82314,2,0,P|324:77|371:124,1,135,0|0,3:0|0:0,0:0:0:0:
427,305,83209,2,0,P|456:252|378:301,1,225,8|0,0:0|3:0,0:0:0:0:
371,329,84105,6,0,P|418:281|477:249,1,135,0|0,3:0|0:0,0:0:0:0:
296,193,85000,2,0,P|253:113|276:58,1,135,8|0,0:0|0:0,0:0:0:0:
430,166,85896,2,0,P|438:231|398:283,1,135,0|0,3:0|0:0,0:0:0:0:
279,325,86642,1,0,3:0:0:0:
272,310,86791,2,0,L|199:301,2,45,8|0|0,0:0|3:0|3:0,0:0:0:0:
216,278,87239,2,0,L|143:269,2,45,8|0|0,0:0|3:0|3:0,0:0:0:0:
158,252,87687,22,0,B|129:204|64:171|64:171|186:153|294:226|294:226|305:278|348:300|348:300|384:266|432:273,1,540,0|2,3:0|0:0,0:0:0:0:
414,356,90373,5,8,0:0:0:0:
501,264,90672,1,0,3:0:0:0:
483,265,90821,1,8,0:0:0:0:
389,180,91119,1,0,3:0:0:0:
406,181,91269,6,0,P|438:148|402:42,1,135,0|0,3:0|0:0,0:0:0:0:
310,210,92164,2,0,P|247:232|175:246,1,135,8|0,0:0|0:0,0:0:0:0:
33,128,93060,2,0,P|99:141|162:163,1,135,0|0,3:0|0:0,0:0:0:0:
258,326,93955,2,0,P|321:303|387:290,1,135,8|0,0:0|0:0,0:0:0:0:
509,144,94851,6,0,P|479:57|301:60,1,270,0|8,3:0|0:0,0:0:0:0:
92,344,96642,2,0,L|230:335,1,135,0|0,3:0|0:0,0:0:0:0:
403,268,97537,2,0,B|383:247|383:247|259:255,1,135,8|0,0:0|0:0,0:0:0:0:
92,209,98433,70,0,B|46:176|46:176|274:163,1,270,0|8,3:0|0:0,0:0:0:0:
379,309,99776,2,0,L|450:302,2,45
328,347,100224,6,0,P|278:286|397:300,1,270,0|8,3:0|0:0,0:0:0:0:
489,119,101567,2,0,L|444:123,2,45
429,139,102015,5,0,3:0:0:0:
0,56,116343,6,0,B|64:16|120:52|128:56|128:56|136:60|192:96|256:56,1,270,0|0,3:0|3:0,0:0:0:0:
512,328,118134,2,0,B|448:368|392:332|384:328|384:328|376:324|320:288|256:328,1,270,0|0,3:0|3:0,0:0:0:0:
124,192,119478,1,0,3:0:0:0:
256,57,119925,6,0,B|300:57|300:57|344:57|377:98,2,135,0|0|0,3:0|3:0|3:0,0:0:0:0:
388,192,121269,1,0,3:0:0:0:
256,327,121717,2,0,B|300:327|300:327|344:327|377:285,2,135,0|0|0,3:0|3:0|3:0,0:0:0:0:
124,192,123060,1,0,3:0:0:0:
256,57,123508,6,0,P|298:43|340:57,1,90,0|0,3:0|0:0,0:0:0:0:
386,14,123955,2,0,B|373:57|373:57|386:100,1,90,0|0,3:0|0:0,0:0:0:0:
432,141,124403,1,0,3:0:0:0:
256,192,124851,1,0,3:0:0:0:
432,243,125299,6,0,B|445:286|445:286|432:329,1,90,0|0,3:0|0:0,0:0:0:0:
373,351,125746,2,0,B|349:351|333:368|333:368|317:351|293:351,1,90,0|0,3:0|0:0,0:0:0:0:
239,316,126194,1,0,3:0:0:0:
110,177,126642,1,0,3:0:0:0:
256,55,127090,6,0,L|256:10,2,45,0|0|0,3:0|3:0|3:0,0:0:0:0:
296,104,127537,2,0,B|296:148|296:148|310:192,1,90,0|0,3:0|3:0,0:0:0:0:
256,224,127985,2,0,L|256:269,2,45,0|0|0,3:0|3:0|3:0,0:0:0:0:
202,192,128433,2,0,B|216:148|216:148|216:104,1,90,0|0,3:0|3:0,0:0:0:0:
256,55,128881,5,0,3:0:0:0:
316,112,130672,6,0,P|256:138|196:112,1,135,0|0,3:0|0:0,0:0:0:0:
194,237,131418,1,0,0:0:0:0:
196,254,131567,2,0,B|224:278|224:314|224:314|224:335,1,90,8|0,0:0|0:0,0:0:0:0:
287,335,132015,2,0,B|287:314|287:314|287:278|315:254,1,90,0|0,3:0|3:0,0:0:0:0:
369,220,132463,5,0,3:0:0:0:
489,173,132761,1,0,0:0:0:0:
499,158,132911,2,0,L|483:60,1,90,0|0,0:0|3:0,0:0:0:0:
444,20,133358,2,0,B|404:-1|404:-1|364:20,1,90,8|0,0:0|0:0,0:0:0:0:
307,48,133806,1,0,0:0:0:0:
182,71,134105,1,0,3:0:0:0:
167,81,134254,6,0,P|104:102|41:81,1,135,0|0,3:0|0:0,0:0:0:0:
32,208,135000,1,0,0:0:0:0:
48,199,135149,2,0,P|91:187|134:199,1,90,8|0,0:0|0:0,0:0:0:0:
163,254,135597,2,0,L|96:321,1,90,0|0,0:0|3:0,0:0:0:0:
48,355,136045,6,0,B|114:355|114:355|182:372,1,135,0|0,3:0|0:0,0:0:0:0:
296,320,136791,1,0,3:0:0:0:
312,326,136940,2,0,L|405:358,2,90,8|0|0,0:0|0:0|3:0,0:0:0:0:
331,202,137836,6,0,B|372:160|372:160|381:157|381:157|389:154|389:154|430:113,1,135,0|0,3:0|0:0,0:0:0:0:
328,60,138582,1,0,0:0:0:0:
314,48,138731,2,0,B|302:32|278:22|278:22|254:32|242:48,1,90,8|0,0:0|0:0,0:0:0:0:
207,100,139179,1,0,3:0:0:0:
128,199,139478,1,0,3:0:0:0:
117,213,139627,6,0,P|92:274|117:335,1,135,0|0,3:0|0:0,0:0:0:0:
238,362,140373,1,0,0:0:0:0:
253,353,140522,2,0,B|281:353|297:361|297:361|313:353|341:353,1,90,8|0,0:0|0:0,0:0:0:0:
397,324,140970,2,0,B|425:324|441:332|441:332|457:324|485:324,1,90,0|0,0:0|3:0,0:0:0:0:
494,262,141418,6,0,B|488:222|508:198|508:198|488:174|494:134,1,135,0|0,3:0|0:0,0:0:0:0:
385,199,142164,1,0,0:0:0:0:
366,198,142314,2,0,B|338:198|322:206|322:206|306:198|278:198,1,90,8|0,0:0|0:0,0:0:0:0:
233,153,142761,2,0,B|233:181|241:197|241:197|233:213|233:241,1,90,0|0,0:0|3:0,0:0:0:0:
187,284,143209,6,0,B|124:271|93:195|93:195|124:119|187:106,1,270,0|8,3:0|0:0,0:0:0:0:
277,193,144403,1,0,3:0:0:0:
294,190,144552,1,8,0:0:0:0:
386,103,144851,1,0,3:0:0:0:
402,96,145000,6,0,P|445:84|488:96,1,90,0|0,3:0|0:0,0:0:0:0:
511,154,145448,2,0,B|501:198|501:198|511:242,1,90
464,285,145896,2,0,B|430:317|424:338|424:338|403:342|354:394,1,135,8|0,0:0|3:0,0:0:0:0:
285,283,146642,1,0,3:0:0:0:
271,271,146791,6,0,P|231:253|191:271,1,90,0|0,3:0|0:0,0:0:0:0:
149,312,147239,2,0,P|109:330|69:312,1,90,0|0,0:0|3:0,0:0:0:0:
27,270,147687,1,8,0:0:0:0:
113,178,147985,1,0,0:0:0:0:
108,160,148134,2,0,L|72:124,2,45,0|0|0,0:0|0:0|3:0,0:0:0:0:
149,118,148582,6,0,B|172:84|212:84|212:84|227:84,1,90,0|0,3:0|0:0,0:0:0:0:
276,84,149030,2,0,B|292:84|292:84|332:84|355:118,1,90
396,160,149478,1,8,0:0:0:0:
445,275,149776,1,0,0:0:0:0:
443,292,149925,2,0,L|361:330,1,90,0|0,0:0|3:0,0:0:0:0:
298,319,150373,6,0,B|234:298|234:298|170:319,1,135,0|0,3:0|0:0,0:0:0:0:
255,226,151119,1,0,3:0:0:0:
256,207,151269,2,0,B|288:175|288:175|256:143,2,90,8|0|0,0:0|0:0|3:0,0:0:0:0:
132,189,152164,6,0,B|116:157|132:125|132:125|63:125,1,135,0|0,3:0|0:0,0:0:0:0:
150,32,152911,1,0,0:0:0:0:
168,34,153060,2,0,B|211:21|211:21|254:34,1,90,8|0,0:0|0:0,0:0:0:0:
314,34,153508,2,0,B|357:21|357:21|400:34,1,90,0|0,3:0|3:0,0:0:0:0:
458,34,153955,6,0,B|424:65|419:85|419:85|401:90|355:134,1,135,0|0,3:0|0:0,0:0:0:0:
260,200,154702,1,0,0:0:0:0:
245,209,154851,2,0,P|202:221|159:209,1,90,8|0,0:0|0:0,0:0:0:0:
113,165,155299,2,0,P|125:208|113:251,1,90,0|0,0:0|3:0,0:0:0:0:
62,287,155746,6,0,B|106:331|106:331|178:331,1,135,0|0,3:0|0:0,0:0:0:0:
305,325,156493,1,0,0:0:0:0:
322,325,156642,2,0,B|394:325|394:325|438:281,1,135,8|0,0:0|0:0,0:0:0:0:
357,183,157388,1,0,3:0:0:0:
348,167,157537,2,0,B|300:167|268:139|256:85|256:85|244:139|212:167|164:167,2,270,0|8|0,3:0|0:0|3:0,0:0:0:0:
