osu file format v14

[General]
AudioFilename: Adventure Club - Fade (feat Zak Waters).mp3
AudioLeadIn: 0
PreviewTime: 57911
Countdown: 0
SampleSet: Soft
StackLeniency: 0.7
Mode: 0
LetterboxInBreaks: 0
WidescreenStoryboard: 0

[Editor]
Bookmarks: 14976,88409,102737,131394,160050
DistanceSpacing: 1.2
BeatDivisor: 4
GridSize: 4
TimelineZoom: 1

[Metadata]
Title:Fade (feat. Zak Waters)
TitleUnicode:Fade (feat. Zak Waters)
Artist:Adventure Club
ArtistUnicode:Adventure Club
Creator:Come[Back]Home
Version:Easy
Source:
Tags:electro cbh dubstep melodic wub Strategas Max -M4x Gero red blue dance
BeatmapID:1421453
BeatmapSetID:416426

[Difficulty]
HPDrainRate:3
CircleSize:2.5
OverallDifficulty:3
ApproachRate:4
SliderMultiplier:1
SliderTickRate:1

[Events]
//Background and Video events
0,0,"BG.jpg",0,0
//Break Periods
2,30573,43382
2,87887,89949
2,102215,115023
//Storyboard Layer 0 (Background)
//Storyboard Layer 1 (Fail)
//Storyboard Layer 2 (Pass)
//Storyboard Layer 3 (Foreground)
//Storyboard Sound Samples

[TimingPoints]
1717,447.761194029851,4,2,0,70,1,0
2164,-100,4,2,1,70,0,0
16045,-100,4,2,1,50,0,0
30373,-100,4,2,1,50,0,0
44702,-100,4,2,1,30,0,0
48284,-100,4,2,1,40,0,0
48731,-100,4,2,1,40,0,0
49627,-100,4,2,1,40,0,0
50522,-100,4,2,1,40,0,0
51418,-100,4,2,1,40,0,0
51866,-100,4,2,1,50,0,0
52314,-100,4,2,1,60,0,0
52761,-100,4,2,1,60,0,0
53209,-100,4,2,1,60,0,0
53657,-100,4,2,1,60,0,0
54105,-100,4,2,1,60,0,0
54552,-100,4,2,1,60,0,0
55000,-100,4,2,1,60,0,0
55448,-100,4,2,1,70,0,0
59030,-100,4,2,1,70,0,1
59478,-100,4,2,1,70,0,1
62612,-100,4,2,1,70,0,1
63508,-100,4,2,1,70,0,1
66194,-100,4,2,1,70,0,1
67090,-100,4,2,1,70,0,1
69776,-100,4,2,1,70,0,1
70672,-100,4,2,1,70,0,1
73358,-100,4,2,1,70,0,1
73806,-100,4,2,1,70,0,1
76940,-100,4,2,1,70,0,1
77836,-100,4,2,1,70,0,1
80522,-100,4,2,1,70,0,1
81418,-100,4,2,1,70,0,1
84105,-100,4,2,1,70,0,1
85000,-100,4,2,1,70,0,1
87687,-100,4,2,1,30,0,0
88881,-100,4,2,1,50,0,0
89478,-100,4,2,1,30,0,0
90373,-100,4,2,1,55,0,0
91269,-100,4,2,1,55,0,0
100224,-100,4,2,1,40,0,0
101119,-100,4,2,1,25,0,0
105597,-100,4,2,1,30,0,0
116343,-100,4,2,1,40,0,0
123508,-100,4,2,1,50,0,0
125299,-100,4,2,1,60,0,0
126194,-100,4,2,1,60,0,0
127090,-100,4,2,1,70,0,0
130672,-100,4,2,1,70,0,1
131119,-100,4,2,1,70,0,1
131567,-100,4,2,1,70,0,1
132463,-100,4,2,1,70,0,1
134254,-100,4,2,1,70,0,1
135149,-100,4,2,1,70,0,1
136045,-100,4,2,1,70,0,1
138284,-100,4,2,1,70,0,1
141418,-100,4,2,1,70,0,1
142314,-100,4,2,1,70,0,1
143209,-100,4,2,1,70,0,1
145299,-100,4,2,1,70,0,1
145896,-100,4,2,1,70,0,1
146791,-100,4,2,1,70,0,1
148582,-100,4,2,1,70,0,1
149478,-100,4,2,1,70,0,1
150373,-100,4,2,1,70,0,1
152612,-100,4,2,1,70,0,1
155746,-100,4,2,1,70,0,1
156642,-100,4,2,1,70,0,1
157537,-100,4,2,1,70,0,1
157985,-100,4,2,1,5,0,1
158433,-100,4,2,1,70,0,1
158881,-100,4,2,1,5,0,1
159328,-100,4,2,1,70,0,0

[Colours]
Combo1 : 192,192,192
Combo2 : 170,85,0
Combo3 : 128,128,128
Combo4 : 128,64,64

[HitObjects]
110,259,16045,6,0,L|324:283,1,200,2|8,0:0|0:0,0:0:0:0:
400,359,17388,1,0,0:0:0:0:
460,255,17836,2,0,L|442:148,1,100,2|2,0:0|0:0,0:0:0:0:
339,95,18731,2,0,L|322:193,1,100,8|0,0:0|0:0,0:0:0:0:
217,134,19627,6,0,B|150:143|150:143|92:130|92:130|16:146,1,200,2|8,0:0|0:0,0:0:0:0:
45,262,20970,1,0,0:0:0:0:
160,293,21418,2,0,L|270:312,1,100,2|2,0:0|0:0,0:0:0:0:
377,324,22314,2,0,L|367:268,1,50,8|2,0:0|0:0,0:0:0:0:
435,107,23209,6,0,L|221:77,1,200,2|8,0:0|0:0,0:0:0:0:
117,63,24552,1,0,0:0:0:0:
162,174,25000,2,0,L|175:282,1,100,2|2,0:0|0:0,0:0:0:0:
274,338,25896,2,0,P|284:306|325:237,1,100,8|0,0:0|0:0,0:0:0:0:
394,157,26791,6,0,B|258:167|258:167|193:138,1,200,2|8,0:0|0:0,0:0:0:0:
89,94,28134,1,0,0:0:0:0:
36,202,28582,2,0,L|52:313,1,100,2|2,0:0|0:0,0:0:0:0:
161,348,29478,2,0,L|169:296,1,50,8|2,0:0|0:0,0:0:0:0:
195,120,30373,5,2,0:0:0:0:
414,330,44702,6,0,B|374:257|374:257|391:123,2,200,2|2|2,0:0|0:0|0:0,0:0:0:0:
175,302,47388,2,0,L|63:317,1,100,2|0,0:0|0:0,0:0:0:0:
128,207,48284,6,0,B|267:192|267:192|316:143,1,200,2|2,0:0|0:0,0:0:0:0:
378,50,49627,1,2,0:0:0:0:
450,145,50075,2,0,L|469:251,1,100,2|2,0:0|0:0,0:0:0:0:
355,201,50970,2,0,P|314:180|261:133,1,100,2|2,0:0|0:0,0:0:0:0:
220,37,51866,6,0,L|229:237,1,200,2|2,0:0|0:0,0:0:0:0:
124,295,53209,1,2,0:0:0:0:
224,360,53657,2,0,L|332:348,1,100,2|2,0:0|0:0,0:0:0:0:
443,340,54552,1,2,0:0:0:0:
372,242,55000,1,2,0:0:0:0:
256,192,55448,12,2,57239,0:0:0:0:
101,313,59030,6,0,L|91:199,1,100,2|0,0:0|0:0,0:0:0:0:
206,251,59925,2,0,L|406:275,1,200,8|6,0:0|0:0,0:0:0:0:
492,192,61269,1,0,0:0:0:0:
396,119,61717,2,0,P|373:78|356:16,1,100,8|6,0:0|0:0,0:0:0:0:
259,95,62612,6,0,P|244:142|220:186,1,100,6|0,0:0|0:0,0:0:0:0:
120,252,63508,2,0,P|168:297|299:279,1,200,8|6,0:0|0:0,0:0:0:0:
380,201,64851,1,0,0:0:0:0:
299,111,65299,2,0,P|320:57|344:16,1,100,8|6,0:0|0:0,0:0:0:0:
419,111,66194,6,0,P|443:154|460:201,1,100,6|0,0:0|0:0,0:0:0:0:
381,291,67090,2,0,B|329:298|329:298|242:277|242:277|179:282,1,200,8|6,0:0|0:0,0:0:0:0:
85,350,68433,1,0,0:0:0:0:
36,240,68881,2,0,L|45:127,1,100,8|4,0:0|0:0,0:0:0:0:
106,37,69776,6,0,P|139:67|163:125,1,100,6|0,0:0|0:0,0:0:0:0:
185,234,70672,2,0,P|202:265|363:296,1,200,8|6,0:0|0:0,0:0:0:0:
459,255,72015,1,0,0:0:0:0:
356,192,72463,1,8,0:0:0:0:
410,84,72911,1,12,0:0:0:0:
300,35,73358,6,0,L|187:56,1,100,2|0,0:0|0:0,0:0:0:0:
108,129,74254,2,0,B|80:182|80:182|101:322,1,200,8|6,0:0|0:0,0:0:0:0:
213,362,75597,1,0,0:0:0:0:
293,273,76045,2,0,P|329:255|398:244,1,100,8|6,0:0|0:0,0:0:0:0:
450,141,76940,6,0,L|238:124,1,200,6|8,0:0|0:0,0:0:0:0:
149,59,78284,1,0,0:0:0:0:
87,161,78731,2,0,L|99:271,1,100,6|0,0:0|0:0,0:0:0:0:
194,188,79627,2,0,P|216:160|250:95,1,100,8|6,0:0|0:0,0:0:0:0:
350,43,80522,6,0,P|361:86|464:204,1,200,6|8,0:0|0:0,0:0:0:0:
494,317,81866,1,0,0:0:0:0:
375,334,82314,2,0,L|276:312,1,100,6|0,0:0|0:0,0:0:0:0:
204,217,83209,2,0,P|175:221|107:249,1,100,8|4,0:0|0:0,0:0:0:0:
48,350,84105,6,0,L|72:130,1,200,6|8,0:0|0:0,0:0:0:0:
27,38,85448,1,0,0:0:0:0:
147,36,85896,2,0,L|259:24,1,100,6|0,0:0|0:0,0:0:0:0:
325,115,86791,1,8,0:0:0:0:
423,46,87239,1,12,0:0:0:0:
441,164,87687,1,2,0:0:0:0:
135,328,91269,6,0,L|116:123,1,200,2|8,0:0|0:0,0:0:0:0:
103,9,92612,1,0,0:0:0:0:
210,63,93060,2,0,L|330:57,2,100,2|0|8,0:0|0:0|0:0,0:0:0:0:
110,130,94403,1,0,0:0:0:0:
172,232,94851,6,0,B|225:250|225:250|309:235|309:235|372:250,1,200,2|8,0:0|0:0,0:0:0:0:
450,333,96194,1,0,0:0:0:0:
501,224,96642,2,0,L|475:22,1,200,2|8,0:0|0:0,0:0:0:0:
384,103,97985,1,0,0:0:0:0:
292,180,98433,6,0,P|258:187|124:94,1,200,2|8,0:0|0:0,0:0:0:0:
50,12,99776,1,0,0:0:0:0:
9,124,100224,2,0,L|22:233,1,100,2|0,0:0|0:0,0:0:0:0:
125,282,101119,2,0,P|140:258|193:197,1,100,8|0,0:0|0:0,0:0:0:0:
275,122,102015,1,2,0:0:0:0:
93,317,116343,6,0,L|73:102,2,200,2|2|2,0:0|0:0|0:0,0:0:0:0:
324,253,119030,2,0,L|338:144,1,100,2|0,0:0|0:0,0:0:0:0:
219,178,119925,6,0,P|169:162|87:30,2,200,2|2|2,0:0|0:0|0:0,0:0:0:0:
288,80,122164,1,2,0:0:0:0:
341,187,122612,2,0,L|328:304,1,100,2|2,0:0|0:0,0:0:0:0:
256,192,123508,12,2,128881,0:0:0:0:
125,328,130672,6,0,L|117:210,1,100,2|0,0:0|0:0,0:0:0:0:
232,265,131567,2,0,L|351:279,1,100,8|2,0:0|0:0,0:0:0:0:
347,157,132463,2,0,L|142:136,1,200,2|8,0:0|0:0,0:0:0:0:
51,64,133806,1,0,0:0:0:0:
22,180,134254,6,0,B|35:242|35:242|29:308|29:308|50:381,1,200,2|8,0:0|0:0,0:0:0:0:
154,320,135597,1,0,0:0:0:0:
255,256,136045,6,0,L|359:275,1,100,2|0,0:0|0:0,0:0:0:0:
447,348,136940,2,0,P|469:303|399:164,1,200,8|2,0:0|0:0,0:0:0:0:
324,251,138284,6,0,P|286:253|218:236,1,100,0|8,0:0|0:0,0:0:0:0:
112,200,139179,1,2,0:0:0:0:
212,133,139627,2,0,P|247:124|412:148,1,200,2|8,0:0|0:0,0:0:0:0:
496,225,140970,1,0,0:0:0:0:
417,315,141418,6,0,B|376:325|376:325|270:316|270:316|214:331,1,200,2|8,0:0|0:0,0:0:0:0:
105,365,142761,1,0,0:0:0:0:
48,259,143209,2,0,L|67:42,2,200,2|8|2,0:0|0:0|0:0,0:0:0:0:
145,329,145448,5,0,0:0:0:0:
251,272,145896,2,0,B|293:260|293:260|458:281,1,200,8|2,0:0|0:0,0:0:0:0:
487,166,147239,1,0,0:0:0:0:
397,85,147687,2,0,L|296:68,1,100,8|0,0:0|0:0,0:0:0:0:
178,59,148582,6,0,P|151:95|114:251,1,200,2|8,0:0|0:0,0:0:0:0:
118,362,149925,1,0,0:0:0:0:
217,294,150373,2,0,L|337:307,1,100,2|0,0:0|0:0,0:0:0:0:
415,373,151269,2,0,P|431:337|360:195,1,200,8|2,0:0|0:0,0:0:0:0:
257,163,152612,5,0,0:0:0:0:
349,86,153060,2,0,L|463:73,1,100,8|2,0:0|0:0,0:0:0:0:
505,180,153955,2,0,B|451:189|451:189|379:216|379:216|311:229,1,200,2|8,0:0|0:0,0:0:0:0:
203,280,155299,1,0,0:0:0:0:
90,239,155746,6,0,L|97:132,1,100,2|0,0:0|0:0,0:0:0:0:
212,107,156642,2,0,P|279:98|312:86,1,100,8|0,0:0|0:0,0:0:0:0:
419,38,157537,2,0,L|404:247,2,200,2|8|2,0:0|0:0|0:0,0:0:0:0:
