osu file format v14

[General]
AudioFilename: audio.mp3
AudioLeadIn: 0
PreviewTime: -1
Countdown: 1
SampleSet: Normal
StackLeniency: 0.2
Mode: 0
LetterboxInBreaks: 0
WidescreenStoryboard: 1

[Editor]
Bookmarks: 30388,159230,165546
DistanceSpacing: 1.5
BeatDivisor: 4
GridSize: 4
TimelineZoom: 1

[Metadata]
Title:Dreams
TitleUnicode:Dreams
Artist:Adventure Club
ArtistUnicode:Adventure Club
Creator:Yuuki Konno
Version:Normal
Source:
Tags:
BeatmapID:1260998
BeatmapSetID:593213

[Difficulty]
HPDrainRate:3
CircleSize:2.5
OverallDifficulty:4
ApproachRate:8
SliderMultiplier:1.5
SliderTickRate:1

[Events]
//Background and Video events
0,0,"Dreams.jpg",0,0
//Break Periods
//Storyboard Layer 0 (Background)
//Storyboard Layer 1 (Fail)
//Storyboard Layer 2 (Pass)
//Storyboard Layer 3 (Foreground)
//Storyboard Sound Samples

[TimingPoints]
5125,631.578947368421,4,1,0,100,1,0

[HitObjects]
256,104,5125,6,0,L|336:152,1,75
300,232,5598,2,0,L|220:184,1,75
64,116,6388,2,0,L|80:176,2,37.5
235,193,7019,2,0,L|219:133,2,37.5
236,192,7651,6,0,P|288:160|316:156,1,75
312,252,8125,2,0,P|260:284|232:288,1,75
60,128,8914,2,0,L|80:184,2,37.5
236,192,9546,2,0,L|216:136,2,37.5
236,192,10177,6,0,B|268:164|268:164|316:136,1,75
328,236,10651,2,0,B|296:264|296:264|248:292,1,75
48,128,11440,2,0,L|64:176,2,37.5
236,192,12072,2,0,L|220:144,2,37.5
236,192,12703,6,0,L|320:160,1,75
364,240,13177,2,0,L|280:272,1,75
48,160,13967,2,0,L|72:200,2,37.5
236,192,14598,2,0,L|212:152,2,37.5
236,192,15230,6,0,L|312:156,1,75
240,92,15703,2,0,L|164:128,2,75
332,64,16493,2,0,L|364:92,2,37.5
236,192,17125,2,0,L|204:164,2,37.5
236,192,17756,6,0,P|175:200|151:215,1,75
216,286,18230,2,0,P|276:277|300:262,2,75
124,288,19019,2,0,L|65:278,2,37.5
236,192,19651,2,0,L|294:201,2,37.5
236,192,20282,6,0,B|193:191|193:191|138:200,1,75,0|0,0:0|0:0,0:0:0:0:
193,283,20756,2,0,B|235:283|235:283|290:274,2,75
104,316,21545,2,0,L|122:363,2,37.5
236,192,22177,2,0,L|217:144,2,37.5
236,192,22809,6,0,P|304:160|348:160,1,112.5
156,120,23598,2,0,L|156:64,3,37.5
156,82,25335,6,0,P|184:140|240:160,1,112.5
300,216,25967,2,0,P|252:252|204:252,1,75
68,180,26598,2,0,L|96:136,4,37.5
48,256,27861,6,0,P|104:228|156:224,1,112.5
244,244,28493,2,0,P|276:176|300:164,1,75
200,352,29125,2,0,L|180:308,4,37.5
342,101,30388,6,0,P|314:159|258:179,1,112.5
198,235,31020,2,0,P|246:271|294:271,1,75
430,199,31651,2,0,L|402:155,4,37.5
456,248,32914,6,0,P|400:220|366:217,2,75
272,208,33861,1,0,0:0:0:0:
368,344,34178,2,0,L|388:300,4,37.5
368,344,35440,6,0,P|324:300|260:288,1,112.5
188,256,36072,2,0,L|212:184,1,75
396,212,36703,2,0,L|424:260,4,37.5
188,256,37967,6,0,P|180:196|144:144,1,112.5
196,68,38598,2,0,L|272:108,1,75
76,68,39230,2,0,L|32:92,4,37.5
252,196,40493,6,0,P|300:144|352:128,1,112.5
348,224,41125,2,0,P|320:272|320:300,1,75
226,168,41756,2,0,L|270:216,4,37.5
274,252,43019,6,0,P|314:192|314:128,1,112.5
226,168,43651,2,0,P|166:208|102:208,1,112.5
256,192,44282,12,0,45546,0:0:0:0:
300,192,48072,5,0,0:0:0:0:
168,132,50598,5,0,0:0:0:0:
304,76,53125,5,0,0:0:0:0:
212,256,55651,6,0,P|280:232|312:156,1,150
108,60,56914,2,0,P|40:84|8:160,1,150
232,280,58177,2,0,P|300:256|332:180,1,150
128,84,59440,2,0,P|60:108|28:184,1,150
268,312,60703,6,0,L|324:244,1,75
244,124,61335,2,0,L|188:192,1,75,0|0,3:0|3:0,3:0:0:0:
48,156,61967,2,0,L|104:88,1,75
268,95,62598,2,0,L|236:131,4,37.5
208,224,64809,5,0,0:0:0:0:
160,216,64967,2,0,L|144:176,4,37.5
208,224,65756,6,0,P|248:192|292:184,1,75
168,316,66388,2,0,P|128:284|84:276,1,75
284,280,67019,1,0,0:0:0:0:
160,172,67651,6,0,P|160:108|184:72,1,75
352,172,68282,2,0,P|352:108|328:72,1,75
156,244,68914,6,0,P|156:180|180:144,1,75
355,244,69545,2,0,P|355:180|331:144,2,75
159,171,70809,6,0,P|223:155|247:159,1,75
368,252,71440,2,0,P|304:268|280:264,1,75
232,116,72072,1,0,0:0:0:0:
264,112,72703,6,0,P|280:164|300:188,2,75
236,96,74282,6,0,P|176:112|152:128,1,75
152,268,74914,2,0,P|212:252|236:236,1,75,0|0,3:0|3:0,3:0:0:0:
116,140,75546,2,0,P|56:156|32:172,2,75,0|0|0,3:0|3:0|3:0,3:0:0:0:
252,200,76493,2,0,P|276:144|272:108,1,75
116,140,77125,1,0,0:0:0:0:
352,172,77756,6,0,P|352:108|328:72,1,75
160,172,78387,2,0,P|160:108|184:72,1,75
356,244,79019,6,0,P|356:180|332:144,1,75
157,244,79650,2,0,P|157:180|181:144,2,75
253,196,80914,6,0,P|317:164|349:164,1,75
329,316,81546,2,0,P|265:348|233:348,1,75
157,244,82177,1,0,0:0:0:0:
112,192,82809,6,0,P|164:156|196:152,1,75
196,304,83440,1,0,0:0:0:0:
32,80,84072,6,0,P|84:44|116:40,1,75
112,192,84703,2,0,P|60:228|28:232,1,75
132,104,85335,6,0,P|184:68|216:64,1,75
236,212,85967,1,0,0:0:0:0:
312,168,88493,5,0,0:0:0:0:
172,88,91019,5,0,0:0:0:0:
224,272,93546,5,0,0:0:0:0:
308,112,96072,6,0,P|228:80|64:200,1,300
256,296,98598,6,0,B|256:212|200:152|200:152|208:96|184:36|132:24,1,300
204,112,101125,6,0,P|284:80|448:200,1,300
256,296,103651,6,0,B|256:212|312:152|312:152|304:96|328:36|380:24,1,300
308,272,106177,6,0,P|228:304|64:184,1,300
256,88,108703,6,0,B|256:172|200:232|200:232|208:288|184:348|132:360,1,300
204,272,111230,6,0,P|284:304|448:184,1,300
256,88,113756,6,0,B|256:172|312:232|312:232|304:288|328:348|380:360,1,300
256,244,116282,6,0,P|208:192|280:240,1,300
160,280,118809,6,0,P|128:224|128:128,1,150
228,96,119756,1,0,0:0:0:0:
276,196,120072,2,0,P|316:244|400:256,1,150
399,256,121335,6,0,P|431:200|431:104,1,150
331,72,122282,1,0,0:0:0:0:
283,172,122598,2,0,P|243:220|159:232,1,150
195,92,123861,6,0,P|163:148|163:244,1,150
263,276,124808,1,0,0:0:0:0:
311,176,125124,2,0,P|351:128|435:116,1,150
398,255,126388,6,0,P|430:199|430:103,1,150
330,71,127335,1,0,0:0:0:0:
282,171,127651,2,0,P|242:219|158:231,1,150
172,87,128914,6,0,P|184:143|152:239,1,150
260,280,129861,1,0,0:0:0:0:
308,176,130177,2,0,P|296:120|328:24,1,150
260,280,131440,6,0,P|248:224|280:128,1,150
172,87,132387,1,0,0:0:0:0:
124,191,132703,2,0,P|136:247|104:343,1,150
172,87,133967,6,0,P|184:143|152:239,1,150
260,280,134914,1,0,0:0:0:0:
308,176,135230,2,0,P|296:120|328:24,1,150
404,104,136177,1,0,0:0:0:0:
452,208,136493,2,0,P|440:264|472:360,1,150
328,256,137440,1,0,0:0:0:0:
172,336,137756,6,0,L|272:312,1,75
112,240,138388,2,0,L|12:216,1,75
188,144,139019,2,0,L|288:120,1,75
128,48,139651,2,0,L|28:24,1,75
72,144,140282,6,0,L|-28:168,1,75
184,140,140914,2,0,L|284:164,1,75
108,236,141545,2,0,L|8:260,1,75
216,240,142177,2,0,L|316:264,1,75
348,352,142809,6,0,L|448:328,1,75
288,256,143441,2,0,L|188:232,1,75
364,160,144072,2,0,L|464:136,1,75
304,64,144704,2,0,L|204:40,1,75
248,160,145335,6,0,L|148:184,1,75
360,156,145967,2,0,L|460:180,1,75
284,252,146598,2,0,L|184:276,1,75
392,256,147230,2,0,L|492:280,1,75
236,356,147861,6,0,L|336:332,1,75
176,260,148493,2,0,L|76:236,1,75
252,164,149124,2,0,L|352:140,1,75
192,68,149756,2,0,L|92:44,1,75
136,164,150387,6,0,L|36:188,1,75
248,160,151019,2,0,L|348:184,1,75
172,256,151650,2,0,L|72:280,1,75
276,272,152282,2,0,L|376:296,1,75
172,291,152914,2,0,L|72:267,1,75
276,272,153546,2,0,L|376:248,1,75
272,172,154177,5,0,0:0:0:0:
160,172,154493,1,0,0:0:0:0:
160,284,154809,1,0,0:0:0:0:
276,272,155125,1,0,0:0:0:0:
272,172,155440,6,0,L|272:108,8,37.5
