osu file format v14

[General]
AudioFilename: audio.mp3
AudioLeadIn: 0
PreviewTime: -1
Countdown: 1
SampleSet: None
StackLeniency: 0.7
Mode: 0
LetterboxInBreaks: 0
WidescreenStoryboard: 1

[Editor]
Bookmarks: 159230
DistanceSpacing: 2.2
BeatDivisor: 16
GridSize: 4
TimelineZoom: 1

[Metadata]
Title:Dreams
TitleUnicode:Dreams
Artist:Adventure Club
ArtistUnicode:Adventure Club
Creator:Yuuki Konno
Version:Insane
Source:
Tags:
BeatmapID:1255052
BeatmapSetID:593213

[Difficulty]
HPDrainRate:5
CircleSize:4
OverallDifficulty:7
ApproachRate:9.2
SliderMultiplier:2.6
SliderTickRate:1

[Events]
//Background and Video events
0,0,"Dreams.jpg",0,0
//Break Periods
//Storyboard Layer 0 (Background)
//Storyboard Layer 1 (Fail)
//Storyboard Layer 2 (Pass)
//Storyboard Layer 3 (Foreground)
//Storyboard Sound Samples

[TimingPoints]
5125,631.578947368421,4,1,0,100,1,0
5125,-100,4,1,0,65,0,0
25335,-83.3333333333333,4,1,0,100,0,0
48072,-83.3333333333333,4,1,0,65,0,0
55651,-133.333333333333,4,1,0,100,0,0
57230,-114.942528735632,4,1,0,100,0,0
59756,-100,4,1,0,100,0,0
62914,-76.9230769230769,4,1,0,100,0,0
88493,-76.9230769230769,4,1,0,50,0,0
96072,-133.333333333333,4,1,0,100,0,0
118809,-133.333333333333,4,3,0,100,0,0
158282,-83.3333333333333,4,3,0,100,0,0
159230,-71.4285714285714,4,3,0,100,0,0

[HitObjects]
152,152,5125,6,0,P|224:200|280:172,1,130,2|0,0:0|0:0,0:0:0:0:
224,120,5598,2,0,P|152:72|96:100,1,130,2|0,0:0|0:0,0:0:0:0:
412,272,6388,2,0,L|468:320,2,65
224,120,7019,2,0,L|168:72,2,65
304,200,7651,6,0,P|384:168|392:120,1,130,2|0,0:0|0:0,0:0:0:0:
316,128,8125,2,0,L|408:224,1,130,2|0,0:0|0:0,0:0:0:0:
92,232,8914,2,0,L|32:280,2,65
316,128,9546,2,0,L|376:80,2,65
200,332,10177,6,0,P|236:264|292:256,1,130,2|0,0:0|0:0,0:0:0:0:
280,332,10651,2,0,P|257:258|291:213,1,130,2|0,0:0|0:0,0:0:0:0:
360,200,11125,2,0,L|412:256,1,65
448,184,11440,2,0,L|480:120,2,65
229,273,12072,2,0,L|197:337,1,65
108,260,12388,5,0,0:0:0:0:
200,188,12546,1,0,0:0:0:0:
84,164,12703,2,0,P|36:104|52:48,1,130,2|0,0:0|0:0,0:0:0:0:
273,101,13335,2,0,P|245:172|188:186,1,130
36,20,13967,2,0,L|92:80,2,65
273,101,14598,2,0,L|217:41,2,65
88,243,15230,6,0,P|172:295|224:255,1,130
159,180,15703,2,0,P|173:277|237:291,1,130,2|8,0:0|0:0,0:0:0:0:
344,244,16177,1,4,0:0:0:0:
232,136,16335,1,8,0:0:0:0:
264,264,16493,2,0,L|304:336,2,65,4|0|0,0:0|0:0|0:0,0:0:0:0:
160,96,17125,2,0,L|120:24,2,65
328,260,17756,6,0,P|368:184|348:144,1,130,2|0,0:0|0:0,0:0:0:0:
236,160,18230,2,0,L|256:236,1,65,2|0,0:0|0:0,0:0:0:0:
352,149,18546,1,8,0:0:0:0:
260,296,18703,1,4,0:0:0:0:
288,96,18861,1,8,0:0:0:0:
328,260,19019,2,0,P|380:308|460:292,1,130,4|0,0:0|0:0,0:0:0:0:
288,96,19651,2,0,L|244:32,2,65
416,337,20282,6,0,P|384:277|316:261,1,130,2|0,0:0|0:0,0:0:0:0:
264,360,20756,2,0,L|336:344,1,65,2|0,0:0|0:0,0:0:0:0:
248,212,21072,1,8,0:0:0:0:
384,276,21230,1,4,0:0:0:0:
212,288,21388,1,8,0:0:0:0:
348,192,21546,2,0,L|408:144,2,65,4|0|0,0:0|0:0|0:0,0:0:0:0:
160,224,22177,2,0,L|100:272,1,65
52,164,22493,5,0,0:0:0:0:
8,240,22651,1,0,0:0:0:0:
104,96,22809,2,0,L|104:24,1,65
184,64,23125,2,0,L|244:20,1,65
272,104,23440,2,0,L|340:112,1,65,0|8,0:0|0:0,0:0:0:0:
148,164,23756,1,4,0:0:0:0:
236,25,23914,1,8,0:0:0:0:
272,248,24072,1,4,0:0:0:0:
272,248,25335,6,0,P|212:208|124:224,1,155.999995239258
184,352,25809,1,2,0:0:0:0:
320,320,25967,2,0,P|360:240|320:176,1,155.999995239258,8|0,0:0|0:0,0:0:0:0:
132,218,26598,1,8,0:0:0:0:
44,51,26756,1,4,0:0:0:0:
214,130,26914,1,8,0:0:0:0:
27,158,27072,1,4,0:0:0:0:
157,22,27230,1,8,0:0:0:0:
92,204,27546,5,0,0:0:0:0:
279,111,27861,2,0,P|243:39|175:15,1,155.999995239258
144,152,28335,1,2,0:0:0:0:
276,200,28493,2,0,P|356:156|364:88,1,155.999995239258,8|0,0:0|0:0,0:0:0:0:
144,152,29125,5,8,0:0:0:0:
220,332,29282,1,4,0:0:0:0:
232,124,29440,1,8,0:0:0:0:
120,296,29598,1,4,0:0:0:0:
276,200,29756,1,8,0:0:0:0:
276,200,30388,6,0,P|300:108|276:48,1,155.999995239258
160,128,30861,1,2,0:0:0:0:
224,288,31019,2,0,P|292:312|368:264,1,155.999995239258,8|0,0:0|0:0,0:0:0:0:
272,124,31493,1,0,0:0:0:0:
148,208,31651,5,8,0:0:0:0:
328,188,31809,1,4,0:0:0:0:
160,128,31967,1,8,0:0:0:0:
296,256,32125,1,4,0:0:0:0:
216,64,32282,1,8,0:0:0:0:
169,310,32914,6,0,P|249:310|297:250,1,155.999995239258
160,128,33388,1,2,0:0:0:0:
328,188,33546,2,0,P|408:180|448:112,1,155.999995239258,8|0,0:0|0:0,0:0:0:0:
252,16,34177,5,8,0:0:0:0:
192,200,34335,1,4,0:0:0:0:
328,60,34493,1,8,0:0:0:0:
160,128,34651,1,4,0:0:0:0:
352,140,34809,1,8,0:0:0:0:
304,144,35440,6,0,P|276:212|200:244,1,155.999995239258
172,104,35914,1,2,0:0:0:0:
304,56,36072,2,0,P|380:68|452:24,1,155.999995239258,8|0,0:0|0:0,0:0:0:0:
172,104,36703,5,8,0:0:0:0:
264,284,36861,1,4,0:0:0:0:
76,208,37019,1,8,0:0:0:0:
276,172,37177,1,4,0:0:0:0:
136,316,37335,1,8,0:0:0:0:
268,200,37967,6,0,P|184:232|120:204,1,155.999995239258
188,84,38440,1,2,0:0:0:0:
320,128,38598,2,0,P|352:208|312:276,1,155.999995239258,8|0,0:0|0:0,0:0:0:0:
126,209,39230,5,8,0:0:0:0:
320,128,39388,1,4,0:0:0:0:
192,264,39546,1,8,0:0:0:0:
248,88,39703,1,4,0:0:0:0:
328,276,39861,1,8,0:0:0:0:
304,300,40493,6,0,P|387:342|461:310,1,155.999995239258
396,192,40967,1,2,0:0:0:0:
260,228,41125,2,0,P|168:236|112:192,1,155.999995239258,8|0,0:0|0:0,0:0:0:0:
216,100,41598,1,2,0:0:0:0:
352,132,41756,5,8,0:0:0:0:
240,24,41914,1,4,0:0:0:0:
292,196,42072,1,8,0:0:0:0:
320,4,42230,1,4,0:0:0:0:
204,180,42388,1,8,0:0:0:0:
224,216,43019,6,0,P|272:192|296:88,1,155.999995239258,2|0,0:0|0:0,0:0:0:0:
216,16,43651,6,0,P|260:77|245:152,1,155.999995239258,2|0,0:0|0:0,0:0:0:0:
256,192,44282,12,0,45546,0:0:0:0:
324,220,48072,5,0,0:0:0:0:
160,140,50598,5,0,0:0:0:0:
324,96,53125,5,0,0:0:0:0:
176,228,55651,6,0,P|248:196|320:216,1,146.250005578995,2|0,0:0|0:0,0:0:0:0:
324,284,56282,6,0,P|276:316|224:304,1,97.50000371933,2|0,0:0|0:0,0:0:0:0:
384,236,56914,2,0,P|400:224|448:224,1,48.750001859665,2|0,0:0|0:0,0:0:0:0:
428,336,57230,2,0,P|396:352|368:344,1,56.5500004745865,2|0,0:0|0:0,0:0:0:0:
300,228,57546,6,0,P|328:176|388:152,1,113.100000949173,2|0,0:0|0:0,0:0:0:0:
264,352,58177,2,0,P|208:336|172:232,1,169.650001423759,2|0,0:0|0:0,0:0:0:0:
256,240,58809,2,0,P|320:236|364:196,1,113.100000949173,2|0,0:0|0:0,0:0:0:0:
204,168,59440,2,0,P|172:152|144:160,1,56.5500004745865,2|0,0:0|0:0,0:0:0:0:
132,280,59756,6,0,P|164:296|204:284,1,65,2|0,0:0|0:0,0:0:0:0:
292,164,60072,2,0,P|324:148|364:160,1,65,2|0,0:0|0:0,0:0:0:0:
348,268,60388,2,0,L|344:296,2,16.25
204,168,60703,2,0,P|172:152|132:164,1,65
132,280,61019,2,0,L|136:308,2,16.25
292,164,61335,2,0,P|324:148|364:160,1,65
360,284,61651,2,0,L|360:312,2,16.25
178,167,61967,2,0,P|146:151|106:163,1,65
155,293,62282,2,0,L|163:315,2,16.25
360,284,62598,2,0,L|366:299,2,16.25
300,168,62914,2,0,L|216:136,1,84.4999961318971
108,161,63230,1,0,0:0:0:0:
108,161,64809,5,8,0:0:0:0:
312,180,64967,1,4,0:0:0:0:
108,72,65125,1,8,0:0:0:0:
236,228,65282,1,4,0:0:0:0:
188,32,65440,1,8,0:0:0:0:
156,232,65598,1,4,0:0:0:0:
260,76,65756,6,0,P|312:48|340:40,1,84.4999961318971
160,140,66072,2,0,P|101:136|72:141,1,84.4999961318971
280,160,66388,2,0,P|334:181|359:198,1,84.4999961318971
156,232,66704,2,0,P|115:274|100:299,1,84.4999961318971
344,276,67019,1,8,0:0:0:0:
200,121,67651,6,0,P|188:184|204:220,1,84.4999961318971
344,276,67967,2,0,P|328:340|299:365,1,84.4999961318971
436,188,68282,6,0,P|424:124|440:88,1,84.4999961318971
229,44,68598,2,0,P|213:108|184:133,1,84.4999961318971
404,116,68914,2,0,P|446:66|484:55,1,84.4999961318971
264,116,69230,2,0,P|206:145|167:139,1,84.4999961318971
364,46,69546,6,0,P|402:99|403:139,1,84.4999961318971
236,193,69861,2,0,P|253:130|282:105,1,84.4999961318971
416,260,70809,6,0,P|468:288|496:296,1,84.4999961318971
319,193,71125,2,0,P|260:197|231:192,1,84.4999961318971
436,176,71441,2,0,P|490:155|515:138,1,84.4999961318971
312,104,71757,2,0,P|271:62|256:37,1,84.4999961318971
500,60,72072,1,8,0:0:0:0:
172,304,72703,6,0,P|187:247|202:222,1,84.4999961318971,0|0,0:3|0:3,0:3:0:0:
400,188,73019,2,0,P|365:235|343:254,1,84.4999961318971,0|0,0:3|0:3,0:3:0:0:
208,80,73335,1,8,0:0:0:0:
276,276,74282,6,0,P|200:288|176:280,1,84.4999961318971
124,112,74598,2,0,P|200:127|220:143,1,84.4999961318971
156,312,74914,2,0,P|91:273|77:251,1,84.4999961318971
224,140,75230,6,0,P|176:200|171:224,1,84.4999961318971
327,342,75546,2,0,P|279:283|274:258,1,84.4999961318971
368,96,75861,6,0,P|320:156|315:181,1,84.4999961318971
460,308,76177,2,0,P|486:235|482:211,1,84.4999961318971
288,172,76493,2,0,P|290:248|301:272,1,84.4999961318971
488,196,76809,2,0,P|461:125|441:108,1,84.4999961318971
332,315,77125,1,8,0:0:0:0:
160,120,77756,6,0,P|212:156|260:156,1,84.4999961318971
372,12,78072,2,0,P|310:-4|265:12,1,84.4999961318971
288,204,78388,6,0,P|312:256|308:300,1,84.4999961318971
396,90,78703,2,0,P|372:38|376:-6,1,84.4999961318971
368,216,79019,2,0,P|411:252|426:294,1,84.4999961318971
316,104,79335,2,0,P|272:67|257:25,1,84.4999961318971
236,260,79651,6,0,P|240:312|220:356,1,84.4999961318971
160,148,79967,2,0,P|174:97|207:63,1,84.4999961318971
420,136,80914,6,0,P|428:184|408:236,1,84.4999961318971
236,124,81230,2,0,P|244:76|281:34,1,84.4999961318971
368,224,81546,2,0,P|343:265|294:292,1,84.4999961318971
304,84,81861,2,0,P|341:53|396:44,1,84.4999961318971
236,260,82177,1,8,0:0:0:0:
52,240,82809,6,0,P|76:200|120:172,1,84.4999961318971
264,308,83125,2,0,P|217:307|171:283,1,84.4999961318971
260,96,83440,1,8,0:0:0:0:
404,200,84388,6,0,P|452:156|460:112,1,84.4999961318971
260,96,84703,2,0,P|325:98|359:127,1,84.4999961318971
260,296,85019,2,0,P|199:271|177:232,1,84.4999961318971
350,139,85335,6,0,P|398:183|406:227,1,84.4999961318971
260,296,85651,6,0,P|274:232|308:203,1,84.4999961318971
448,372,85967,1,8,0:0:0:0:
332,120,88493,5,0,0:0:0:0:
152,180,91019,5,0,0:0:0:0:
352,232,93546,5,0,0:0:0:0:
164,148,96072,6,0,B|224:144|260:136|284:112|284:80|260:60|228:60|204:80|204:116|248:188|248:188|272:228|264:296|244:320,1,390.00001487732
180,256,98598,6,0,B|240:240|296:256|296:256|288:200|328:104|328:104|256:116|196:72,1,390.00001487732
60,200,101125,6,0,B|112:152|200:132|272:188|272:188|336:244|452:236,1,390.00001487732
250,319,103651,6,0,B|240:220|277:160|277:160|300:120|300:84|268:44|208:44|180:72|184:120|248:112,1,390.00001487732
136,264,106177,6,0,B|200:200|296:188|296:188|369:182|430:148|432:52,1,390.00001487732
216,64,108703,6,0,B|216:152|264:208|296:244|296:244|328:284|312:336|248:356|196:304,1,390.00001487732
60,136,111230,6,0,B|124:112|184:136|184:136|240:160|304:160|352:132|352:132|404:96|472:124,1,390.00001487732
356,264,113756,6,0,B|296:292|224:264|232:180|232:180|240:92|140:48|52:112|52:112,1,390.00001487732
152,216,116282,5,0,0:0:0:0:
152,216,117546,1,0,0:0:0:0:
120,232,118809,6,0,P|204:220|296:292,1,195.00000743866
180,320,119756,1,0,0:0:0:0:
120,232,120072,2,0,B|180:200|256:212|256:212|236:160|248:132,1,195.00000743866
132,72,121335,6,0,P|160:156|92:244,1,195.00000743866
48,136,122282,1,0,0:0:0:0:
132,72,122598,2,0,B|204:64|248:92|248:92|288:116|336:108,1,195.00000743866
248,252,123861,6,0,P|184:216|180:100,1,195.00000743866
288,148,124809,1,0,0:0:0:0:
248,252,125125,2,0,P|253:320|364:303,1,195.00000743866
264,104,126388,6,0,P|184:104|96:192,1,195.00000743866
216,208,127335,1,0,0:0:0:0:
264,104,127651,2,0,B|300:60|300:60|348:88|436:72,1,195.00000743866
292,256,128914,6,0,P|176:264|116:188,1,195.00000743866
228,160,129861,1,0,0:0:0:0:
292,256,130177,2,0,B|348:296|380:296|380:296|400:232|436:196,1,195.00000743866
224,88,131440,6,0,P|132:148|128:232,1,195.00000743866
232,196,132388,1,0,0:0:0:0:
224,88,132703,2,0,P|156:60|132:160,1,195.00000743866
324,280,133967,6,0,P|344:212|460:176,1,195.00000743866
436,288,134914,1,0,0:0:0:0:
324,280,135230,2,0,P|232:248|144:304,1,195.00000743866
248,360,136177,1,0,0:0:0:0:
324,280,136493,6,0,P|344:212|460:176,1,195.00000743866
436,288,137440,1,0,0:0:0:0:
324,280,137756,2,0,B|264:264|252:208|252:208|160:188,1,195.00000743866
356,52,139019,6,0,P|416:116|384:220,1,195.00000743866
292,152,139967,1,0,0:0:0:0:
356,52,140282,2,0,B|320:44|300:24|300:24|164:76,1,195.00000743866
136,220,141546,6,0,P|184:284|216:288,1,97.50000371933
300,172,142177,2,0,P|233:128|201:135,1,97.50000371933
272,276,142809,1,0,0:0:0:0:
200,140,143125,1,0,0:0:0:0:
344,232,143440,2,0,P|392:256|456:236,1,97.50000371933
289,158,144072,6,0,P|241:134|177:154,1,97.50000371933
181,289,144703,2,0,P|234:295|287:254,1,97.50000371933
180,120,145335,6,0,P|127:132|91:188,1,97.50000371933
181,289,145966,2,0,P|225:259|240:194,1,97.50000371933
72,161,146598,6,0,P|40:204|48:270,1,97.50000371933
181,289,147230,2,0,P|196:237|168:184,1,97.50000371933
16,262,147861,6,0,P|19:315|68:360,1,97.50000371933
181,289,148493,2,0,P|159:239|104:216,1,97.50000371933
98,340,149125,6,0,L|194:280,1,97.50000371933
276,140,149756,2,0,L|180:200,1,97.50000371933
16,200,150388,2,0,L|112:140,1,97.50000371933
194,0,151019,2,0,L|98:60,1,97.50000371933
5,118,151651,6,0,L|105:150,1,97.50000371933
286,161,152282,2,0,L|186:193,1,97.50000371933
12,212,152914,2,0,L|112:244,1,97.50000371933
293,255,153546,2,0,L|193:287,1,97.50000371933
89,269,154177,5,0,0:0:0:0:
96,73,154493,1,0,0:0:0:0:
292,62,154809,1,0,0:0:0:0:
293,255,155125,1,0,0:0:0:0:
40,265,155440,6,0,L|100:269,1,48.750001859665
140,184,155756,2,0,L|80:188,1,48.750001859665
168,260,156072,6,0,L|228:264,1,48.750001859665
268,179,156388,2,0,L|208:183,1,48.750001859665
293,255,156703,1,0,0:0:0:0:
324,252,158282,5,0,0:0:0:0:
184,104,158440,1,0,0:0:0:0:
336,148,158598,1,0,0:0:0:0:
180,200,158756,1,0,0:0:0:0:
288,28,158914,1,0,0:0:0:0:
260,200,159072,1,0,0:0:0:0:
384,68,159230,6,0,P|432:84|468:136,1,90.9999972229005
286,115,159546,2,0,P|275:65|302:8,1,90.9999972229005
408,164,159861,2,0,P|370:197|307:202,1,90.9999972229005,0|0,0:3|0:3,0:3:0:0:
138,151,160177,2,0,P|127:101|154:44,1,90.9999972229005
260,200,160493,1,0,0:0:0:0:
116,160,161756,6,0,P|107:83|127:52,1,90.9999972229005,0|0,3:0|3:0,3:0:0:0:
288,117,162072,2,0,P|269:190|240:213,1,90.9999972229005,0|0,3:0|3:0,3:0:0:0:
124,77,162388,2,0,P|166:11|201:0,1,90.9999972229005,0|0,3:0|3:0,3:0:0:0:
223,165,162704,6,0,P|177:225|179:262,1,90.9999972229005,0|0,3:0|3:0,3:0:0:0:
356,208,163019,2,0,P|377:133|363:99,1,90.9999972229005,0|0,3:0|3:0,3:0:0:0:
248,253,163335,2,0,P|252:328|277:356,1,90.9999972229005,0|0,3:0|3:0,3:0:0:0:
299,106,163651,1,0,3:0:0:0:
157,233,164282,6,0,P|177:165|229:137,1,90.9999972229005
345,253,164598,2,0,P|303:311|245:319,1,90.9999972229005
221,145,164914,2,0,P|281:106|338:118,1,90.9999972229005
281,289,165230,2,0,P|213:306|162:275,1,90.9999972229005
369,137,165546,1,0,0:0:0:0:
160,196,166177,6,0,P|224:224|268:216,1,90.9999972229005
300,28,166493,2,0,P|243:69|228:111,1,90.9999972229005
376,232,166809,1,0,0:0:0:0:
160,196,167756,6,0,P|224:224|268:216,1,90.9999972229005
300,28,168072,2,0,P|243:69|228:111,1,90.9999972229005
376,232,168388,2,0,P|368:162|339:128,1,90.9999972229005
160,108,168703,6,0,P|180:36|220:4,1,90.9999972229005
320,176,169019,2,0,P|247:194|199:176,1,90.9999972229005
300,28,169335,6,0,P|372:48|404:88,1,90.9999972229005
233,191,169651,2,0,P|172:147|155:99,1,90.9999972229005
360,88,169967,2,0,P|402:149|401:200,1,90.9999972229005
212,108,170282,2,0,P|193:35|211:-12,1,90.9999972229005
356,224,170598,1,0,0:0:0:0:
36,124,171230,6,0,P|104:168|144:164,1,90.9999972229005
352,84,171546,2,0,P|304:20|265:10,1,90.9999972229005
100,180,171861,6,0,P|180:197|205:229,1,90.9999972229005
348,168,172177,2,0,P|280:125|267:88,1,90.9999972229005
132,260,172493,2,0,P|197:309|207:348,1,90.9999972229005
268,124,172809,2,0,P|224:56|228:16,1,90.9999972229005
212,252,173125,2,0,P|250:324|243:363,1,90.9999972229005
188,140,173440,2,0,P|177:60|198:26,1,90.9999972229005
284,300,174388,6,0,P|360:276|376:244,1,90.9999972229005
244,112,174703,2,0,P|180:160|176:196,1,90.9999972229005
356,260,175019,2,0,P|398:192|390:157,1,90.9999972229005
196,188,175335,2,0,P|178:265|198:295,1,90.9999972229005
384,112,175651,1,0,0:0:0:0:
188,48,176282,6,0,P|131:89|116:131,1,90.9999972229005
263,253,176598,2,0,P|255:183|226:149,1,90.9999972229005
48,217,176914,1,0,0:0:0:0:
280,40,177861,6,0,P|223:81|208:123,1,90.9999972229005
355,245,178177,2,0,P|347:175|318:141,1,90.9999972229005
140,209,178493,2,0,P|204:237|248:228,1,90.9999972229005
349,88,178809,6,0,P|285:52|277:28,1,90.9999972229005
125,125,179125,2,0,P|144:195|133:218,1,90.9999972229005,8|0,0:0|0:0,0:0:0:0:
355,245,179440,1,0,0:0:0:0:
316,228,180072,6,0,P|312:172|280:132,1,90.9999972229005
96,188,180388,2,0,P|146:212|197:204,1,90.9999972229005
284,40,180703,1,8,0:0:0:0:
304,240,181335,1,2,0:0:0:0:
272,256,181967,6,0,P|224:224|208:184,1,90.9999972229005
368,72,182282,2,0,P|402:118|403:161,1,90.9999972229005
210,195,182598,2,0,P|193:139|207:98,1,90.9999972229005
405,150,182914,2,0,P|401:207|374:241,1,90.9999972229005
201,108,183230,6,0,P|253:84|276:48,1,90.9999972229005
383,233,183546,2,0,P|330:256|307:292,1,90.9999972229005
140,176,183861,1,0,0:0:0:0:
383,233,184493,6,0,P|351:185|299:169,1,90.9999972229005
123,209,184809,2,0,P|136:265|180:297,1,90.9999972229005
359,309,185125,2,0,P|350:251|309:215,1,90.9999972229005
151,137,185440,2,0,P|139:193|165:241,1,90.9999972229005
287,353,185756,1,0,0:0:0:0:
120,217,186388,6,0,P|139:146|173:123,1,90.9999972229005
346,219,186703,2,0,P|274:236|237:218,1,90.9999972229005
252,33,187019,1,8,0:0:0:0:
224,208,187967,6,0,P|280:172|288:120,1,90.9999972229005
456,260,188282,2,0,P|391:274|365:320,1,90.9999972229005
184,232,188598,2,0,P|239:196|248:144,1,90.9999972229005,0|0,3:0|3:0,3:0:0:0:
392,316,188914,6,0,P|327:301|301:255,1,90.9999972229005,0|0,3:0|3:0,3:0:0:0:
168,144,189230,2,0,P|232:158|258:204,1,90.9999972229005,0|0,3:3|3:3,3:3:0:0:
440,236,189546,6,0,P|375:221|349:175,1,90.9999972229005,0|0,3:3|3:3,3:3:0:0:
180,292,189861,2,0,P|236:328|244:380,1,90.9999972229005,0|0,3:3|3:3,3:3:0:0:
368,188,190177,2,0,P|327:135|337:83,1,90.9999972229005,0|0,3:3|3:3,3:3:0:0:
172,240,190493,2,0,P|191:303|164:348,1,90.9999972229005,0|0,3:3|3:3,3:3:0:0:
256,96,190809,1,0,0:0:0:0:
244,292,191440,6,0,P|196:260|184:212,1,90.9999972229005,0|0,3:0|3:0,3:0:0:0:
380,188,191756,2,0,P|415:235|410:284,1,90.9999972229005,0|0,3:0|3:0,3:0:0:0:
216,212,192072,6,0,P|189:161|142:146,1,90.9999972229005,0|0,3:0|3:0,3:0:0:0:
48,316,192388,2,0,P|92:355|141:354,1,90.9999972229005,0|0,3:0|3:0,3:0:0:0:
152,160,192703,2,0,P|99:140|53:157,1,90.9999972229005,0|0,3:0|3:0,3:0:0:0:
124,340,193019,2,0,P|182:342|220:309,1,90.9999972229005,0|0,3:0|3:0,3:0:0:0:
72,176,193335,6,0,P|18:194|-6:238,1,90.9999972229005,0|0,3:0|3:0,3:0:0:0:
208,324,193651,2,0,P|220:268|194:226,1,90.9999972229005,0|0,3:0|3:0,3:0:0:0:
277,181,194598,6,0,P|232:128|184:124,1,90.9999972229005
68,264,194914,2,0,P|136:251|163:211,1,90.9999972229005
88,48,195230,2,0,P|64:113|85:157,1,90.9999972229005
277,181,195546,2,0,P|232:127|184:124,1,90.9999972229005,0|0,3:0|3:0,3:0:0:0:
68,264,195861,1,0,0:0:0:0:
104,284,196493,6,0,P|176:268|208:280,1,90.9999972229005
312,112,196809,2,0,P|240:128|208:116,1,90.9999972229005
308,328,197125,1,0,0:0:0:0:
300,296,198072,6,0,P|336:240|332:204,1,90.9999972229005
472,128,198388,2,0,P|436:184|440:220,1,90.9999972229005
272,204,198703,2,0,P|308:148|304:112,1,90.9999972229005
440,224,199019,2,0,P|404:280|408:316,1,90.9999972229005,0|0,0:3|0:3,0:3:0:0:
340,148,199335,2,0,P|376:91|372:55,1,90.9999972229005,0|0,0:3|0:3,0:3:0:0:
376,272,199651,1,0,0:0:0:0:
