osu file format v14

[General]
AudioFilename: audio.mp3
AudioLeadIn: 0
PreviewTime: -1
Countdown: 1
SampleSet: Normal
StackLeniency: 0.7
Mode: 0
LetterboxInBreaks: 0
WidescreenStoryboard: 1

[Editor]
Bookmarks: 159230,165546
DistanceSpacing: 2
BeatDivisor: 4
GridSize: 4
TimelineZoom: 1

[Metadata]
Title:Dreams
TitleUnicode:Dreams
Artist:Adventure Club
ArtistUnicode:Adventure Club
Creator:Yuuki Konno
Version:Hard
Source:
Tags:
BeatmapID:1255222
BeatmapSetID:593213

[Difficulty]
HPDrainRate:4
CircleSize:3.5
OverallDifficulty:6
ApproachRate:9
SliderMultiplier:2
SliderTickRate:1

[Events]
//Background and Video events
0,0,"Dreams.jpg",0,0
//Break Periods
//Storyboard Layer 0 (Background)
//Storyboard Layer 1 (Fail)
//Storyboard Layer 2 (Pass)
//Storyboard Layer 3 (Foreground)
//Storyboard Sound Samples

[TimingPoints]
5125,631.578947368421,4,1,0,100,1,0
65756,-66.6666666666667,4,1,0,100,0,0
88493,-66.6666666666667,4,1,0,50,0,0
96072,-133.333333333333,4,1,0,65,0,0
118809,-133.333333333333,4,3,0,100,0,0
158282,-100,4,1,0,70,0,0
159230,-66.6666666666667,4,1,0,70,0,0

[HitObjects]
200,156,5125,6,0,P|248:132|300:136,1,100,2|0,0:0|0:0,0:0:0:0:
268,240,5598,2,0,P|220:264|168:260,1,100,2|0,3:0|3:0,3:0:0:0:
380,88,6388,2,0,L|404:32,2,50
174,262,7019,2,0,L|150:318,2,50
286,65,7651,6,0,P|338:89|390:85,1,100,2|0,0:0|0:0,0:0:0:0:
400,196,8125,2,0,P|353:229|330:276,1,100,2|0,0:0|0:0,0:0:0:0:
100,160,8914,2,0,L|40:136,2,50
353,177,9546,2,0,L|413:201,2,50
134,248,10177,6,0,P|102:200|102:148,1,100,2|0,0:0|0:0,0:0:0:0:
208,184,10651,2,0,P|240:232|240:284,1,100,2|0,0:0|0:0,0:0:0:0:
392,104,11440,2,0,L|436:52,2,50
208,184,12072,2,0,L|164:236,2,50
428,184,12703,6,0,P|428:241|453:286,1,100,2|0,0:0|0:0,0:0:0:0:
357,342,13177,2,0,P|307:313|254:312,1,100,2|0,0:0|0:0,0:0:0:0:
168,100,13967,2,0,L|132:52,2,50
398,144,14598,2,0,L|434:192,2,50
176,156,15230,6,0,P|188:212|240:248,1,100,2|0,0:0|0:0,0:0:0:0:
256,104,15703,2,0,P|212:68|152:64,1,100,2|0,0:0|0:0,0:0:0:0:
112,216,16177,1,8,0:0:0:0:
224,188,16335,1,4,0:0:0:0:
120,132,16493,2,0,L|60:100,2,50
364,200,17125,2,0,L|424:228,2,50
96,216,17756,6,0,P|76:268|88:328,1,100,2|0,0:0|0:0,0:0:0:0:
190,188,18230,2,0,P|154:144|97:125,1,100,2|0,0:0|0:0,0:0:0:0:
24,252,18703,1,0,0:0:0:0:
164,272,18861,1,0,0:0:0:0:
92,192,19019,2,0,L|44:152,2,50
288,260,19651,2,0,L|336:300,2,50
112,128,20282,6,0,P|168:84|216:84,1,100,2|0,0:0|0:0,0:0:0:0:
104,228,20756,2,0,P|37:201|13:159,1,100,2|0,0:0|0:0,0:0:0:0:
180,184,21230,1,8,0:0:0:0:
40,172,21388,1,4,0:0:0:0:
104,244,21546,2,0,P|148:272|204:276,1,100
312,100,22177,2,0,L|356:56,2,50
104,228,22809,2,0,L|60:271,2,50,0|0|0,0:3|0:3|0:3,0:3:0:0:
194,261,23282,6,0,P|234:217|286:201,1,100,2|8,0:0|0:0,0:0:0:0:
336,340,23756,1,4,0:0:0:0:
208,348,23914,1,8,0:0:0:0:
328,256,24072,1,4,0:0:0:0:
320,288,25335,6,0,P|272:296|224:276,1,100
184,184,25809,1,0,0:0:0:0:
284,184,25967,2,0,P|332:192|380:172,1,100
212,64,26598,5,8,0:0:0:0:
188,68,26756,1,4,0:0:0:0:
184,184,26914,1,8,0:0:0:0:
220,176,27072,1,4,0:0:0:0:
112,124,27230,1,8,0:0:0:0:
304,56,27861,6,0,P|352:56|400:88,1,100
416,180,28335,1,0,0:0:0:0:
320,156,28493,2,0,P|272:156|224:188,1,100
380,296,29125,5,8,0:0:0:0:
424,280,29282,1,4,0:0:0:0:
416,180,29440,1,8,0:0:0:0:
368,168,29598,1,4,0:0:0:0:
296,244,29756,1,8,0:0:0:0:
304,104,30388,6,0,P|252:116|192:96,1,100
116,148,30861,1,0,0:0:0:0:
160,236,31019,2,0,P|212:248|272:228,1,100
236,38,31651,5,8,0:0:0:0:
190,37,31809,1,4,0:0:0:0:
96,58,31967,1,8,0:0:0:0:
51,58,32125,1,4,0:0:0:0:
116,148,32282,1,8,0:0:0:0:
192,112,32914,6,0,P|240:96|296:108,1,100
344,188,33388,1,0,0:0:0:0:
252,224,33546,2,0,P|204:208|148:220,1,100
20,316,34177,5,8,0:0:0:0:
56,300,34335,1,4,0:0:0:0:
120,232,34493,1,8,0:0:0:0:
156,216,34651,1,4,0:0:0:0:
176,316,34809,1,8,0:0:0:0:
164,136,35440,6,0,P|220:120|276:132,1,100
300,216,35914,1,0,0:0:0:0:
204,252,36072,2,0,P|148:236|92:248,1,100
259,339,36703,5,8,0:0:0:0:
289,314,36861,1,4,0:0:0:0:
331,191,37019,1,8,0:0:0:0:
300,216,37177,1,4,0:0:0:0:
384,268,37335,1,8,0:0:0:0:
212,188,37967,6,0,P|272:188|316:160,1,100
328,72,38440,1,0,0:0:0:0:
232,92,38598,2,0,P|172:92|128:64,1,100
114,264,39230,5,8,0:0:0:0:
150,281,39388,1,4,0:0:0:0:
260,208,39546,1,8,0:0:0:0:
212,188,39703,1,4,0:0:0:0:
244,303,39861,1,8,0:0:0:0:
96,264,40493,6,0,P|168:240|204:252,1,100
272,300,40967,1,0,0:0:0:0:
340,228,41125,2,0,P|324:164|344:128,1,100
268,64,41598,1,0,0:0:0:0:
180,112,41756,5,8,0:0:0:0:
200,144,41914,1,4,0:0:0:0:
120,220,42072,1,8,0:0:0:0:
88,180,42230,1,4,0:0:0:0:
204,228,42388,1,8,0:0:0:0:
200,264,43019,6,0,P|220:208|256:176,1,100
388,156,43651,6,0,P|332:176|300:212,1,100
256,192,44282,12,0,45546,0:0:0:0:
192,116,48072,5,0,0:0:0:0:
316,200,50598,5,0,0:0:0:0:
164,184,53125,5,0,0:0:0:0:
328,104,55651,6,0,P|392:88|472:136,1,150
448,240,56282,2,0,P|396:200|388:168,1,100
248,24,56914,2,0,L|248:92,1,50
164,132,57230,2,0,L|164:196,1,50
252,228,57546,2,0,P|240:304|208:344,1,100
80,148,58177,6,0,P|100:72|164:44,1,150
164,132,58809,2,0,P|196:184|248:200,1,100
360,48,59440,2,0,L|360:112,1,50
444,156,59756,2,0,L|468:240,1,50
356,216,60072,2,0,L|320:260,1,50
408,308,60388,2,0,L|420:328,2,12.5
276,324,60703,6,0,L|220:324,1,50
144,264,61019,2,0,L|156:284,2,12.5
264,183,61335,2,0,P|314:188|358:218,1,100
175,303,61967,2,0,L|143:263,1,50
148,152,62282,2,0,L|180:192,1,50
295,222,62598,2,0,L|263:182,1,50
268,71,62913,2,0,L|300:111,1,50
396,144,63230,1,0,0:0:0:0:
396,144,64809,5,0,0:0:0:0:
432,180,64967,1,0,0:0:0:0:
308,176,65125,6,0,L|268:136,1,50
268,252,65440,5,0,0:0:0:0:
304,288,65598,1,0,0:0:0:0:
140,256,65756,6,0,P|124:216|124:172,1,75.0000028610231
268,144,66072,2,0,P|269:187|254:228,1,75.0000028610231
124,152,66388,2,0,P|137:111|165:77,1,75.0000028610231
232,216,66703,2,0,P|205:249|167:271,1,75.0000028610231
188,108,67019,1,0,0:0:0:0:
360,208,67651,6,0,P|312:189|279:157,1,75.0000028610231
208,128,67967,2,0,P|248:96|292:84,1,75.0000028610231
432,112,68282,6,0,P|488:124|524:112,1,75.0000028610231
360,208,68598,2,0,P|312:189|279:157,1,75.0000028610231
448,232,68914,2,0,P|493:209|523:174,1,75.0000028610231,0|0,3:0|3:0,3:0:0:0:
376,288,69230,6,0,P|340:250|324:208,1,75.0000028610231,0|0,3:0|3:0,3:0:0:0:
456,124,69546,2,0,P|476:170|476:216,1,75.0000028610231,0|0,3:0|3:0,3:0:0:0:
316,220,69861,2,0,P|312:168|328:125,1,75.0000028610231,0|0,3:0|3:0,3:0:0:0:
184,52,70809,6,0,P|140:40|104:48,1,75.0000028610231
192,192,71125,2,0,P|224:159|235:124,1,75.0000028610231
68,124,71440,2,0,P|79:168|104:195,1,75.0000028610231
184,52,71756,2,0,P|140:40|104:48,1,75.0000028610231
192,192,72072,1,0,0:0:0:0:
316,260,72703,6,0,P|348:227|359:192,1,75.0000028610231
192,192,73019,2,0,P|203:236|228:263,1,75.0000028610231
308,120,73335,1,0,0:0:0:0:
184,136,74282,6,0,P|132:132|96:148,1,75.0000028610231
112,304,74598,2,0,P|162:289|190:262,1,75.0000028610231
108,124,74914,2,0,P|65:154|48:189,1,75.0000028610231
184,276,75230,2,0,P|213:232|217:193,1,75.0000028610231
54,173,75546,2,0,P|41:223|50:261,1,75.0000028610231
196,180,75861,6,0,P|160:148|152:108,1,75.0000028610231
292,36,76177,2,0,P|314:78|308:118,1,75.0000028610231,0|0,3:0|3:0,3:0:0:0:
148,108,76493,2,0,P|141:61|161:25,1,75.0000028610231,0|0,3:0|3:0,3:0:0:0:
300,108,76809,2,0,P|289:154|259:181,1,75.0000028610231,0|0,3:0|3:0,3:0:0:0:
184,32,77125,1,0,0:0:0:0:
388,104,77756,6,0,P|340:100|292:124,1,75.0000028610231
332,272,78072,2,0,P|378:259|415:220,1,75.0000028610231
300,108,78388,6,0,P|260:135|239:185,1,75.0000028610231
278,322,78703,2,0,P|317:294|338:244,1,75.0000028610231
232,140,79019,2,0,P|204:179|201:233,1,75.0000028610231
352,272,79335,2,0,P|364:225|348:173,1,75.0000028610231
200,244,79651,2,0,P|204:291|236:335,1,75.0000028610231,0|0,3:0|3:0,3:0:0:0:
324,188,79967,2,0,P|303:144|258:114,1,75.0000028610231,0|0,3:0|3:0,3:0:0:0:
260,300,80282,1,0,0:0:0:0:
160,220,80914,6,0,P|124:184|116:152,1,75.0000028610231
256,68,81230,2,0,P|277:114|274:146,1,75.0000028610231
117,161,81546,2,0,P|112:110|127:80,1,75.0000028610231
276,137,81861,2,0,P|262:186|239:209,1,75.0000028610231
136,60,82177,1,0,0:0:0:0:
204,165,82809,6,0,P|248:209|268:213,1,75.0000028610231
420,253,83125,2,0,P|376:297|356:301,1,75.0000028610231
276,137,83440,1,0,0:0:0:0:
264,32,84388,6,0,P|312:44|340:68,1,75.0000028610231
264,208,84703,2,0,P|250:160|257:124,1,75.0000028610231
416,108,85019,2,0,P|381:143|346:155,1,75.0000028610231
264,32,85335,6,0,P|216:44|188:68,1,75.0000028610231
264,208,85650,2,0,P|277:160|270:124,1,75.0000028610231
112,112,85967,1,0,0:0:0:0:
212,184,88493,5,0,0:0:0:0:
348,104,91019,5,0,0:0:0:0:
124,172,93546,5,0,0:0:0:0:
220,80,96072,6,0,P|316:88|364:264,1,300.000011444092
172,232,98598,6,0,B|248:212|292:144|292:144|340:64|432:72,1,300.000011444092
408,256,101125,6,0,B|340:204|272:204|224:272|224:272|192:196|212:156,1,300.000011444092
340,72,103651,6,0,B|304:144|324:216|324:216|252:140|180:148,1,300.000011444092
91,132,106177,6,0,P|147:164|347:44,1,300.000011444092
404,176,108703,6,0,P|320:184|192:344,1,300.000011444092
136,152,111230,6,0,B|188:132|288:148|288:148|240:80|224:16,1,300.000011444092
464,152,113756,6,0,B|412:132|312:148|312:148|360:80|376:16,1,300.000011444092
240,72,116282,6,0,P|176:120|260:80,1,300.000011444092
108,136,118809,6,0,P|112:212|192:264,1,150.000005722046
252,236,119756,1,0,0:0:0:0:
292,156,120072,2,0,P|292:96|216:48,1,150.000005722046
168,220,121335,6,0,P|264:200|312:228,1,150.000005722046
384,176,122282,1,0,0:0:0:0:
360,88,122598,2,0,B|312:72|276:80|276:80|232:88|204:80,1,150.000005722046
104,228,123861,6,0,P|148:288|236:268,1,150.000005722046
228,196,124809,1,0,0:0:0:0:
148,152,125125,2,0,P|88:108|108:20,1,150.000005722046
180,12,126072,1,0,0:0:0:0:
236,84,126388,6,0,P|280:144|368:124,1,150.000005722046
388,60,127335,1,0,0:0:0:0:
448,128,127651,2,0,P|420:184|456:268,1,150.000005722046
272,232,128914,6,0,P|240:180|260:88,1,150.000005722046
324,152,129861,1,0,0:0:0:0:
356,236,130177,2,0,B|320:332|320:332|244:364,1,150.000005722046
140,232,131440,6,0,P|172:160|236:128,1,150.000005722046
232,220,132388,1,0,0:0:0:0:
188,300,132703,2,0,B|124:312|124:312|44:260,1,150.000005722046
140,108,133967,6,0,P|212:56|276:64,1,150.000005722046
232,144,134914,1,0,0:0:0:0:
148,172,135230,2,0,P|96:192|80:212,1,75.0000028610231
184,272,135861,2,0,P|236:252|252:231,1,75.0000028610231
211,138,136493,2,0,P|158:158|142:178,1,75.0000028610231
247,238,137125,2,0,P|299:218|315:197,1,75.0000028610231,0|0,3:0|3:0,3:0:0:0:
274,104,137756,2,0,P|221:124|205:144,1,75.0000028610231
310,204,138388,2,0,P|362:184|378:163,1,75.0000028610231,0|0,3:0|3:0,3:0:0:0:
274,104,139019,6,0,P|250:56|254:24,1,75.0000028610231
372,32,139651,2,0,P|396:80|392:112,1,75.0000028610231
297,172,140282,2,0,P|273:124|277:92,1,75.0000028610231
395,100,140914,2,0,P|419:148|415:180,1,75.0000028610231
368,270,141546,6,0,P|320:294|288:290,1,75.0000028610231
296,172,142177,2,0,P|344:148|376:152,1,75.0000028610231
300,293,142809,2,0,P|252:317|220:313,1,75.0000028610231
228,195,143440,2,0,P|276:171|308:175,1,75.0000028610231
182,286,144072,6,0,P|206:334|202:366,1,75.0000028610231
84,358,144704,2,0,P|60:310|64:278,1,75.0000028610231
159,218,145335,2,0,P|183:266|179:298,1,75.0000028610231
61,290,145967,2,0,P|37:242|41:210,1,75.0000028610231
88,120,146599,6,0,P|136:96|168:100,1,75.0000028610231
160,218,147230,2,0,P|112:242|80:238,1,75.0000028610231
156,97,147862,2,0,P|204:73|236:77,1,75.0000028610231
228,195,148493,2,0,P|180:219|148:215,1,75.0000028610231
224,73,149125,6,0,L|300:85,1,75.0000028610231
440,128,149756,2,0,L|364:140,1,75.0000028610231
228,195,150388,2,0,L|304:207,1,75.0000028610231
444,250,151019,2,0,L|368:262,1,75.0000028610231
239,269,151651,6,0,L|227:193,1,75.0000028610231
184,53,152282,2,0,L|172:129,1,75.0000028610231
117,265,152914,2,0,L|105:189,1,75.0000028610231
62,49,153545,2,0,L|50:125,1,75.0000028610231
48,260,154177,5,0,0:0:0:0:
184,260,154493,1,0,0:0:0:0:
192,124,154809,1,0,0:0:0:0:
50,123,155125,1,0,0:0:0:0:
48,260,155440,6,0,L|56:296,1,37.5000014305115
128,260,155756,2,0,L|136:224,1,37.5000014305115
212,264,156072,2,0,L|220:300,1,37.5000014305115
292,264,156388,2,0,L|300:228,1,37.5000014305115
376,268,156703,1,0,0:0:0:0:
376,268,158282,5,0,0:0:0:0:
344,228,158440,1,0,0:0:0:0:
227,204,158598,6,0,L|272:262,1,50
244,356,158914,5,0,0:0:0:0:
212,316,159072,1,0,0:0:0:0:
88,272,159230,6,0,P|76:220|88:188,1,75.0000028610231,2|0,0:0|0:0,0:0:0:0:
242,122,159546,2,0,P|235:174|213:200,1,75.0000028610231,2|0,0:0|0:0,0:0:0:0:
60,176,159861,2,0,P|84:128|113:111,1,75.0000028610231,2|0,0:0|0:0,0:0:0:0:
232,220,160177,2,0,P|192:256|159:262,1,75.0000028610231,2|0,3:0|3:0,3:0:0:0:
152,96,160493,1,8,0:0:0:0:
276,176,161756,6,0,P|340:180|372:160,1,75.0000028610231
220,72,162072,2,0,P|158:90|136:119,1,75.0000028610231
316,116,162388,2,0,P|367:77|379:42,1,75.0000028610231
208,144,162703,6,0,P|172:197|173:235,1,75.0000028610231
320,280,163019,2,0,P|355:226|354:188,1,75.0000028610231
192,228,163335,2,0,P|156:281|157:319,1,75.0000028610231
52,200,164282,6,0,P|52:152|76:116,1,75.0000028610231
224,84,164598,2,0,P|207:129|172:154,1,75.0000028610231
24,112,164914,2,0,P|54:75|96:63,1,75.0000028610231
208,168,165230,2,0,P|166:192|123:189,1,75.0000028610231
152,28,165546,1,8,0:0:0:0:
208,168,166177,6,0,P|284:160|304:168,1,75.0000028610231
304,324,166493,2,0,P|259:262|256:240,1,75.0000028610231
412,196,166809,1,0,0:0:0:0:
208,168,167756,6,0,P|172:124|144:112,1,75.0000028610231
20,208,168072,2,0,P|68:237|99:238,1,75.0000028610231
168,94,168388,2,0,P|112:83|82:92,1,75.0000028610231
88,252,168703,2,0,P|144:242|168:224,1,75.0000028610231
93,80,169019,2,0,P|43:107|26:133,1,75.0000028610231
173,210,169335,6,0,P|198:246|200:284,1,75.0000028610231
61,187,169651,2,0,P|36:151|34:113,1,75.0000028610231
226,154,169967,2,8,P|222:197|199:228,1,75.0000028610231
41,256,170282,2,0,P|44:212|67:181,1,75.0000028610231
184,105,170598,1,0,0:0:0:0:
360,160,171230,6,0,P|392:195|399:235,1,75.0000028610231
253,300,171546,2,0,P|234:256|242:216,1,75.0000028610231
399,258,171861,6,0,P|440:239|488:243,1,75.0000028610231
360,160,172177,2,0,P|319:178|271:175,1,75.0000028610231
397,306,172493,2,0,P|442:302|485:322,1,75.0000028610231
337,210,172809,2,0,P|291:213|248:193,1,75.0000028610231,8|0,0:0|0:0,0:0:0:0:
333,343,173125,6,0,P|397:304|411:278,1,75.0000028610231
264,204,173440,2,0,P|216:262|212:291,1,75.0000028610231
144,336,174388,6,0,P|189:323|233:328,1,75.0000028610231
95,212,174703,2,0,P|50:225|6:220,1,75.0000028610231
144,336,175019,6,0,P|190:339|230:358,1,75.0000028610231
140,203,175334,2,0,P|93:199|53:180,1,75.0000028610231
218,261,175651,1,0,0:0:0:0:
404,240,176282,6,0,P|383:197|353:175,1,75.0000028610231
218,262,176598,2,0,P|265:265|299:250,1,75.0000028610231
244,96,176914,1,0,0:0:0:0:
131,171,177861,6,0,P|104:210|100:247,1,75.0000028610231
259,321,178177,2,0,P|238:278|208:256,1,75.0000028610231
73,343,178493,2,0,P|120:346|154:331,1,75.0000028610231
63,192,178809,6,0,P|46:249|54:283,1,75.0000028610231
213,247,179125,2,0,P|230:190|222:156,1,75.0000028610231
92,269,179440,1,0,0:0:0:0:
123,170,179756,6,0,P|145:211|182:230,1,75.0000028610231
193,61,180072,2,0,P|171:20|134:1,1,75.0000028610231
123,170,180387,2,0,P|166:187|206:178,1,75.0000028610231
108,40,180703,1,0,0:0:0:0:
248,82,181335,5,0,0:0:0:0:
101,68,181967,6,0,P|82:106|83:149,1,75.0000028610231
252,154,182282,2,0,P|256:111|241:71,1,75.0000028610231
95,149,182598,2,0,P|104:190|133:222,1,75.0000028610231
229,86,182914,2,0,P|205:50|167:29,1,75.0000028610231,0|0,3:0|3:0,3:0:0:0:
192,199,183230,6,0,P|189:244|170:282,1,75.0000028610231
95,149,183546,2,0,P|98:104|117:66,1,75.0000028610231
276,164,184493,6,0,P|279:119|298:81,1,75.0000028610231
373,214,184809,2,0,P|370:259|351:297,1,75.0000028610231
297,131,185125,2,0,P|328:98|367:81,1,75.0000028610231
340,232,185441,2,0,P|308:264|269:281,1,75.0000028610231
340,123,185756,1,0,0:0:0:0:
168,72,186388,6,0,P|223:76|257:101,1,75.0000028610231
210,247,186703,2,0,P|185:197|190:155,1,75.0000028610231,0|0,3:0|3:0,3:0:0:0:
340,123,187019,1,0,0:0:0:0:
340,123,187967,6,0,P|309:168|270:185,1,75.0000028610231,0|0,3:0|3:0,3:0:0:0:
165,70,188283,2,0,P|220:74|254:99,1,75.0000028610231
207,245,188598,2,0,P|182:195|187:153,1,75.0000028610231,0|0,3:0|3:0,3:0:0:0:
339,122,188914,6,0,P|302:163|296:205,1,75.0000028610231
434,277,189229,2,0,P|415:224|382:198,1,75.0000028610231,0|0,3:0|3:0,3:0:0:0:
273,317,189546,6,0,P|235:272|231:242,1,75.0000028610231
339,122,189861,2,0,P|359:177|352:206,1,75.0000028610231
195,230,190177,2,0,P|194:171|211:145,1,75.0000028610231
361,202,190493,2,0,P|341:257|317:275,1,75.0000028610231
234,131,190809,1,0,0:0:0:0:
383,178,191440,6,0,P|422:162|473:165,1,75.0000028610231
337,278,191756,2,0,P|298:294|247:291,1,75.0000028610231
234,131,192072,6,0,P|276:129|323:149,1,75.0000028610231,0|0,0:3|0:3,0:3:0:0:
289,304,192388,2,0,P|266:268|260:217,1,75.0000028610231,0|0,0:3|0:3,0:3:0:0:
412,173,192703,2,0,P|392:210|351:240,1,75.0000028610231,0|0,3:3|3:3,3:3:0:0:
234,131,193019,6,0,P|253:93|294:64,1,75.0000028610231,0|0,3:3|3:3,3:3:0:0:
332,245,193335,2,0,P|312:282|271:312,1,75.0000028610231,0|0,3:3|3:3,3:3:0:0:
312,139,193651,2,0,P|350:122|401:126,1,75.0000028610231,0|0,3:3|3:3,3:3:0:0:
262,105,194598,6,0,P|249:159|256:193,1,75.0000028610231
376,248,194914,2,0,P|389:194|382:160,1,75.0000028610231,0|0,3:0|3:0,3:0:0:0:
244,194,195230,2,0,P|231:248|238:282,1,75.0000028610231
342,173,195546,2,0,P|355:119|348:85,1,75.0000028610231,0|0,3:0|3:0,3:0:0:0:
294,263,195861,1,0,0:0:0:0:
256,243,196493,6,0,P|290:196|293:173,1,75.0000028610231
173,115,196809,2,0,P|196:167|215:182,1,75.0000028610231
297,70,197125,1,0,0:0:0:0:
247,175,198072,6,0,P|208:147|169:139,1,75.0000028610231
78,227,198388,2,0,P|124:239|163:234,1,75.0000028610231,0|0,3:0|3:0,3:0:0:0:
159,102,198703,2,0,P|111:105|76:124,1,75.0000028610231,0|0,3:0|3:0,3:0:0:0:
165,228,199019,2,0,P|208:208|235:178,1,75.0000028610231,0|0,3:0|3:0,3:0:0:0:
99,143,199335,2,0,P|64:176|50:213,1,75.0000028610231,0|0,3:0|3:0,3:0:0:0:
186,143,199651,1,0,0:0:0:0:
