osu file format v14

[General]
AudioFilename: audio.mp3
AudioLeadIn: 0
PreviewTime: 168927
Countdown: 0
SampleSet: None
StackLeniency: 0.7
Mode: 3
LetterboxInBreaks: 0
SpecialStyle: 0
WidescreenStoryboard: 1

[Editor]
DistanceSpacing: 0.1
BeatDivisor: 4
GridSize: 32
TimelineZoom: 3.299999

[Metadata]
Title:Rave-up Tonight
TitleUnicode:Rave-up Tonight
Artist:Adust Rain feat.shoota(RAG)
ArtistUnicode:Adust Rain feat.shoota(RAG)
Creator:puxtu
Version:NM
Source:
Tags:Ayyri Fear, and Loathing in Las Vegas Fear Cover J-Pop Electronic Core Post-Hardcore Dance PHASE 2 MOBILE SUIT GUNDAM EXTREME VS. MAXI BOOST
BeatmapID:1576640
BeatmapSetID:747586

[Difficulty]
HPDrainRate:7.5
CircleSize:4
OverallDifficulty:7.5
ApproachRate:10
SliderMultiplier:1.4
SliderTickRate:1

[Events]
//Background and Video events
0,0,"Rave-up Tonight.png",0,0
//Break Periods
//Storyboard Layer 0 (Background)
//Storyboard Layer 1 (Fail)
//Storyboard Layer 2 (Pass)
//Storyboard Layer 3 (Foreground)
//Storyboard Sound Samples

[TimingPoints]
1576,375,4,1,4,50,1,0
33076,-100,4,1,4,50,0,1
45076,-100,4,1,4,50,0,0
72076,-100,4,1,4,50,0,1
97576,-100,4,1,4,50,0,0
109576,324.324324324324,4,1,4,50,1,0
109576,-116.279069767442,4,1,4,50,0,0
125143,-116.279069767442,4,1,4,50,0,1
135521,-116.279069767442,4,1,4,50,0,0
169251,-116.279069767442,4,1,4,50,0,1
190008,-116.279069767442,4,1,4,50,0,0

[HitObjects]
192,192,1576,5,2,0:0:0:0:
64,192,1576,128,0,1857:0:0:0:0:
320,192,1857,1,2,0:0:0:0:
448,192,1857,128,0,2138:0:0:0:0:
64,192,2138,1,2,0:0:0:0:
192,192,2138,128,0,2419:0:0:0:0:
448,192,2419,1,2,0:0:0:0:
320,192,2419,128,0,2701:0:0:0:0:
64,192,2701,1,2,0:0:0:0:
448,192,2701,1,0,0:0:0:0:
192,192,2888,1,0,0:0:0:0:
320,192,2982,1,0,0:0:0:0:
64,192,3076,128,2,3357:0:0:0:0:
192,192,3076,1,4,0:0:0:0:
448,192,3076,1,0,0:0:0:0:
320,192,3357,128,2,3638:0:0:0:0:
192,192,3357,1,4,0:0:0:0:
448,192,3357,1,0,0:0:0:0:
192,192,3638,128,4,3919:0:0:0:0:
448,192,3638,1,0,0:0:0:0:
64,192,3638,1,2,0:0:0:0:
448,192,3919,128,0,4201:0:0:0:0:
320,192,3919,1,4,0:0:0:0:
64,192,3919,1,2,0:0:0:0:
320,192,4201,1,0,0:0:0:0:
64,192,4201,1,2,0:0:0:0:
192,192,4201,1,4,0:0:0:0:
448,192,4388,1,4,0:0:0:0:
64,192,4388,1,2,0:0:0:0:
320,192,4388,1,0,0:0:0:0:
64,192,6076,128,2,6263:0:0:0:0:
448,192,6076,1,0,0:0:0:0:
192,192,6076,1,4,0:0:0:0:
448,192,6451,128,2,6638:0:0:0:0:
320,192,6638,1,2,0:0:0:0:
448,192,6826,128,2,7013:0:0:0:0:
64,192,7201,128,2,7388:0:0:0:0:
320,192,7388,128,2,7576:0:0:0:0:
192,192,7763,128,2,7951:0:0:0:0:
448,192,7951,1,2,0:0:0:0:
320,192,8138,128,2,8326:0:0:0:0:
64,192,8513,128,2,8701:0:0:0:0:
448,192,8701,1,2,0:0:0:0:
192,192,9076,128,2,9263:0:0:0:0:
64,192,9451,128,2,9638:0:0:0:0:
192,192,9638,1,2,0:0:0:0:
320,192,9826,128,2,10013:0:0:0:0:
448,192,10201,128,2,10388:0:0:0:0:
192,192,10388,128,2,10576:0:0:0:0:
320,192,10763,128,2,10951:0:0:0:0:
64,192,10951,1,2,0:0:0:0:
192,192,11138,128,2,11326:0:0:0:0:
448,192,11513,128,2,11701:0:0:0:0:
64,192,11701,128,2,11888:0:0:0:0:
320,192,12076,128,2,12263:0:0:0:0:
192,192,12451,128,2,12638:0:0:0:0:
448,192,12638,1,2,0:0:0:0:
192,192,12826,128,2,13013:0:0:0:0:
448,192,13201,128,2,13388:0:0:0:0:
192,192,13388,128,2,13576:0:0:0:0:
320,192,13763,128,2,13951:0:0:0:0:
64,192,13951,1,2,0:0:0:0:
192,192,14138,128,2,14326:0:0:0:0:
448,192,14513,128,2,14701:0:0:0:0:
192,192,14701,128,2,14888:0:0:0:0:
64,192,14701,1,2,0:0:0:0:
64,192,14888,128,2,15076:0:0:0:0:
320,192,15076,128,2,15263:0:0:0:0:
448,192,15451,128,2,15638:0:0:0:0:
192,192,15638,1,2,0:0:0:0:
64,192,15826,128,2,16013:0:0:0:0:
448,192,16201,128,2,16388:0:0:0:0:
192,192,16388,128,2,16576:0:0:0:0:
320,192,16763,128,2,16951:0:0:0:0:
64,192,16951,1,2,0:0:0:0:
192,192,17138,128,2,17326:0:0:0:0:
448,192,17513,128,2,17701:0:0:0:0:
64,192,17701,128,2,18076:0:0:0:0:
448,192,18076,128,2,18263:0:0:0:0:
192,192,18076,1,0,0:0:0:0:
320,192,18076,1,4,0:0:0:0:
64,192,18451,128,2,18638:0:0:0:0:
192,192,18638,1,2,0:0:0:0:
64,192,18826,128,2,19013:0:0:0:0:
448,192,19201,128,2,19388:0:0:0:0:
192,192,19388,128,2,19576:0:0:0:0:
320,192,19763,128,2,19951:0:0:0:0:
64,192,19951,1,2,0:0:0:0:
192,192,20138,128,2,20326:0:0:0:0:
320,192,20326,1,2,0:0:0:0:
448,192,20513,128,2,20701:0:0:0:0:
64,192,20701,128,2,20888:0:0:0:0:
320,192,20888,128,2,21076:0:0:0:0:
64,192,21076,1,0,0:0:0:0:
192,192,21076,1,4,0:0:0:0:
448,192,21076,128,2,21263:0:0:0:0:
64,192,21451,128,2,21638:0:0:0:0:
320,192,21638,1,2,0:0:0:0:
192,192,21826,128,2,22013:0:0:0:0:
448,192,22201,128,2,22388:0:0:0:0:
320,192,22388,128,2,22576:0:0:0:0:
192,192,22763,128,2,22951:0:0:0:0:
448,192,22951,1,2,0:0:0:0:
320,192,23138,128,2,23326:0:0:0:0:
64,192,23513,128,2,23701:0:0:0:0:
448,192,23701,128,2,24076:0:0:0:0:
192,192,24076,1,0,0:0:0:0:
320,192,24076,1,4,0:0:0:0:
64,192,24076,1,2,0:0:0:0:
