osu file format v14

[General]
AudioFilename: audio.mp3
AudioLeadIn: 0
PreviewTime: 168927
Countdown: 0
SampleSet: Normal
StackLeniency: 0.7
Mode: 3
LetterboxInBreaks: 0
SpecialStyle: 0
WidescreenStoryboard: 1

[Editor]
DistanceSpacing: 0.1
BeatDivisor: 4
GridSize: 32
TimelineZoom: 3.299999

[Metadata]
Title:Rave-up Tonight
TitleUnicode:Rave-up Tonight
Artist:Adust Rain feat.shoota(RAG)
ArtistUnicode:Adust Rain feat.shoota(RAG)
Creator:puxtu
Version:MX
Source:
Tags:Ayyri Fear, and Loathing in Las Vegas Fear Cover J-Pop Electronic Core Post-Hardcore Dance PHASE 2 MOBILE SUIT GUNDAM EXTREME VS. MAXI BOOST
BeatmapID:1575226
BeatmapSetID:747586

[Difficulty]
HPDrainRate:8.5
CircleSize:4
OverallDifficulty:8.5
ApproachRate:10
SliderMultiplier:1.4
SliderTickRate:1

[Events]
//Background and Video events
0,0,"Rave-up Tonight.png",0,0
//Break Periods
//Storyboard Layer 0 (Background)
//Storyboard Layer 1 (Fail)
//Storyboard Layer 2 (Pass)
//Storyboard Layer 3 (Foreground)
//Storyboard Sound Samples

[TimingPoints]
1576,375,4,1,4,50,1,0
33076,-100,4,1,4,50,0,1
45076,-100,4,1,4,50,0,0
72076,-100,4,1,4,50,0,1
97576,-100,4,1,4,50,0,0
109576,324.324324324324,4,1,4,50,1,0
109576,-116.279069767442,4,1,4,50,0,0
125143,-116.279069767442,4,1,4,50,0,1
135521,-116.279069767442,4,1,4,50,0,0
169251,-116.279069767442,4,1,4,50,0,1
190008,-116.279069767442,4,1,4,50,0,0

[HitObjects]
320,192,1576,5,2,0:0:0:0:
448,192,1576,128,0,1857:0:0:0:0:
64,192,1857,128,0,2138:0:0:0:0:
192,192,1857,1,2,0:0:0:0:
320,192,2138,128,0,2419:0:0:0:0:
448,192,2138,1,2,0:0:0:0:
192,192,2419,128,0,2701:0:0:0:0:
64,192,2419,1,2,0:0:0:0:
64,192,2701,1,0,0:0:0:0:
448,192,2701,1,2,0:0:0:0:
448,192,2888,1,0,0:0:0:0:
320,192,2888,1,2,0:0:0:0:
64,192,2982,1,0,0:0:0:0:
192,192,2982,1,2,0:0:0:0:
64,192,3076,1,0,0:0:0:0:
320,192,3076,1,4,0:0:0:0:
448,192,3076,128,2,3357:0:0:0:0:
64,192,3357,1,0,0:0:0:0:
320,192,3357,1,4,0:0:0:0:
192,192,3357,128,2,3638:0:0:0:0:
448,192,3638,1,2,0:0:0:0:
64,192,3638,1,0,0:0:0:0:
320,192,3638,128,4,3919:0:0:0:0:
448,192,3919,1,2,0:0:0:0:
192,192,3919,1,4,0:0:0:0:
64,192,3919,128,0,4201:0:0:0:0:
320,192,4201,1,4,0:0:0:0:
448,192,4201,1,2,0:0:0:0:
192,192,4201,1,0,0:0:0:0:
192,192,4388,1,0,0:0:0:0:
448,192,4388,1,2,0:0:0:0:
64,192,4388,1,4,0:0:0:0:
320,192,6076,1,4,0:0:0:0:
64,192,6076,1,0,0:0:0:0:
448,192,6076,128,2,6263:0:0:0:0:
64,192,6451,128,2,6638:0:0:0:0:
192,192,6638,1,2,0:0:0:0:
64,192,6826,128,2,7013:0:0:0:0:
448,192,7201,128,2,7388:0:0:0:0:
192,192,7388,128,2,7576:0:0:0:0:
320,192,7763,128,2,7951:0:0:0:0:
64,192,7951,1,2,0:0:0:0:
192,192,8138,128,2,8326:0:0:0:0:
448,192,8513,128,2,8701:0:0:0:0:
64,192,8701,1,2,0:0:0:0:
320,192,9076,128,2,9263:0:0:0:0:
448,192,9451,128,2,9638:0:0:0:0:
320,192,9638,1,2,0:0:0:0:
192,192,9826,128,2,10013:0:0:0:0:
64,192,10201,128,2,10388:0:0:0:0:
320,192,10388,128,2,10576:0:0:0:0:
192,192,10763,128,2,10951:0:0:0:0:
448,192,10951,1,2,0:0:0:0:
320,192,11138,128,2,11326:0:0:0:0:
64,192,11513,128,2,11701:0:0:0:0:
448,192,11701,128,2,11888:0:0:0:0:
192,192,12076,128,2,12263:0:0:0:0:
320,192,12451,128,2,12638:0:0:0:0:
64,192,12638,1,2,0:0:0:0:
320,192,12826,128,2,13013:0:0:0:0:
64,192,13201,128,2,13388:0:0:0:0:
320,192,13388,128,2,13576:0:0:0:0:
192,192,13763,128,2,13951:0:0:0:0:
448,192,13951,1,2,0:0:0:0:
320,192,14138,128,2,14326:0:0:0:0:
64,192,14513,128,2,14701:0:0:0:0:
448,192,14701,1,2,0:0:0:0:
320,192,14701,128,2,14888:0:0:0:0:
448,192,14888,128,2,15076:0:0:0:0:
192,192,15076,128,2,15263:0:0:0:0:
64,192,15451,128,2,15638:0:0:0:0:
320,192,15638,1,2,0:0:0:0:
448,192,15826,128,2,16013:0:0:0:0:
64,192,16201,128,2,16388:0:0:0:0:
320,192,16388,128,2,16576:0:0:0:0:
192,192,16763,128,2,16951:0:0:0:0:
448,192,16951,1,2,0:0:0:0:
320,192,17138,128,2,17326:0:0:0:0:
64,192,17513,128,2,17701:0:0:0:0:
448,192,17701,128,2,18076:0:0:0:0:
192,192,18076,1,4,0:0:0:0:
320,192,18076,1,0,0:0:0:0:
64,192,18076,128,2,18263:0:0:0:0:
448,192,18451,128,2,18638:0:0:0:0:
320,192,18638,1,2,0:0:0:0:
448,192,18826,128,2,19013:0:0:0:0:
64,192,19201,128,2,19388:0:0:0:0:
320,192,19388,128,2,19576:0:0:0:0:
192,192,19763,128,2,19951:0:0:0:0:
448,192,19951,1,2,0:0:0:0:
320,192,20138,128,2,20326:0:0:0:0:
192,192,20326,1,2,0:0:0:0:
64,192,20513,128,2,20701:0:0:0:0:
448,192,20701,128,2,20888:0:0:0:0:
192,192,20888,128,2,21076:0:0:0:0:
64,192,21076,128,2,21263:0:0:0:0:
320,192,21076,1,4,0:0:0:0:
448,192,21076,1,0,0:0:0:0:
448,192,21451,128,2,21638:0:0:0:0:
192,192,21638,1,2,0:0:0:0:
320,192,21826,128,2,22013:0:0:0:0:
64,192,22201,128,2,22388:0:0:0:0:
192,192,22388,128,2,22576:0:0:0:0:
320,192,22763,128,2,22951:0:0:0:0:
64,192,22951,1,2,0:0:0:0:
192,192,23138,128,2,23326:0:0:0:0:
448,192,23513,128,2,23701:0:0:0:0:
64,192,23701,128,2,24076:0:0:0:0:
448,192,24076,128,2,24263:0:0:0:0:
192,192,24076,1,4,0:0:0:0:
320,192,24076,1,0,0:0:0:0:
192,192,24451,128,2,24638:0:0:0:0:
320,192,24451,1,0,0:0:0:0:
64,192,24638,1,2,0:0:0:0:
192,192,24826,128,2,25013:0:0:0:0:
448,192,24826,1,0,0:0:0:0:
448,192,25201,128,2,25388:0:0:0:0:
64,192,25201,1,0,0:0:0:0:
192,192,25388,128,2,25576:0:0:0:0:
448,192,25576,1,0,0:0:0:0:
64,192,25576,1,2,0:0:0:0:
320,192,25763,128,2,25951:0:0:0:0:
64,192,25951,1,2,0:0:0:0:
192,192,25951,1,2,0:0:0:0:
192,192,26138,128,2,26326:0:0:0:0:
320,192,26326,1,2,0:0:0:0:
448,192,26326,1,0,0:0:0:0:
448,192,26513,128,2,26701:0:0:0:0:
64,192,26701,1,2,0:0:0:0:
192,192,26701,128,2,26888:0:0:0:0:
64,192,26888,128,2,27076:0:0:0:0:
320,192,27076,128,2,27263:0:0:0:0:
448,192,27076,1,4,0:0:0:0:
192,192,27076,1,0,0:0:0:0:
448,192,27451,128,2,27638:0:0:0:0:
64,192,27451,1,0,0:0:0:0:
192,192,27638,1,2,0:0:0:0:
64,192,27826,128,2,28013:0:0:0:0:
320,192,27826,1,0,0:0:0:0:
448,192,28201,128,2,28388:0:0:0:0:
320,192,28201,1,0,0:0:0:0:
192,192,28388,128,2,28576:0:0:0:0:
448,192,28576,1,0,0:0:0:0:
320,192,28576,1,2,0:0:0:0:
192,192,28763,128,0,28951:0:0:0:0:
64,192,28763,1,2,0:0:0:0:
320,192,28951,1,0,0:0:0:0:
448,192,28951,1,2,0:0:0:0:
64,192,29138,128,2,29326:0:0:0:0:
192,192,29138,1,0,0:0:0:0:
320,192,29326,1,2,0:0:0:0:
448,192,29326,1,0,0:0:0:0:
448,192,29513,128,2,29701:0:0:0:0:
192,192,29513,1,0,0:0:0:0:
64,192,29701,128,2,29888:0:0:0:0:
320,192,29701,1,0,0:0:0:0:
192,192,29888,1,2,0:0:0:0:
448,192,29888,1,0,0:0:0:0:
448,192,30076,128,2,30638:0:0:0:0:
320,192,30076,128,4,30638:0:0:0:0:
64,192,30076,128,0,30638:0:0:0:0:
192,192,30638,1,0,0:0:0:0:
448,192,30826,128,2,31388:0:0:0:0:
320,192,30826,128,4,31388:0:0:0:0:
64,192,30826,128,0,31388:0:0:0:0:
192,192,31388,1,0,0:0:0:0:
64,192,31576,1,0,0:0:0:0:
320,192,31576,1,4,0:0:0:0:
448,192,31576,1,2,0:0:0:0:
448,192,31763,1,2,0:0:0:0:
320,192,31763,1,4,0:0:0:0:
64,192,31763,1,0,0:0:0:0:
64,192,31951,1,0,0:0:0:0:
320,192,31951,1,4,0:0:0:0:
448,192,31951,1,2,0:0:0:0:
448,192,32138,1,2,0:0:0:0:
320,192,32138,1,4,0:0:0:0:
64,192,32138,1,0,0:0:0:0:
64,192,32326,1,2,0:0:0:0:
192,192,32326,1,0,0:0:0:0:
448,192,32419,1,0,0:0:0:0:
320,192,32419,1,2,0:0:0:0:
64,192,32513,1,2,0:0:0:0:
192,192,32513,1,0,0:0:0:0:
320,192,32607,1,2,0:0:0:0:
448,192,32607,1,0,0:0:0:0:
192,192,32701,1,0,0:0:0:0:
64,192,32701,1,2,0:0:0:0:
448,192,32701,1,8,0:0:0:0:
448,192,33076,1,2,0:0:0:0:
320,192,33076,1,0,0:0:0:0:
64,192,33076,1,4,0:0:0:0:
192,192,33169,1,2,0:0:0:0:
64,192,33263,1,2,0:0:0:0:
448,192,33263,1,2,0:0:0:0:
320,192,33357,1,2,0:0:0:0:
64,192,33451,1,2,0:0:0:0:
192,192,33451,1,8,0:0:0:0:
448,192,33451,1,0,0:0:0:0:
320,192,33544,1,2,0:0:0:0:
448,192,33638,1,2,0:0:0:0:
64,192,33638,1,2,0:0:0:0:
192,192,33732,1,2,0:0:0:0:
320,192,33826,1,0,0:0:0:0:
448,192,33826,128,2,34013:0:0:0:0:
192,192,34107,1,2,0:0:0:0:
448,192,34107,128,2,34294:0:0:0:0:
320,192,34201,1,0,0:0:0:0:
64,192,34201,1,8,0:0:0:0:
192,192,34388,1,2,0:0:0:0:
448,192,34388,128,2,34763:0:0:0:0:
320,192,34576,1,0,0:0:0:0:
64,192,34576,1,2,0:0:0:0:
192,192,34763,1,2,0:0:0:0:
320,192,34763,1,2,0:0:0:0:
64,192,34951,1,2,0:0:0:0:
192,192,34951,1,8,0:0:0:0:
448,192,34951,128,0,35138:0:0:0:0:
64,192,35138,1,2,0:0:0:0:
320,192,35138,1,2,0:0:0:0:
192,192,35232,1,2,0:0:0:0:
320,192,35326,1,0,0:0:0:0:
448,192,35326,128,2,35513:0:0:0:0:
64,192,35513,1,2,0:0:0:0:
192,192,35513,1,2,0:0:0:0:
320,192,35607,1,2,0:0:0:0:
448,192,35701,1,0,0:0:0:0:
192,192,35701,1,8,0:0:0:0:
64,192,35701,128,2,35888:0:0:0:0:
320,192,35888,1,2,0:0:0:0:
192,192,35888,1,2,0:0:0:0:
64,192,36076,1,0,0:0:0:0:
448,192,36076,128,2,36263:0:0:0:0:
192,192,36263,1,2,0:0:0:0:
320,192,36263,128,2,36451:0:0:0:0:
64,192,36451,1,8,0:0:0:0:
448,192,36451,1,0,0:0:0:0:
192,192,36451,128,2,36638:0:0:0:0:
320,192,36638,1,2,0:0:0:0:
448,192,36638,128,2,36826:0:0:0:0:
192,192,36826,1,0,0:0:0:0:
64,192,36826,128,2,37013:0:0:0:0:
192,192,37107,1,2,0:0:0:0:
64,192,37107,128,2,37294:0:0:0:0:
448,192,37201,1,0,0:0:0:0:
320,192,37201,1,8,0:0:0:0:
192,192,37388,1,2,0:0:0:0:
64,192,37388,128,2,37763:0:0:0:0:
448,192,37576,1,0,0:0:0:0:
320,192,37576,1,2,0:0:0:0:
448,192,37763,1,2,0:0:0:0:
192,192,37763,128,2,37951:0:0:0:0:
64,192,37951,1,2,0:0:0:0:
320,192,37951,1,8,0:0:0:0:
448,192,37951,128,0,38138:0:0:0:0:
192,192,38138,1,2,0:0:0:0:
320,192,38138,1,2,0:0:0:0:
64,192,38232,1,2,0:0:0:0:
320,192,38326,1,0,0:0:0:0:
448,192,38326,128,2,38513:0:0:0:0:
64,192,38513,1,2,0:0:0:0:
192,192,38513,1,2,0:0:0:0:
320,192,38607,1,2,0:0:0:0:
448,192,38701,1,0,0:0:0:0:
192,192,38701,1,8,0:0:0:0:
64,192,38701,128,2,39076:0:0:0:0:
320,192,38888,1,2,0:0:0:0:
192,192,39076,1,0,0:0:0:0:
320,192,39076,1,2,0:0:0:0:
448,192,39076,1,4,0:0:0:0:
64,192,39169,1,2,0:0:0:0:
192,192,39263,1,2,0:0:0:0:
320,192,39263,1,2,0:0:0:0:
448,192,39357,1,2,0:0:0:0:
320,192,39451,1,0,0:0:0:0:
192,192,39451,1,8,0:0:0:0:
64,192,39451,1,2,0:0:0:0:
448,192,39544,1,2,0:0:0:0:
192,192,39638,1,2,0:0:0:0:
320,192,39638,1,2,0:0:0:0:
64,192,39732,1,2,0:0:0:0:
320,192,39826,1,0,0:0:0:0:
448,192,39826,128,2,40013:0:0:0:0:
320,192,40107,1,2,0:0:0:0:
448,192,40107,128,2,40294:0:0:0:0:
192,192,40201,1,8,0:0:0:0:
64,192,40201,1,0,0:0:0:0:
320,192,40388,1,2,0:0:0:0:
448,192,40388,128,2,40763:0:0:0:0:
64,192,40576,1,2,0:0:0:0:
192,192,40576,1,0,0:0:0:0:
192,192,40763,1,2,0:0:0:0:
320,192,40763,1,2,0:0:0:0:
320,192,40951,1,8,0:0:0:0:
448,192,40951,1,2,0:0:0:0:
64,192,40951,128,0,41138:0:0:0:0:
192,192,41138,1,2,0:0:0:0:
448,192,41138,1,2,0:0:0:0:
320,192,41232,1,2,0:0:0:0:
192,192,41326,1,0,0:0:0:0:
64,192,41326,128,2,41513:0:0:0:0:
448,192,41513,1,2,0:0:0:0:
320,192,41513,1,2,0:0:0:0:
192,192,41607,1,2,0:0:0:0:
320,192,41701,1,8,0:0:0:0:
448,192,41701,1,0,0:0:0:0:
64,192,41701,128,2,42076:0:0:0:0:
192,192,41888,1,2,0:0:0:0:
192,192,42076,1,2,0:0:0:0:
320,192,42076,1,0,0:0:0:0:
448,192,42076,128,4,42451:0:0:0:0:
64,192,42263,1,2,0:0:0:0:
64,192,42451,1,2,0:0:0:0:
192,192,42451,1,8,0:0:0:0:
320,192,42451,1,0,0:0:0:0:
448,192,42638,1,2,0:0:0:0:
192,192,42638,1,2,0:0:0:0:
320,192,42732,1,2,0:0:0:0:
192,192,42826,1,2,0:0:0:0:
64,192,42826,128,0,43107:0:0:0:0:
320,192,43107,1,2,0:0:0:0:
448,192,43107,128,2,43388:0:0:0:0:
192,192,43201,1,8,0:0:0:0:
64,192,43201,1,0,0:0:0:0:
192,192,43388,1,0,0:0:0:0:
64,192,43388,1,4,0:0:0:0:
320,192,43388,128,2,43763:0:0:0:0:
448,192,43763,1,0,0:0:0:0:
192,192,43763,1,8,0:0:0:0:
64,192,43763,1,2,0:0:0:0:
64,192,43951,1,2,0:0:0:0:
192,192,43951,1,8,0:0:0:0:
448,192,43951,1,0,0:0:0:0:
192,192,44138,1,2,0:0:0:0:
320,192,44138,1,0,0:0:0:0:
448,192,44326,1,0,0:0:0:0:
320,192,44326,1,8,0:0:0:0:
64,192,44326,1,2,0:0:0:0:
192,192,44513,1,2,0:0:0:0:
320,192,44513,1,0,0:0:0:0:
64,192,44701,1,0,0:0:0:0:
192,192,44701,1,8,0:0:0:0:
448,192,44794,1,0,0:0:0:0:
320,192,44794,1,8,0:0:0:0:
64,192,44888,1,0,0:0:0:0:
192,192,44888,1,8,0:0:0:0:
320,192,44982,1,8,0:0:0:0:
448,192,44982,1,0,0:0:0:0:
64,192,45076,1,4,0:0:0:0:
448,192,45076,1,0,0:0:0:0:
192,192,45076,1,2,0:0:0:0:
320,192,45451,1,4,3:0:0:0:
64,192,45451,1,0,0:0:0:0:
192,192,45638,128,2,45826:0:0:0:0:
448,192,45638,1,0,0:0:0:0:
64,192,45826,1,0,0:0:0:0:
320,192,45826,1,4,3:0:0:0:
448,192,46201,1,4,3:0:0:0:
192,192,46201,1,0,0:0:0:0:
320,192,46388,128,2,46576:0:0:0:0:
64,192,46388,1,0,0:0:0:0:
448,192,46576,1,4,3:0:0:0:
192,192,46576,1,0,0:0:0:0:
320,192,46763,1,0,0:0:0:0:
192,192,46951,1,4,3:0:0:0:
64,192,46951,1,0,0:0:0:0:
448,192,47138,128,2,47326:0:0:0:0:
64,192,47326,1,0,0:0:0:0:
192,192,47326,1,4,3:0:0:0:
192,192,47513,1,0,0:0:0:0:
448,192,47701,1,4,3:0:0:0:
320,192,47701,1,0,0:0:0:0:
64,192,47888,128,2,48076:0:0:0:0:
448,192,48076,1,4,3:0:0:0:
320,192,48076,1,0,0:0:0:0:
192,192,48263,1,0,0:0:0:0:
320,192,48357,1,0,0:0:0:0:
64,192,48451,1,0,0:0:0:0:
448,192,48451,1,4,3:0:0:0:
192,192,48638,128,2,48826:0:0:0:0:
320,192,48638,1,0,0:0:0:0:
448,192,48826,1,4,3:0:0:0:
64,192,48826,1,0,0:0:0:0:
64,192,49201,1,0,0:0:0:0:
448,192,49201,1,4,3:0:0:0:
320,192,49388,128,2,49576:0:0:0:0:
192,192,49388,1,0,0:0:0:0:
64,192,49576,1,0,0:0:0:0:
448,192,49576,1,4,3:0:0:0:
320,192,49763,1,0,0:0:0:0:
192,192,49951,1,4,3:0:0:0:
448,192,49951,1,0,0:0:0:0:
320,192,50138,128,2,50326:0:0:0:0:
448,192,50326,1,0,0:0:0:0:
192,192,50326,1,4,3:0:0:0:
448,192,50513,1,0,0:0:0:0:
64,192,50701,1,4,3:0:0:0:
320,192,50701,1,0,0:0:0:0:
192,192,50888,128,2,51076:0:0:0:0:
64,192,51076,1,4,3:0:0:0:
320,192,51076,1,0,0:0:0:0:
192,192,51263,1,0,0:0:0:0:
64,192,51357,1,0,0:0:0:0:
320,192,51451,1,4,3:0:0:0:
448,192,51451,1,0,0:0:0:0:
64,192,51638,128,2,51826:0:0:0:0:
192,192,51638,1,0,0:0:0:0:
448,192,51826,1,0,0:0:0:0:
320,192,51826,1,4,3:0:0:0:
64,192,52201,1,4,3:0:0:0:
192,192,52201,1,0,0:0:0:0:
448,192,52388,128,2,52576:0:0:0:0:
64,192,52576,1,4,3:0:0:0:
192,192,52576,1,0,0:0:0:0:
448,192,52951,1,0,0:0:0:0:
64,192,52951,1,4,3:0:0:0:
320,192,53138,128,2,53326:0:0:0:0:
64,192,53326,1,4,3:0:0:0:
448,192,53326,1,0,0:0:0:0:
192,192,53513,1,0,0:0:0:0:
448,192,53701,1,0,0:0:0:0:
64,192,53701,1,4,3:0:0:0:
192,192,53888,128,2,54076:0:0:0:0:
448,192,54076,1,0,0:0:0:0:
64,192,54076,1,4,3:0:0:0:
448,192,54451,1,0,0:0:0:0:
192,192,54451,1,4,3:0:0:0:
320,192,54638,128,2,54826:0:0:0:0:
64,192,54638,1,0,0:0:0:0:
192,192,54826,1,4,3:0:0:0:
448,192,54826,1,0,0:0:0:0:
320,192,55201,1,0,0:0:0:0:
64,192,55201,1,4,3:0:0:0:
192,192,55388,128,2,55576:0:0:0:0:
448,192,55388,1,0,0:0:0:0:
320,192,55576,1,0,0:0:0:0:
64,192,55576,1,4,3:0:0:0:
64,192,55763,1,0,0:0:0:0:
448,192,55763,1,8,0:0:0:0:
192,192,55763,1,2,0:0:0:0:
64,192,55951,1,0,0:0:0:0:
192,192,55951,1,2,0:0:0:0:
448,192,55951,1,8,0:0:0:0:
192,192,56326,1,2,0:0:0:0:
320,192,56326,1,0,0:0:0:0:
320,192,56513,1,0,0:0:0:0:
448,192,56513,1,8,0:0:0:0:
192,192,56607,1,8,0:0:0:0:
64,192,56607,1,0,0:0:0:0:
320,192,56701,1,0,0:0:0:0:
448,192,56701,1,8,0:0:0:0:
192,192,56794,1,8,0:0:0:0:
64,192,56794,1,0,0:0:0:0:
320,192,56888,1,0,0:0:0:0:
448,192,56888,1,8,0:0:0:0:
64,192,56982,1,0,0:0:0:0:
192,192,56982,1,8,0:0:0:0:
448,192,57076,1,4,0:0:0:0:
320,192,57076,1,2,0:0:0:0:
64,192,57076,1,0,0:0:0:0:
192,192,57263,1,2,0:0:0:0:
320,192,57263,128,2,57451:0:0:0:0:
448,192,57451,1,8,0:0:0:0:
192,192,57451,1,2,0:0:0:0:
64,192,57451,1,0,0:0:0:0:
320,192,57638,1,2,0:0:0:0:
64,192,57638,128,2,57826:0:0:0:0:
448,192,57826,1,0,0:0:0:0:
192,192,57826,1,2,0:0:0:0:
64,192,58013,1,2,0:0:0:0:
448,192,58013,128,2,58201:0:0:0:0:
320,192,58201,1,8,0:0:0:0:
192,192,58201,1,2,0:0:0:0:
64,192,58201,1,0,0:0:0:0:
320,192,58388,1,0,0:0:0:0:
448,192,58388,1,8,0:0:0:0:
448,192,58482,1,8,0:0:0:0:
320,192,58482,1,0,0:0:0:0:
64,192,58576,1,0,0:0:0:0:
192,192,58576,1,2,0:0:0:0:
320,192,58763,1,2,0:0:0:0:
192,192,58763,128,2,58951:0:0:0:0:
64,192,58951,1,8,0:0:0:0:
320,192,58951,1,2,0:0:0:0:
448,192,58951,1,0,0:0:0:0:
192,192,59138,1,2,0:0:0:0:
448,192,59138,128,2,59326:0:0:0:0:
64,192,59326,1,0,0:0:0:0:
320,192,59326,1,2,0:0:0:0:
448,192,59513,1,2,0:0:0:0:
64,192,59513,128,2,59701:0:0:0:0:
192,192,59701,1,8,0:0:0:0:
320,192,59701,1,2,0:0:0:0:
448,192,59701,1,0,0:0:0:0:
192,192,59888,1,0,0:0:0:0:
64,192,59888,1,8,0:0:0:0:
64,192,59982,1,8,0:0:0:0:
192,192,59982,1,0,0:0:0:0:
448,192,60076,1,0,0:0:0:0:
320,192,60076,1,2,0:0:0:0:
64,192,60263,128,2,60451:0:0:0:0:
192,192,60263,1,2,0:0:0:0:
448,192,60451,1,0,0:0:0:0:
320,192,60451,1,2,0:0:0:0:
192,192,60451,1,8,0:0:0:0:
448,192,60638,128,2,60826:0:0:0:0:
64,192,60638,1,2,0:0:0:0:
320,192,60826,1,2,0:0:0:0:
192,192,60826,1,0,0:0:0:0:
320,192,61013,128,2,61201:0:0:0:0:
64,192,61013,1,2,0:0:0:0:
448,192,61201,1,0,0:0:0:0:
64,192,61201,1,2,0:0:0:0:
192,192,61201,1,8,0:0:0:0:
192,192,61388,1,4,3:0:0:0:
320,192,61388,1,0,0:0:0:0:
320,192,61482,1,0,0:0:0:0:
192,192,61482,1,4,3:0:0:0:
64,192,61576,1,2,0:0:0:0:
448,192,61576,1,0,0:0:0:0:
192,192,61763,1,2,0:0:0:0:
320,192,61763,128,2,61951:0:0:0:0:
64,192,61951,1,8,0:0:0:0:
192,192,61951,1,2,0:0:0:0:
448,192,61951,1,0,0:0:0:0:
320,192,62138,1,2,0:0:0:0:
64,192,62138,128,2,62326:0:0:0:0:
192,192,62326,1,0,0:0:0:0:
448,192,62326,1,2,0:0:0:0:
64,192,62513,1,2,0:0:0:0:
320,192,62513,128,2,62701:0:0:0:0:
192,192,62701,1,8,0:0:0:0:
64,192,62701,1,2,0:0:0:0:
448,192,62701,1,0,0:0:0:0:
448,192,62888,1,0,0:0:0:0:
64,192,62888,1,8,3:0:0:0:
64,192,62982,1,8,3:0:0:0:
448,192,62982,1,0,0:0:0:0:
192,192,63076,1,0,0:0:0:0:
320,192,63076,1,2,0:0:0:0:
448,192,63263,128,2,63451:0:0:0:0:
64,192,63263,1,2,0:0:0:0:
192,192,63451,1,0,0:0:0:0:
320,192,63451,1,2,0:0:0:0:
64,192,63451,1,8,0:0:0:0:
192,192,63638,128,2,63826:0:0:0:0:
320,192,63638,1,2,0:0:0:0:
448,192,63826,1,2,0:0:0:0:
64,192,63826,1,0,0:0:0:0:
64,192,64013,128,2,64201:0:0:0:0:
320,192,64013,1,2,0:0:0:0:
448,192,64201,1,0,0:0:0:0:
320,192,64201,1,2,0:0:0:0:
192,192,64201,1,8,0:0:0:0:
64,192,64388,1,4,3:0:0:0:
192,192,64388,1,0,0:0:0:0:
192,192,64482,1,0,0:0:0:0:
64,192,64482,1,4,3:0:0:0:
320,192,64576,1,2,0:0:0:0:
448,192,64576,1,0,0:0:0:0:
64,192,64763,1,2,0:0:0:0:
320,192,64763,128,2,64951:0:0:0:0:
448,192,64951,1,8,0:0:0:0:
192,192,64951,1,2,0:0:0:0:
64,192,64951,1,0,0:0:0:0:
448,192,65138,1,2,0:0:0:0:
64,192,65138,128,2,65326:0:0:0:0:
320,192,65326,1,0,0:0:0:0:
192,192,65326,1,2,0:0:0:0:
64,192,65513,1,2,0:0:0:0:
448,192,65513,128,2,65701:0:0:0:0:
320,192,65701,1,8,0:0:0:0:
192,192,65701,1,2,0:0:0:0:
64,192,65701,1,0,0:0:0:0:
320,192,65888,1,0,0:0:0:0:
448,192,65888,1,8,0:0:0:0:
448,192,65982,1,8,0:0:0:0:
320,192,65982,1,0,0:0:0:0:
64,192,66076,1,0,0:0:0:0:
192,192,66076,1,2,0:0:0:0:
64,192,66263,128,2,66451:0:0:0:0:
320,192,66263,1,2,0:0:0:0:
448,192,66451,1,0,0:0:0:0:
320,192,66451,1,2,0:0:0:0:
192,192,66451,1,8,0:0:0:0:
192,192,66638,128,2,66826:0:0:0:0:
64,192,66638,1,2,0:0:0:0:
320,192,66826,1,2,0:0:0:0:
448,192,66826,1,0,0:0:0:0:
64,192,67013,128,2,67201:0:0:0:0:
192,192,67013,1,2,0:0:0:0:
448,192,67201,1,0,0:0:0:0:
320,192,67201,1,2,0:0:0:0:
192,192,67201,1,8,0:0:0:0:
64,192,67388,1,0,0:0:0:0:
192,192,67388,1,2,0:0:0:0:
448,192,67388,128,4,67763:0:0:0:0:
320,192,67763,1,2,0:0:0:0:
64,192,67763,1,0,0:0:0:0:
192,192,67763,128,8,67951:0:0:0:0:
320,192,67951,1,2,0:0:0:0:
448,192,67951,128,0,68138:0:0:0:0:
320,192,68138,1,2,0:0:0:0:
192,192,68138,1,8,0:0:0:0:
64,192,68138,128,0,68326:0:0:0:0:
192,192,68326,1,2,0:0:0:0:
320,192,68326,128,0,68513:0:0:0:0:
64,192,68513,1,2,0:0:0:0:
448,192,68513,1,0,0:0:0:0:
192,192,68513,128,8,68701:0:0:0:0:
320,192,68701,1,2,0:0:0:0:
448,192,68701,128,0,68888:0:0:0:0:
192,192,68888,1,8,0:0:0:0:
320,192,68888,1,0,0:0:0:0:
64,192,68888,128,2,69076:0:0:0:0:
448,192,69076,1,0,0:0:0:0:
192,192,69076,1,2,0:0:0:0:
320,192,69263,128,2,69451:0:0:0:0:
320,192,69544,128,2,69732:0:0:0:0:
320,192,69826,128,2,70013:0:0:0:0:
320,192,70107,128,2,70294:0:0:0:0:
192,192,70294,1,2,0:0:0:0:
320,192,70388,128,2,70576:0:0:0:0:
192,192,70763,1,4,0:0:0:0:
448,192,70763,1,0,0:0:0:0:
64,192,70763,128,2,71044:0:0:0:0:
192,192,71044,1,4,0:0:0:0:
320,192,71044,1,2,0:0:0:0:
448,192,71044,128,0,71326:0:0:0:0:
320,192,71326,1,2,0:0:0:0:
192,192,71326,1,4,0:0:0:0:
64,192,71326,1,0,0:0:0:0:
448,192,72076,1,0,0:0:0:0:
192,192,72076,1,4,0:0:0:0:
320,192,72076,1,2,0:0:0:0:
64,192,72169,1,2,0:0:0:0:
192,192,72263,1,2,0:0:0:0:
448,192,72357,1,2,0:0:0:0:
64,192,72451,1,8,0:0:0:0:
192,192,72451,1,0,0:0:0:0:
320,192,72451,1,2,0:0:0:0:
448,192,72544,1,2,0:0:0:0:
320,192,72638,1,2,0:0:0:0:
64,192,72732,1,2,0:0:0:0:
192,192,72826,1,0,0:0:0:0:
448,192,72826,1,2,0:0:0:0:
320,192,72919,1,2,0:0:0:0:
192,192,73013,1,2,0:0:0:0:
448,192,73107,1,2,0:0:0:0:
320,192,73201,1,8,0:0:0:0:
64,192,73201,1,0,0:0:0:0:
192,192,73201,1,2,0:0:0:0:
448,192,73294,1,2,0:0:0:0:
64,192,73388,1,2,0:0:0:0:
192,192,73482,1,2,0:0:0:0:
320,192,73576,1,0,0:0:0:0:
64,192,73576,1,2,0:0:0:0:
448,192,73669,1,2,0:0:0:0:
192,192,73763,1,2,0:0:0:0:
320,192,73857,1,2,0:0:0:0:
64,192,73951,1,8,0:0:0:0:
192,192,73951,1,0,0:0:0:0:
448,192,73951,1,2,0:0:0:0:
320,192,74044,1,2,0:0:0:0:
64,192,74138,1,2,0:0:0:0:
192,192,74232,1,2,0:0:0:0:
448,192,74326,1,0,0:0:0:0:
320,192,74326,1,2,0:0:0:0:
64,192,74419,1,2,0:0:0:0:
192,192,74513,1,2,0:0:0:0:
320,192,74607,1,2,0:0:0:0:
448,192,74701,1,8,0:0:0:0:
64,192,74701,1,0,0:0:0:0:
192,192,74701,1,2,0:0:0:0:
320,192,74794,1,2,0:0:0:0:
192,192,74888,1,2,0:0:0:0:
448,192,74982,1,2,0:0:0:0:
320,192,75076,1,0,0:0:0:0:
192,192,75076,1,2,0:0:0:0:
64,192,75169,1,2,0:0:0:0:
192,192,75263,1,2,0:0:0:0:
320,192,75357,1,2,0:0:0:0:
64,192,75451,1,8,0:0:0:0:
192,192,75451,1,0,0:0:0:0:
448,192,75451,1,2,0:0:0:0:
320,192,75544,1,2,0:0:0:0:
448,192,75638,1,2,0:0:0:0:
192,192,75732,1,2,0:0:0:0:
64,192,75826,1,0,0:0:0:0:
320,192,75826,1,2,0:0:0:0:
448,192,75919,1,2,0:0:0:0:
192,192,76013,1,2,0:0:0:0:
64,192,76107,1,2,0:0:0:0:
448,192,76201,1,8,0:0:0:0:
320,192,76201,1,0,0:0:0:0:
192,192,76201,1,2,0:0:0:0:
64,192,76294,1,2,0:0:0:0:
320,192,76388,1,2,0:0:0:0:
192,192,76482,1,2,0:0:0:0:
320,192,76576,1,0,0:0:0:0:
448,192,76576,1,2,0:0:0:0:
64,192,76669,1,2,0:0:0:0:
192,192,76763,1,2,0:0:0:0:
320,192,76857,1,2,0:0:0:0:
64,192,76951,1,8,0:0:0:0:
192,192,76951,1,0,0:0:0:0:
448,192,76951,1,2,0:0:0:0:
320,192,77044,1,2,0:0:0:0:
448,192,77138,1,2,0:0:0:0:
192,192,77232,1,2,0:0:0:0:
64,192,77326,1,0,0:0:0:0:
320,192,77326,1,2,0:0:0:0:
448,192,77419,1,2,0:0:0:0:
320,192,77513,1,2,0:0:0:0:
192,192,77607,1,2,0:0:0:0:
448,192,77701,1,8,0:0:0:0:
320,192,77701,1,0,0:0:0:0:
64,192,77701,1,2,0:0:0:0:
192,192,77794,1,2,0:0:0:0:
448,192,77888,1,2,0:0:0:0:
320,192,77982,1,2,0:0:0:0:
64,192,78076,1,0,0:0:0:0:
448,192,78076,1,4,0:0:0:0:
192,192,78076,1,2,0:0:0:0:
320,192,78169,1,2,0:0:0:0:
192,192,78263,1,2,0:0:0:0:
64,192,78357,1,2,0:0:0:0:
448,192,78451,1,8,0:0:0:0:
320,192,78451,1,0,0:0:0:0:
192,192,78451,1,2,0:0:0:0:
64,192,78544,1,2,0:0:0:0:
320,192,78638,1,2,0:0:0:0:
448,192,78732,1,2,0:0:0:0:
64,192,78826,1,0,0:0:0:0:
192,192,78826,1,2,0:0:0:0:
320,192,78919,1,2,0:0:0:0:
64,192,79013,1,2,0:0:0:0:
192,192,79107,1,2,0:0:0:0:
64,192,79201,1,8,0:0:0:0:
448,192,79201,1,0,0:0:0:0:
320,192,79201,1,2,0:0:0:0:
192,192,79294,1,2,0:0:0:0:
320,192,79388,1,2,0:0:0:0:
64,192,79482,1,2,0:0:0:0:
192,192,79576,1,0,0:0:0:0:
320,192,79576,1,2,0:0:0:0:
448,192,79576,1,4,0:0:0:0:
64,192,79669,1,2,0:0:0:0:
320,192,79763,1,2,0:0:0:0:
448,192,79857,1,2,0:0:0:0:
64,192,79951,1,8,0:0:0:0:
320,192,79951,1,0,0:0:0:0:
192,192,79951,1,2,0:0:0:0:
448,192,80044,1,2,0:0:0:0:
192,192,80138,1,2,0:0:0:0:
320,192,80232,1,2,0:0:0:0:
448,192,80326,1,0,0:0:0:0:
64,192,80326,1,2,0:0:0:0:
192,192,80419,1,2,0:0:0:0:
320,192,80513,1,2,0:0:0:0:
64,192,80607,1,2,0:0:0:0:
448,192,80701,1,8,0:0:0:0:
192,192,80701,1,0,0:0:0:0:
320,192,80701,1,2,0:0:0:0:
64,192,80794,1,2,0:0:0:0:
320,192,80888,1,2,0:0:0:0:
448,192,80982,1,2,0:0:0:0:
192,192,81076,1,0,0:0:0:0:
320,192,81076,1,2,0:0:0:0:
64,192,81076,1,4,0:0:0:0:
448,192,81169,1,2,0:0:0:0:
192,192,81263,1,2,0:0:0:0:
64,192,81357,1,2,0:0:0:0:
448,192,81451,1,8,0:0:0:0:
320,192,81451,1,0,0:0:0:0:
192,192,81451,1,2,0:0:0:0:
64,192,81544,1,2,0:0:0:0:
320,192,81638,1,2,0:0:0:0:
448,192,81732,1,2,0:0:0:0:
192,192,81826,1,0,0:0:0:0:
64,192,81826,1,2,0:0:0:0:
320,192,81919,1,2,0:0:0:0:
64,192,82013,1,2,0:0:0:0:
192,192,82107,1,2,0:0:0:0:
64,192,82201,1,8,0:0:0:0:
448,192,82201,1,0,0:0:0:0:
320,192,82201,1,2,0:0:0:0:
192,192,82294,1,2,0:0:0:0:
448,192,82388,1,2,0:0:0:0:
320,192,82482,1,2,0:0:0:0:
64,192,82576,1,0,0:0:0:0:
192,192,82576,1,2,0:0:0:0:
448,192,82576,1,8,0:0:0:0:
64,192,82763,1,8,0:0:0:0:
448,192,82763,1,2,0:0:0:0:
192,192,82763,1,0,0:0:0:0:
320,192,82951,1,2,0:0:0:0:
192,192,82951,1,0,0:0:0:0:
448,192,83138,1,0,0:0:0:0:
320,192,83138,1,2,0:0:0:0:
64,192,83138,1,8,0:0:0:0:
320,192,83326,1,2,0:0:0:0:
192,192,83326,1,0,0:0:0:0:
192,192,83513,1,0,0:0:0:0:
448,192,83513,1,2,0:0:0:0:
64,192,83513,1,8,0:0:0:0:
320,192,83701,1,8,0:0:0:0:
448,192,83701,1,0,0:0:0:0:
192,192,83794,1,0,0:0:0:0:
64,192,83794,1,8,0:0:0:0:
320,192,83888,1,8,0:0:0:0:
448,192,83888,1,0,0:0:0:0:
192,192,83982,1,0,0:0:0:0:
64,192,83982,1,8,0:0:0:0:
64,192,84076,1,0,0:0:0:0:
320,192,84076,1,4,0:0:0:0:
448,192,84076,1,2,0:0:0:0:
192,192,84169,1,2,0:0:0:0:
320,192,84263,1,2,0:0:0:0:
64,192,84357,1,2,0:0:0:0:
448,192,84451,1,8,0:0:0:0:
320,192,84451,1,0,0:0:0:0:
192,192,84451,1,2,0:0:0:0:
64,192,84544,1,2,0:0:0:0:
192,192,84638,1,2,0:0:0:0:
448,192,84732,1,2,0:0:0:0:
320,192,84826,1,0,0:0:0:0:
64,192,84826,1,2,0:0:0:0:
192,192,84919,1,2,0:0:0:0:
320,192,85013,1,2,0:0:0:0:
64,192,85107,1,2,0:0:0:0:
192,192,85201,1,8,0:0:0:0:
448,192,85201,1,0,0:0:0:0:
320,192,85201,1,2,0:0:0:0:
64,192,85294,1,2,0:0:0:0:
448,192,85388,1,2,0:0:0:0:
320,192,85482,1,2,0:0:0:0:
192,192,85576,1,0,0:0:0:0:
448,192,85576,1,2,0:0:0:0:
64,192,85576,1,4,0:0:0:0:
320,192,85669,1,2,0:0:0:0:
64,192,85763,1,2,0:0:0:0:
192,192,85857,1,2,0:0:0:0:
448,192,85951,1,8,0:0:0:0:
320,192,85951,1,0,0:0:0:0:
64,192,85951,1,2,0:0:0:0:
192,192,86044,1,2,0:0:0:0:
448,192,86138,1,2,0:0:0:0:
320,192,86232,1,2,0:0:0:0:
64,192,86326,1,0,0:0:0:0:
192,192,86326,1,2,0:0:0:0:
448,192,86419,1,2,0:0:0:0:
320,192,86513,1,2,0:0:0:0:
192,192,86607,1,2,0:0:0:0:
64,192,86701,1,8,0:0:0:0:
448,192,86701,1,0,0:0:0:0:
320,192,86701,1,2,0:0:0:0:
192,192,86794,1,2,0:0:0:0:
320,192,86888,1,2,0:0:0:0:
64,192,86982,1,2,0:0:0:0:
192,192,87076,1,0,0:0:0:0:
320,192,87076,1,2,0:0:0:0:
448,192,87076,1,4,0:0:0:0:
64,192,87169,1,2,0:0:0:0:
320,192,87263,1,2,0:0:0:0:
192,192,87357,1,2,0:0:0:0:
448,192,87451,1,8,0:0:0:0:
320,192,87451,1,0,0:0:0:0:
64,192,87451,1,2,0:0:0:0:
192,192,87544,1,2,0:0:0:0:
64,192,87638,1,2,0:0:0:0:
320,192,87732,1,2,0:0:0:0:
448,192,87826,1,0,0:0:0:0:
192,192,87826,1,2,0:0:0:0:
64,192,87919,1,2,0:0:0:0:
320,192,88013,1,2,0:0:0:0:
448,192,88107,1,2,0:0:0:0:
64,192,88201,1,8,0:0:0:0:
192,192,88201,1,0,0:0:0:0:
320,192,88201,1,2,0:0:0:0:
448,192,88294,1,2,0:0:0:0:
192,192,88388,1,2,0:0:0:0:
320,192,88482,1,2,0:0:0:0:
192,192,88576,1,0,0:0:0:0:
64,192,88576,1,2,0:0:0:0:
448,192,88669,1,2,0:0:0:0:
320,192,88763,1,2,0:0:0:0:
192,192,88857,1,2,0:0:0:0:
448,192,88951,1,8,0:0:0:0:
320,192,88951,1,0,0:0:0:0:
64,192,88951,1,2,0:0:0:0:
192,192,89044,1,2,0:0:0:0:
64,192,89138,1,2,0:0:0:0:
320,192,89232,1,2,0:0:0:0:
448,192,89326,1,0,0:0:0:0:
192,192,89326,1,2,0:0:0:0:
64,192,89419,1,2,0:0:0:0:
192,192,89513,1,2,0:0:0:0:
320,192,89607,1,2,0:0:0:0:
64,192,89701,1,8,0:0:0:0:
192,192,89701,1,0,0:0:0:0:
448,192,89701,1,2,0:0:0:0:
320,192,89794,1,2,0:0:0:0:
64,192,89888,1,2,0:0:0:0:
192,192,89982,1,2,0:0:0:0:
448,192,90076,1,0,0:0:0:0:
64,192,90076,1,4,0:0:0:0:
320,192,90076,1,2,0:0:0:0:
192,192,90169,1,2,0:0:0:0:
320,192,90263,1,2,0:0:0:0:
448,192,90357,1,2,0:0:0:0:
64,192,90451,1,8,0:0:0:0:
192,192,90451,1,0,0:0:0:0:
320,192,90451,1,2,0:0:0:0:
448,192,90544,1,2,0:0:0:0:
192,192,90638,1,2,0:0:0:0:
64,192,90732,1,2,0:0:0:0:
448,192,90826,1,0,0:0:0:0:
320,192,90826,1,2,0:0:0:0:
192,192,90919,1,2,0:0:0:0:
448,192,91013,1,2,0:0:0:0:
320,192,91107,1,2,0:0:0:0:
448,192,91201,1,8,0:0:0:0:
64,192,91201,1,0,0:0:0:0:
192,192,91201,1,2,0:0:0:0:
320,192,91294,1,2,0:0:0:0:
192,192,91388,1,2,0:0:0:0:
448,192,91482,1,2,0:0:0:0:
320,192,91576,1,0,0:0:0:0:
192,192,91576,1,2,0:0:0:0:
64,192,91576,1,4,0:0:0:0:
448,192,91669,1,2,0:0:0:0:
192,192,91763,1,2,0:0:0:0:
64,192,91857,1,2,0:0:0:0:
448,192,91951,1,8,0:0:0:0:
192,192,91951,1,0,0:0:0:0:
320,192,91951,1,2,0:0:0:0:
64,192,92044,1,2,0:0:0:0:
320,192,92138,1,2,0:0:0:0:
192,192,92232,1,2,0:0:0:0:
64,192,92326,1,0,0:0:0:0:
448,192,92326,1,2,0:0:0:0:
320,192,92419,1,2,0:0:0:0:
192,192,92513,1,2,0:0:0:0:
448,192,92607,1,2,0:0:0:0:
64,192,92701,1,8,0:0:0:0:
320,192,92701,1,0,0:0:0:0:
192,192,92701,1,2,0:0:0:0:
448,192,92794,1,2,0:0:0:0:
192,192,92888,1,2,0:0:0:0:
64,192,92982,1,2,0:0:0:0:
320,192,93076,1,0,0:0:0:0:
192,192,93076,1,2,0:0:0:0:
448,192,93076,1,4,0:0:0:0:
64,192,93169,1,2,0:0:0:0:
320,192,93263,1,2,0:0:0:0:
448,192,93357,1,2,0:0:0:0:
64,192,93451,1,8,0:0:0:0:
192,192,93451,1,0,0:0:0:0:
320,192,93451,1,2,0:0:0:0:
448,192,93544,1,2,0:0:0:0:
192,192,93638,1,2,0:0:0:0:
64,192,93732,1,2,0:0:0:0:
320,192,93826,1,0,0:0:0:0:
448,192,93826,1,2,0:0:0:0:
192,192,93919,1,2,0:0:0:0:
448,192,94013,1,2,0:0:0:0:
320,192,94107,1,2,0:0:0:0:
448,192,94201,1,8,0:0:0:0:
64,192,94201,1,0,0:0:0:0:
192,192,94201,1,2,0:0:0:0:
320,192,94294,1,2,0:0:0:0:
64,192,94388,1,2,0:0:0:0:
192,192,94482,1,2,0:0:0:0:
320,192,94576,1,0,0:0:0:0:
448,192,94576,1,2,0:0:0:0:
192,192,94669,1,2,0:0:0:0:
64,192,94763,1,2,0:0:0:0:
320,192,94857,1,2,0:0:0:0:
448,192,94951,1,8,0:0:0:0:
64,192,94951,1,0,0:0:0:0:
192,192,94951,1,2,0:0:0:0:
320,192,95044,1,2,0:0:0:0:
192,192,95138,1,2,0:0:0:0:
320,192,95232,1,2,0:0:0:0:
64,192,95326,1,2,0:0:0:0:
192,192,95326,1,0,0:0:0:0:
448,192,95419,1,2,0:0:0:0:
320,192,95513,1,2,0:0:0:0:
192,192,95607,1,2,0:0:0:0:
320,192,95701,1,2,0:0:0:0:
448,192,95701,1,0,0:0:0:0:
64,192,95701,1,8,0:0:0:0:
192,192,95794,1,2,0:0:0:0:
448,192,95888,1,2,0:0:0:0:
320,192,95982,1,2,0:0:0:0:
64,192,96076,1,2,0:0:0:0:
192,192,96076,1,4,0:0:0:0:
448,192,96076,1,0,0:0:0:0:
320,192,96263,1,8,0:0:0:0:
448,192,96263,1,0,0:0:0:0:
192,192,96357,1,8,0:0:0:0:
64,192,96357,1,0,0:0:0:0:
320,192,96451,1,8,0:0:0:0:
448,192,96451,1,0,0:0:0:0:
192,192,96544,1,8,0:0:0:0:
64,192,96544,1,0,0:0:0:0:
320,192,96638,1,8,0:0:0:0:
448,192,96638,1,0,0:0:0:0:
192,192,96732,1,8,0:0:0:0:
64,192,96732,1,0,0:0:0:0:
320,192,96826,1,4,0:0:0:0:
448,192,96826,1,2,0:0:0:0:
64,192,96826,1,0,0:0:0:0:
192,192,97013,1,8,0:0:0:0:
64,192,97013,1,0,0:0:0:0:
320,192,97107,1,8,0:0:0:0:
448,192,97107,1,0,0:0:0:0:
64,192,97201,1,2,0:0:0:0:
192,192,97201,1,4,0:0:0:0:
448,192,97201,1,0,0:0:0:0:
448,192,97388,1,0,0:0:0:0:
320,192,97388,1,8,0:0:0:0:
64,192,97482,1,0,0:0:0:0:
192,192,97482,1,8,0:0:0:0:
320,192,97576,1,4,0:0:0:0:
64,192,97576,1,0,0:0:0:0:
448,192,97576,128,2,97763:0:0:0:0:
192,192,97763,1,2,0:0:0:0:
64,192,97857,1,2,0:0:0:0:
192,192,97951,1,2,0:0:0:0:
320,192,97951,1,0,0:0:0:0:
448,192,97951,1,8,0:0:0:0:
64,192,98044,1,2,0:0:0:0:
320,192,98138,1,2,0:0:0:0:
448,192,98232,1,2,0:0:0:0:
192,192,98326,1,0,0:0:0:0:
64,192,98326,128,2,98513:0:0:0:0:
448,192,98513,1,2,0:0:0:0:
192,192,98607,1,2,0:0:0:0:
320,192,98701,1,2,0:0:0:0:
448,192,98701,1,0,0:0:0:0:
64,192,98701,1,8,0:0:0:0:
192,192,98794,1,2,0:0:0:0:
448,192,98888,1,2,0:0:0:0:
320,192,98982,1,2,0:0:0:0:
192,192,99076,1,0,0:0:0:0:
448,192,99076,128,2,99263:0:0:0:0:
320,192,99263,1,2,0:0:0:0:
192,192,99357,1,2,0:0:0:0:
64,192,99451,1,2,0:0:0:0:
320,192,99451,1,0,0:0:0:0:
448,192,99451,1,8,0:0:0:0:
192,192,99544,1,2,0:0:0:0:
448,192,99638,1,2,0:0:0:0:
320,192,99732,1,2,0:0:0:0:
192,192,99826,1,2,0:0:0:0:
64,192,99826,128,0,100013:0:0:0:0:
320,192,100013,1,2,0:0:0:0:
192,192,100107,1,2,0:0:0:0:
320,192,100201,1,2,0:0:0:0:
448,192,100201,1,0,0:0:0:0:
64,192,100201,1,8,0:0:0:0:
192,192,100294,1,2,0:0:0:0:
320,192,100388,1,2,0:0:0:0:
64,192,100482,1,2,0:0:0:0:
448,192,100576,1,2,0:0:0:0:
192,192,100576,128,0,100763:0:0:0:0:
320,192,100763,1,2,0:0:0:0:
192,192,100857,1,2,0:0:0:0:
64,192,100951,1,2,0:0:0:0:
320,192,100951,1,0,0:0:0:0:
448,192,100951,1,8,0:0:0:0:
192,192,101044,1,2,0:0:0:0:
64,192,101138,1,2,0:0:0:0:
320,192,101232,1,2,0:0:0:0:
192,192,101326,1,2,0:0:0:0:
448,192,101326,128,0,101513:0:0:0:0:
320,192,101513,1,2,0:0:0:0:
192,192,101607,1,2,0:0:0:0:
320,192,101701,1,2,0:0:0:0:
448,192,101701,1,0,0:0:0:0:
64,192,101701,1,8,0:0:0:0:
192,192,101794,1,2,0:0:0:0:
448,192,101888,1,2,0:0:0:0:
320,192,101982,1,2,0:0:0:0:
192,192,102076,1,0,0:0:0:0:
64,192,102076,128,2,102263:0:0:0:0:
320,192,102263,1,2,0:0:0:0:
192,192,102357,1,2,0:0:0:0:
64,192,102451,1,2,0:0:0:0:
320,192,102451,1,0,0:0:0:0:
448,192,102451,128,8,102638:0:0:0:0:
192,192,102638,1,2,0:0:0:0:
320,192,102732,1,2,0:0:0:0:
64,192,102826,1,2,0:0:0:0:
448,192,102826,128,0,103013:0:0:0:0:
192,192,103013,128,2,103201:0:0:0:0:
320,192,103013,1,0,0:0:0:0:
448,192,103201,1,2,0:0:0:0:
64,192,103201,1,8,0:0:0:0:
320,192,103201,128,0,103388:0:0:0:0:
64,192,103388,128,2,103576:0:0:0:0:
192,192,103388,1,0,0:0:0:0:
192,192,103576,1,4,0:0:0:0:
320,192,103576,1,0,0:0:0:0:
448,192,103576,128,2,103763:0:0:0:0:
64,192,103763,1,2,0:0:0:0:
192,192,103857,1,2,0:0:0:0:
320,192,103951,1,2,0:0:0:0:
448,192,103951,1,0,0:0:0:0:
64,192,103951,1,8,0:0:0:0:
192,192,104044,1,2,0:0:0:0:
320,192,104138,1,2,0:0:0:0:
64,192,104232,1,2,0:0:0:0:
192,192,104326,1,0,0:0:0:0:
448,192,104326,128,2,104513:0:0:0:0:
64,192,104513,1,2,0:0:0:0:
320,192,104607,1,2,0:0:0:0:
192,192,104701,1,2,0:0:0:0:
64,192,104701,1,0,0:0:0:0:
448,192,104701,1,8,0:0:0:0:
320,192,104794,1,2,0:0:0:0:
64,192,104888,1,2,0:0:0:0:
192,192,104982,1,2,0:0:0:0:
320,192,105076,1,0,0:0:0:0:
64,192,105076,128,2,105263:0:0:0:0:
192,192,105263,1,2,0:0:0:0:
320,192,105357,1,2,0:0:0:0:
448,192,105451,1,2,0:0:0:0:
192,192,105451,1,0,0:0:0:0:
64,192,105451,1,8,0:0:0:0:
320,192,105544,1,2,0:0:0:0:
64,192,105638,1,2,0:0:0:0:
192,192,105732,1,2,0:0:0:0:
320,192,105826,1,2,0:0:0:0:
448,192,105826,128,0,106013:0:0:0:0:
192,192,106013,1,2,0:0:0:0:
320,192,106107,1,2,0:0:0:0:
192,192,106201,1,2,0:0:0:0:
64,192,106201,1,0,0:0:0:0:
448,192,106201,1,8,0:0:0:0:
320,192,106294,1,2,0:0:0:0:
192,192,106388,1,2,0:0:0:0:
448,192,106482,1,2,0:0:0:0:
64,192,106576,1,2,0:0:0:0:
320,192,106576,128,0,106763:0:0:0:0:
192,192,106763,1,2,0:0:0:0:
320,192,106857,1,2,0:0:0:0:
448,192,106951,1,2,0:0:0:0:
192,192,106951,1,0,0:0:0:0:
64,192,106951,1,8,0:0:0:0:
320,192,107044,1,2,0:0:0:0:
448,192,107138,1,2,0:0:0:0:
192,192,107232,1,2,0:0:0:0:
320,192,107326,1,2,0:0:0:0:
64,192,107326,128,0,107513:0:0:0:0:
192,192,107513,1,2,0:0:0:0:
320,192,107607,1,2,0:0:0:0:
192,192,107701,1,2,0:0:0:0:
64,192,107701,1,0,0:0:0:0:
448,192,107701,1,8,0:0:0:0:
320,192,107794,1,2,0:0:0:0:
64,192,107888,1,2,0:0:0:0:
192,192,107982,1,2,0:0:0:0:
320,192,108076,1,0,0:0:0:0:
448,192,108076,128,2,108263:0:0:0:0:
192,192,108263,1,2,0:0:0:0:
320,192,108357,1,2,0:0:0:0:
448,192,108451,1,2,0:0:0:0:
192,192,108451,1,0,0:0:0:0:
64,192,108451,128,8,108638:0:0:0:0:
320,192,108638,1,2,0:0:0:0:
192,192,108732,1,2,0:0:0:0:
448,192,108826,1,2,0:0:0:0:
320,192,108826,1,0,0:0:0:0:
192,192,109013,1,8,0:0:0:0:
64,192,109013,1,0,0:0:0:0:
320,192,109107,1,8,0:0:0:0:
448,192,109107,1,0,0:0:0:0:
64,192,109201,1,0,0:0:0:0:
192,192,109201,1,8,0:0:0:0:
320,192,109294,1,8,0:0:0:0:
448,192,109294,1,0,0:0:0:0:
192,192,109388,1,8,0:0:0:0:
64,192,109388,1,0,0:0:0:0:
320,192,109482,1,8,0:0:0:0:
448,192,109482,1,0,0:0:0:0:
192,192,109576,1,8,0:0:0:0:
64,192,109576,1,0,0:0:0:0:
448,192,109576,1,2,0:0:0:0:
64,192,109900,1,0,0:0:0:0:
192,192,109900,1,8,0:0:0:0:
448,192,109900,1,2,0:0:0:0:
192,192,110224,1,8,0:0:0:0:
64,192,110224,1,0,0:0:0:0:
448,192,110224,1,2,0:0:0:0:
192,192,110548,1,8,0:0:0:0:
64,192,110548,1,0,0:0:0:0:
448,192,110548,1,2,0:0:0:0:
64,192,110873,1,0,0:0:0:0:
192,192,110873,1,8,0:0:0:0:
448,192,110873,1,2,0:0:0:0:
64,192,111197,1,0,0:0:0:0:
192,192,111197,1,8,0:0:0:0:
448,192,111197,1,2,0:0:0:0:
192,192,111521,1,8,0:0:0:0:
64,192,111521,1,0,0:0:0:0:
448,192,111521,1,2,0:0:0:0:
320,192,111684,1,0,0:0:0:0:
448,192,111684,1,8,0:0:0:0:
64,192,111765,1,0,0:0:0:0:
192,192,111765,1,8,0:0:0:0:
448,192,111846,1,8,0:0:0:0:
320,192,111846,1,0,0:0:0:0:
192,192,111927,1,8,0:0:0:0:
64,192,111927,1,0,0:0:0:0:
320,192,112008,1,0,0:0:0:0:
448,192,112008,1,8,0:0:0:0:
64,192,112089,1,0,0:0:0:0:
192,192,112089,1,8,0:0:0:0:
320,192,112170,1,4,0:0:0:0:
64,192,112170,1,0,0:0:0:0:
448,192,112170,128,2,112494:0:0:0:0:
320,192,112494,1,4,0:0:0:0:
64,192,112494,1,0,0:0:0:0:
192,192,112494,128,2,112819:0:0:0:0:
448,192,112819,1,2,0:0:0:0:
64,192,112819,1,0,0:0:0:0:
320,192,112819,128,4,113143:0:0:0:0:
192,192,113143,1,4,0:0:0:0:
448,192,113143,1,2,0:0:0:0:
64,192,113143,128,0,113467:0:0:0:0:
448,192,113467,1,2,0:0:0:0:
320,192,113467,1,0,0:0:0:0:
320,192,113630,1,0,0:0:0:0:
448,192,113630,1,2,0:0:0:0:
192,192,113792,1,2,0:0:0:0:
64,192,113792,1,0,0:0:0:0:
64,192,113954,1,0,0:0:0:0:
192,192,113954,1,2,0:0:0:0:
448,192,114116,1,2,0:0:0:0:
320,192,114116,1,0,0:0:0:0:
192,192,114197,1,0,0:0:0:0:
448,192,114278,1,2,0:0:0:0:
320,192,114278,1,0,0:0:0:0:
192,192,114359,1,0,0:0:0:0:
448,192,114440,1,2,0:0:0:0:
64,192,114440,1,0,0:0:0:0:
320,192,114440,1,8,0:0:0:0:
64,192,114765,1,0,0:0:0:0:
448,192,114765,1,2,0:0:0:0:
192,192,114846,1,0,0:0:0:0:
320,192,114927,1,0,0:0:0:0:
64,192,114927,1,2,0:0:0:0:
192,192,115008,1,0,0:0:0:0:
320,192,115089,1,8,0:0:0:0:
64,192,115089,1,0,0:0:0:0:
448,192,115089,1,2,0:0:0:0:
192,192,115251,1,0,0:0:0:0:
448,192,115251,1,2,0:0:0:0:
192,192,115413,1,2,0:0:0:0:
64,192,115413,1,0,0:0:0:0:
320,192,115413,1,8,0:0:0:0:
448,192,115576,1,2,0:0:0:0:
320,192,115576,1,0,0:0:0:0:
64,192,115900,1,0,0:0:0:0:
448,192,115900,1,2,0:0:0:0:
320,192,115981,1,0,0:0:0:0:
448,192,116062,1,2,0:0:0:0:
64,192,116062,1,0,0:0:0:0:
192,192,116062,1,8,0:0:0:0:
320,192,116224,1,2,0:0:0:0:
192,192,116224,1,0,0:0:0:0:
448,192,116548,1,0,0:0:0:0:
192,192,116548,1,2,0:0:0:0:
320,192,116630,1,0,0:0:0:0:
192,192,116711,1,8,0:0:0:0:
64,192,116711,1,0,0:0:0:0:
448,192,116711,1,2,0:0:0:0:
64,192,116873,1,2,0:0:0:0:
192,192,116873,1,0,0:0:0:0:
320,192,116954,1,0,0:0:0:0:
64,192,117035,1,2,0:0:0:0:
448,192,117035,1,0,0:0:0:0:
192,192,117035,1,8,0:0:0:0:
192,192,117197,1,8,0:0:0:0:
448,192,117197,1,0,0:0:0:0:
64,192,117197,1,2,0:0:0:0:
320,192,117359,1,2,0:0:0:0:
448,192,117359,1,0,0:0:0:0:
192,192,117440,1,0,0:0:0:0:
448,192,117521,1,2,0:0:0:0:
64,192,117521,1,0,0:0:0:0:
320,192,117603,1,0,0:0:0:0:
192,192,117684,1,8,0:0:0:0:
64,192,117684,1,0,0:0:0:0:
448,192,117684,1,2,0:0:0:0:
192,192,117846,1,0,0:0:0:0:
320,192,117846,1,2,0:0:0:0:
448,192,118008,1,2,0:0:0:0:
64,192,118008,1,0,0:0:0:0:
320,192,118008,1,8,0:0:0:0:
192,192,118170,1,0,0:0:0:0:
448,192,118170,1,2,0:0:0:0:
448,192,118494,1,2,0:0:0:0:
192,192,118494,1,0,0:0:0:0:
320,192,118575,1,0,0:0:0:0:
448,192,118657,1,2,0:0:0:0:
64,192,118657,1,0,0:0:0:0:
192,192,118657,1,8,0:0:0:0:
64,192,118819,1,0,0:0:0:0:
320,192,118819,1,2,0:0:0:0:
448,192,119143,1,2,0:0:0:0:
64,192,119143,1,0,0:0:0:0:
192,192,119224,1,0,0:0:0:0:
448,192,119305,1,2,0:0:0:0:
64,192,119305,1,0,0:0:0:0:
320,192,119305,1,8,0:0:0:0:
192,192,119467,1,0,0:0:0:0:
448,192,119467,1,2,0:0:0:0:
320,192,119630,1,2,0:0:0:0:
64,192,119630,1,0,0:0:0:0:
192,192,119792,1,8,0:0:0:0:
64,192,119792,1,0,0:0:0:0:
448,192,119792,1,2,0:0:0:0:
64,192,119954,1,2,0:0:0:0:
320,192,119954,1,0,0:0:0:0:
192,192,120035,1,0,0:0:0:0:
448,192,120116,1,2,0:0:0:0:
320,192,120116,1,0,0:0:0:0:
192,192,120197,1,0,0:0:0:0:
448,192,120278,1,2,0:0:0:0:
64,192,120278,1,0,0:0:0:0:
320,192,120278,1,8,0:0:0:0:
64,192,120440,1,0,0:0:0:0:
192,192,120440,1,2,0:0:0:0:
320,192,120521,1,0,0:0:0:0:
192,192,120603,1,8,0:0:0:0:
64,192,120603,1,0,0:0:0:0:
448,192,120603,1,2,0:0:0:0:
64,192,120765,1,2,0:0:0:0:
320,192,120765,1,0,0:0:0:0:
64,192,121089,1,0,0:0:0:0:
448,192,121089,1,2,0:0:0:0:
192,192,121170,1,0,0:0:0:0:
320,192,121251,1,8,0:0:0:0:
64,192,121251,1,0,0:0:0:0:
448,192,121251,1,2,0:0:0:0:
448,192,121413,1,2,0:0:0:0:
192,192,121413,1,0,0:0:0:0:
64,192,121738,1,0,0:0:0:0:
192,192,121738,1,2,0:0:0:0:
320,192,121819,1,0,0:0:0:0:
192,192,121900,1,8,0:0:0:0:
64,192,121900,1,0,0:0:0:0:
448,192,121900,1,2,0:0:0:0:
320,192,122062,1,2,0:0:0:0:
192,192,122062,1,0,0:0:0:0:
320,192,122224,1,8,0:0:0:0:
64,192,122224,1,0,0:0:0:0:
448,192,122224,1,2,0:0:0:0:
448,192,122386,1,2,0:0:0:0:
64,192,122386,1,0,0:0:0:0:
320,192,122386,1,8,0:0:0:0:
448,192,122548,1,0,0:0:0:0:
192,192,122548,1,2,0:0:0:0:
320,192,122630,1,0,0:0:0:0:
192,192,122711,1,2,0:0:0:0:
64,192,122711,1,0,0:0:0:0:
320,192,122792,1,0,0:0:0:0:
192,192,122873,1,8,0:0:0:0:
64,192,122873,1,0,0:0:0:0:
448,192,122873,1,2,0:0:0:0:
448,192,123035,1,2,0:0:0:0:
320,192,123035,1,0,0:0:0:0:
192,192,123116,1,0,0:0:0:0:
448,192,123197,1,2,0:0:0:0:
64,192,123197,1,0,0:0:0:0:
320,192,123197,1,8,0:0:0:0:
320,192,123359,1,8,0:0:0:0:
64,192,123359,1,0,0:0:0:0:
448,192,123359,1,2,0:0:0:0:
192,192,123521,1,2,0:0:0:0:
64,192,123521,1,0,0:0:0:0:
320,192,123603,1,0,0:0:0:0:
448,192,123684,1,2,0:0:0:0:
64,192,123684,1,0,0:0:0:0:
192,192,123684,1,8,0:0:0:0:
192,192,123846,1,0,0:0:0:0:
320,192,123846,1,2,0:0:0:0:
448,192,124008,1,2,0:0:0:0:
64,192,124008,1,0,0:0:0:0:
320,192,124008,1,8,0:0:0:0:
320,192,124170,1,8,0:0:0:0:
64,192,124170,1,0,0:0:0:0:
448,192,124170,1,2,0:0:0:0:
192,192,124332,1,2,0:0:0:0:
448,192,124332,1,0,0:0:0:0:
320,192,124413,1,0,0:0:0:0:
192,192,124494,1,2,0:0:0:0:
448,192,124494,1,0,0:0:0:0:
64,192,124575,1,8,3:0:0:0:
320,192,124575,1,0,0:0:0:0:
192,192,124657,1,0,0:0:0:0:
320,192,124738,1,0,0:0:0:0:
64,192,124738,1,2,0:0:0:0:
448,192,124819,1,0,0:0:0:0:
192,192,124819,1,8,3:0:0:0:
192,192,125143,1,4,0:0:0:0:
448,192,125143,1,2,0:0:0:0:
64,192,125143,128,0,125305:0:0:0:0:
320,192,125305,1,2,0:0:0:0:
448,192,125467,1,2,0:0:0:0:
192,192,125467,1,8,0:0:0:0:
64,192,125467,128,0,125630:0:0:0:0:
320,192,125630,1,2,0:0:0:0:
192,192,125792,1,2,0:0:0:0:
64,192,125792,128,0,125954:0:0:0:0:
448,192,125954,1,2,0:0:0:0:
192,192,126116,1,8,0:0:0:0:
320,192,126116,1,2,0:0:0:0:
64,192,126116,128,0,126278:0:0:0:0:
448,192,126278,1,2,0:0:0:0:
320,192,126440,1,2,0:0:0:0:
64,192,126440,128,0,126603:0:0:0:0:
192,192,126603,1,2,0:0:0:0:
320,192,126765,1,8,0:0:0:0:
448,192,126765,1,2,0:0:0:0:
64,192,126765,128,0,126927:0:0:0:0:
192,192,126927,1,2,0:0:0:0:
448,192,127089,1,2,0:0:0:0:
320,192,127089,1,0,0:0:0:0:
64,192,127251,1,2,0:0:0:0:
192,192,127251,1,0,0:0:0:0:
448,192,127413,1,2,0:0:0:0:
320,192,127413,1,8,0:0:0:0:
64,192,127413,1,0,0:0:0:0:
320,192,127575,1,2,0:0:0:0:
192,192,127575,1,0,0:0:0:0:
192,192,127738,1,4,0:0:0:0:
64,192,127738,1,2,0:0:0:0:
448,192,127738,128,0,127900:0:0:0:0:
320,192,127900,1,2,0:0:0:0:
64,192,128062,1,2,0:0:0:0:
192,192,128062,1,8,0:0:0:0:
448,192,128062,128,0,128224:0:0:0:0:
320,192,128224,1,2,0:0:0:0:
192,192,128386,1,2,0:0:0:0:
448,192,128386,128,0,128548:0:0:0:0:
64,192,128548,1,2,0:0:0:0:
320,192,128711,1,8,0:0:0:0:
192,192,128711,1,2,0:0:0:0:
448,192,128711,128,0,128873:0:0:0:0:
64,192,128873,1,2,0:0:0:0:
192,192,129035,1,2,0:0:0:0:
448,192,129035,128,0,129197:0:0:0:0:
320,192,129197,1,2,0:0:0:0:
192,192,129359,1,8,0:0:0:0:
64,192,129359,1,2,0:0:0:0:
448,192,129359,128,0,129521:0:0:0:0:
320,192,129521,1,2,0:0:0:0:
64,192,129684,1,2,0:0:0:0:
448,192,129684,1,0,0:0:0:0:
192,192,129846,1,2,0:0:0:0:
320,192,129846,1,0,0:0:0:0:
64,192,130008,1,2,0:0:0:0:
320,192,130008,1,8,0:0:0:0:
448,192,130008,1,0,0:0:0:0:
192,192,130170,1,2,0:0:0:0:
64,192,130170,1,0,0:0:0:0:
448,192,130332,1,4,0:0:0:0:
64,192,130332,1,2,0:0:0:0:
320,192,130332,128,0,130494:0:0:0:0:
192,192,130494,1,2,0:0:0:0:
64,192,130657,1,2,0:0:0:0:
448,192,130657,1,8,0:0:0:0:
320,192,130657,128,0,130819:0:0:0:0:
192,192,130819,1,2,0:0:0:0:
448,192,130981,1,2,0:0:0:0:
320,192,130981,128,0,131143:0:0:0:0:
64,192,131143,1,2,0:0:0:0:
448,192,131305,1,8,0:0:0:0:
192,192,131305,1,2,0:0:0:0:
320,192,131305,128,0,131467:0:0:0:0:
64,192,131467,1,2,0:0:0:0:
192,192,131630,1,2,0:0:0:0:
320,192,131630,128,0,131792:0:0:0:0:
448,192,131792,1,2,0:0:0:0:
192,192,131954,1,8,0:0:0:0:
64,192,131954,1,2,0:0:0:0:
320,192,131954,128,0,132116:0:0:0:0:
448,192,132116,1,2,0:0:0:0:
192,192,132278,1,2,0:0:0:0:
320,192,132278,1,0,0:0:0:0:
64,192,132440,1,2,0:0:0:0:
448,192,132440,1,0,0:0:0:0:
192,192,132603,1,2,0:0:0:0:
320,192,132603,1,8,0:0:0:0:
448,192,132603,1,0,0:0:0:0:
64,192,132765,1,2,0:0:0:0:
320,192,132765,1,0,0:0:0:0:
320,192,132927,1,4,0:0:0:0:
448,192,132927,1,2,0:0:0:0:
192,192,132927,128,0,133089:0:0:0:0:
64,192,133089,1,2,0:0:0:0:
448,192,133251,1,2,0:0:0:0:
320,192,133251,1,8,0:0:0:0:
192,192,133251,128,0,133413:0:0:0:0:
64,192,133413,1,2,0:0:0:0:
320,192,133575,1,2,0:0:0:0:
192,192,133575,128,0,133738:0:0:0:0:
448,192,133738,1,2,0:0:0:0:
64,192,133900,1,8,0:0:0:0:
320,192,133900,1,2,0:0:0:0:
192,192,133900,128,0,134062:0:0:0:0:
448,192,134062,1,2,0:0:0:0:
64,192,134224,1,2,0:0:0:0:
192,192,134224,128,0,134386:0:0:0:0:
448,192,134386,1,2,0:0:0:0:
320,192,134467,1,2,0:0:0:0:
64,192,134548,1,8,0:0:0:0:
448,192,134548,1,2,0:0:0:0:
192,192,134548,1,0,0:0:0:0:
320,192,134711,128,2,134873:0:0:0:0:
448,192,134873,1,2,0:0:0:0:
192,192,134873,128,0,135521:0:0:0:0:
64,192,135035,1,2,0:0:0:0:
448,192,135197,1,2,0:0:0:0:
320,192,135197,1,8,0:0:0:0:
64,192,135197,1,0,0:0:0:0:
320,192,135359,1,2,0:0:0:0:
448,192,135521,1,0,0:0:0:0:
64,192,135521,1,2,0:0:0:0:
320,192,135603,1,0,0:0:0:0:
192,192,135684,1,0,0:0:0:0:
448,192,135765,1,0,0:0:0:0:
320,192,135846,1,8,0:0:0:0:
64,192,135846,1,0,0:0:0:0:
448,192,135927,1,8,0:0:0:0:
192,192,135927,1,0,0:0:0:0:
64,192,136008,1,0,0:0:0:0:
448,192,136089,1,0,0:0:0:0:
320,192,136170,1,0,0:0:0:0:
64,192,136251,1,0,0:0:0:0:
192,192,136251,1,8,3:0:0:0:
448,192,136332,1,0,0:0:0:0:
320,192,136413,1,0,0:0:0:0:
448,192,136494,1,2,0:0:0:0:
192,192,136494,1,0,0:0:0:0:
320,192,136575,1,2,0:0:0:0:
64,192,136575,1,0,0:0:0:0:
192,192,136657,1,0,0:0:0:0:
64,192,136738,1,0,0:0:0:0:
320,192,136819,1,0,0:0:0:0:
448,192,136900,1,0,0:0:0:0:
192,192,136981,1,0,0:0:0:0:
320,192,137062,1,0,0:0:0:0:
64,192,137143,1,0,0:0:0:0:
448,192,137143,1,8,3:0:0:0:
192,192,137224,1,0,0:0:0:0:
448,192,137305,1,2,0:0:0:0:
320,192,137305,1,0,0:0:0:0:
64,192,137386,1,2,0:0:0:0:
192,192,137386,1,0,0:0:0:0:
320,192,137467,1,2,0:0:0:0:
448,192,137467,128,0,137711:0:0:0:0:
192,192,137711,1,2,0:0:0:0:
64,192,137711,128,0,137954:0:0:0:0:
320,192,137954,1,0,0:0:0:0:
448,192,137954,1,2,0:0:0:0:
192,192,138116,1,4,0:0:0:0:
64,192,138116,1,2,0:0:0:0:
448,192,138116,1,0,0:0:0:0:
320,192,138197,1,2,0:0:0:0:
192,192,138278,1,2,0:0:0:0:
448,192,138359,1,2,0:0:0:0:
320,192,138440,1,0,0:0:0:0:
192,192,138440,1,2,0:0:0:0:
64,192,138440,1,8,0:0:0:0:
448,192,138521,1,2,0:0:0:0:
64,192,138603,1,2,0:0:0:0:
192,192,138684,1,2,0:0:0:0:
448,192,138765,1,2,0:0:0:0:
320,192,138765,1,0,0:0:0:0:
192,192,138846,1,2,0:0:0:0:
320,192,138927,1,2,0:0:0:0:
64,192,139008,1,2,0:0:0:0:
448,192,139089,1,8,0:0:0:0:
320,192,139089,1,2,0:0:0:0:
192,192,139089,1,0,0:0:0:0:
64,192,139170,1,2,0:0:0:0:
448,192,139251,1,2,0:0:0:0:
320,192,139332,1,2,0:0:0:0:
64,192,139413,1,0,0:0:0:0:
192,192,139413,1,2,0:0:0:0:
448,192,139494,1,2,0:0:0:0:
320,192,139575,1,2,0:0:0:0:
64,192,139657,1,2,0:0:0:0:
192,192,139738,1,0,0:0:0:0:
320,192,139738,1,2,0:0:0:0:
448,192,139738,1,8,0:0:0:0:
64,192,139819,1,2,0:0:0:0:
448,192,139900,1,2,0:0:0:0:
192,192,139981,1,2,0:0:0:0:
320,192,140062,1,2,0:0:0:0:
64,192,140062,1,0,0:0:0:0:
448,192,140143,1,2,0:0:0:0:
192,192,140224,1,2,0:0:0:0:
320,192,140305,1,2,0:0:0:0:
64,192,140386,1,8,0:0:0:0:
192,192,140386,1,2,0:0:0:0:
448,192,140386,1,0,0:0:0:0:
320,192,140467,1,2,0:0:0:0:
192,192,140548,1,2,0:0:0:0:
64,192,140630,1,2,0:0:0:0:
448,192,140711,1,0,0:0:0:0:
320,192,140711,1,2,0:0:0:0:
192,192,140792,1,2,0:0:0:0:
64,192,140873,1,2,0:0:0:0:
320,192,140954,1,2,0:0:0:0:
448,192,141035,1,0,0:0:0:0:
192,192,141035,1,2,0:0:0:0:
64,192,141035,1,8,0:0:0:0:
320,192,141116,1,2,0:0:0:0:
64,192,141197,1,2,0:0:0:0:
448,192,141278,1,2,0:0:0:0:
192,192,141359,1,2,0:0:0:0:
320,192,141359,1,0,0:0:0:0:
64,192,141440,1,2,0:0:0:0:
448,192,141521,1,2,0:0:0:0:
192,192,141603,1,2,0:0:0:0:
448,192,141684,1,8,0:0:0:0:
320,192,141684,1,2,0:0:0:0:
64,192,141684,1,0,0:0:0:0:
192,192,141765,1,2,0:0:0:0:
320,192,141846,1,2,0:0:0:0:
64,192,141927,1,2,0:0:0:0:
448,192,142008,1,0,0:0:0:0:
192,192,142008,1,2,0:0:0:0:
320,192,142089,1,2,0:0:0:0:
192,192,142170,1,2,0:0:0:0:
64,192,142251,1,2,0:0:0:0:
192,192,142332,1,0,0:0:0:0:
320,192,142332,1,2,0:0:0:0:
448,192,142332,1,8,0:0:0:0:
64,192,142413,1,2,0:0:0:0:
320,192,142494,1,2,0:0:0:0:
448,192,142575,1,2,0:0:0:0:
320,192,142657,1,2,0:0:0:0:
64,192,142657,1,0,0:0:0:0:
192,192,142738,1,2,0:0:0:0:
320,192,142819,1,2,0:0:0:0:
448,192,142900,1,2,0:0:0:0:
64,192,142981,1,8,0:0:0:0:
192,192,142981,1,2,0:0:0:0:
320,192,142981,1,0,0:0:0:0:
448,192,143062,1,2,0:0:0:0:
192,192,143143,1,2,0:0:0:0:
64,192,143224,1,2,0:0:0:0:
320,192,143305,1,4,0:0:0:0:
448,192,143305,1,2,0:0:0:0:
192,192,143305,1,0,0:0:0:0:
64,192,143386,1,2,0:0:0:0:
448,192,143467,1,2,0:0:0:0:
192,192,143548,1,2,0:0:0:0:
64,192,143630,1,0,0:0:0:0:
320,192,143630,1,2,0:0:0:0:
448,192,143630,1,8,0:0:0:0:
192,192,143711,1,2,0:0:0:0:
448,192,143792,1,2,0:0:0:0:
320,192,143873,1,2,0:0:0:0:
64,192,143954,1,2,0:0:0:0:
192,192,143954,1,0,0:0:0:0:
320,192,144035,1,2,0:0:0:0:
192,192,144116,1,2,0:0:0:0:
448,192,144197,1,2,0:0:0:0:
64,192,144278,1,8,0:0:0:0:
192,192,144278,1,2,0:0:0:0:
320,192,144278,1,0,0:0:0:0:
448,192,144359,1,2,0:0:0:0:
64,192,144440,1,2,0:0:0:0:
192,192,144521,1,2,0:0:0:0:
448,192,144603,1,0,0:0:0:0:
320,192,144603,1,2,0:0:0:0:
64,192,144684,1,2,0:0:0:0:
192,192,144765,1,2,0:0:0:0:
448,192,144846,1,2,0:0:0:0:
320,192,144927,1,0,0:0:0:0:
192,192,144927,1,2,0:0:0:0:
64,192,144927,1,8,0:0:0:0:
448,192,145008,1,2,0:0:0:0:
64,192,145089,1,2,0:0:0:0:
320,192,145170,1,2,0:0:0:0:
192,192,145251,1,2,0:0:0:0:
448,192,145251,1,0,0:0:0:0:
64,192,145332,1,2,0:0:0:0:
320,192,145413,1,2,0:0:0:0:
192,192,145494,1,2,0:0:0:0:
448,192,145575,1,8,0:0:0:0:
320,192,145575,1,2,0:0:0:0:
64,192,145575,1,0,0:0:0:0:
192,192,145657,1,2,0:0:0:0:
320,192,145738,1,2,0:0:0:0:
448,192,145819,1,2,0:0:0:0:
64,192,145900,1,0,0:0:0:0:
192,192,145900,1,2,0:0:0:0:
320,192,145981,1,2,0:0:0:0:
448,192,146062,1,2,0:0:0:0:
192,192,146143,1,2,0:0:0:0:
64,192,146224,1,0,0:0:0:0:
320,192,146224,1,2,0:0:0:0:
448,192,146224,1,8,0:0:0:0:
192,192,146305,1,2,0:0:0:0:
448,192,146386,1,2,0:0:0:0:
64,192,146467,1,2,0:0:0:0:
320,192,146548,1,2,0:0:0:0:
192,192,146548,1,0,0:0:0:0:
448,192,146630,1,2,0:0:0:0:
64,192,146711,1,2,0:0:0:0:
320,192,146792,1,2,0:0:0:0:
64,192,146873,1,8,0:0:0:0:
192,192,146873,1,2,0:0:0:0:
448,192,146873,1,0,0:0:0:0:
320,192,146954,1,2,0:0:0:0:
192,192,147035,1,2,0:0:0:0:
448,192,147116,1,2,0:0:0:0:
320,192,147197,1,8,0:0:0:0:
64,192,147197,1,0,0:0:0:0:
192,192,147359,1,8,0:0:0:0:
448,192,147359,1,0,0:0:0:0:
320,192,147440,1,0,0:0:0:0:
64,192,147440,1,8,0:0:0:0:
192,192,147521,1,8,0:0:0:0:
448,192,147521,1,0,0:0:0:0:
64,192,147684,1,0,0:0:0:0:
192,192,147684,1,8,0:0:0:0:
320,192,147765,1,8,0:0:0:0:
448,192,147765,1,0,0:0:0:0:
64,192,147846,1,0,0:0:0:0:
192,192,147846,1,8,0:0:0:0:
448,192,148008,1,8,0:0:0:0:
64,192,148008,1,0,0:0:0:0:
192,192,148089,1,0,0:0:0:0:
320,192,148089,1,8,0:0:0:0:
448,192,148170,1,8,0:0:0:0:
64,192,148170,1,0,0:0:0:0:
448,192,148332,1,0,0:0:0:0:
320,192,148332,1,8,0:0:0:0:
192,192,148413,1,8,0:0:0:0:
64,192,148413,1,0,0:0:0:0:
320,192,148494,1,4,0:0:0:0:
448,192,148494,1,0,0:0:0:0:
64,192,148575,1,2,0:0:0:0:
192,192,148657,1,2,0:0:0:0:
448,192,148738,1,2,0:0:0:0:
320,192,148819,1,0,0:0:0:0:
192,192,148819,1,2,0:0:0:0:
64,192,148819,1,8,0:0:0:0:
448,192,148900,1,2,0:0:0:0:
64,192,148981,1,2,0:0:0:0:
192,192,149062,1,2,0:0:0:0:
448,192,149143,1,2,0:0:0:0:
320,192,149143,1,0,0:0:0:0:
192,192,149224,1,2,0:0:0:0:
320,192,149305,1,2,0:0:0:0:
64,192,149386,1,2,0:0:0:0:
448,192,149467,1,8,0:0:0:0:
320,192,149467,1,2,0:0:0:0:
192,192,149467,1,0,0:0:0:0:
64,192,149548,1,2,0:0:0:0:
448,192,149630,1,2,0:0:0:0:
320,192,149711,1,2,0:0:0:0:
64,192,149792,1,0,0:0:0:0:
192,192,149792,1,2,0:0:0:0:
448,192,149873,1,2,0:0:0:0:
320,192,149954,1,2,0:0:0:0:
64,192,150035,1,2,0:0:0:0:
192,192,150116,1,0,0:0:0:0:
320,192,150116,1,2,0:0:0:0:
448,192,150116,1,8,0:0:0:0:
64,192,150197,1,2,0:0:0:0:
448,192,150278,1,2,0:0:0:0:
192,192,150359,1,2,0:0:0:0:
320,192,150440,1,2,0:0:0:0:
64,192,150440,1,0,0:0:0:0:
448,192,150521,1,2,0:0:0:0:
192,192,150603,1,2,0:0:0:0:
320,192,150684,1,2,0:0:0:0:
64,192,150765,1,8,0:0:0:0:
192,192,150765,1,2,0:0:0:0:
448,192,150765,1,0,0:0:0:0:
320,192,150846,1,2,0:0:0:0:
192,192,150927,1,2,0:0:0:0:
64,192,151008,1,2,0:0:0:0:
448,192,151089,1,0,0:0:0:0:
320,192,151089,1,2,0:0:0:0:
192,192,151170,1,2,0:0:0:0:
64,192,151251,1,2,0:0:0:0:
320,192,151332,1,2,0:0:0:0:
448,192,151413,1,0,0:0:0:0:
192,192,151413,1,2,0:0:0:0:
64,192,151413,1,8,0:0:0:0:
320,192,151494,1,2,0:0:0:0:
64,192,151575,1,2,0:0:0:0:
448,192,151657,1,2,0:0:0:0:
192,192,151738,1,2,0:0:0:0:
320,192,151738,1,0,0:0:0:0:
64,192,151819,1,2,0:0:0:0:
448,192,151900,1,2,0:0:0:0:
192,192,151981,1,2,0:0:0:0:
448,192,152062,1,8,0:0:0:0:
320,192,152062,1,2,0:0:0:0:
64,192,152062,1,0,0:0:0:0:
192,192,152143,1,2,0:0:0:0:
320,192,152224,1,2,0:0:0:0:
64,192,152305,1,2,0:0:0:0:
448,192,152386,1,0,0:0:0:0:
192,192,152386,1,2,0:0:0:0:
320,192,152467,1,2,0:0:0:0:
192,192,152548,1,2,0:0:0:0:
64,192,152630,1,2,0:0:0:0:
192,192,152711,1,0,0:0:0:0:
320,192,152711,1,2,0:0:0:0:
448,192,152711,1,8,0:0:0:0:
64,192,152792,1,2,0:0:0:0:
320,192,152873,1,2,0:0:0:0:
448,192,152954,1,2,0:0:0:0:
320,192,153035,1,2,0:0:0:0:
64,192,153035,1,0,0:0:0:0:
192,192,153116,1,2,0:0:0:0:
320,192,153197,1,2,0:0:0:0:
448,192,153278,1,2,0:0:0:0:
64,192,153359,1,8,0:0:0:0:
192,192,153359,1,2,0:0:0:0:
320,192,153359,1,0,0:0:0:0:
448,192,153440,1,2,0:0:0:0:
192,192,153521,1,2,0:0:0:0:
64,192,153603,1,2,0:0:0:0:
320,192,153684,1,4,0:0:0:0:
448,192,153684,1,2,0:0:0:0:
192,192,153684,1,0,0:0:0:0:
64,192,153765,1,2,0:0:0:0:
448,192,153846,1,2,0:0:0:0:
192,192,153927,1,2,0:0:0:0:
64,192,154008,1,0,0:0:0:0:
320,192,154008,1,2,0:0:0:0:
448,192,154008,1,8,0:0:0:0:
192,192,154089,1,2,0:0:0:0:
448,192,154170,1,2,0:0:0:0:
320,192,154251,1,2,0:0:0:0:
64,192,154332,1,2,0:0:0:0:
192,192,154332,1,0,0:0:0:0:
320,192,154413,1,2,0:0:0:0:
192,192,154494,1,2,0:0:0:0:
448,192,154575,1,2,0:0:0:0:
64,192,154657,1,8,0:0:0:0:
192,192,154657,1,2,0:0:0:0:
320,192,154657,1,0,0:0:0:0:
448,192,154738,1,2,0:0:0:0:
64,192,154819,1,2,0:0:0:0:
192,192,154900,1,2,0:0:0:0:
448,192,154981,1,0,0:0:0:0:
320,192,154981,1,2,0:0:0:0:
64,192,155062,1,2,0:0:0:0:
192,192,155143,1,2,0:0:0:0:
448,192,155224,1,2,0:0:0:0:
320,192,155305,1,0,0:0:0:0:
192,192,155305,1,2,0:0:0:0:
64,192,155305,1,8,0:0:0:0:
448,192,155386,1,2,0:0:0:0:
64,192,155467,1,2,0:0:0:0:
320,192,155548,1,2,0:0:0:0:
192,192,155630,1,2,0:0:0:0:
448,192,155630,1,0,0:0:0:0:
64,192,155711,1,2,0:0:0:0:
320,192,155792,1,2,0:0:0:0:
192,192,155873,1,2,0:0:0:0:
448,192,155954,1,8,0:0:0:0:
320,192,155954,1,2,0:0:0:0:
64,192,155954,1,0,0:0:0:0:
192,192,156035,1,2,0:0:0:0:
320,192,156116,1,2,0:0:0:0:
448,192,156197,1,2,0:0:0:0:
64,192,156278,1,0,0:0:0:0:
192,192,156278,1,2,0:0:0:0:
320,192,156359,1,2,0:0:0:0:
448,192,156440,1,2,0:0:0:0:
192,192,156521,1,2,0:0:0:0:
64,192,156603,1,0,0:0:0:0:
320,192,156603,1,2,0:0:0:0:
448,192,156603,1,8,0:0:0:0:
192,192,156684,1,2,0:0:0:0:
448,192,156765,1,2,0:0:0:0:
64,192,156846,1,2,0:0:0:0:
320,192,156927,1,2,0:0:0:0:
192,192,156927,1,0,0:0:0:0:
448,192,157008,1,2,0:0:0:0:
64,192,157089,1,2,0:0:0:0:
320,192,157170,1,2,0:0:0:0:
64,192,157251,1,8,0:0:0:0:
192,192,157251,1,2,0:0:0:0:
448,192,157251,1,0,0:0:0:0:
320,192,157332,1,2,0:0:0:0:
192,192,157413,1,2,0:0:0:0:
448,192,157494,1,2,0:0:0:0:
320,192,157575,1,2,0:0:0:0:
64,192,157575,128,0,157900:0:0:0:0:
192,192,157900,1,0,0:0:0:0:
320,192,157900,1,2,0:0:0:0:
448,192,157900,1,8,0:0:0:0:
64,192,158062,128,2,158224:0:0:0:0:
448,192,158224,1,2,0:0:0:0:
192,192,158224,1,0,0:0:0:0:
320,192,158386,128,2,158548:0:0:0:0:
64,192,158548,1,8,0:0:0:0:
192,192,158548,1,2,0:0:0:0:
448,192,158548,128,0,158711:0:0:0:0:
64,192,158711,128,2,158873:0:0:0:0:
192,192,158873,1,0,0:0:0:0:
320,192,158873,1,4,0:0:0:0:
448,192,158873,128,2,160170:0:0:0:0:
64,192,159035,1,0,0:0:0:0:
320,192,159197,1,0,0:0:0:0:
64,192,159278,1,0,0:0:0:0:
192,192,159359,1,0,0:0:0:0:
320,192,159440,1,0,0:0:0:0:
64,192,159521,1,0,0:0:0:0:
192,192,159684,1,0,0:0:0:0:
320,192,159846,1,0,0:0:0:0:
192,192,160008,1,0,0:0:0:0:
64,192,160170,1,0,0:0:0:0:
320,192,160332,1,0,0:0:0:0:
448,192,160494,1,0,0:0:0:0:
64,192,160575,1,0,0:0:0:0:
320,192,160657,1,0,0:0:0:0:
192,192,160819,1,0,0:0:0:0:
448,192,160981,1,0,0:0:0:0:
320,192,161143,1,0,0:0:0:0:
192,192,161305,1,0,0:0:0:0:
448,192,161386,1,0,0:0:0:0:
64,192,161467,1,0,0:0:0:0:
320,192,161630,1,0,0:0:0:0:
192,192,161792,1,0,0:0:0:0:
64,192,161873,1,0,0:0:0:0:
320,192,161954,1,0,0:0:0:0:
192,192,162035,1,0,0:0:0:0:
448,192,162116,1,0,0:0:0:0:
64,192,162278,1,0,0:0:0:0:
320,192,162440,1,0,0:0:0:0:
192,192,162603,1,0,0:0:0:0:
320,192,162684,1,0,0:0:0:0:
64,192,162765,1,0,0:0:0:0:
448,192,162927,1,0,0:0:0:0:
192,192,163089,1,0,0:0:0:0:
448,192,163170,1,0,0:0:0:0:
64,192,163251,1,0,0:0:0:0:
320,192,163332,1,0,0:0:0:0:
192,192,163413,1,0,0:0:0:0:
448,192,163575,1,0,0:0:0:0:
64,192,163738,1,0,0:0:0:0:
320,192,163900,128,0,163981:0:0:0:0:
192,192,163981,128,0,164062:0:0:0:0:
448,192,164062,1,0,0:0:0:0:
64,192,164224,1,0,0:0:0:0:
320,192,164386,1,0,0:0:0:0:
192,192,164467,1,0,0:0:0:0:
448,192,164548,1,0,0:0:0:0:
64,192,164630,1,0,0:0:0:0:
320,192,164711,1,0,0:0:0:0:
192,192,164873,1,0,0:0:0:0:
448,192,165035,1,0,0:0:0:0:
64,192,165197,1,0,0:0:0:0:
320,192,165278,1,0,0:0:0:0:
192,192,165359,1,0,0:0:0:0:
448,192,165521,1,0,0:0:0:0:
64,192,165603,1,0,0:0:0:0:
320,192,165684,1,0,0:0:0:0:
192,192,165765,1,0,0:0:0:0:
320,192,165846,1,0,0:0:0:0:
64,192,165927,1,0,0:0:0:0:
448,192,166008,1,0,0:0:0:0:
192,192,166170,1,0,0:0:0:0:
320,192,166251,1,0,0:0:0:0:
64,192,166332,1,0,0:0:0:0:
448,192,166494,128,0,166575:0:0:0:0:
320,192,166575,128,0,166657:0:0:0:0:
64,192,166657,1,2,0:0:0:0:
192,192,166697,1,2,0:0:0:0:
448,192,166738,1,2,0:0:0:0:
320,192,166778,1,2,0:0:0:0:
64,192,166819,1,2,0:0:0:0:
192,192,166859,1,2,0:0:0:0:
448,192,166900,1,2,0:0:0:0:
320,192,166940,1,2,0:0:0:0:
192,192,166981,1,2,0:0:0:0:
64,192,167062,1,0,0:0:0:0:
320,192,167143,1,2,0:0:0:0:
448,192,167184,1,2,0:0:0:0:
64,192,167224,1,2,0:0:0:0:
192,192,167265,1,2,0:0:0:0:
320,192,167305,1,2,0:0:0:0:
448,192,167467,1,0,0:0:0:0:
64,192,167630,1,0,0:0:0:0:
192,192,167792,1,2,0:0:0:0:
64,192,167832,1,2,0:0:0:0:
320,192,167873,1,2,0:0:0:0:
192,192,167913,1,2,0:0:0:0:
448,192,167954,1,2,0:0:0:0:
64,192,168035,1,0,0:0:0:0:
320,192,168116,1,0,0:0:0:0:
192,192,168197,1,0,0:0:0:0:
448,192,168278,1,0,0:0:0:0:
320,192,168319,1,0,0:0:0:0:
192,192,168359,1,0,0:0:0:0:
64,192,168400,1,0,0:0:0:0:
448,192,168440,1,0,0:0:0:0:
192,192,168521,1,0,0:0:0:0:
320,192,168603,1,0,0:0:0:0:
448,192,168603,1,2,0:0:0:0:
320,192,168927,128,2,169251:0:0:0:0:
192,192,169251,1,4,0:0:0:0:
448,192,169251,1,0,0:0:0:0:
64,192,169251,128,2,170062:0:0:0:0:
320,192,169413,1,2,0:0:0:0:
448,192,169575,1,8,0:0:0:0:
192,192,169575,1,0,0:0:0:0:
320,192,169738,1,2,0:0:0:0:
192,192,169900,1,0,0:0:0:0:
448,192,169900,1,2,0:0:0:0:
320,192,170062,1,2,0:0:0:0:
448,192,170224,1,8,0:0:0:0:
64,192,170224,128,0,170386:0:0:0:0:
192,192,170386,1,2,0:0:0:0:
320,192,170548,1,0,0:0:0:0:
448,192,170548,128,2,170873:0:0:0:0:
64,192,170711,1,2,0:0:0:0:
192,192,170873,1,8,0:0:0:0:
320,192,170873,1,0,0:0:0:0:
64,192,171035,128,2,171359:0:0:0:0:
192,192,171197,1,0,0:0:0:0:
448,192,171197,1,2,0:0:0:0:
320,192,171359,1,2,0:0:0:0:
448,192,171521,1,8,0:0:0:0:
64,192,171521,128,0,171684:0:0:0:0:
320,192,171684,1,2,0:0:0:0:
64,192,171846,1,0,0:0:0:0:
448,192,171846,128,2,172170:0:0:0:0:
192,192,172008,1,2,0:0:0:0:
64,192,172170,1,0,0:0:0:0:
320,192,172170,1,8,0:0:0:0:
192,192,172332,128,2,172657:0:0:0:0:
448,192,172494,1,2,0:0:0:0:
320,192,172494,1,0,0:0:0:0:
64,192,172657,1,2,0:0:0:0:
448,192,172819,1,0,0:0:0:0:
320,192,172819,128,8,172981:0:0:0:0:
64,192,172981,1,2,0:0:0:0:
192,192,173143,1,0,0:0:0:0:
448,192,173143,128,2,173467:0:0:0:0:
320,192,173305,1,2,0:0:0:0:
192,192,173467,1,8,0:0:0:0:
64,192,173467,1,0,0:0:0:0:
320,192,173630,128,2,173792:0:0:0:0:
192,192,173792,1,0,0:0:0:0:
448,192,173792,128,2,173954:0:0:0:0:
320,192,173954,1,2,0:0:0:0:
192,192,174116,1,8,0:0:0:0:
64,192,174116,128,0,174278:0:0:0:0:
448,192,174278,128,2,175089:0:0:0:0:
320,192,174440,1,4,0:0:0:0:
64,192,174440,1,0,0:0:0:0:
192,192,174440,1,2,0:0:0:0:
192,192,174603,1,2,0:0:0:0:
64,192,174765,1,8,0:0:0:0:
320,192,174765,1,0,0:0:0:0:
192,192,174927,1,2,0:0:0:0:
320,192,175089,1,0,0:0:0:0:
64,192,175089,1,2,0:0:0:0:
192,192,175251,1,2,0:0:0:0:
64,192,175413,1,8,0:0:0:0:
448,192,175413,128,0,175575:0:0:0:0:
320,192,175575,1,2,0:0:0:0:
192,192,175738,1,0,0:0:0:0:
64,192,175738,128,2,176062:0:0:0:0:
448,192,175900,1,2,0:0:0:0:
320,192,176062,1,8,0:0:0:0:
192,192,176062,1,0,0:0:0:0:
448,192,176224,128,2,176386:0:0:0:0:
192,192,176386,1,0,0:0:0:0:
64,192,176386,1,2,0:0:0:0:
320,192,176548,128,2,176873:0:0:0:0:
64,192,176711,1,8,0:0:0:0:
448,192,176711,1,0,0:0:0:0:
192,192,176873,128,2,177035:0:0:0:0:
448,192,177035,1,0,0:0:0:0:
64,192,177035,128,2,177359:0:0:0:0:
320,192,177197,1,2,0:0:0:0:
448,192,177359,1,0,0:0:0:0:
192,192,177359,1,8,0:0:0:0:
320,192,177521,128,2,177846:0:0:0:0:
64,192,177684,1,2,0:0:0:0:
192,192,177684,1,0,0:0:0:0:
448,192,177846,128,2,178008:0:0:0:0:
64,192,178008,1,0,0:0:0:0:
192,192,178008,1,8,0:0:0:0:
320,192,178170,1,2,0:0:0:0:
448,192,178332,1,0,0:0:0:0:
64,192,178332,1,2,0:0:0:0:
192,192,178494,1,0,0:0:0:0:
320,192,178494,1,8,3:0:0:0:
320,192,178657,1,8,3:0:0:0:
192,192,178657,1,0,0:0:0:0:
64,192,178819,1,8,0:0:0:0:
448,192,178819,1,0,0:0:0:0:
320,192,178900,1,0,0:0:0:0:
192,192,178900,1,8,0:0:0:0:
64,192,178981,1,8,0:0:0:0:
448,192,178981,1,0,0:0:0:0:
192,192,179062,1,0,0:0:0:0:
320,192,179143,1,8,0:0:0:0:
448,192,179143,1,0,0:0:0:0:
192,192,179224,1,8,0:0:0:0:
64,192,179224,1,0,0:0:0:0:
448,192,179305,1,0,0:0:0:0:
320,192,179305,1,8,0:0:0:0:
192,192,179386,1,0,0:0:0:0:
448,192,179467,1,8,3:0:0:0:
64,192,179467,1,0,0:0:0:0:
320,192,179548,1,0,0:0:0:0:
192,192,179630,1,4,0:0:0:0:
64,192,179630,1,0,0:0:0:0:
448,192,179630,128,2,180440:0:0:0:0:
320,192,179792,1,2,0:0:0:0:
64,192,179954,1,8,0:0:0:0:
192,192,179954,1,0,0:0:0:0:
320,192,180116,1,2,0:0:0:0:
192,192,180278,1,0,0:0:0:0:
64,192,180278,1,2,0:0:0:0:
320,192,180440,1,2,0:0:0:0:
64,192,180603,1,8,0:0:0:0:
448,192,180603,128,0,180765:0:0:0:0:
320,192,180765,1,2,0:0:0:0:
192,192,180927,1,0,0:0:0:0:
64,192,180927,128,2,181251:0:0:0:0:
448,192,181089,1,2,0:0:0:0:
320,192,181251,1,8,0:0:0:0:
192,192,181251,1,0,0:0:0:0:
448,192,181413,128,2,181738:0:0:0:0:
320,192,181575,1,0,0:0:0:0:
64,192,181575,1,2,0:0:0:0:
192,192,181738,1,2,0:0:0:0:
64,192,181900,1,8,0:0:0:0:
448,192,181900,128,0,182224:0:0:0:0:
192,192,182062,1,2,0:0:0:0:
320,192,182224,1,0,0:0:0:0:
64,192,182224,1,2,0:0:0:0:
192,192,182386,1,2,0:0:0:0:
64,192,182548,1,8,0:0:0:0:
448,192,182548,128,0,182873:0:0:0:0:
320,192,182711,1,2,0:0:0:0:
192,192,182873,1,0,0:0:0:0:
64,192,182873,128,2,183197:0:0:0:0:
448,192,183035,1,2,0:0:0:0:
320,192,183197,1,0,0:0:0:0:
192,192,183197,128,8,183521:0:0:0:0:
448,192,183359,1,2,0:0:0:0:
320,192,183521,1,0,0:0:0:0:
64,192,183521,128,2,183846:0:0:0:0:
192,192,183684,1,2,0:0:0:0:
320,192,183846,1,8,0:0:0:0:
448,192,183846,1,0,0:0:0:0:
192,192,184008,128,2,184332:0:0:0:0:
320,192,184170,1,0,0:0:0:0:
448,192,184170,1,2,0:0:0:0:
64,192,184332,1,2,0:0:0:0:
192,192,184494,1,8,0:0:0:0:
448,192,184494,128,0,184657:0:0:0:0:
320,192,184657,1,2,0:0:0:0:
448,192,184819,1,4,0:0:0:0:
192,192,184819,1,0,0:0:0:0:
64,192,184819,128,2,185467:0:0:0:0:
320,192,184981,1,2,0:0:0:0:
448,192,185143,1,8,0:0:0:0:
192,192,185143,1,0,0:0:0:0:
320,192,185305,1,2,0:0:0:0:
192,192,185467,1,0,0:0:0:0:
448,192,185467,128,2,186116:0:0:0:0:
320,192,185630,1,2,0:0:0:0:
64,192,185792,1,8,0:0:0:0:
192,192,185792,1,0,0:0:0:0:
320,192,185954,1,2,0:0:0:0:
192,192,186116,1,0,0:0:0:0:
64,192,186116,128,2,186440:0:0:0:0:
320,192,186278,1,2,0:0:0:0:
192,192,186440,1,0,0:0:0:0:
448,192,186440,128,8,186603:0:0:0:0:
64,192,186603,1,2,0:0:0:0:
320,192,186765,1,0,0:0:0:0:
448,192,186765,128,2,186927:0:0:0:0:
192,192,186927,128,2,187089:0:0:0:0:
448,192,187089,1,8,0:0:0:0:
64,192,187089,1,0,0:0:0:0:
320,192,187251,128,2,187575:0:0:0:0:
64,192,187413,1,0,0:0:0:0:
192,192,187413,1,2,0:0:0:0:
448,192,187575,1,2,0:0:0:0:
320,192,187738,1,0,0:0:0:0:
64,192,187738,128,8,187900:0:0:0:0:
192,192,187900,1,2,0:0:0:0:
64,192,188062,1,0,0:0:0:0:
448,192,188062,128,2,188386:0:0:0:0:
320,192,188224,1,2,0:0:0:0:
192,192,188386,1,8,0:0:0:0:
64,192,188386,128,0,188548:0:0:0:0:
320,192,188548,128,2,188711:0:0:0:0:
64,192,188711,1,0,0:0:0:0:
192,192,188711,1,2,0:0:0:0:
448,192,188873,1,8,0:0:0:0:
320,192,188873,1,0,0:0:0:0:
64,192,188954,1,0,0:0:0:0:
192,192,188954,1,8,0:0:0:0:
448,192,189035,1,8,0:0:0:0:
320,192,189035,1,0,0:0:0:0:
192,192,189116,1,0,0:0:0:0:
448,192,189197,1,8,0:0:0:0:
64,192,189197,1,0,0:0:0:0:
192,192,189278,1,0,0:0:0:0:
320,192,189278,1,8,0:0:0:0:
448,192,189359,1,8,0:0:0:0:
64,192,189359,1,0,0:0:0:0:
320,192,189440,1,0,0:0:0:0:
192,192,189521,1,8,0:0:0:0:
64,192,189521,1,0,0:0:0:0:
320,192,189603,1,8,0:0:0:0:
448,192,189603,1,0,0:0:0:0:
64,192,189684,1,0,0:0:0:0:
192,192,189684,1,8,0:0:0:0:
320,192,189765,1,0,0:0:0:0:
64,192,189846,1,8,3:0:0:0:
448,192,189846,1,0,0:0:0:0:
192,192,189927,1,0,0:0:0:0:
64,192,190008,1,0,0:0:0:0:
320,192,190008,1,4,0:0:0:0:
448,192,190008,128,2,191305:0:0:0:0:
192,192,190170,1,2,0:0:0:0:
64,192,190332,1,0,0:0:0:0:
320,192,190332,1,8,0:0:0:0:
192,192,190494,1,2,0:0:0:0:
320,192,190657,1,2,0:0:0:0:
64,192,190657,1,0,0:0:0:0:
320,192,190819,1,2,0:0:0:0:
192,192,190981,1,0,0:0:0:0:
64,192,190981,1,8,0:0:0:0:
320,192,191143,1,2,0:0:0:0:
192,192,191305,1,2,0:0:0:0:
64,192,191305,128,0,191792:0:0:0:0:
320,192,191467,1,2,0:0:0:0:
448,192,191630,1,0,0:0:0:0:
192,192,191630,1,8,0:0:0:0:
192,192,191792,128,2,192278:0:0:0:0:
448,192,191954,1,2,0:0:0:0:
64,192,191954,1,0,0:0:0:0:
448,192,192116,1,2,0:0:0:0:
64,192,192278,1,0,0:0:0:0:
320,192,192278,128,8,192603:0:0:0:0:
192,192,192440,1,2,0:0:0:0:
64,192,192603,1,0,0:0:0:0:
448,192,192603,128,2,193900:0:0:0:0:
192,192,192765,1,2,0:0:0:0:
64,192,192927,1,0,0:0:0:0:
320,192,192927,1,8,0:0:0:0:
192,192,193089,1,2,0:0:0:0:
320,192,193251,1,2,0:0:0:0:
64,192,193251,1,0,0:0:0:0:
320,192,193413,1,2,0:0:0:0:
192,192,193575,1,0,0:0:0:0:
64,192,193575,1,8,0:0:0:0:
320,192,193738,1,2,0:0:0:0:
192,192,193900,1,2,0:0:0:0:
64,192,193900,128,0,195197:0:0:0:0:
320,192,194062,1,2,0:0:0:0:
448,192,194224,1,0,0:0:0:0:
192,192,194224,1,8,0:0:0:0:
320,192,194386,1,2,0:0:0:0:
192,192,194548,1,2,0:0:0:0:
448,192,194548,1,0,0:0:0:0:
192,192,194711,1,2,0:0:0:0:
448,192,194873,1,0,0:0:0:0:
320,192,194873,1,8,0:0:0:0:
192,192,195035,1,2,0:0:0:0:
448,192,195197,1,0,0:0:0:0:
320,192,195197,128,2,196494:0:0:0:0:
192,192,195359,1,2,0:0:0:0:
64,192,195521,1,0,0:0:0:0:
448,192,195521,1,8,0:0:0:0:
192,192,195684,1,2,0:0:0:0:
448,192,195846,1,2,0:0:0:0:
64,192,195846,1,0,0:0:0:0:
64,192,196008,1,2,0:0:0:0:
192,192,196170,1,0,0:0:0:0:
448,192,196170,1,8,0:0:0:0:
64,192,196332,1,2,0:0:0:0:
192,192,196494,1,0,0:0:0:0:
448,192,196494,128,2,196981:0:0:0:0:
320,192,196657,1,2,0:0:0:0:
64,192,196819,1,0,0:0:0:0:
192,192,196819,1,8,0:0:0:0:
64,192,196981,128,2,197467:0:0:0:0:
192,192,197143,1,2,0:0:0:0:
448,192,197143,1,0,0:0:0:0:
320,192,197305,1,2,0:0:0:0:
448,192,197467,1,8,0:0:0:0:
192,192,197467,128,0,197792:0:0:0:0:
320,192,197630,1,2,0:0:0:0:
448,192,197792,128,4,198116:0:0:0:0:
320,192,197792,128,2,198116:0:0:0:0:
64,192,197792,128,0,198116:0:0:0:0:
448,192,198278,128,4,198603:0:0:0:0:
320,192,198278,128,2,198603:0:0:0:0:
64,192,198278,128,0,198603:0:0:0:0:
64,192,198765,128,0,199981:0:0:0:0:
320,192,198765,128,2,200143:0:0:0:0:
448,192,198765,128,4,200224:0:0:0:0:
64,192,200062,1,0,0:0:0:0:
192,192,200143,1,0,0:0:0:0:
320,192,200224,1,0,0:0:0:0:
448,192,200305,1,0,0:0:0:0:
192,192,200386,128,2,202332:0:0:0:0:
320,192,200386,128,2,202332:0:0:0:0:
64,192,200386,128,2,202332:0:0:0:0:
