osu file format v14

[General]
AudioFilename: audio.mp3
AudioLeadIn: 0
PreviewTime: 91954
Countdown: 0
SampleSet: Soft
StackLeniency: 0.5
Mode: 0
LetterboxInBreaks: 0
EpilepsyWarning: 1
WidescreenStoryboard: 1

[Editor]
Bookmarks: 806,9948,22935,29209,41758,54307,66856,79405,93523,99699,99797,106072,118621,131170,145287,151562,156072,156268,162346,162542,168817,181366,193915,203327,211170
DistanceSpacing: 0.7
BeatDivisor: 4
GridSize: 32
TimelineZoom: 2.399999

[Metadata]
Title:psychology
TitleUnicode:psychology
Artist:Adust Rain
ArtistUnicode:Adust Rain
Creator:eiri-
Version:Subconscious
Source:東方地霊殿 ~ Subterranean Animism.
Tags:Ayyri Trynna Realazy Xenok Dashyy- fieryrage Hailie DJ Lucky DJ_Lucky Cheri Shiinoha Kotone Shiinoha_Kotone Tomadoi Hey lululu lu^3 Hey_lululu Noffy Hysteria A.M.A. Chireiden Earth Spirit Palace mirimo Reitaisai 13 RTS13 Enthusiasm okogeeechann K.ShawZ kisssy ハルトマンの妖怪少女 Hartmann's Youkai Girl Touhou ZUN Team Shanghai Alice Koishi Komeiji 古明地 こいし TH11 TH 11 Metal Screamo Japanese Video Game
BeatmapID:1862525
BeatmapSetID:890981

[Difficulty]
HPDrainRate:6
CircleSize:4.5
OverallDifficulty:10
ApproachRate:10
SliderMultiplier:2.8
SliderTickRate:1

[Events]
//Background and Video events
0,0,"Koishi 365.png",0,0
//Break Periods
//Storyboard Layer 0 (Background)
//Storyboard Layer 1 (Fail)
//Storyboard Layer 2 (Pass)
//Storyboard Layer 3 (Foreground)
//Storyboard Layer 4 (Overlay)
//Storyboard Sound Samples

[TimingPoints]
806,571.428571428571,4,2,1,30,1,0
806,-200,4,2,1,30,0,0
22139,-200,4,2,1,5,0,0
22935,392.156862745098,4,1,1,50,1,0
29209,-100,4,1,1,75,0,0
41758,-100,4,1,1,80,0,0
54307,-100,4,1,1,70,0,0
66856,-100,4,1,1,80,0,0
79405,-100,4,1,1,75,0,0
84895,-1000,4,1,1,50,0,0
85287,-1000,4,1,1,5,0,0
85679,-100,4,1,1,75,0,0
90385,-100,4,1,1,80,0,0
93523,-100,4,1,1,90,0,1
99699,-100,4,1,1,90,0,0
99797,-100,4,1,1,80,0,1
106072,-66.6666666666667,4,1,1,70,0,0
106267,-100,4,1,1,70,0,0
112346,-100,4,1,1,75,0,0
118817,-200,4,1,1,60,0,0
131170,-200,4,1,1,65,0,0
142150,-200,4,1,1,70,0,0
143719,-200,4,1,1,75,0,0
145287,-200,4,2,1,40,0,0
150287,-200,4,2,1,5,0,0
150385,-133.333333333333,4,2,1,45,0,0
150679,-133.333333333333,4,2,1,5,0,0
150777,-100,4,2,1,50,0,0
151071,-100,4,2,1,5,0,0
151170,-400,4,1,1,60,0,0
151366,-400,4,2,1,60,0,0
151562,-100,4,1,1,85,0,1
156072,-100,4,1,1,85,0,0
156268,-100,4,1,1,90,0,1
162346,-100,4,1,1,90,0,0
162542,-100,4,1,1,100,0,1
168817,-200,4,1,1,75,0,0
181366,-100,4,1,1,85,0,0
193915,-100,4,1,1,90,0,0
200189,-125,4,1,1,70,0,0
203326,-200,4,1,1,60,0,0
209601,-100,4,1,1,80,0,0
211170,-100,4,1,1,100,0,0

[Colours]
Combo1 : 146,146,254
Combo2 : 26,123,97
Combo3 : 52,211,168
Combo4 : 241,205,131
Combo5 : 231,168,37
Combo6 : 24,85,199

[HitObjects]
58,374,806,101,2,0:0:0:0:
153,340,1091,1,2,0:0:0:0:
248,306,1377,1,2,0:0:0:0:
172,241,1663,1,2,0:0:0:0:
153,340,1948,5,2,0:0:0:0:
76,274,2234,1,2,0:0:0:0:
162,349,2520,1,2,0:0:0:0:
67,265,2805,1,2,0:0:0:0:
172,241,3091,5,2,0:0:0:0:
248,306,3377,1,2,0:0:0:0:
335,261,3663,1,2,0:0:0:0:
335,261,4234,5,2,0:0:0:0:
248,306,4520,1,2,0:0:0:0:
172,241,4805,1,2,0:0:0:0:
224,64,5377,5,2,0:0:0:0:
256,160,5663,1,2,0:0:0:0:
156,139,5948,1,2,0:0:0:0:
324,85,6234,1,2,0:0:0:0:
356,181,6520,5,2,0:0:0:0:
424,106,6805,1,2,0:0:0:0:
454,202,7091,1,2,0:0:0:0:
386,276,7377,1,2,0:0:0:0:
288,255,7663,1,2,0:0:0:0:
256,160,8234,5,2,0:0:0:0:
221,331,8805,5,2,0:0:0:0:
424,106,9663,5,0,0:0:0:0:
439,152,9805,1,0,0:0:0:0:
454,199,9948,1,2,0:0:0:0:
386,276,10234,1,2,0:0:0:0:
288,255,10520,1,2,0:0:0:0:
221,331,10805,1,2,0:0:0:0:
184,233,11091,5,2,0:0:0:0:
251,157,11377,1,2,0:0:0:0:
175,224,11663,1,2,0:0:0:0:
117,309,11948,1,2,0:0:0:0:
84,212,12234,1,2,0:0:0:0:
17,288,12520,1,2,0:0:0:0:
117,309,12805,5,2,0:0:0:0:
221,331,13091,1,2,0:0:0:0:
321,335,13377,1,2,0:0:0:0:
325,353,13663,1,2,0:0:0:0:
329,371,13948,1,2,0:0:0:0:
251,157,14520,5,2,0:0:0:0:
354,173,14805,1,2,0:0:0:0:
317,76,15091,1,2,0:0:0:0:
294,251,15377,1,2,0:0:0:0:
214,60,15663,5,2,0:0:0:0:
419,92,15948,1,2,0:0:0:0:
205,69,16234,1,2,0:0:0:0:
428,101,16520,1,2,0:0:0:0:
456,189,16805,5,2,0:0:0:0:
337,345,17091,1,2,0:0:0:0:
184,233,17520,5,2,0:0:0:0:
439,354,18234,5,2,0:0:0:0:
256,192,19948,12,0,22139,0:0:0:0:
256,192,22935,37,8,0:0:0:0:
256,192,25484,101,8,0:0:0:0:
256,96,25680,1,8,0:0:0:0:
256,288,25876,1,8,0:0:0:0:
256,32,26464,5,8,0:0:0:0:
32,192,27248,5,0,0:0:0:0:
480,192,27640,1,0,0:0:0:0:
256,192,28033,1,0,0:0:0:0:
160,192,28425,5,0,0:0:0:0:
352,192,28621,1,0,0:0:0:0:
64,64,28817,1,8,0:0:0:0:
109,62,28915,1,8,0:0:0:0:
154,60,29013,1,8,0:0:0:0:
200,58,29111,1,8,0:0:0:0:
245,56,29209,6,0,L|327:59,1,70,14|0,0:0|0:0,0:0:0:0:
443,143,29405,1,2,0:0:0:0:
389,293,29503,2,0,P|370:335|257:362,1,140,0|0,0:0|0:0,0:0:0:0:
252,220,29797,2,0,L|295:276,1,70,2|0,0:0|0:0,0:0:0:0:
161,201,29993,2,0,P|180:159|291:136,1,140,2|2,0:0|0:0,0:0:0:0:
191,348,30287,2,0,P|165:324|149:293,1,70,0|2,0:0|0:0,0:0:0:0:
161,201,30484,1,0,0:0:0:0:
354,143,30582,2,0,P|380:167|396:198,1,70,0|2,0:0|0:0,0:0:0:0:
150,61,30778,6,0,L|161:201,1,140,2|2,0:0|0:0,0:0:0:0:
68,356,31072,2,0,L|78:216,1,140,0|0,0:0|0:0,0:0:0:0:
329,136,31366,2,0,P|337:170|358:198,1,70,2|0,0:0|0:0,0:0:0:0:
300,312,31562,2,0,P|267:302|233:306,1,70,2|0,0:0|0:0,0:0:0:0:
161,201,31758,2,0,P|186:177|200:144,1,70,2|0,0:0|0:0,0:0:0:0:
14,142,31954,5,2,0:3:0:0:
110,123,32052,1,2,0:3:0:0:
200,145,32150,1,8,0:3:0:0:
296,126,32248,1,8,0:3:0:0:
386,148,32346,6,0,P|393:181|414:209,1,70,6|0,0:0|0:0,0:0:0:0:
478,142,32542,1,2,0:0:0:0:
458,4,32640,2,0,L|483:175,1,140,0|0,0:0|0:0,0:0:0:0:
425,368,32935,2,0,L|438:285,1,70,2|0,0:0|0:0,0:0:0:0:
386,148,33131,2,0,L|365:286,1,140,2|0,0:0|0:0,0:0:0:0:
456,113,33425,2,0,P|427:82|379:72,1,70,0|2,0:0|0:0,0:0:0:0:
329,96,33621,1,0,0:0:0:0:
310,245,33719,2,0,P|333:272|365:286,1,70,2|0,0:0|0:0,0:0:0:0:
244,345,33915,6,0,L|259:184,1,140,2|2,0:0|0:0,0:0:0:0:
190,26,34209,2,0,L|205:187,1,140,0|0,0:0|0:0,0:0:0:0:
366,286,34503,2,0,B|389:260|389:260|400:227,1,70,2|0,0:0|0:0,0:0:0:0:
329,96,34699,2,0,L|398:94,1,70,6|0,0:0|0:0,0:0:0:0:
260,25,34895,2,0,L|190:26,1,70,6|0,0:0|0:0,0:0:0:0:
339,129,35091,2,0,L|478:125,1,140,6|0,0:0|0:0,0:0:0:0:
250,58,35385,1,0,0:0:0:0:
110,62,35484,6,0,P|143:50|178:48,1,70,6|0,0:0|0:0,0:0:0:0:
277,192,35680,1,2,0:0:0:0:
252,388,35778,6,0,P|228:340|274:240,1,140
346,187,36072,2,0,P|302:195|270:190,1,70,2|0,0:0|0:0,0:0:0:0:
163,139,36268,2,0,P|186:203|160:266,1,140,2|0,0:0|0:0,0:0:0:0:
302,121,36562,2,0,L|163:139,1,140,0|0,0:0|0:0,0:0:0:0:
390,238,36856,2,0,L|317:248,1,70,2|0,0:0|0:0,0:0:0:0:
226,61,37052,6,0,P|272:30|356:42,1,140,2|2,0:0|0:0,0:0:0:0:
297,191,37346,2,0,L|302:122,1,70,0|2,0:0|0:0,0:0:0:0:
220,243,37542,1,0,0:0:0:0:
386,308,37640,2,0,L|390:238,1,70,2|0,0:0|0:0,0:0:0:0:
308,360,37836,2,0,P|261:365|212:349,1,70,2|0,0:0|0:0,0:0:0:0:
390,238,38033,2,0,P|424:233|458:238,1,70,2|0,0:0|0:0,0:0:0:0:
207,163,38229,5,2,0:3:0:0:
164,69,38327,1,2,0:3:0:0:
258,26,38425,1,8,0:3:0:0:
302,121,38523,1,8,0:3:0:0:
175,264,38621,6,0,P|134:239|104:148,1,140,4|2,0:0|0:0,0:0:0:0:
258,26,38915,2,0,L|327:20,1,70,0|2,0:0|0:0,0:0:0:0:
413,96,39111,1,0,0:0:0:0:
327,173,39209,1,2,0:0:0:0:
413,250,39307,1,0,0:0:0:0:
320,0,39405,6,0,L|169:13,1,140,2|2,0:0|0:0,0:0:0:0:
36,141,39699,2,0,P|71:142|104:156,1,70,0|2,0:0|0:0,0:0:0:0:
147,240,39895,1,0,0:0:0:0:
147,240,39993,2,0,L|145:129,1,70
241,228,40189,2,0,P|239:265|221:303,1,70,2|0,0:0|0:0,0:0:0:0:
143,84,40385,1,2,0:0:0:0:
260,232,40484,2,0,P|258:269|185:352,1,140,0|0,0:0|0:0,0:0:0:0:
78,237,40778,2,0,P|112:233|147:240,1,70,2|0,0:0|0:0,0:0:0:0:
328,344,40974,5,2,0:0:0:0:
473,264,41072,1,0,0:0:0:0:
473,264,41121,1,0,0:0:0:0:
473,264,41170,2,0,L|449:182,1,70,2|2,0:3|0:3,0:0:0:0:
293,43,41366,2,0,L|313:111,1,70,8|8,0:3|0:3,0:0:0:0:
328,344,41562,2,0,L|304:262,1,70,8|8,0:3|0:3,0:0:0:0:
210,75,41758,6,0,P|169:19|103:4,1,140,4|8,0:0|0:0,0:0:0:0:
33,192,42052,2,0,P|72:247|139:262,1,140,0|0,0:0|0:0,0:0:0:0:
117,98,42346,2,0,L|126:167,1,70,8|0,0:0|0:0,0:0:0:0:
171,343,42542,2,0,B|232:313|232:313|305:330,1,140,0|8,0:0|0:0,0:0:0:0:
92,316,42836,1,0,0:0:0:0:
247,244,42935,2,0,L|229:333,1,70,0|0,0:0|0:0,0:0:0:0:
126,167,43131,2,0,L|195:158,1,70,8|0,0:0|0:0,0:0:0:0:
140,262,43327,6,0,P|73:246|33:190,1,140,0|8,0:0|0:0,0:0:0:0:
247,244,43621,1,0,0:0:0:0:
20,208,43719,2,0,P|59:263|126:279,1,140,0|8,0:0|0:0,0:0:0:0:
295,156,44013,1,0,0:0:0:0:
244,72,44111,6,0,L|175:81,1,70,0|0,0:0|0:0,0:0:0:0:
87,184,44307,2,0,L|156:175,1,70,8|0,0:0|0:0,0:0:0:0:
295,156,44503,2,0,L|157:175,1,140,0|8,0:0|0:0,0:0:0:0:
342,70,44797,1,0,0:0:0:0:
401,226,44895,6,0,P|366:225|293:148,1,140,4|8,0:0|0:0,0:0:0:0:
244,71,45189,1,0,0:0:0:0:
219,238,45287,2,0,L|212:308,1,70
123,73,45484,2,0,L|116:3,1,70,8|0,0:0|0:0,0:0:0:0:
17,194,45680,6,0,L|155:175,1,140,0|8,0:0|0:0,0:0:0:0:
208,45,45974,1,0,0:0:0:0:
302,225,46072,2,0,L|295:155,1,70,0|0,0:0|0:0,0:0:0:0:
348,0,46268,2,0,L|342:70,1,70,8|0,0:0|0:0,0:0:0:0:
233,320,46464,6,0,P|286:352|378:318,1,140,0|8,0:0|0:0,0:0:0:0:
302,225,46758,1,0,0:0:0:0:
244,110,46856,2,0,P|311:93|371:127,1,140,0|8,0:0|0:0,0:0:0:0:
302,225,47150,1,0,0:0:0:0:
72,233,47248,5,0,0:0:0:0:
219,180,47346,1,0,0:0:0:0:
39,204,47444,2,0,L|34:134,1,70,8|0,0:0|0:0,0:0:0:0:
2,347,47640,1,0,0:0:0:0:
32,104,47738,1,0,0:0:0:0:
186,213,47836,2,0,L|255:209,1,70,8|0,0:0|0:0,0:0:0:0:
160,53,48033,6,0,L|187:215,1,140,4|8,0:0|0:0,0:0:0:0:
284,295,48327,2,0,P|349:314|409:281,1,140,0|0,0:0|0:0,0:0:0:0:
369,146,48621,1,8,0:0:0:0:
340,224,48719,1,0,0:0:0:0:
263,21,48817,2,0,L|286:159,1,140,0|8,0:0|0:0,0:0:0:0:
205,53,49111,2,0,P|264:21|330:40,1,140,0|0,0:0|0:0,0:0:0:0:
151,123,49405,2,0,P|119:67|120:34,1,70,8|0,0:0|0:0,0:0:0:0:
183,191,49601,6,0,L|45:213,1,140,0|8,0:0|0:0,0:0:0:0:
271,343,49895,2,0,L|132:321,1,140,0|0,0:0|0:0,0:0:0:0:
183,191,50189,1,8,0:0:0:0:
226,258,50287,1,0,0:0:0:0:
407,162,50385,2,0,L|268:183,1,140,0|8,0:0|0:0,0:0:0:0:
181,30,50680,2,0,L|319:51,1,140,0|0,0:0|0:0,0:0:0:0:
491,163,50974,2,0,P|480:203|450:234,1,70,8|0,0:0|0:0,0:0:0:0:
226,258,51170,6,0,L|365:237,1,140,0|8,0:0|0:0,0:0:0:0:
96,207,51464,2,0,L|117:346,1,140,0|0,0:0|0:0,0:0:0:0:
56,134,51758,2,0,P|96:123|137:134,1,70,8|0,0:0|0:0,0:0:0:0:
317,101,51954,2,0,P|268:79|244:-27,1,140,0|8,0:0|0:0,0:0:0:0:
467,19,52248,2,0,P|399:2|330:8,1,140,0|0,0:0|0:0,0:0:0:0:
192,122,52542,2,0,P|151:132|110:121,1,70,8|0,0:0|0:0,0:0:0:0:
0,244,52738,6,0,B|69:238|69:238|145:267,1,140,0|8,0:0|0:0,0:0:0:0:
339,376,53033,2,0,L|187:380,1,140
363,234,53327,2,0,B|430:209,1,70,8|0,0:0|0:0,0:0:0:0:
257,96,53523,6,0,B|191:122,1,70
300,1,53719,2,0,P|311:39|352:71,1,70,8|0,0:0|0:0,0:0:0:0:
431,178,53915,1,2,0:3:0:0:
235,253,54013,1,2,0:3:0:0:
440,160,54111,1,8,0:3:0:0:
226,271,54209,1,8,0:3:0:0:
448,140,54307,102,0,B|468:292,1,140,4|0,0:0|0:0,0:0:0:0:
387,44,54601,1,0,0:0:0:0:
231,376,54895,5,0,0:0:0:0:
179,356,54961,1,0,0:0:0:0:
155,314,55026,1,0,0:0:0:0:
166,283,55091,6,0,L|405:259,2,210,4|0|8,0:0|0:0|0:0,0:0:0:0:
317,362,55876,5,4,0:0:0:0:
279,72,56170,1,0,0:0:0:0:
98,200,56464,1,8,0:0:0:0:
49,134,56562,1,8,0:0:0:0:
133,124,56660,86,0,B|305:97|305:97|262:55,1,210,4|0,0:0|0:0,0:0:0:0:
270,173,57052,2,0,B|98:200|98:200|124:226,1,210,4|0,0:0|0:0,0:0:0:0:
262,313,57444,2,0,L|270:170,1,140,4|0,0:0|0:0,0:0:0:0:
386,250,57738,5,0,0:0:0:0:
394,110,58033,1,0,0:0:0:0:
200,173,58229,2,0,L|107:173,1,70,12|0,0:0|0:0,0:0:0:0:
60,51,58425,1,8,0:0:0:0:
200,51,58523,2,0,L|61:51,1,140,0|0,0:0|0:0,0:0:0:0:
270,173,58817,2,0,L|177:173,1,70,8|0,0:0|0:0,0:0:0:0:
52,321,59013,5,12,0:0:0:0:
150,314,59144,1,8,0:0:0:0:
249,308,59274,1,8,0:0:0:0:
467,160,59405,5,8,0:0:0:0:
368,166,59536,1,8,0:0:0:0:
270,173,59667,1,8,0:0:0:0:
60,185,59797,6,0,L|270:173,1,210,4|0,0:0|0:0,0:0:0:0:
312,84,60189,6,0,L|242:80,1,70,0|0,0:0|0:0,0:0:0:0:
338,266,60385,1,8,0:0:0:0:
453,44,60484,1,8,0:0:0:0:
16,111,60582,6,0,P|47:95|168:109,1,140,4|0,0:0|0:0,0:0:0:0:
269,173,60876,2,0,L|106:183,1,140,0|0,0:0|0:0,0:0:0:0:
92,288,61170,1,0,0:0:0:0:
229,261,61268,1,0,0:0:0:0:
360,337,61366,6,0,P|329:353|208:339,1,140,4|0,0:0|0:0,0:0:0:0:
92,288,61660,2,0,L|252:257,1,140,0|0,0:0|0:0,0:0:0:0:
284,160,61954,1,0,0:0:0:0:
147,133,62052,1,0,0:0:0:0:
241,33,62150,6,0,P|275:56|369:38,1,140,4|0,0:0|0:0,0:0:0:0:
423,162,62444,2,0,L|284:160,1,140
241,33,62738,1,0,0:0:0:0:
163,219,62836,1,0,0:0:0:0:
139,89,62935,6,0,P|72:55|147:62,1,210,4|0,0:0|0:0,0:0:0:0:
193,273,63327,2,0,B|264:273|264:273|306:293|306:293|405:295,1,210,4|0,0:0|0:0,0:0:0:0:
398,96,63719,6,0,P|367:80|246:94,1,140,4|0,0:0|0:0,0:0:0:0:
321,213,64013,2,0,L|484:223,1,140,0|0,0:0|0:0,0:0:0:0:
461,376,64307,1,0,0:0:0:0:
334,236,64405,1,0,0:0:0:0:
189,355,64503,6,0,P|220:371|341:357,1,140,4|0,0:0|0:0,0:0:0:0:
321,213,64797,2,0,L|161:182,1,140,0|0,0:0|0:0,0:0:0:0:
265,84,65091,1,0,0:0:0:0:
412,106,65189,1,0,0:0:0:0:
240,73,65287,6,0,P|206:96|112:78,1,140,4|0,0:0|0:0,0:0:0:0:
44,189,65582,2,0,L|183:187,1,140,0|0,0:0|0:0,0:0:0:0:
262,56,65876,1,0,0:0:0:0:
321,213,65974,1,0,0:0:0:0:
22,172,66072,2,0,L|138:169,1,70,4|0,0:0|0:0,0:0:0:0:
259,165,66268,5,8,0:0:0:0:
406,79,66366,1,8,0:0:0:0:
353,198,66464,1,8,0:0:0:0:
250,152,66562,1,8,0:0:0:0:
437,108,66660,1,8,0:0:0:0:
473,317,66758,1,8,0:0:0:0:
175,161,66856,6,0,B|157:192|157:192|118:224,1,70,4|0,0:0|0:0,0:0:0:0:
306,335,67052,2,0,B|324:304|324:304|350:282,1,70,2|0,0:0|0:0,0:0:0:0:
216,349,67248,2,0,B|194:323|194:323|163:305,1,70,2|0,0:0|0:0,0:0:0:0:
284,129,67444,2,0,B|305:155|305:155|336:173,1,70
473,220,67640,5,2,0:0:0:0:
477,128,67738,1,0,0:0:0:0:
393,199,67836,5,2,0:0:0:0:
498,204,67935,1,0,0:0:0:0:
400,76,68033,5,2,0:0:0:0:
396,167,68131,1,0,0:0:0:0:
494,0,68229,5,2,0:0:0:0:
485,184,68327,1,0,0:0:0:0:
219,210,68425,6,0,L|133:199,1,70,2|0,0:0|0:0,0:0:0:0:
383,89,68621,2,0,L|453:81,1,70,2|0,0:0|0:0,0:0:0:0:
444,265,68817,1,2,0:0:0:0:
349,313,68915,1,0,0:0:0:0:
301,218,69013,1,2,0:0:0:0:
396,170,69111,1,0,0:0:0:0:
249,309,69209,6,0,L|234:392,1,70,2|0,0:0|0:0,0:0:0:0:
301,218,69405,2,0,L|288:149,1,70,2|0,0:0|0:0,0:0:0:0:
218,315,69601,2,0,L|205:383,1,70,2|0,0:0|0:0,0:0:0:0:
318,207,69797,2,0,L|302:120,1,70,2|0,0:0|0:0,0:0:0:0:
449,28,69993,5,2,0:0:0:0:
425,99,70091,1,0,0:0:0:0:
402,171,70189,2,0,L|300:164,1,70,2|0,0:0|0:0,0:0:0:0:
457,7,70385,2,0,L|355:0,1,70,2|0,0:0|0:0,0:0:0:0:
512,96,70582,1,2,0:0:0:0:
285,65,70680,1,0,0:0:0:0:
432,203,70778,6,0,L|440:276,1,70,2|0,0:0|0:0,0:0:0:0:
348,384,70974,1,2,0:0:0:0:
348,384,71072,6,0,L|355:314,1,70,0|2,0:0|0:0,0:0:0:0:
158,186,71268,1,0,0:0:0:0:
298,194,71366,2,0,L|228:190,1,70,2|0,0:0|0:0,0:0:0:0:
308,102,71562,6,0,L|377:97,1,70,2|0,0:0|0:0,0:0:0:0:
368,198,71758,1,2,0:0:0:0:
238,107,71856,2,0,L|307:102,1,70,0|2,0:0|0:0,0:0:0:0:
254,258,72052,1,0,0:0:0:0:
271,33,72150,2,0,L|341:29,1,70,2|0,0:0|0:0,0:0:0:0:
480,288,72346,5,4,0:0:0:0:
468,172,72444,1,0,0:0:0:0:
352,184,72542,1,0,0:0:0:0:
364,300,72640,1,0,0:0:0:0:
489,151,72738,5,8,0:0:0:0:
343,322,72836,1,8,0:0:0:0:
332,161,72935,5,8,0:0:0:0:
500,300,73033,1,8,0:0:0:0:
500,300,73131,102,0,B|493:264|493:264|500:221,1,70,6|0,0:0|0:0,0:0:0:0:
366,48,73327,2,0,B|371:80|371:80|364:116,1,70,2|0,0:0|0:0,0:0:0:0:
415,327,73523,6,0,B|408:291|408:291|415:248,1,70,2|0,0:0|0:0,0:0:0:0:
288,77,73719,2,0,B|293:109|293:109|286:145,1,70,2|0,0:0|0:0,0:0:0:0:
214,321,73915,5,2,0:0:0:0:
238,227,74013,1,0,0:0:0:0:
151,264,74111,1,2,0:0:0:0:
168,182,74209,1,0,0:0:0:0:
118,365,74307,5,2,0:0:0:0:
246,315,74405,1,0,0:0:0:0:
62,257,74503,1,2,0:0:0:0:
267,221,74601,1,0,0:0:0:0:
249,52,74699,6,0,B|318:38,1,70,2|0,0:0|0:0,0:0:0:0:
296,193,74895,2,0,B|227:207,1,70,2|0,0:0|0:0,0:0:0:0:
232,28,75091,2,0,B|300:13,1,70,2|0,0:0|0:0,0:0:0:0:
309,220,75287,2,0,B|241:235,1,70,2|0,0:0|0:0,0:0:0:0:
86,154,75484,5,2,0:0:0:0:
183,110,75582,1,0,0:0:0:0:
227,207,75680,1,2,0:0:0:0:
130,251,75778,1,0,0:0:0:0:
71,131,75876,2,0,L|73:53,1,70,2|0,0:0|0:0,0:0:0:0:
241,235,76072,2,0,L|240:304,1,70,2|0,0:0|0:0,0:0:0:0:
364,247,76268,5,2,0:0:0:0:
376,124,76366,1,0,0:0:0:0:
244,156,76464,2,0,L|174:154,1,70,2|0,0:0|0:0,0:0:0:0:
33,316,76660,1,2,0:0:0:0:
136,368,76758,1,0,0:0:0:0:
130,251,76856,1,2,0:0:0:0:
156,384,76954,1,0,0:0:0:0:
150,235,77052,6,0,L|80:233,1,70,2|0,0:0|0:0,0:0:0:0:
136,368,77248,1,2,0:0:0:0:
170,219,77346,2,0,L|100:217,1,70,0|2,0:0|0:0,0:0:0:0:
156,384,77542,1,0,0:0:0:0:
305,313,77640,1,2,0:0:0:0:
318,149,77738,1,0,0:0:0:0:
113,52,77836,6,0,L|183:55,1,70,2|0,0:0|0:0,0:0:0:0:
375,315,78033,1,2,0:0:0:0:
375,315,78131,2,0,L|306:313,1,70,0|2,0:0|0:0,0:0:0:0:
96,28,78327,1,0,0:0:0:0:
96,28,78425,2,0,L|166:31,1,70,2|0,0:0|0:0,0:0:0:0:
295,164,78621,5,4,0:0:0:0:
200,209,78719,1,8,0:0:0:0:
296,143,78817,5,8,0:0:0:0:
196,227,78915,1,8,0:0:0:0:
290,116,79013,5,8,0:0:0:0:
197,251,79111,1,8,0:0:0:0:
271,106,79209,5,8,0:0:0:0:
216,261,79307,1,8,0:0:0:0:
236,102,79405,6,2,B|205:92|172:102|172:102|136:92|136:92|80:104,1,140,12|0,0:0|0:0,0:0:0:0:
300,193,79699,2,2,B|336:200|336:200|372:190|372:190|405:200|436:190,1,140,8|0,0:0|0:0,0:0:0:0:
423,34,79993,2,2,P|405:76|407:108,1,70,8|0,0:0|0:0,0:0:0:0:
361,225,80189,5,4,0:0:0:0:
171,234,80287,1,0,0:0:0:0:
300,193,80385,5,0,0:0:0:0:
232,266,80484,1,0,0:0:0:0:
263,135,80582,5,0,0:0:0:0:
272,324,80680,1,0,0:0:0:0:
230,196,80778,5,0,0:0:0:0:
303,264,80876,1,0,0:0:0:0:
143,209,80974,6,2,B|157:173|157:173|144:67,1,140,12|0,0:0|0:0,0:0:0:0:
367,72,81268,2,2,B|355:173|355:173|369:209,1,140,8|0,0:0|0:0,0:0:0:0:
241,11,81562,2,2,B|250:80,1,70,8|0,0:0|0:0,0:0:0:0:
352,243,81758,5,4,0:0:0:0:
162,252,81856,1,0,0:0:0:0:
291,211,81954,5,0,0:0:0:0:
223,284,82052,1,0,0:0:0:0:
254,153,82150,5,4,0:0:0:0:
263,342,82248,1,0,0:0:0:0:
221,214,82346,5,0,0:0:0:0:
294,282,82444,1,0,0:0:0:0:
323,53,82542,6,2,B|277:48|277:48|219:70|219:70|262:84,1,140,12|0,0:0|0:0,0:0:0:0:
368,256,82836,2,2,B|398:265|398:265|340:287|340:287|294:282,1,140,8|0,0:0|0:0,0:0:0:0:
209,135,83131,2,2,P|241:101|250:62,1,70,8|0,0:0|0:0,0:0:0:0:
458,158,83327,5,4,0:0:0:0:
268,167,83425,1,0,0:0:0:0:
397,126,83523,5,0,0:0:0:0:
329,199,83621,1,0,0:0:0:0:
360,68,83719,5,0,0:0:0:0:
369,257,83817,1,0,0:0:0:0:
327,129,83915,5,0,0:0:0:0:
400,197,84013,1,0,0:0:0:0:
224,256,84111,6,2,B|186:245|186:245|79:267,1,140,12|0,0:0|0:0,0:0:0:0:
288,352,84405,2,2,B|326:363|326:363|424:342,1,140,8|0,0:0|0:0,0:0:0:0:
256,192,84699,2,2,L|256:96,1,70,8|0,0:0|0:0,0:0:0:0:
256,64,84895,6,2,L|256:92,1,28,0|0,0:0|0:0,0:0:0:0:
70,288,85680,6,2,B|138:279|138:279|170:292|170:292|202:274,1,140,12|0,0:0|0:0,0:0:0:0:
256,122,85974,2,2,B|274:153|274:153|261:185|261:185|270:253,1,140,8|0,0:0|0:0,0:0:0:0:
384,354,86268,2,2,P|343:350|313:329,1,70,8|0,0:0|0:0,0:0:0:0:
66,131,86464,5,4,0:0:0:0:
256,122,86562,1,0,0:0:0:0:
127,163,86660,5,0,0:0:0:0:
195,90,86758,1,0,0:0:0:0:
167,221,86856,5,0,0:0:0:0:
158,32,86954,1,0,0:0:0:0:
198,161,87052,5,0,0:0:0:0:
125,93,87150,1,0,0:0:0:0:
313,24,87248,6,2,B|358:33|358:33|463:22,1,140,12|0,0:0|0:0,0:0:0:0:
336,161,87542,2,2,B|291:152|291:152|197:161,1,140,8|0,0:0|0:0,0:0:0:0:
57,169,87836,2,2,B|132:162,1,70,8|0,0:0|0:0,0:0:0:0:
397,193,88033,5,4,0:0:0:0:
207,202,88131,1,0,0:0:0:0:
336,161,88229,5,0,0:0:0:0:
268,234,88327,1,0,0:0:0:0:
299,103,88425,5,4,0:0:0:0:
308,292,88523,1,0,0:0:0:0:
266,164,88621,5,0,0:0:0:0:
339,232,88719,1,0,0:0:0:0:
67,216,88817,6,2,B|236:199,1,140,12|0,0:0|0:0,0:0:0:0:
251,24,89111,2,2,B|266:164,1,140,8|0,0:0|0:0,0:0:0:0:
314,361,89405,2,2,B|305:268,1,70,8|0,0:0|0:0,0:0:0:0:
452,129,89601,5,4,0:0:0:0:
262,138,89699,1,0,0:0:0:0:
391,97,89797,5,0,0:0:0:0:
323,170,89895,1,0,0:0:0:0:
354,39,89993,5,0,0:0:0:0:
363,228,90091,1,0,0:0:0:0:
321,100,90189,37,0,0:0:0:0:
394,168,90287,1,0,0:0:0:0:
428,356,90385,53,4,0:0:0:0:
428,356,90778,1,0,0:0:0:0:
428,356,91170,1,0,0:0:0:0:
428,356,91562,1,0,0:0:0:0:
428,356,91954,5,4,0:0:0:0:
385,302,92052,1,0,0:0:0:0:
386,233,92150,1,0,0:0:0:0:
429,180,92248,1,0,0:0:0:0:
498,107,92346,5,8,0:0:0:0:
442,168,92444,1,0,0:0:0:0:
361,181,92542,1,0,0:0:0:0:
289,140,92640,1,0,0:0:0:0:
350,9,92738,5,8,0:0:0:0:
360,98,92836,1,0,0:0:0:0:
350,9,92935,1,8,0:0:0:0:
360,98,93033,1,0,0:0:0:0:
200,188,93131,5,8,0:0:0:0:
212,82,93229,1,8,0:0:0:0:
200,188,93327,1,8,0:0:0:0:
212,82,93425,1,8,0:0:0:0:
292,235,93523,6,0,L|284:318,1,70,14|0,0:0|0:0,0:0:0:0:
360,98,93719,2,0,L|366:28,1,70,10|0,0:0|0:0,0:0:0:0:
257,132,93915,2,0,L|174:124,1,70,10|0,0:0|0:0,0:0:0:0:
395,200,94111,2,0,L|465:206,1,70,10|0,0:0|0:0,0:0:0:0:
360,98,94307,5,10,0:0:0:0:
257,132,94405,1,0,0:0:0:0:
291,234,94503,1,10,0:0:0:0:
395,200,94601,1,0,0:0:0:0:
290,57,94699,2,0,P|259:41|208:42,1,70,10|0,0:0|0:0,0:0:0:0:
226,254,94895,2,0,P|260:251|291:235,1,70,10|0,0:0|0:0,0:0:0:0:
129,174,95091,2,0,L|123:270,1,70,10|0,0:0|0:0,0:0:0:0:
227,150,95287,1,10,0:0:0:0:
125,76,95385,1,0,0:0:0:0:
225,38,95484,6,0,P|290:58|321:118,1,140,10|10,0:0|0:0,0:0:0:0:
216,168,95778,1,0,0:0:0:0:
332,104,95876,6,0,P|301:44|236:24,1,140,10|10,0:0|0:0,0:0:0:0:
205,186,96170,1,0,0:0:0:0:
246,10,96268,6,0,P|311:29|343:90,1,140,10|10,0:0|0:0,0:0:0:0:
94,52,96562,1,0,0:0:0:0:
16,183,96660,6,0,L|96:178,1,70,14|0,0:0|0:0,0:0:0:0:
226,253,96856,2,0,L|156:257,1,70,10|0,0:0|0:0,0:0:0:0:
319,123,97052,2,0,L|399:118,1,70,10|0,0:0|0:0,0:0:0:0:
512,268,97248,2,0,L|442:272,1,70,10|0,0:0|0:0,0:0:0:0:
421,89,97444,6,0,L|426:169,1,70,10|0,0:0|0:0,0:0:0:0:
355,303,97640,2,0,L|351:233,1,70,10|0,0:0|0:0,0:0:0:0:
491,85,97836,2,0,L|421:89,1,70,10|0,0:0|0:0,0:0:0:0:
278,50,98033,2,0,L|347:45,1,70,10|0,0:0|0:0,0:0:0:0:
244,139,98229,6,0,P|194:92|187:24,1,140,14|10,0:0|0:0,0:0:0:0:
421,89,98523,1,0,0:0:0:0:
167,32,98621,2,0,P|174:101|224:148,1,140,10|10,0:0|0:0,0:0:0:0:
366,0,98915,1,0,0:0:0:0:
491,85,99013,2,0,P|492:127|424:204,1,140,14|10,0:0|0:0,0:0:0:0:
334,221,99307,1,0,0:0:0:0:
84,191,99405,5,10,0:0:0:0:
237,259,99503,1,10,0:0:0:0:
129,300,99601,1,8,0:3:0:0:
190,354,99699,1,8,0:3:0:0:
277,189,99797,86,0,B|285:49,1,140,6|0,0:0|0:0,0:0:0:0:
191,269,100091,1,0,0:0:0:0:
288,350,100189,2,0,L|357:347,1,70,14|0,0:0|0:0,0:0:0:0:
454,209,100385,2,0,L|384:211,1,70,0|0,0:0|0:0,0:0:0:0:
250,204,100582,6,0,B|259:65,1,140,6|0,0:0|0:0,0:0:0:0:
419,77,100876,1,0,0:0:0:0:
454,209,100974,2,0,L|456:279,1,70,14|0,0:0|0:0,0:0:0:0:
273,259,101170,2,0,B|277:185,1,70,0|0,0:0|0:0,0:0:0:0:
150,351,101366,6,0,B|178:362|178:362|304:347,1,140,6|0,0:0|0:0,0:0:0:0:
456,279,101660,1,0,0:0:0:0:
277,189,101758,2,0,B|203:184,1,70,12|0,0:0|0:0,0:0:0:0:
349,72,101954,2,0,B|419:77,1,70,0|0,0:0|0:0,0:0:0:0:
414,190,102150,6,0,B|386:201|386:201|277:189,1,140,6|0,0:0|0:0,0:0:0:0:
226,61,102444,1,0,0:0:0:0:
77,250,102542,2,0,B|147:242,1,70,12|0,0:0|0:0,0:0:0:0:
251,125,102738,1,8,0:0:0:0:
287,349,102836,1,8,0:0:0:0:
365,242,102935,6,0,B|503:260,1,140,6|0,0:0|0:0,0:0:0:0:
312,345,103229,1,0,0:0:0:0:
298,189,103327,2,0,P|280:227|285:263,1,70,12|0,0:0|0:0,0:0:0:0:
489,326,103523,2,0,P|504:294|503:260,1,70
146,74,103719,6,0,L|59:80,1,70,6|0,0:0|0:0,0:0:0:0:
317,160,103915,2,0,L|386:164,1,70,0|0,0:0|0:0,0:0:0:0:
165,247,104111,2,0,L|160:316,1,70,12|0,0:0|0:0,0:0:0:0:
251,76,104307,2,0,L|245:-11,1,70,0|0,0:0|0:0,0:0:0:0:
15,154,104503,6,0,L|155:143,1,140,4|0,0:0|0:0,0:0:0:0:
354,204,104797,1,0,0:0:0:0:
161,317,104895,2,0,L|165:247,1,70,14|0,0:0|0:0,0:0:0:0:
337,35,105091,2,0,L|341:104,1,70
481,94,105287,2,0,L|341:105,1,140,4|0,0:0|0:0,0:0:0:0:
165,247,105582,1,0,0:0:0:0:
436,283,105680,1,0,0:0:0:0:
357,312,106072,6,0,B|345:266|369:233|369:233|354:204|354:204|380:170|368:113,1,210.000008010865,4|0,0:0|0:0,0:0:0:0:
436,283,106366,6,0,L|284:274,1,140,2|2,0:0|0:0,0:0:0:0:
218,145,106660,2,0,L|288:150,1,70,2|2,0:0|0:0,0:0:0:0:
86,261,106856,2,0,L|305:275,2,210,10|0|0,0:0|0:0|0:0,0:0:0:0:
38,168,107542,1,2,0:0:0:0:
218,145,107640,6,0,L|358:154,1,140,2|2,0:0|0:0,0:0:0:0:
436,283,107935,2,0,L|366:278,1,70
291,365,108131,1,2,0:0:0:0:
431,209,108229,1,10,0:0:0:0:
484,352,108327,1,2,0:0:0:0:
357,154,108425,22,0,L|352:84,1,70,10|0,0:0|0:0,0:0:0:0:
222,74,108621,2,0,L|217:143,1,70,8|0,0:0|0:0,0:0:0:0:
277,293,108817,2,0,L|271:205,1,70,10|0,0:0|0:0,0:0:0:0:
142,214,109013,2,0,L|137:283,1,70,8|0,0:0|0:0,0:0:0:0:
51,196,109209,6,0,P|119:122|181:128,1,140,14|0,0:0|0:0,0:0:0:0:
368,308,109503,2,0,P|300:382|238:376,1,140,2|0,0:0|0:0,0:0:0:0:
407,234,109797,2,0,L|485:232,1,70,2|2,0:0|0:0,0:0:0:0:
362,114,109993,2,0,L|152:119,2,210,10|0|0,0:0|0:0|0:0,0:0:0:0:
476,232,110680,1,2,0:0:0:0:
362,114,110778,6,0,L|219:118,1,140,2|2,0:0|0:0,0:0:0:0:
142,213,111072,2,0,L|281:209,1,140
389,275,111366,2,0,P|400:317|395:355,1,70,2|2,0:0|0:0,0:0:0:0:
280,336,111562,5,8,0:0:0:0:
281,209,111660,1,0,0:0:0:0:
389,275,111758,5,8,0:0:0:0:
212,274,111856,1,0,0:0:0:0:
347,145,111954,5,8,0:0:0:0:
398,343,112052,1,8,0:0:0:0:
190,181,112150,1,8,0:0:0:0:
440,201,112248,1,8,0:0:0:0:
214,336,112346,6,0,B|145:356|145:356|67:330,1,140,14|0,0:0|0:0,0:0:0:0:
84,126,112640,2,0,L|71:266,1,140,0|0,0:0|0:0,0:0:0:0:
219,204,112935,2,0,L|209:302,1,70,0|0,0:0|0:0,0:0:0:0:
286,98,113131,6,0,B|355:78|355:78|433:104,1,140,10|0,0:0|0:0,0:0:0:0:
363,263,113425,2,0,B|298:284|298:284|229:264,1,140,0|0,0:0|0:0,0:0:0:0:
293,28,113719,2,0,L|283:126,1,70,0|0,0:0|0:0,0:0:0:0:
147,216,113915,6,0,L|160:76,1,140,10|0,0:0|0:0,0:0:0:0:
13,332,114209,2,0,L|153:345,1,140,0|0,0:0|0:0,0:0:0:0:
336,179,114503,1,0,0:0:0:0:
400,295,114601,1,0,0:0:0:0:
268,292,114699,6,0,L|274:222,1,70,10|0,0:0|0:0,0:0:0:0:
392,66,114895,2,0,L|398:135,1,70,0|0,0:0|0:0,0:0:0:0:
235,357,115091,2,0,L|241:287,1,70,10|0,0:0|0:0,0:0:0:0:
429,4,115287,2,0,L|435:73,1,70,0|0,0:0|0:0,0:0:0:0:
470,266,115484,6,0,B|441:294|400:295|400:295|373:272|373:272|332:269,1,140,10|0,0:0|0:0,0:0:0:0:
235,357,115778,2,0,L|250:213,1,140,0|0,0:0|0:0,0:0:0:0:
151,34,116072,2,0,L|162:131,1,70,0|0,0:0|0:0,0:0:0:0:
110,232,116268,6,0,L|254:217,1,140,10|0,0:0|0:0,0:0:0:0:
435,73,116562,2,0,L|295:87,1,140,0|0,0:0|0:0,0:0:0:0:
249,217,116856,2,0,L|318:209,1,70,0|0,0:0|0:0,0:0:0:0:
435,73,117052,5,14,0:0:0:0:
495,242,117150,1,0,0:0:0:0:
319,209,117248,1,0,0:0:0:0:
465,157,117346,1,0,0:0:0:0:
406,225,117444,5,14,0:0:0:0:
347,57,117542,1,0,0:0:0:0:
465,157,117640,5,0,0:0:0:0:
319,209,117738,1,0,0:0:0:0:
435,73,117836,6,0,L|514:67,1,70,8|0,0:0|0:0,0:0:0:0:
336,32,118033,1,0,0:0:0:0:
378,141,118131,1,0,0:0:0:0:
246,156,118229,2,0,L|29:167,1,210,8|0,0:0|0:0,0:0:0:0:
59,259,118621,6,0,P|111:223|125:131,1,140,14|0,0:0|0:0,0:0:0:0:
103,26,119013,5,2,0:0:0:0:
288,352,119405,2,0,L|292:272,1,70,10|0,0:0|0:0,0:0:0:0:
333,210,119699,1,0,0:0:0:0:
448,352,119895,1,8,0:0:0:0:
492,280,119993,1,8,0:0:0:0:
334,85,120189,5,2,0:0:0:0:
291,159,120287,2,0,P|242:168|213:162,1,70,0|0,0:0|0:0,0:0:0:0:
153,117,120582,2,0,L|148:201,1,70,2|0,0:0|0:0,0:0:0:0:
94,292,120974,6,0,L|163:287,1,70,10|0,0:0|0:0,0:0:0:0:
273,223,121268,2,0,L|204:228,1,70,10|0,0:0|0:0,0:0:0:0:
313,163,121562,2,0,L|368:160,1,35,10|0,0:0|0:0,0:0:0:0:
408,101,121758,5,4,0:0:0:0:
288,352,122150,1,2,0:0:0:0:
224,32,122542,2,0,L|220:112,1,70,10|0,0:0|0:0,0:0:0:0:
179,175,122836,1,0,0:0:0:0:
64,32,123033,1,8,0:0:0:0:
18,102,123131,1,8,0:0:0:0:
170,291,123327,5,2,0:0:0:0:
221,225,123425,2,0,P|270:216|299:222,1,70,0|0,0:0|0:0,0:0:0:0:
361,263,123719,2,0,L|366:179,1,70,2|0,0:0|0:0,0:0:0:0:
376,73,124111,6,0,L|445:78,1,70,6|0,0:0|0:0,0:0:0:0:
365,193,124503,2,0,L|296:188,1,70,6|0,0:0|0:0,0:0:0:0:
125,181,124895,5,14,0:0:0:0:
256,32,125287,1,2,0:0:0:0:
224,352,125680,2,0,L|220:272,1,70,10|0,0:0|0:0,0:0:0:0:
188,204,125974,1,0,0:0:0:0:
64,352,126170,1,8,0:0:0:0:
21,279,126268,1,8,0:0:0:0:
337,88,126464,5,2,0:0:0:0:
291,159,126562,2,0,P|242:168|213:162,1,70,0|0,0:0|0:0,0:0:0:0:
155,116,126856,2,0,L|150:200,1,70,10|0,0:0|0:0,0:0:0:0:
94,292,127248,6,0,L|163:287,1,70,10|0,0:0|0:0,0:0:0:0:
273,223,127542,2,0,L|204:228,1,70,10|0,0:0|0:0,0:0:0:0:
313,163,127836,2,0,L|368:160,1,35,10|0,0:0|0:0,0:0:0:0:
402,96,128033,5,14,0:0:0:0:
448,352,128425,1,2,0:0:0:0:
224,32,128817,2,0,L|220:112,1,70,10|0,0:0|0:0,0:0:0:0:
178,175,129111,1,0,0:0:0:0:
64,32,129307,1,8,0:0:0:0:
20,105,129405,1,8,0:0:0:0:
177,295,129601,5,2,0:0:0:0:
221,225,129699,2,0,P|270:216|299:222,1,70,0|0,0:0|0:0,0:0:0:0:
357,267,129993,2,0,L|362:183,1,70,10|0,0:0|0:0,0:0:0:0:
418,92,130385,5,8,0:0:0:0:
345,97,130516,1,8,0:0:0:0:
273,102,130647,1,8,0:0:0:0:
200,107,130778,6,0,P|185:141|113:168,1,105,14|0,0:0|0:0,0:0:0:0:
63,113,131170,6,0,L|88:270,1,140,4|2,0:0|0:0,0:0:0:0:
235,324,131954,1,10,0:0:0:0:
326,211,132150,1,0,0:0:0:0:
383,271,132248,1,0,0:0:0:0:
355,110,132444,1,8,0:0:0:0:
412,170,132542,1,8,0:0:0:0:
295,18,132738,5,2,0:0:0:0:
238,80,132836,2,0,P|195:84|153:70,1,70,0|0,0:0|0:0,0:0:0:0:
194,155,133131,1,2,0:0:0:0:
59,188,133327,1,8,0:0:0:0:
48,239,133425,1,0,0:0:0:0:
72,285,133523,6,0,L|145:340,1,70,10|0,0:0|0:0,0:0:0:0:
251,320,133817,2,0,L|196:278,1,70,10|0,0:0|0:0,0:0:0:0:
319,270,134111,2,0,L|346:291,1,35,10|0,0:0|0:0,0:0:0:0:
407,349,134307,5,14,0:0:0:0:
256,32,134699,1,2,0:0:0:0:
169,223,135091,1,10,0:0:0:0:
129,125,135287,1,0,0:0:0:0:
207,93,135385,1,0,0:0:0:0:
291,188,135582,1,8,0:0:0:0:
369,156,135680,1,8,0:0:0:0:
330,21,135876,5,2,0:0:0:0:
388,81,135974,2,0,P|430:84|465:68,1,70,0|0,0:0|0:0,0:0:0:0:
440,157,136268,1,10,0:0:0:0:
507,239,136464,2,0,L|511:281,1,35,0|0,0:0|0:0,0:0:0:0:
484,319,136660,5,10,0:0:0:0:
385,325,136791,1,8,0:0:0:0:
287,332,136921,1,8,0:0:0:0:
116,183,137052,5,10,0:0:0:0:
214,176,137183,1,8,0:0:0:0:
313,170,137314,1,8,0:0:0:0:
369,233,137444,6,0,B|442:249|442:249|524:235,1,140,14|2,0:0|0:0,0:0:0:0:
364,35,138229,1,10,0:0:0:0:
242,0,138425,1,0,0:0:0:0:
200,73,138523,1,0,0:0:0:0:
271,243,138719,1,8,0:0:0:0:
313,170,138817,1,8,0:0:0:0:
248,25,139013,5,2,0:0:0:0:
198,94,139111,2,0,P|153:106|123:97,1,70,0|0,0:0|0:0,0:0:0:0:
67,49,139405,1,2,0:0:0:0:
0,138,139601,2,0,L|7:186,1,35,8|0,0:0|0:0,0:0:0:0:
26,253,139797,6,0,L|103:245,1,70,10|0,0:0|0:0,0:0:0:0:
215,304,140091,2,0,L|146:312,1,70,10|0,0:0|0:0,0:0:0:0:
248,228,140385,2,0,L|301:222,1,35,10|0,0:0|0:0,0:0:0:0:
366,214,140582,5,4,0:0:0:0:
435,29,140974,1,2,0:0:0:0:
484,217,141366,1,10,0:0:0:0:
367,141,141562,1,0,0:0:0:0:
348,223,141660,1,0,0:0:0:0:
170,311,141856,1,8,0:0:0:0:
189,229,141954,1,8,0:0:0:0:
225,97,142150,6,0,P|183:123|123:107,1,105,14|0,0:0|0:0,0:0:0:0:
85,44,142542,1,0,0:0:0:0:
237,161,142738,1,0,0:0:0:0:
40,224,142935,1,0,0:0:0:0:
86,14,143131,1,0,0:0:0:0:
160,245,143327,1,0,0:0:0:0:
262,59,143523,1,0,0:0:0:0:
31,133,143719,5,12,0:0:0:0:
86,125,143817,1,0,0:0:0:0:
141,133,143915,1,0,0:0:0:0:
191,157,144013,1,0,0:0:0:0:
279,280,144111,5,8,0:0:0:0:
270,219,144209,1,0,0:0:0:0:
279,159,144307,1,0,0:0:0:0:
305,104,144405,1,0,0:0:0:0:
374,170,144503,5,8,0:0:0:0:
382,238,144601,1,0,0:0:0:0:
372,306,144699,1,8,0:0:0:0:
343,366,144797,1,0,0:0:0:0:
264,307,144895,5,8,0:0:0:0:
336,297,144993,1,8,0:0:0:0:
408,307,145091,1,8,0:0:0:0:
473,339,145189,1,8,0:0:0:0:
400,367,145287,6,0,L|378:290,1,70,6|0,0:0|0:0,0:0:0:0:
252,289,145680,1,2,0:0:0:0:
324,203,145876,1,0,0:0:0:0:
211,151,146072,2,0,P|253:146|297:117,1,70,2|0,0:0|0:0,0:0:0:0:
366,189,146464,2,0,P|371:231|400:275,1,70,2|0,0:0|0:0,0:0:0:0:
397,280,146758,1,0,0:0:0:0:
358,278,146856,2,0,P|316:283|272:312,1,70,2|0,0:0|0:0,0:0:0:0:
220,359,147248,5,2,0:0:0:0:
274,271,147444,1,0,0:0:0:0:
378,358,147640,1,2,0:0:0:0:
427,213,147836,1,0,0:0:0:0:
487,289,148033,1,2,0:0:0:0:
358,278,148229,1,0,0:0:0:0:
362,127,148425,6,0,L|292:142,1,70,2|0,0:0|0:0,0:0:0:0:
256,32,148817,1,2,0:0:0:0:
181,105,149013,1,0,0:0:0:0:
96,42,149209,2,0,L|88:116,1,70,2|0,0:0|0:0,0:0:0:0:
29,198,149601,1,2,0:0:0:0:
75,291,149797,1,0,0:0:0:0:
160,229,149993,6,0,L|291:222,1,105,2|0,0:0|0:0,0:0:0:0:
301,153,150385,6,0,L|143:144,1,157.500006008148,2|0,0:0|0:0,0:0:0:0:
83,58,150778,6,0,L|308:45,1,210,2|0,0:0|0:0,0:0:0:0:
435,21,151170,6,0,P|423:39|416:63,1,35,0|2,0:0|0:0,0:0:0:0:
293,177,151464,1,2,0:0:0:0:
301,153,151562,6,0,P|295:118|278:88,1,70,6|0,0:0|0:0,0:0:0:0:
420,245,151758,2,0,P|402:275|397:309,1,70
404,127,151954,2,0,L|490:122,1,70,14|0,0:0|0:0,0:0:0:0:
295,281,152150,2,0,L|225:276,1,70
139,158,152346,2,0,P|141:208|79:286,1,140,6|0,0:0|0:0,0:0:0:0:
28,184,152640,1,0,0:0:0:0:
206,93,152738,6,0,P|197:59|201:24,1,70,14|0,0:0|0:0,0:0:0:0:
312,189,152935,2,0,P|316:223|307:257,1,70,0|0,0:0|0:0,0:0:0:0:
139,353,153131,2,0,L|209:351,1,70,6|0,0:0|0:0,0:0:0:0:
91,279,153327,1,0,0:0:0:0:
143,376,153425,1,0,0:0:0:0:
139,158,153523,2,0,B|111:133|111:133|56:116,1,70,14|0,0:0|0:0,0:0:0:0:
307,257,153719,2,0,B|335:241|335:241|372:240,1,70
315,117,153915,6,0,L|306:257,1,140,6|0,0:0|0:0,0:0:0:0:
159,199,154209,1,0,0:0:0:0:
254,9,154307,2,0,L|393:0,1,140,14|0,0:0|0:0,0:0:0:0:
456,126,154601,1,0,0:0:0:0:
373,240,154699,6,0,L|381:162,1,70,6|0,0:0|0:0,0:0:0:0:
236,196,154895,2,0,L|228:118,1,70
447,295,155091,6,0,L|455:217,1,70,14|0,0:0|0:0,0:0:0:0:
313,85,155287,2,0,L|305:7,1,70
124,236,155484,5,14,0:0:0:0:
473,143,155582,1,0,0:0:0:0:
162,218,155680,5,14,0:0:0:0:
438,160,155778,1,0,0:0:0:0:
236,13,155876,5,14,0:0:0:0:
304,306,155974,1,8,0:0:0:0:
246,54,156072,5,8,0:0:0:0:
295,272,156170,1,8,0:0:0:0:
117,328,156268,6,0,L|277:331,1,140,14|0,0:0|0:0,0:0:0:0:
383,294,156562,1,0,0:0:0:0:
476,155,156660,2,0,P|437:170|388:167,1,70,14|0,0:0|0:0,0:0:0:0:
281,73,156856,2,0,P|313:59|347:56,1,70
458,237,157052,6,0,L|470:318,1,70,6|8,0:0|0:0,0:0:0:0:
333,157,157248,2,0,L|343:226,1,70,0|0,0:0|0:0,0:0:0:0:
347,31,157444,2,0,P|312:34|281:48,1,70,14|0,0:0|0:0,0:0:0:0:
210,158,157640,1,0,0:0:0:0:
140,31,157738,1,0,0:0:0:0:
17,172,157836,2,0,L|85:156,1,70,14|0,0:0|0:0,0:0:0:0:
150,5,158033,1,0,0:0:0:0:
200,184,158131,1,0,0:0:0:0:
280,68,158229,6,0,P|319:53|415:81,1,140,14|0,0:0|0:0,0:0:0:0:
341,156,158523,1,0,0:0:0:0:
410,57,158621,6,0,P|346:31|280:48,1,140,14|0,0:0|0:0,0:0:0:0:
308,196,158915,1,0,0:0:0:0:
280,28,159013,6,0,P|319:13|415:41,1,140,14|0,0:0|0:0,0:0:0:0:
270,235,159307,1,0,0:0:0:0:
155,121,159405,6,0,P|127:80|124:49,1,70,6|0,0:0|0:0,0:0:0:0:
115,209,159601,2,0,P|74:237|43:240,1,70,0|0,0:0|0:0,0:0:0:0:
210,203,159797,2,0,P|243:212|270:234,1,70,14|0,0:0|0:0,0:0:0:0:
169,353,159993,2,0,P|135:343|108:321,1,70,0|0,0:0|0:0,0:0:0:0:
17,135,160189,6,0,L|86:127,1,70,14|8,0:0|0:0,0:0:0:0:
255,10,160385,2,0,L|185:17,1,70
365,99,160582,2,0,P|368:64|383:33,1,70,14|0,0:0|0:0,0:0:0:0:
270,234,160778,2,0,P|267:199|253:168,1,70
87,128,160974,5,14,0:0:0:0:
108,321,161072,1,0,0:0:0:0:
97,224,161170,2,0,L|27:223,1,70,0|0,0:0|0:0,0:0:0:0:
77,32,161366,1,14,0:0:0:0:
108,238,161464,1,0,0:0:0:0:
165,71,161562,2,0,L|234:70,1,70,0|0,0:0|0:0,0:0:0:0:
359,6,161758,6,0,L|351:158,1,140,14|0,0:0|0:0,0:0:0:0:
339,279,162052,1,0,0:0:0:0:
351,145,162150,5,14,0:0:0:0:
238,238,162248,1,8,0:0:0:0:
107,193,162346,1,8,0:0:0:0:
383,138,162444,1,8,0:0:0:0:
216,51,162542,6,0,L|147:52,1,70,12|0,0:0|0:0,0:0:0:0:
213,233,162738,2,0,L|282:232,1,70,8|0,0:0|0:0,0:0:0:0:
352,146,162935,1,8,0:0:0:0:
484,245,163033,1,0,0:0:0:0:
213,233,163131,2,0,P|198:201|196:166,1,70,8|0,0:0|0:0,0:0:0:0:
350,17,163327,2,0,P|328:70|366:159,1,140,8|8,0:0|0:0,0:0:0:0:
450,135,163621,1,0,0:0:0:0:
484,245,163719,6,0,P|449:246|416:235,1,70,8|0,0:0|0:0,0:0:0:0:
350,17,163915,2,0,P|378:14|419:27,1,70,8|0,0:0|0:0,0:0:0:0:
382,335,164111,2,0,L|290:339,1,70,8|0,0:0|0:0,0:0:0:0:
282,150,164307,2,0,L|351:146,1,70,8|0,0:0|0:0,0:0:0:0:
376,364,164503,2,0,L|284:368,1,70,8|0,0:0|0:0,0:0:0:0:
288,120,164699,2,0,L|357:116,1,70,8|0,0:0|0:0,0:0:0:0:
491,15,164895,86,0,P|484:83|431:126,1,140,8|8,0:0|0:0,0:0:0:0:
260,130,165189,1,0,0:0:0:0:
450,135,165287,2,0,P|502:92|510:24,1,140,8|8,0:0|0:0,0:0:0:0:
297,39,165582,1,0,0:0:0:0:
260,130,165680,6,0,L|279:198,1,70,12|0,0:0|0:0,0:0:0:0:
306,367,165876,2,0,L|324:299,1,70,8|0,0:0|0:0,0:0:0:0:
200,53,166072,6,0,P|160:96|131:100,1,70,8|0,0:0|0:0,0:0:0:0:
78,302,166268,2,0,P|118:259|147:255,1,70,8|0,0:0|0:0,0:0:0:0:
306,367,166464,6,0,L|236:373,1,70,8|0,0:0|0:0,0:0:0:0:
108,189,166660,2,0,L|127:257,1,70,8|0,0:0|0:0,0:0:0:0:
306,367,166856,5,8,0:0:0:0:
386,382,166954,1,8,0:0:0:0:
459,343,167052,1,8,0:3:0:0:
492,268,167150,1,8,0:3:0:0:
470,188,167248,6,0,L|313:206,1,140,12|8,0:0|0:0,0:0:0:0:
266,144,167542,1,0,0:0:0:0:
445,49,167640,2,0,P|472:69|489:100,1,70,0|8,0:0|0:0,0:0:0:0:
291,283,167836,2,0,P|264:263|247:232,1,70
489,100,168033,5,8,0:0:0:0:
266,144,168131,1,8,0:3:0:0:
470,188,168229,1,8,0:3:0:0:
247,232,168327,1,8,0:3:0:0:
403,127,168425,1,8,0:0:0:0:
331,204,168817,5,4,0:0:0:0:
331,204,169209,1,0,0:0:0:0:
331,204,169601,1,0,0:0:0:0:
331,204,169993,1,0,0:0:0:0:
247,232,170385,5,0,0:0:0:0:
247,232,170778,1,0,0:0:0:0:
247,232,171170,1,0,0:0:0:0:
247,232,171562,1,0,0:0:0:0:
489,100,171954,5,0,0:0:0:0:
489,100,172346,1,0,0:0:0:0:
489,100,172738,1,0,0:0:0:0:
489,100,173131,1,0,0:0:0:0:
367,166,173523,5,0,0:0:0:0:
367,166,173915,1,0,0:0:0:0:
367,166,174307,1,0,0:0:0:0:
367,166,174699,1,0,0:0:0:0:
370,27,175091,5,0,0:0:0:0:
370,27,175484,1,0,0:0:0:0:
370,27,175876,1,0,0:0:0:0:
370,27,176268,1,0,0:0:0:0:
365,303,176660,5,0,0:0:0:0:
365,303,177052,1,0,0:0:0:0:
365,303,177444,1,0,0:0:0:0:
365,303,177836,1,0,0:0:0:0:
367,166,178229,5,0,0:0:0:0:
367,166,178621,1,0,0:0:0:0:
367,166,179013,1,0,0:0:0:0:
367,166,179405,1,0,0:0:0:0:
229,162,179797,5,0,0:0:0:0:
505,167,180189,1,0,0:0:0:0:
370,27,180582,1,8,0:0:0:0:
365,303,181366,6,0,L|295:307,1,70,14|0,0:0|0:0,0:0:0:0:
160,262,181562,1,0,0:0:0:0:
392,330,181660,6,0,L|304:335,1,70,10|0,0:0|0:0,0:0:0:0:
135,279,181856,1,0,0:0:0:0:
368,153,181954,2,0,L|228:161,1,140,10|4,0:0|0:0,0:0:0:0:
212,58,182248,1,8,0:3:0:0:
292,105,182346,1,8,0:3:0:0:
211,150,182444,1,8,0:3:0:0:
293,11,182542,5,8,0:0:0:0:
374,58,182640,1,8,0:0:0:0:
368,153,182738,1,8,0:3:0:0:
287,200,182836,1,8,0:3:0:0:
211,150,182935,6,0,L|144:133,1,70,12|0,0:0|0:0,0:0:0:0:
293,11,183131,1,0,0:0:0:0:
381,174,183229,6,0,L|448:156,1,70,10|0,0:0|0:0,0:0:0:0:
267,11,183425,1,0,0:0:0:0:
382,201,183523,6,0,L|465:179,1,70,10|0,0:0|0:0,0:0:0:0:
310,303,183719,1,4,0:0:0:0:
231,354,183817,5,8,0:3:0:0:
150,307,183915,1,8,0:3:0:0:
156,212,184013,1,8,0:3:0:0:
237,165,184111,1,8,0:0:0:0:
318,212,184209,1,2,0:3:0:0:
261,147,184307,1,8,0:3:0:0:
342,194,184405,1,8,0:3:0:0:
143,158,184503,6,0,L|61:155,1,70,14|0,0:0|0:0,0:0:0:0:
199,244,184699,1,0,0:0:0:0:
128,131,184797,6,0,L|46:128,1,70,8|0,0:0|0:0,0:0:0:0:
215,264,184993,1,0,0:0:0:0:
233,135,185091,6,0,L|377:130,1,140,10|4,0:0|0:0,0:0:0:0:
439,232,185385,2,0,L|369:229,1,70
500,119,185582,1,0,0:0:0:0:
348,322,185680,2,0,P|304:297|274:213,1,140,8|2,0:0|0:3,0:0:0:0:
322,116,185974,1,2,0:3:0:0:
203,20,186072,6,0,L|197:117,1,70,14|0,0:0|0:0,0:0:0:0:
73,155,186268,1,0,0:0:0:0:
277,146,186366,6,0,L|273:216,1,70,10|0,0:0|0:0,0:0:0:0:
147,281,186562,1,0,0:0:0:0:
347,342,186660,6,0,L|351:272,1,70,10|0,0:0|0:0,0:0:0:0:
472,35,186856,5,4,0:0:0:0:
458,135,186954,1,8,0:3:0:0:
370,185,187052,1,8,0:3:0:0:
277,146,187150,1,8,0:3:0:0:
126,43,187248,5,10,0:0:0:0:
226,57,187346,1,0,0:0:0:0:
277,146,187444,1,8,0:0:0:0:
236,238,187542,1,0,0:0:0:0:
44,219,187640,6,0,L|29:136,1,70,14|0,0:0|0:0,0:0:0:0:
147,281,187836,1,0,0:0:0:0:
18,215,187935,6,0,L|3:132,1,70,10|0,0:0|0:0,0:0:0:0:
164,302,188131,1,0,0:0:0:0:
318,230,188229,2,0,L|293:368,1,140,10|4,0:0|0:0,0:0:0:0:
130,260,188523,5,8,0:3:0:0:
121,176,188621,1,8,0:3:0:0:
112,93,188719,1,8,0:3:0:0:
27,31,188817,5,8,0:0:0:0:
17,135,188915,1,8,0:0:0:0:
8,240,189013,1,8,0:3:0:0:
0,345,189111,1,8,0:3:0:0:
139,344,189209,6,0,L|208:340,1,70,14|0,0:0|0:0,0:0:0:0:
130,260,189405,1,0,0:0:0:0:
203,109,189503,6,0,L|196:26,1,70,10|0,0:0|0:0,0:0:0:0:
285,191,189699,1,0,0:0:0:0:
176,104,189797,6,0,L|169:21,1,70,10|0,0:0|0:0,0:0:0:0:
301,214,189993,1,4,0:0:0:0:
114,283,190091,5,8,0:3:0:0:
274,361,190189,2,0,P|322:355|352:330,1,70,8|8,0:3|0:3,0:0:0:0:
440,263,190385,1,8,0:0:0:0:
359,270,190484,1,8,0:3:0:0:
301,214,190582,1,8,0:3:0:0:
306,111,190680,1,8,0:3:0:0:
406,33,190778,6,0,L|424:182,1,140,4|0,0:0|0:0,0:0:0:0:
294,283,191072,6,0,L|301:213,1,70,10|0,0:0|0:0,0:0:0:0:
384,354,191268,1,0,0:0:0:0:
266,272,191366,6,0,L|277:168,1,70,10|0,0:0|0:0,0:0:0:0:
399,376,191562,6,0,P|440:364|468:273,1,140,4|0,0:0|0:0,0:0:0:0:
422,171,191856,1,0,0:0:0:0:
238,261,191954,6,0,L|249:157,1,70,10|8,0:0|0:3,0:0:0:0:
263,97,192150,1,10,0:0:0:0:
179,159,192248,1,8,0:3:0:0:
273,202,192346,5,4,0:0:0:0:
161,45,192542,1,0,0:0:0:0:
266,272,192738,5,4,0:0:0:0:
406,75,192935,1,0,0:0:0:0:
259,342,193131,85,4,0:0:0:0:
103,3,193327,1,4,0:0:0:0:
470,46,193523,5,4,0:0:0:0:
259,342,193915,6,0,L|119:344,1,140,14|10,0:0|0:0,0:0:0:0:
49,267,194209,1,0,0:0:0:0:
138,151,194405,5,0,0:0:0:0:
208,74,194503,2,0,L|348:76,1,140,10|0,0:0|0:0,0:0:0:0:
454,179,194895,5,10,0:0:0:0:
461,262,194993,1,0,0:0:0:0:
329,314,195189,5,0,0:0:0:0:
336,230,195287,2,0,L|248:227,1,70,10|0,0:0|0:0,0:0:0:0:
336,154,195484,2,0,L|190:160,1,140,0|10,0:0|0:0,0:0:0:0:
142,83,195778,1,0,0:0:0:0:
142,301,195974,5,0,0:0:0:0:
239,232,196072,2,0,L|379:238,1,140,10|0,0:0|0:0,0:0:0:0:
142,301,196464,5,10,0:0:0:0:
294,181,196562,2,0,P|312:246|272:301,1,140,0|0,0:0|0:0,0:0:0:0:
98,240,196856,2,0,P|132:226|165:229,1,70,10|0,0:0|0:0,0:0:0:0:
31,208,197052,6,0,L|25:68,1,140,14|10,0:0|0:0,0:0:0:0:
172,46,197346,1,0,0:0:0:0:
172,46,197444,2,0,L|169:116,1,70,2|0,0:0|0:0,0:0:0:0:
265,156,197640,2,0,P|317:111|385:116,1,140,10|2,0:0|0:0,0:0:0:0:
355,267,197935,1,0,0:0:0:0:
355,267,198033,2,0,L|346:198,1,70,10|0,0:0|0:0,0:0:0:0:
482,83,198229,2,0,L|463:221,1,140,2|10,0:0|0:0,0:0:0:0:
416,339,198523,1,0,0:0:0:0:
275,259,198621,6,0,L|205:268,3,70,4|0|2|0,0:0|0:0|0:0|0:0,0:0:0:0:
117,330,199013,2,0,L|47:320,3,70,2|0|2|0,0:0|0:0|0:0|0:0,0:0:0:0:
247,151,199405,6,0,P|252:218|205:268,1,140,14|0,0:0|0:0,0:0:0:0:
50,212,199699,2,0,P|106:173|172:189,1,140,14|0,0:0|0:0,0:0:0:0:
202,352,199993,1,8,0:0:0:0:
121,257,200091,1,8,0:0:0:0:
310,312,200189,6,0,P|365:311|414:285,1,112,4|0,0:0|0:0,0:0:0:0:
499,190,200484,2,0,P|443:189|394:163,1,112,0|0,0:0|0:0,0:0:0:0:
310,67,200778,1,0,0:0:0:0:
223,168,200876,1,0,0:0:0:0:
223,168,200974,6,0,B|243:222|243:222|227:274,1,112,8|0,0:0|0:0,0:0:0:0:
121,343,201268,1,0,0:0:0:0:
121,343,201366,2,0,L|123:287,1,56,0|0,0:0|0:0,0:0:0:0:
40,164,201562,2,0,L|42:219,1,56
107,81,201758,6,0,L|112:202,1,112,14|0,0:0|0:0,0:0:0:0:
123,287,202052,1,0,0:0:0:0:
204,238,202150,2,0,P|265:229|216:267,1,168,2|0,0:0|0:0,0:0:0:0:
206,146,202542,6,0,P|287:155|333:221,1,168,2|0,0:0|0:0,0:0:0:0:
436,98,202935,2,0,P|354:106|308:172,1,168,2|0,0:0|0:0,0:0:0:0:
206,49,203327,5,14,0:0:0:0:
206,49,203719,1,2,0:0:0:0:
206,49,204111,2,0,P|222:80|224:115,1,70,10|0,0:0|0:0,0:0:0:0:
188,182,204405,1,0,0:0:0:0:
334,60,204601,1,8,0:0:0:0:
368,128,204699,1,8,0:0:0:0:
293,251,204895,5,2,0:0:0:0:
293,251,204993,2,0,L|223:254,1,70,0|0,0:0|0:0,0:0:0:0:
84,177,205287,1,10,0:0:0:0:
118,178,205385,1,0,0:0:0:0:
153,180,205484,2,0,L|187:181,1,35,0|0,0:0|0:0,0:0:0:0:
142,315,205680,6,0,P|134:281|141:247,1,70,10|0,0:0|0:0,0:0:0:0:
281,220,205974,2,0,P|255:243|222:253,1,70,10|0,0:0|0:0,0:0:0:0:
128,147,206268,1,10,0:0:0:0:
162,158,206366,1,0,0:0:0:0:
187,181,206464,5,4,0:0:0:0:
187,181,206856,1,2,0:0:0:0:
187,181,207248,2,0,L|251:152,1,70,10|0,0:0|0:0,0:0:0:0:
314,181,207542,1,0,0:0:0:0:
396,64,207738,1,8,0:0:0:0:
333,93,207836,1,8,0:0:0:0:
378,316,208033,6,0,P|384:281|379:247,1,70,6|0,0:0|0:0,0:0:0:0:
134,316,208425,2,0,P|127:281|132:247,1,70,6|0,0:0|0:0,0:0:0:0:
256,64,208817,1,8,0:0:0:0:
263,98,209013,1,8,0:0:0:0:
270,132,209209,1,8,0:0:0:0:
277,166,209405,1,8,0:0:0:0:
285,200,209601,5,14,0:0:0:0:
337,155,209699,1,0,0:0:0:0:
406,150,209797,1,0,0:0:0:0:
478,256,209895,5,14,0:0:0:0:
450,320,209993,1,0,0:0:0:0:
386,348,210091,1,0,0:0:0:0:
255,306,210189,5,14,0:0:0:0:
184,297,210287,1,0,0:0:0:0:
117,318,210385,1,0,0:0:0:0:
125,110,210484,5,14,0:0:0:0:
196,119,210582,1,0,0:0:0:0:
263,98,210680,1,0,0:0:0:0:
373,245,210778,5,14,0:0:0:0:
383,124,210876,1,0,0:0:0:0:
383,238,210974,5,14,0:0:0:0:
377,115,211072,1,0,0:0:0:0:
260,200,211170,5,14,0:0:0:0:
