osu file format v14

[General]
AudioFilename: audio.mp3
AudioLeadIn: 0
PreviewTime: 113363
Countdown: 0
SampleSet: Soft
StackLeniency: 0.7
Mode: 0
LetterboxInBreaks: 0
WidescreenStoryboard: 0

[Editor]
Bookmarks: 917,12916,26631,40238,52774,67774,81488,95202,105488,120809,134631,150916
DistanceSpacing: 1.1
BeatDivisor: 2
GridSize: 32
TimelineZoom: 3.299999

[Metadata]
Title:Seven Style
TitleUnicode:Seven Style
Artist:Adust Rain
ArtistUnicode:Adust Rain
Creator:tatemae
Version:Marianna's Normal
Source:
Tags:Asking for the Moon female vocal jrock metal rock Japanese namki marianna loreley anishina kodoku m3gb3g [NASRAL] pantydev nattu
BeatmapID:1943556
BeatmapSetID:930707

[Difficulty]
HPDrainRate:4
CircleSize:3.5
OverallDifficulty:4
ApproachRate:4
SliderMultiplier:0.599999999999999
SliderTickRate:1

[Events]
//Background and Video events
0,0,"bg.jpg",0,0
//Break Periods
2,61116,63025
2,104830,112024
//Storyboard Layer 0 (Background)
//Storyboard Layer 1 (Fail)
//Storyboard Layer 2 (Pass)
//Storyboard Layer 3 (Foreground)
//Storyboard Layer 4 (Overlay)
//Storyboard Sound Samples

[TimingPoints]
917,214.285714285714,4,2,1,50,1,0
6059,-100,4,2,1,60,0,0
9488,-100,4,2,1,50,0,0
12916,-100,4,2,1,60,0,0
26631,-100,4,2,1,50,0,0
33488,-100,4,2,1,60,0,0
40345,-100,4,2,1,50,0,0
43988,-100,4,2,1,60,0,0
47095,-100,4,2,1,70,0,0
52559,-100,4,2,1,72,0,0
52774,-100,4,2,1,74,0,0
52988,-100,4,2,1,76,0,0
53202,-100,4,2,1,78,0,0
53416,-100,4,2,1,80,0,0
53631,-100,4,2,1,82,0,0
53845,-100,4,2,1,70,0,0
59416,-100,4,2,1,72,0,0
59631,-100,4,2,1,74,0,0
59845,-100,4,2,1,76,0,0
60059,-100,4,2,1,78,0,0
60274,-100,4,2,1,80,0,0
60488,-100,4,2,1,85,0,0
60702,-100,4,2,1,90,0,0
60916,-100,4,2,1,50,0,0
63488,-100,4,2,1,70,0,0
63916,-100,4,2,1,80,0,0
64345,-100,4,2,1,60,0,0
72943,-100,4,2,1,5,0,0
72997,-100,4,2,1,60,0,0
73265,-100,4,2,1,5,0,0
73318,-100,4,2,1,60,0,0
73345,-100,4,2,1,65,0,0
73559,-100,4,2,1,70,0,0
73586,-100,4,2,1,5,0,0
73640,-100,4,2,1,70,0,0
73881,-100,4,2,1,75,0,0
73908,-100,4,2,1,5,0,0
73961,-100,4,2,1,75,0,0
74524,-100,4,2,1,75,0,1
74631,-100,4,2,1,60,0,1
80845,-100,4,2,1,90,0,1
81059,-100,4,2,1,60,0,1
103800,-100,4,2,1,5,0,1
103854,-100,4,2,1,60,0,1
104015,-100,4,2,1,5,0,1
104068,-100,4,2,1,60,0,1
104229,-100,4,2,1,5,0,1
104283,-100,4,2,1,60,0,1
104443,-100,4,2,1,5,0,1
104497,-100,4,2,1,60,0,1
104631,-100,4,2,1,60,0,0
105488,-100,4,2,1,30,0,0
113952,-100,4,2,1,75,0,1
119416,-100,4,2,1,77,0,1
119631,-100,4,2,1,79,0,1
119845,-100,4,2,1,81,0,1
120059,-100,4,2,1,83,0,1
120274,-100,4,2,1,85,0,1
120488,-100,4,2,1,87,0,1
120809,-100,4,2,1,75,0,1
127666,-100,4,2,1,50,0,0
131095,-100,4,2,1,60,0,0
133131,-100,4,2,1,80,0,0
134631,-100,4,2,1,60,0,0
138059,-100,4,2,1,80,0,0

[Colours]
Combo1 : 192,192,192
Combo2 : 255,0,0

[HitObjects]
48,88,917,6,0,B|168:112|144:48|256:80,1,210,8|0,0:0|0:0,0:0:0:0:
304,108,1881,2,0,P|360:124|420:104,1,120,0|8,1:0|0:3,0:0:0:0:
464,28,2631,6,0,B|416:152|500:136|448:264,1,240,4|0,0:3|0:0,0:0:0:0:
228,352,4345,2,0,B|176:312|116:332|116:332|128:264|76:212,1,240,0|0,1:0|1:0,0:0:0:0:
12,124,5631,1,4,0:3:0:0:
96,36,6059,6,0,L|216:36,1,120,4|8,1:2|0:2,0:0:0:0:
264,68,6702,1,8,0:0:0:0:
264,68,6916,2,0,P|284:120|264:180,1,120,8|8,0:0|0:0,0:0:0:0:
152,220,7774,6,0,P|132:272|152:332,1,120,8|8,0:0|0:0,0:0:0:0:
196,372,8416,1,8,0:0:0:0:
196,372,8631,2,0,L|320:372,1,120,8|8,0:0|1:2,0:0:0:0:
412,304,9488,6,0,P|416:272|412:244,1,59.9999999999999,0|0,1:0|1:0,0:0:0:0:
368,204,9916,2,0,P|364:172|368:144,1,59.9999999999999,0|0,1:0|1:0,0:0:0:0:
396,92,10345,2,0,L|336:88,1,59.9999999999999,0|0,1:0|1:0,0:0:0:0:
288,52,10774,2,0,L|228:48,1,59.9999999999999,0|0,1:0|1:0,0:0:0:0:
184,8,11202,6,0,B|200:88|200:88|176:160|176:160|200:248,1,240,8|4,0:0|1:3,0:0:0:0:
240,352,12488,1,4,1:3:0:0:
308,252,12916,6,0,P|368:240|424:256,1,120,4|8,1:3|0:0,0:0:0:0:
476,284,13559,1,8,0:0:0:0:
476,284,13774,2,0,L|476:164,1,120,8|8,0:0|0:0,0:0:0:0:
408,64,14631,2,0,B|344:72|356:40|288:52,1,120,8|8,0:0|0:0,0:0:0:0:
236,80,15274,1,8,0:0:0:0:
236,80,15488,2,0,P|176:88|116:80,1,120,8|8,0:0|0:0,0:0:0:0:
32,164,16345,6,0,L|32:284,1,120,4|8,1:0|0:0,0:0:0:0:
72,328,16988,1,8,0:0:0:0:
72,328,17202,2,0,B|136:336|124:304|192:316,1,120,8|8,0:0|0:0,0:0:0:0:
304,352,18059,6,0,P|364:360|424:352,1,120,4|8,1:3|0:0,0:0:0:0:
472,316,18702,1,8,0:0:0:0:
472,316,18916,2,0,L|472:192,1,120,8|8,0:0|0:0,0:0:0:0:
392,104,19774,6,0,B|356:88|356:88|272:92,1,120,4|8,1:0|0:0,0:0:0:0:
216,100,20416,1,8,0:0:0:0:
216,100,20631,2,0,P|156:108|96:100,1,120,8|8,0:0|0:0,0:0:0:0:
24,196,21488,6,0,L|24:320,1,120,8|8,0:0|0:0,0:0:0:0:
68,356,22131,1,8,0:0:0:0:
68,356,22345,2,0,B|112:348|112:348|144:356|144:356|192:348,1,120,8|8,0:0|0:0,0:0:0:0:
256,252,23202,6,0,B|320:244|308:276|376:264,1,120,4|8,1:0|0:0,0:0:0:0:
420,228,23845,1,8,0:0:0:0:
420,228,24059,2,0,L|420:104,1,120,8|8,0:0|0:0,0:0:0:0:
316,48,24916,6,0,P|256:36|196:48,1,120,4|8,1:3|0:0,0:0:0:0:
144,68,25559,1,8,0:0:0:0:
144,68,25774,2,0,P|84:80|24:68,1,120,8|8,0:0|1:2,0:0:0:0:
60,184,26631,5,4,1:3:0:0:
60,184,26845,2,0,L|48:312,1,120,8|8,0:0|0:0,0:0:0:0:
156,356,27702,2,0,L|165:236,1,120,8|8,0:0|0:0,0:0:0:0:
187,215,28238,1,0,1:0:0:0:
133,142,28559,6,0,B|188:120|188:120|244:143,1,120,8|8,0:0|0:0,0:0:0:0:
287,255,29416,2,0,L|346:259,2,59.9999999999999,8|0|8,0:0|0:0|0:0,0:0:0:0:
236,288,30059,5,6,1:2:0:0:
145,208,30488,2,0,P|135:149|152:92,2,120,2|2|2,1:2|1:2|0:0,0:0:0:0:
252,153,31774,1,2,1:2:0:0:
365,191,32202,2,0,L|356:322,1,120,2|2,1:2|1:2,0:0:0:0:
242,346,33059,2,0,L|248:263,1,59.9999999999999,10|8,0:0|0:3,0:0:0:0:
202,245,33488,6,0,B|190:213|190:213|202:121,1,120,4|0,1:2|1:2,0:0:0:0:
273,32,34345,2,0,B|341:20|325:56|397:36,1,120,4|0,1:2|1:2,0:0:0:0:
463,91,35095,6,0,L|450:250,1,150,4|0,1:0|1:2,0:0:0:0:
376,344,36059,2,0,P|344:348|316:344,1,59.9999999999999,0|8,1:2|0:2,0:0:0:0:
290,289,36488,2,0,P|258:285|230:289,1,59.9999999999999,0|8,1:2|0:0,0:0:0:0:
178,317,36916,6,0,L|186:193,1,120,6|2,1:2|1:2,0:0:0:0:
84,132,37774,2,0,L|76:251,1,120,2|2,1:2|1:2,0:0:0:0:
148,347,38631,1,2,1:2:0:0:
251,285,39059,2,0,P|316:278|366:248,1,120,2|2,1:2|1:2,0:0:0:0:
422,147,39916,1,0,1:0:0:0:
335,172,40238,6,0,L|351:16,1,150,4|8,1:0|0:0,0:0:0:0:
264,8,41095,2,0,L|248:157,1,150,4|8,1:2|0:0,0:0:0:0:
168,200,41952,6,0,P|104:216|36:168,1,150,4|8,1:0|0:0,0:0:0:0:
118,128,42809,2,0,P|182:112|250:160,1,150,4|8,1:2|0:0,0:0:0:0:
316,256,43774,5,0,1:0:0:0:
316,256,43988,2,0,B|372:292|428:252|428:252|404:196|404:196|428:144|428:144|448:80|416:16,1,359.999999999999,8|8,0:0|0:3,0:0:0:0:
360,24,45488,6,0,B|304:40|304:40|244:24,1,120,4|4,1:3|1:3,0:0:0:0:
164,112,46345,2,0,B|108:96|108:96|48:112,1,120,4|4,1:3|1:3,0:0:0:0:
12,196,47095,6,0,L|24:348,1,150,4|0,1:1|1:2,0:0:0:0:
112,360,47952,2,0,L|105:270,1,89.9999999999999,4|8,1:2|0:0,0:0:0:0:
148,227,48488,1,0,1:0:0:0:
147,137,48809,6,0,P|214:107|282:135,1,150,4|0,1:0|1:2,0:0:0:0:
399,104,49774,2,0,P|391:132|399:160,1,59.9999999999999,4|8,1:2|0:0,0:0:0:0:
436,207,50202,1,0,1:2:0:0:
338,277,50631,6,0,B|282:289|278:253|218:273,1,120,4|0,1:0|1:0,0:0:0:0:
110,321,51488,2,0,P|94:269|122:205,1,120,4|0,1:0|1:0,0:0:0:0:
199,122,52345,6,0,L|267:118,1,59.9999999999999,0|8,1:0|0:0,0:0:0:0:
301,75,52774,2,0,L|369:71,1,59.9999999999999,8|8,0:0|0:0,0:0:0:0:
402,29,53202,2,0,P|384:84|407:138,1,120,8|8,0:0|0:0,0:0:0:0:
430,224,53952,6,0,P|388:211|346:224,1,89.9999999999999,4|8,1:2|0:0,0:0:0:0:
313,273,54488,1,0,1:2:0:0:
249,336,54809,2,0,L|100:317,1,150,4|0,1:0|1:2,0:0:0:0:
41,246,55666,6,0,B|25:208|25:208|41:162,1,89.9999999999999,4|8,1:2|0:0,0:0:0:0:
79,116,56202,1,0,1:0:0:0:
163,31,56631,2,0,L|287:27,1,120,4|0,1:0|1:0,0:0:0:0:
346,90,57381,6,0,B|330:134|330:134|338:182|338:182|322:234,1,150,4|0,1:0|1:2,0:0:0:0:
299,289,58131,1,8,0:0:0:0:
299,288,58345,2,0,P|352:265|405:289,1,120,0|0,0:0|1:2,0:0:0:0:
498,213,59202,1,0,1:0:0:0:
498,213,59416,2,0,L|487:148,2,59.9999999999999,8|8|8,0:0|0:0|0:0,0:0:0:0:
437,215,60059,2,0,P|410:208|362:221,1,59.9999999999999,8|8,0:0|0:0,0:0:0:0:
319,225,60488,1,8,0:0:0:0:
255,123,60916,5,4,1:1:0:0:
324,76,64345,6,0,B|380:92|436:56|436:56|416:116|416:116|432:176|432:176|400:224|400:224|440:280|408:340,1,419.999999999999,4|8,1:1|0:0,0:0:0:0:
360,368,66059,6,0,B|308:328|248:360|248:360|208:308|136:332,1,240,4|8,1:2|0:0,0:0:0:0:
44,260,67345,1,8,0:0:0:0:
100,152,67774,6,0,L|96:32,1,120,4|8,1:3|0:0,0:0:0:0:
208,72,68631,2,0,L|212:192,1,120,4|8,1:3|0:2,0:0:0:0:
308,268,69488,6,0,P|364:284|424:268,1,120,4|8,1:3|0:0,0:0:0:0:
476,160,70345,2,0,P|420:144|360:160,1,120,4|8,1:3|0:0,0:0:0:0:
308,268,71202,6,0,B|256:288|192:256|192:256|140:288|140:288|84:272|24:276|24:276|80:240|100:168,1,419.999999999999,12|8,0:0|0:3,0:0:0:0:
96,92,73024,6,0,L|196:88,1,89.9999999999999,8|8,0:0|0:0,0:0:0:0:
264,132,73666,2,0,L|364:128,1,89.9999999999999,8|8,0:0|0:0,0:0:0:0:
400,88,74202,1,0,1:0:0:0:
448,164,74524,6,0,B|432:240|472:232|444:320,1,150,4|2,1:3|1:2,0:0:0:0:
404,356,75274,1,10,0:0:0:0:
404,356,75488,2,0,L|272:348,1,120,2|2,1:2|1:2,0:0:0:0:
216,292,76238,6,0,P|152:272|72:296,1,150,0|12,1:0|0:0,0:0:0:0:
24,328,76988,1,12,0:0:0:0:
24,328,77202,2,0,L|32:204,1,120,12|8,0:0|0:0,0:0:0:0:
92,140,77952,6,0,B|152:136|152:136|184:152|184:152|240:148,1,150,4|2,1:3|1:2,0:0:0:0:
288,116,78702,1,10,0:0:0:0:
288,116,78916,2,0,P|280:168|312:224,1,120,2|0,1:2|1:2,0:0:0:0:
392,272,79666,6,0,P|344:312|260:304,1,150,4|12,1:3|0:0,0:0:0:0:
208,272,80416,2,0,P|180:268|148:272,1,59.9999999999999,12|12,0:0|0:0,0:0:0:0:
68,312,80952,1,4,1:0:0:0:
12,204,81381,6,0,B|8:156|8:156|24:112|24:112|20:52,1,150,4|10,1:3|0:0,0:0:0:0:
72,24,82131,1,2,1:2:0:0:
72,24,82345,2,0,P|128:36|188:24,1,120,2|8,1:2|0:0,0:0:0:0:
260,80,83095,6,0,P|332:64|408:80,1,150,4|10,1:3|0:0,0:0:0:0:
460,108,83845,1,2,1:2:0:0:
460,108,84059,2,0,L|452:236,1,120,2|8,1:2|0:0,0:0:0:0:
396,300,84809,6,0,B|320:324|324:272|248:292,1,150,4|8,1:3|0:0,0:0:0:0:
196,316,85559,1,0,1:2:0:0:
196,316,85774,2,0,L|208:196,1,120,0|8,1:2|0:0,0:0:0:0:
104,136,86631,6,0,L|92:256,1,120,4|8,1:3|0:0,0:0:0:0:
88,316,87274,1,8,0:0:0:0:
88,316,87488,2,0,P|120:312|156:320,2,59.9999999999999,8|8|8,0:0|0:0|0:0,0:0:0:0:
180,240,88345,6,0,L|304:244,1,120,4|2,1:2|1:2,0:0:0:0:
340,288,88988,1,10,0:0:0:0:
340,288,89202,2,0,P|328:240|344:172,1,120,2|2,1:2|1:2,0:0:0:0:
372,120,89845,1,10,0:0:0:0:
372,120,90059,6,0,L|248:108,1,120,2|2,1:2|1:2,0:0:0:0:
208,68,90702,1,10,0:0:0:0:
208,68,90916,1,2,1:2:0:0:
112,144,91345,1,2,1:2:0:0:
144,260,91774,6,0,B|208:248|200:276|264:260,1,120,2|2,1:2|1:2,0:0:0:0:
312,228,92416,1,10,0:0:0:0:
312,228,92631,2,0,L|304:104,1,120,2|2,1:2|1:2,0:0:0:0:
300,48,93274,1,10,0:0:0:0:
300,48,93488,6,0,P|240:64|184:52,1,120,2|2,1:2|1:2,0:0:0:0:
112,148,94345,2,0,P|172:132|228:144,1,120,2|2,1:2|1:2,0:0:0:0:
280,176,94988,1,10,0:0:0:0:
280,176,95202,6,0,B|368:208|432:144|432:144|428:228,1,240,6|2,1:2|1:2,0:0:0:0:
372,324,96488,1,2,1:2:0:0:
316,300,96702,1,10,0:0:0:0:
264,276,96916,6,0,B|144:256|152:340|24:296,1,240,2|2,1:2|1:2,0:0:0:0:
88,192,98202,1,2,1:2:0:0:
88,192,98416,6,0,P|128:120|24:172,1,299.999999999999,10|2,0:0|1:2,0:0:0:0:
32,292,99916,1,2,1:2:0:0:
144,252,100345,6,0,P|205:248|264:252,1,120,2|2,1:2|1:2,0:0:0:0:
320,276,100988,1,10,0:0:0:0:
320,276,101202,2,0,L|312:152,1,120,2|8,1:2|0:0,0:0:0:0:
372,88,101952,6,0,P|312:64|232:108,1,150,0|8,1:0|0:0,0:0:0:0:
152,180,102916,2,0,L|88:176,2,59.9999999999999,0|0|8,1:0|1:0|0:0,0:0:0:0:
248,252,103774,6,0,L|344:248,1,89.9999999999999,8|8,0:0|0:0,0:0:0:0:
360,160,104416,2,0,L|296:162,1,59.9999999999999,8|8,0:0|0:0,0:0:0:0:
120,176,113416,6,0,P|116:144|120:116,1,59.9999999999999,4|8,1:3|0:0,0:0:0:0:
180,48,113952,6,0,L|272:52,1,89.9999999999999,4|8,1:0|0:0,0:0:0:0:
320,88,114488,1,0,1:0:0:0:
396,40,114809,2,0,P|408:88|391:131,1,89.9999999999999,4|8,1:2|0:0,0:0:0:0:
360,176,115345,1,0,1:0:0:0:
436,228,115666,6,0,L|432:324,1,89.9999999999999,4|8,1:0|0:0,0:0:0:0:
389,360,116202,2,0,P|334:338|281:361,1,120,8|0,1:2|1:0,0:0:0:0:
161,361,117059,1,0,1:0:0:0:
107,288,117381,6,0,B|99:236|99:236|107:204|107:204|99:140,1,150,12|0,0:0|1:0,0:0:0:0:
33,78,118238,2,0,P|81:50|169:78,1,150,12|0,0:0|1:0,0:0:0:0:
268,139,119202,6,0,L|388:135,1,120,4|8,1:0|0:0,0:0:0:0:
453,235,120059,2,0,L|333:239,1,120,8|8,0:0|0:0,0:0:0:0:
254,283,120809,6,0,B|178:295|178:255|102:275,1,150,4|0,1:0|1:0,0:0:0:0:
48,340,121666,2,0,P|20:288|52:204,1,150,4|0,1:0|1:0,0:0:0:0:
136,192,122524,6,0,P|164:140|132:56,1,150,4|0,1:0|1:0,0:0:0:0:
248,24,123488,2,0,L|368:28,1,120,4|0,1:2|1:0,0:0:0:0:
412,108,124238,6,0,B|440:184|400:184|420:256,1,150,4|0,1:0|1:0,0:0:0:0:
452,304,124988,1,8,0:0:0:0:
452,304,125202,2,0,L|324:296,1,120,4|0,1:0|0:0,0:0:0:0:
220,344,126059,6,0,L|92:336,1,120,4|8,1:2|0:0,0:0:0:0:
64,288,126702,1,8,0:0:0:0:
64,288,126916,2,0,P|60:260|64:224,2,59.9999999999999,8|8|8,0:0|0:0|0:0,0:0:0:0:
148,260,127666,6,0,L|304:268,1,150,4|10,1:0|0:0,0:0:0:0:
392,192,128631,2,0,P|404:136|384:72,1,120,2|10,1:2|0:2,0:0:0:0:
308,36,129381,6,0,B|248:28|248:28|216:36|216:36|160:28,1,150,4|8,1:0|0:0,0:0:0:0:
56,88,130345,2,0,P|36:144|56:208,1,120,2|10,1:2|0:2,0:0:0:0:
116,264,131095,6,0,B|192:280|184:232|272:256,1,150,4|0,1:0|1:0,0:0:0:0:
368,312,132059,2,0,P|380:256|364:192,1,120,4|0,1:2|0:0,0:0:0:0:
280,112,132916,6,0,B|236:116|236:116|208:108|208:108|156:112,1,120,4|8,1:3|0:0,0:0:0:0:
104,124,133559,1,8,0:0:0:0:
104,124,133774,2,0,P|116:184|104:248,1,120,8|8,0:0|0:0,0:0:0:0:
184,332,134631,6,0,L|308:328,1,120,4|0,1:3|1:0,0:0:0:0:
376,232,135488,2,0,L|256:235,1,120,4|0,1:0|0:0,0:0:0:0:
168,156,136345,6,0,P|160:120|164:88,1,59.9999999999999,4|4,1:3|1:3,0:0:0:0:
212,64,136774,2,0,P|236:36|265:21,1,59.9999999999999,4|4,1:3|1:3,0:0:0:0:
308,60,137202,2,0,P|344:64|373:79,1,59.9999999999999,8|8,0:0|0:0,0:0:0:0:
376,132,137631,1,0,1:0:0:0:
336,245,138059,6,0,L|276:241,1,59.9999999999999,4|8,1:0|0:0,0:0:0:0:
233,283,138488,1,0,1:0:0:0:
168,346,138809,2,0,P|193:277|161:212,1,150,8|0,0:0|1:0,0:0:0:0:
97,148,139666,2,0,P|165:173|230:141,1,150,8|0,0:0|1:0,0:0:0:0:
294,77,140524,5,8,0:0:0:0:
378,161,140952,1,4,1:0:0:0:
293,245,141381,6,0,B|349:237|349:237|381:245|381:245|445:237,1,150,4|0,1:2|1:0,0:0:0:0:
440,327,142238,2,0,B|383:334|383:334|352:327|352:327|288:335,1,150,8|0,0:0|1:0,0:0:0:0:
227,270,143095,6,0,P|207:214|227:126,1,150,8|0,0:0|1:0,0:0:0:0:
289,63,143952,1,8,0:0:0:0:
183,5,144381,1,4,1:0:0:0:
98,89,144809,6,0,B|72:156|72:156|98:229,1,150,4|0,1:2|1:0,0:0:0:0:
162,293,145666,2,0,B|242:305|230:261|310:277,1,150,8|0,0:0|1:0,0:0:0:0:
367,345,146524,6,0,L|339:189,1,150,8|0,0:0|1:0,0:0:0:0:
404,133,147381,1,8,0:0:0:0:
319,48,147809,1,4,1:0:0:0:
234,132,148238,6,0,B|222:176|222:176|238:284,1,150,4|0,1:2|1:0,0:0:0:0:
313,327,149095,2,0,B|325:283|325:283|309:175,1,150,8|0,0:0|1:0,0:0:0:0:
373,115,149952,6,0,B|414:99|414:99|457:115,1,89.9999999999999,8|8,0:0|0:0,0:0:0:0:
501,155,150488,2,0,L|490:214,1,59.9999999999999,8|0,0:0|1:0,0:0:0:0:
481,273,150916,1,4,1:0:0:0:
