osu file format v14

[General]
AudioFilename: audio.mp3
AudioLeadIn: 0
PreviewTime: 47045
Countdown: 0
SampleSet: Drum
StackLeniency: 0.7
Mode: 0
LetterboxInBreaks: 0
WidescreenStoryboard: 1

[Editor]
Bookmarks: 9652,12866,18224,18331,18438,18545,18652,18759,18866,18974,19081,20474,26581,33438,40295,47152,60866,74474,75866,88295,91616,91670,91724,91777,91831,104581,138009,150009,150866
DistanceSpacing: 1
BeatDivisor: 4
GridSize: 16
TimelineZoom: 3.099998

[Metadata]
Title:Seven Style
TitleUnicode:Seven Style
Artist:Adust Rain
ArtistUnicode:Adust Rain
Creator:Shiguri
Version:Sudden Death
Source:
Tags:asking for the moon metal female voice singer kissssy menikichi okogeeechann
BeatmapID:3293762
BeatmapSetID:626991

[Difficulty]
HPDrainRate:4
CircleSize:4
OverallDifficulty:10
ApproachRate:10
SliderMultiplier:1.8
SliderTickRate:1

[Events]
//Background and Video events
0,0,"244496.jpg",0,0
//Break Periods
2,105438,112702
//Storyboard Layer 0 (Background)
//Storyboard Layer 1 (Fail)
//Storyboard Layer 2 (Pass)
//Storyboard Layer 3 (Foreground)
//Storyboard Layer 4 (Overlay)
//Storyboard Sound Samples

[TimingPoints]
867,214.285714285714,4,3,0,70,1,0
6009,-83.3333333333333,4,3,0,70,0,0
12866,-90.9090909090909,4,3,0,70,0,0
28188,-111.111111111111,4,3,0,70,0,0
29956,-111.111111111111,4,3,0,5,0,0
30009,-100,4,3,0,70,0,0
33438,-105.263157894737,4,3,0,70,0,0
36866,-100,4,3,0,70,0,0
40295,-125,4,3,0,70,0,0
43938,-100,4,3,0,70,0,0
47045,-90.9090909090909,4,3,0,70,0,1
60866,-80,4,3,0,70,0,0
63438,-125,4,3,0,70,0,0
64295,-90.9090909090909,4,3,0,70,0,0
67724,-100,4,3,0,70,0,0
71152,-90.9090909090909,4,3,0,70,0,0
72009,-100,4,3,0,70,0,0
72438,-111.111111111111,4,3,0,70,0,0
73295,-100,4,3,0,70,0,0
73616,-90.9090909090909,4,3,0,70,0,0
73831,-83.3333333333333,4,3,0,70,0,0
102009,-100,4,3,0,70,0,0
103081,-133.333333333333,4,3,0,70,0,0
113795,-80,4,3,0,70,0,1
121616,-66.6666666666667,4,3,0,70,0,1
121938,-80,4,3,0,70,0,1
127616,-90.9090909090909,4,3,0,70,0,0
138009,-86.9565217391304,4,3,0,70,0,0

[HitObjects]
361,161,867,5,0,0:0:0:0:
241,178,974,1,0,0:0:0:0:
343,381,1188,5,2,0:0:0:0:
285,80,1402,1,2,0:0:0:0:
13,236,1616,1,0,0:0:0:0:
318,264,1831,5,0,0:0:0:0:
361,161,1938,1,8,0:0:0:0:
241,178,2045,1,0,0:0:0:0:
320,281,2152,5,8,0:0:0:0:
296,98,2259,1,8,0:0:0:0:
321,294,2366,5,0,0:0:0:0:
294,84,2473,1,2,0:0:0:0:
213,353,2581,5,4,0:0:0:0:
368,26,4295,1,0,0:0:0:0:
46,248,5152,1,0,0:0:0:0:
70,236,5259,1,0,0:0:0:0:
96,237,5366,1,8,0:0:0:0:
117,254,5474,1,0,0:0:0:0:
66,369,5581,1,4,0:0:0:0:
66,369,6009,6,0,L|173:357,1,107.999996704102
150,131,6224,2,0,L|274:147,1,107.999996704102,8|0,0:0|0:0,0:0:0:0:
444,339,6438,1,0,0:0:0:0:
507,261,6545,1,0,0:0:0:0:
435,206,6652,2,0,P|430:152|445:101,1,107.999996704102,8|0,0:0|0:0,0:0:0:0:
311,276,6866,6,0,L|189:281,2,107.999996704102,0|0|8,0:0|0:0|0:0,0:0:0:0:
507,261,7188,1,0,0:0:0:0:
296,298,7295,6,0,L|174:303,1,107.999996704102
0,336,7509,2,0,L|107:331,1,107.999996704102,8|0,0:0|0:0,0:0:0:0:
140,36,7724,5,4,0:0:0:0:
126,129,7831,1,0,0:0:0:0:
188,301,7938,2,0,P|190:248|188:194,1,107.999996704102,8|0,0:0|0:0,0:0:0:0:
44,76,8152,2,0,P|77:118|113:158,1,107.999996704102
287,24,8366,2,0,P|241:53|198:85,1,107.999996704102,8|0,0:0|0:0,0:0:0:0:
188,301,8581,5,0,0:0:0:0:
272,349,8688,1,0,0:0:0:0:
418,283,8795,5,8,0:0:0:0:
370,162,8902,1,0,0:0:0:0:
364,357,9009,1,0,0:0:0:0:
471,192,9116,5,0,0:0:0:0:
288,244,9224,1,2,0:0:0:0:
447,365,9331,1,0,0:0:0:0:
444,58,9438,5,4,0:0:0:0:
107,220,9652,1,4,0:0:0:0:
470,365,9866,1,4,0:0:0:0:
211,32,10081,1,4,0:0:0:0:
18,378,10295,1,4,0:0:0:0:
512,260,10509,5,4,0:0:0:0:
72,60,10724,1,4,0:0:0:0:
192,378,10938,1,4,0:0:0:0:
458,78,11152,5,4,0:0:0:0:
427,46,11206,1,0,0:0:0:0:
386,32,11259,1,0,0:0:0:0:
342,32,11313,1,0,0:0:0:0:
303,49,11366,1,8,0:0:0:0:
282,87,11420,1,0,0:0:0:0:
262,125,11474,1,0,0:0:0:0:
227,150,11527,1,0,0:0:0:0:
184,157,11581,1,8,0:0:0:0:
142,147,11634,1,0,0:0:0:0:
116,111,11688,1,0,0:0:0:0:
114,68,11741,1,0,0:0:0:0:
135,30,11795,1,8,0:0:0:0:
148,47,11849,1,0,0:0:0:0:
150,68,11902,1,0,0:0:0:0:
148,89,11956,1,0,0:0:0:0:
143,109,12009,5,4,0:0:0:0:
143,109,12438,5,4,0:0:0:0:
44,367,12866,6,0,B|50:268|50:268|68:171,1,198.000006042481,2|8,0:0|0:0,0:0:0:0:
200,86,13188,1,0,0:0:0:0:
267,282,13295,2,0,P|217:289|163:290,1,99.0000030212403
397,222,13509,2,0,P|346:215|294:202,1,99.0000030212403,8|0,0:0|0:0,0:0:0:0:
427,107,13724,6,0,B|444:204|444:204|446:303,1,198.000006042481,2|8,0:0|0:0,0:0:0:0:
299,203,14045,1,0,0:0:0:0:
366,46,14152,2,0,P|411:25|460:28,1,99.0000030212403
200,86,14366,2,0,P|244:106|293:103,1,99.0000030212403,8|0,0:0|0:0,0:0:0:0:
102,12,14581,6,0,B|82:109|82:109|76:207,1,198.000006042481,2|8,0:0|0:0,0:0:0:0:
113,344,14902,1,0,0:0:0:0:
239,264,15009,2,0,P|296:259|340:263,1,99.0000030212403
113,344,15224,2,0,P|170:349|214:345,1,99.0000030212403,8|0,0:0|0:0,0:0:0:0:
484,113,15438,5,2,0:0:0:0:
468,275,15545,1,0,0:0:0:0:
390,139,15652,5,10,0:0:0:0:
399,45,15759,1,0,0:0:0:0:
468,275,15866,5,2,0:0:0:0:
376,267,15973,1,0,0:0:0:0:
321,38,16081,5,10,0:0:0:0:
399,45,16188,1,0,0:0:0:0:
187,248,16295,6,0,B|165:151|165:151|161:52,1,198.000006042481,2|8,0:0|0:0,0:0:0:0:
266,194,16616,1,0,0:0:0:0:
139,326,16724,2,0,P|89:332|41:323,1,99.0000030212403
336,307,16938,2,0,P|287:298|238:303,1,99.0000030212403,8|0,0:0|0:0,0:0:0:0:
32,339,17152,6,0,P|80:347|129:342,1,99.0000030212403
245,169,17366,2,0,P|210:203|186:247,1,99.0000030212403,8|0,0:0|0:0,0:0:0:0:
256,384,17581,5,0,0:0:0:0:
177,268,17688,1,0,0:0:0:0:
160,356,17795,1,0,0:0:0:0:
81,240,17902,1,0,0:0:0:0:
204,71,18009,6,0,B|301:26|303:108|395:66,1,198.000006042481,4|8,0:0|0:0,0:0:0:0:
466,143,18331,1,0,0:0:0:0:
466,143,18438,2,0,L|476:249,1,99.0000030212403,8|0,0:0|0:0,0:0:0:0:
239,218,18652,2,0,L|229:324,1,99.0000030212403,8|0,0:0|0:0,0:0:0:0:
458,267,18866,2,0,L|468:373,1,99.0000030212403,8|0,0:0|0:0,0:0:0:0:
331,287,19081,5,8,0:0:0:0:
252,111,19188,1,0,0:0:0:0:
215,228,19295,1,8,0:0:0:0:
173,52,19402,5,2,0:0:0:0:
306,286,19509,1,2,0:0:0:0:
246,10,19616,1,2,0:0:0:0:
228,335,19724,6,0,B|129:348|129:348|31:337,1,198.000006042481,6|8,0:0|0:0,0:0:0:0:
120,211,20045,1,0,0:0:0:0:
306,286,20152,2,0,P|320:332|308:380,1,99.0000030212403
243,127,20366,2,0,P|230:174|245:220,1,99.0000030212403,8|0,0:0|0:0,0:0:0:0:
504,152,20581,6,0,B|405:172|405:172|300:171,1,198.000006042481,2|8,0:0|0:0,0:0:0:0:
281,41,20902,1,0,0:0:0:0:
445,248,21009,2,0,P|443:297|429:344,1,99.0000030212403
407,0,21224,2,0,P|393:47|391:96,1,99.0000030212403,8|0,0:0|0:0,0:0:0:0:
295,369,21438,6,0,B|304:270|304:270|308:171,1,198.000006042481,2|8,0:0|0:0,0:0:0:0:
159,72,21759,1,0,0:0:0:0:
111,252,21866,2,0,P|106:301|113:350,1,99.0000030212403
159,72,22081,2,0,P|163:121|156:170,1,99.0000030212403,8|0,0:0|0:0,0:0:0:0:
22,298,22295,5,2,0:0:0:0:
189,308,22402,1,0,0:0:0:0:
318,287,22509,5,8,0:0:0:0:
221,292,22616,1,0,0:0:0:0:
326,384,22724,5,0,0:0:0:0:
318,256,22831,1,0,0:0:0:0:
458,163,22938,5,8,0:0:0:0:
448,330,23045,1,0,0:0:0:0:
271,53,23152,6,0,B|368:35|368:35|467:29,1,198.000006042481,4|8,0:0|0:0,0:0:0:0:
266,173,23474,1,0,0:0:0:0:
133,99,23581,2,0,P|127:49|133:0,1,99.0000030212403
176,313,23795,2,0,P|181:263|176:214,1,99.0000030212403,8|0,0:0|0:0,0:0:0:0:
58,368,24009,5,0,0:0:0:0:
250,358,24116,1,0,0:0:0:0:
423,384,24224,5,8,0:0:0:0:
231,374,24331,1,0,0:0:0:0:
473,230,24438,6,0,P|478:279|479:328,1,99.0000030212403
266,173,24652,2,0,P|267:123|272:74,1,99.0000030212403,8|0,0:0|0:0,0:0:0:0:
320,283,24866,5,4,0:0:0:0:
234,250,24974,1,0,0:0:0:0:
251,327,25081,5,8,0:0:0:0:
266,173,25188,1,0,0:0:0:0:
104,260,25295,5,8,0:0:0:0:
351,199,25402,1,0,0:0:0:0:
216,50,25509,5,8,0:0:0:0:
251,327,25616,1,0,0:0:0:0:
433,218,25724,5,8,0:0:0:0:
184,154,25831,1,0,0:0:0:0:
327,361,25938,5,8,0:0:0:0:
391,112,26045,1,0,0:0:0:0:
173,297,26152,5,8,0:0:0:0:
422,361,26259,1,0,0:0:0:0:
296,135,26366,5,8,0:0:0:0:
232,384,26473,1,0,0:0:0:0:
433,218,26581,5,4,0:0:0:0:
73,149,26795,1,0,0:0:0:0:
315,21,27009,1,0,0:0:0:0:
326,43,27116,1,0,0:0:0:0:
296,135,27224,1,2,0:0:0:0:
157,51,27438,5,0,0:0:0:0:
377,107,27652,1,2,0:0:0:0:
386,202,27759,1,0,0:0:0:0:
366,309,27974,5,0,0:0:0:0:
342,384,28081,1,2,0:0:0:0:
442,367,28188,6,0,B|329:315|329:408|202:343,1,242.999992584229,4|0,0:0|0:0,0:0:0:0:
146,271,28616,1,0,0:0:0:0:
187,358,28724,5,2,0:0:0:0:
30,192,28938,1,0,0:0:0:0:
287,103,29152,5,2,0:0:0:0:
61,118,29366,1,2,0:0:0:0:
42,214,29474,1,0,0:0:0:0:
81,25,29688,5,0,0:0:0:0:
237,194,29795,1,2,0:0:0:0:
207,269,29902,2,0,L|257:273,1,40.4999987640381
492,319,30009,6,0,P|403:311|319:343,1,180,0|8,0:0|0:0,0:0:0:0:
357,371,30331,1,0,0:0:0:0:
441,212,30438,2,0,P|454:169|447:125,1,90
207,269,30652,2,0,P|193:226|200:182,1,90,8|0,0:0|0:0,0:0:0:0:
305,22,30866,6,0,P|217:43|128:44,1,180,0|8,0:0|0:0,0:0:0:0:
150,14,31188,1,0,0:0:0:0:
98,168,31295,2,0,P|57:151|20:126,1,90,8|0,0:0|0:0,0:0:0:0:
150,14,31509,1,2,0:0:0:0:
163,33,31616,1,0,0:0:0:0:
200,182,31724,6,0,P|193:271|177:360,1,180,0|8,0:0|0:0,0:0:0:0:
159,337,32045,1,0,0:0:0:0:
286,288,32152,2,0,P|330:281|375:278,1,90
512,384,32366,1,8,0:0:0:0:
512,384,32581,6,0,P|501:340|495:295,1,90
414,191,32795,2,0,P|420:146|430:102,1,90,8|0,0:0|0:0,0:0:0:0:
487,45,33009,1,0,0:0:0:0:
341,104,33116,1,0,0:0:0:0:
228,39,33224,1,8,0:0:0:0:
150,80,33331,1,8,0:0:0:0:
63,190,33438,6,0,L|56:275,1,85.4999977169037,4|0,0:0|0:0,0:0:0:0:
217,248,33652,2,0,L|210:333,1,85.4999977169037,8|0,0:0|0:0,0:0:0:0:
71,205,33866,6,0,L|64:290,1,85.4999977169037
225,263,34080,2,0,L|218:348,1,85.4999977169037,8|0,0:0|0:0,0:0:0:0:
78,223,34295,6,0,L|71:308,1,85.4999977169037
232,281,34509,2,0,L|225:366,1,85.4999977169037,8|0,0:0|0:0,0:0:0:0:
90,237,34724,6,0,L|83:322,1,85.4999977169037
244,295,34938,1,8,0:0:0:0:
236,380,35045,1,4,0:0:0:0:
384,220,35152,6,0,P|303:190|219:180,1,170.999995433807,4|8,0:0|0:0,0:0:0:0:
364,327,35474,1,0,0:0:0:0:
473,242,35581,2,0,L|457:155,1,85.4999977169037
307,26,35795,2,0,L|322:110,1,85.4999977169037,8|0,0:0|0:0,0:0:0:0:
478,221,36009,2,0,L|462:134,1,85.4999977169037
297,40,36223,2,0,L|312:124,1,85.4999977169037,8|0,0:0|0:0,0:0:0:0:
489,203,36438,2,0,L|473:116,1,85.4999977169037
285,56,36652,2,0,L|300:140,1,85.4999977169037,8|0,0:0|0:0,0:0:0:0:
377,348,36866,6,0,P|418:357|473:353,2,90,2|0|8,0:0|0:0|0:0,0:0:0:0:
299,247,37188,1,0,0:0:0:0:
218,366,37295,6,0,P|177:375|122:371,2,90,2|0|8,0:0|0:0|0:0,0:0:0:0:
290,227,37616,1,0,0:0:0:0:
388,364,37724,6,0,P|429:373|484:369,1,90,2|0,0:0|0:0,0:0:0:0:
201,377,37938,2,0,P|160:386|105:382,1,90,8|0,0:0|0:0,0:0:0:0:
299,247,38152,1,0,0:0:0:0:
290,227,38259,1,0,0:0:0:0:
184,162,38366,1,8,0:0:0:0:
175,182,38473,1,0,0:0:0:0:
309,88,38581,6,0,L|405:76,2,90,2|0|8,0:0|0:0|0:0,0:0:0:0:
203,30,38902,1,0,0:0:0:0:
98,92,39009,2,0,L|2:80,2,90,2|0|8,0:0|0:0|0:0,0:0:0:0:
202,11,39331,1,0,0:0:0:0:
322,98,39438,6,0,L|418:86,1,90,2|0,0:0|0:0,0:0:0:0:
89,97,39652,2,0,L|-7:85,1,90,8|0,0:0|0:0,0:0:0:0:
202,11,39866,5,2,0:0:0:0:
207,100,39973,1,0,0:0:0:0:
212,190,40080,1,8,0:0:0:0:
214,219,40188,1,8,0:0:0:0:
286,330,40295,6,0,B|365:332|345:285|419:285,1,144,4|0,0:0|0:0,0:0:0:0:
450,281,40724,5,0,0:0:0:0:
448,302,40831,1,0,0:0:0:0:
443,307,40938,1,8,0:0:0:0:
366,189,41045,6,0,P|358:105|359:36,1,144,4|0,0:0|0:0,0:0:0:0:
383,70,41366,1,0,0:0:0:0:
383,70,41581,5,0,0:0:0:0:
263,126,41688,2,0,P|227:125|191:121,1,72,0|8,0:0|0:0,0:0:0:0:
45,36,41902,6,0,L|64:262,1,216,4|0,0:0|0:0,0:0:0:0:
35,228,42438,6,0,L|46:305,2,72
99,353,42759,2,0,B|174:383|172:321|244:355,1,144,4|0,0:0|0:0,0:0:0:0:
324,369,43081,5,2,0:0:0:0:
485,348,43188,1,0,0:0:0:0:
512,202,43295,5,2,0:0:0:0:
351,223,43402,1,0,0:0:0:0:
441,272,43509,5,2,0:0:0:0:
420,111,43616,1,0,0:0:0:0:
154,202,43724,1,2,0:0:0:0:
154,202,43938,6,0,L|106:207,2,45,12|0|0,0:0|0:0|0:0,0:0:0:0:
316,184,44152,2,0,L|360:179,2,45,4|0|0,0:0|0:0|0:0,0:0:0:0:
104,121,44366,2,0,L|56:126,2,45,12|0|0,0:0|0:0|0:0,0:0:0:0:
266,103,44580,2,0,L|310:98,2,45,4|0|0,0:0|0:0|0:0,0:0:0:0:
54,44,44795,2,0,L|6:49,2,45,12|0|0,0:0|0:0|0:0,0:0:0:0:
216,26,45009,2,0,L|260:21,2,45
54,44,45224,1,12,0:0:0:0:
59,125,45331,1,0,0:0:0:0:
109,206,45438,5,4,0:0:0:0:
150,240,45545,1,0,0:0:0:0:
161,264,45652,1,0,0:0:0:0:
156,290,45759,1,0,0:0:0:0:
87,343,45866,5,4,0:0:0:0:
139,327,45974,1,0,0:0:0:0:
165,330,46081,1,0,0:0:0:0:
189,341,46188,1,0,0:0:0:0:
298,313,46295,5,4,0:0:0:0:
398,43,46724,1,4,0:0:0:0:
398,43,47045,6,0,B|391:106|391:106|406:177|406:177|398:239,1,198.000006042481,6|0,0:0|0:0,0:0:0:0:
127,124,47366,2,0,P|121:74|120:25,1,99.0000030212403,10|0,0:0|0:0,0:0:0:0:
196,243,47581,1,0,0:0:0:0:
71,211,47688,1,0,0:0:0:0:
141,149,47795,1,8,0:0:0:0:
287,324,47902,6,0,B|225:336|225:336|153:327|153:327|92:340,1,198.000006042481,2|0,0:0|0:0,0:0:0:0:
345,374,48224,2,0,L|446:354,1,99.0000030212403,10|0,0:0|0:0,0:0:0:0:
341,123,48438,1,0,0:0:0:0:
351,280,48545,1,0,0:0:0:0:
397,198,48652,1,8,0:0:0:0:
289,48,48759,6,0,B|222:43|222:43|161:65|161:65|92:63,1,198.000006042481,2|0,0:0|0:0,0:0:0:0:
214,131,49081,2,0,L|316:137,1,99.0000030212403,10|0,0:0|0:0,0:0:0:0:
131,306,49295,1,0,0:0:0:0:
119,179,49402,1,0,0:0:0:0:
190,364,49509,2,0,P|239:365|288:357,1,99.0000030212403,8|0,0:0|0:0,0:0:0:0:
473,212,49724,5,6,0:0:0:0:
262,254,49831,1,0,0:0:0:0:
421,319,49938,5,8,0:0:0:0:
241,246,50045,1,0,0:0:0:0:
354,94,50152,5,4,0:0:0:0:
309,331,50259,2,0,P|260:339|211:337,1,99.0000030212403,0|8,0:0|0:0,0:0:0:0:
95,285,50474,1,0,0:0:0:0:
361,117,50581,6,0,L|347:239,2,99.0000030212403,6|0|0,0:0|0:0|0:0,0:0:0:0:
269,32,50902,1,0,0:0:0:0:
96,195,51009,2,0,L|110:317,2,99.0000030212403,10|0|0,0:0|0:0|0:0,0:0:0:0:
195,339,51331,1,0,0:0:0:0:
123,94,51438,6,0,B|89:88|89:88|59:97|59:97|26:93,2,99.0000030212403,6|0|0,0:0|0:0|0:0,0:0:0:0:
196,210,51759,1,0,0:0:0:0:
357,116,51866,2,0,B|390:121|390:121|420:112|420:112|453:116,2,99.0000030212403,10|0|0,0:0|0:0|0:0,0:0:0:0:
444,212,52187,1,0,0:0:0:0:
255,118,52295,5,4,0:0:0:0:
206,7,52402,1,0,0:0:0:0:
210,145,52509,5,4,0:0:0:0:
212,23,52616,1,0,0:0:0:0:
156,171,52724,5,4,0:0:0:0:
217,33,52831,1,0,0:0:0:0:
98,188,52938,5,4,0:0:0:0:
221,46,53045,1,0,0:0:0:0:
35,130,53152,5,4,0:0:0:0:
303,46,53259,1,0,0:0:0:0:
168,289,53366,5,4,0:0:0:0:
96,41,53474,1,0,0:0:0:0:
275,205,53581,5,4,0:0:0:0:
7,289,53688,1,2,0:0:0:0:
303,46,53795,1,2,0:0:0:0:
206,301,53902,6,0,B|272:306|272:306|337:295|337:295|402:302,1,198.000006042481,4|0,0:0|0:0,0:0:0:0:
512,350,54224,2,0,L|408:340,1,99.0000030212403,10|0,0:0|0:0,0:0:0:0:
354,58,54438,1,0,0:0:0:0:
441,159,54545,1,0,0:0:0:0:
444,62,54652,1,0,0:0:0:0:
277,24,54759,6,0,B|210:18|210:18|145:29|145:29|80:22,1,198.000006042481,2|0,0:0|0:0,0:0:0:0:
199,130,55081,2,0,L|318:139,1,99.0000030212403,10|0,0:0|0:0,0:0:0:0:
433,224,55295,1,0,0:0:0:0:
315,257,55402,1,0,0:0:0:0:
395,303,55509,1,8,0:0:0:0:
164,147,55616,6,0,B|170:213|170:213|192:276|192:276|196:341,1,198.000006042481,2|0,0:0|0:0,0:0:0:0:
16,263,55938,1,8,0:0:0:0:
140,232,56045,1,0,0:0:0:0:
61,337,56152,1,2,0:0:0:0:
52,143,56259,1,0,0:0:0:0:
182,346,56366,1,8,0:0:0:0:
208,81,56473,1,0,0:0:0:0:
498,176,56581,6,0,B|431:173|431:173|367:154|367:154|302:153,1,198.000006042481,6|8,0:0|0:0,0:0:0:0:
331,274,56902,1,0,0:0:0:0:
457,98,57009,2,0,P|464:50|460:-3,2,99.0000030212403,2|0|8,0:0|0:0|0:0,0:0:0:0:
310,301,57331,2,0,P|286:307|261:308,1,49.5000015106202,2|0,0:0|0:0,0:0:0:0:
121,187,57438,6,0,L|115:293,1,99.0000030212403,4|0,0:0|0:0,0:0:0:0:
318,111,57652,2,0,L|312:217,1,99.0000030212403,8|0,0:0|0:0,0:0:0:0:
79,27,57866,2,0,L|73:133,1,99.0000030212403,2|0,0:0|0:0,0:0:0:0:
213,61,58081,5,8,0:0:0:0:
213,61,58188,1,0,0:0:0:0:
395,153,58295,2,0,L|498:146,1,99.0000030212403,2|0,0:0|0:0,0:0:0:0:
412,14,58509,2,0,L|313:20,1,99.0000030212403,8|0,0:0|0:0,0:0:0:0:
73,125,58724,6,0,L|80:22,1,99.0000030212403,2|0,0:0|0:0,0:0:0:0:
212,108,58938,2,0,L|205:206,1,99.0000030212403,8|0,0:0|0:0,0:0:0:0:
121,353,59152,5,4,0:0:0:0:
121,353,59366,1,4,0:0:0:0:
377,312,59474,1,0,0:0:0:0:
160,128,59581,5,4,0:0:0:0:
201,384,59689,1,0,0:0:0:0:
256,151,59795,5,4,0:0:0:0:
0,192,59903,1,0,0:0:0:0:
289,313,60009,5,4,0:0:0:0:
330,57,60117,1,0,0:0:0:0:
454,340,60224,5,4,0:0:0:0:
434,19,60331,1,0,0:0:0:0:
150,51,60438,5,4,0:0:0:0:
512,150,60545,1,2,0:0:0:0:
231,370,60652,1,12,0:0:0:0:
338,33,60759,1,2,0:0:0:0:
259,187,60866,5,12,0:0:0:0:
259,187,61724,5,4,0:0:0:0:
259,187,62581,5,4,0:0:0:0:
258,28,63009,1,4,0:0:0:0:
261,331,63438,2,0,L|189:324,1,72,4|0,0:0|0:0,0:0:0:0:
162,236,63652,2,0,L|90:242,1,72,8|0,0:0|0:0,0:0:0:0:
60,332,63866,1,0,0:0:0:0:
409,291,63974,6,0,B|351:287|351:287|300:253|300:253|239:246,1,180,2|0,0:0|0:0,0:0:0:0:
226,258,64295,6,0,B|240:161|240:161|243:52,1,198.000006042481,4|8,0:0|0:0,0:0:0:0:
103,149,64616,1,0,0:0:0:0:
52,30,64724,2,0,P|100:22|150:19,1,99.0000030212403
341,71,64939,2,0,P|291:67|242:60,1,99.0000030212403,8|0,0:0|0:0,0:0:0:0:
445,151,65152,6,0,P|461:196|445:242,1,99.0000030212403
338,375,65366,2,0,P|321:329|337:283,1,99.0000030212403,8|0,0:0|0:0,0:0:0:0:
503,334,65581,6,0,L|401:328,1,99.0000030212403
135,209,65795,2,0,L|237:203,1,99.0000030212403,8|0,0:0|0:0,0:0:0:0:
51,342,66009,5,0,0:0:0:0:
51,342,66224,5,8,0:0:0:0:
69,255,66331,1,0,0:0:0:0:
133,323,66438,1,4,0:0:0:0:
151,236,66545,1,0,0:0:0:0:
216,301,66652,1,8,0:0:0:0:
234,214,66759,1,0,0:0:0:0:
397,87,66866,5,4,0:0:0:0:
309,68,66974,1,0,0:0:0:0:
340,156,67081,1,8,0:0:0:0:
428,175,67189,1,0,0:0:0:0:
485,106,67295,1,4,0:0:0:0:
397,87,67403,5,0,0:0:0:0:
373,231,67509,1,8,0:0:0:0:
350,377,67616,1,0,0:0:0:0:
471,285,67724,6,0,L|486:87,1,180,6|0,0:0|0:0,0:0:0:0:
279,19,68045,1,0,0:0:0:0:
279,19,68099,1,0,0:0:0:0:
279,19,68152,2,0,L|180:28,1,90
74,152,68366,2,0,L|173:161,1,90
34,50,68581,5,6,0:0:0:0:
34,50,68688,1,2,0:0:0:0:
7,213,68795,2,0,L|-1:315,1,90,8|0,0:0|0:0,0:0:0:0:
192,269,69009,2,0,L|200:371,1,90
30,227,69224,2,0,L|22:329,1,90
269,314,69438,6,0,L|367:317,2,90,2|0|0,0:0|0:0|0:0,0:0:0:0:
479,230,69759,1,0,0:0:0:0:
479,230,69813,1,0,0:0:0:0:
479,230,69866,2,0,L|475:328,1,90
378,197,70081,2,0,L|381:98,1,90
512,65,70295,5,2,0:0:0:0:
355,85,70402,1,0,0:0:0:0:
254,6,70509,5,2,0:0:0:0:
411,26,70616,1,0,0:0:0:0:
265,237,70724,5,2,0:0:0:0:
244,19,70831,1,0,0:0:0:0:
177,293,70938,5,2,0:0:0:0:
175,73,71045,1,0,0:0:0:0:
274,362,71152,6,0,B|175:371|175:371|77:354,1,198.000006042481,6|8,0:0|0:0,0:0:0:0:
18,203,71474,1,0,0:0:0:0:
105,144,71581,2,0,P|112:192|111:242,1,99.0000030212403
23,6,71795,2,0,P|22:55|29:104,1,99.0000030212403,8|0,0:0|0:0,0:0:0:0:
242,235,72009,6,0,P|286:237|331:232,1,90
370,106,72224,2,0,P|325:104|280:109,1,90,8|0,0:0|0:0,0:0:0:0:
468,272,72438,6,0,L|461:366,1,80.9999975280763
351,248,72652,2,0,L|349:342,1,80.9999975280763,8|0,0:0|0:0,0:0:0:0:
128,331,72866,5,4,0:0:0:0:
66,254,72974,2,0,B|58:194|58:194|69:212,1,80.9999975280763,8|0,0:0|0:0,0:0:0:0:
125,348,73188,5,4,0:0:0:0:
59,253,73295,2,0,B|50:186|50:186|62:206,1,90,8|0,0:0|0:0,0:0:0:0:
115,362,73509,5,4,0:0:0:0:
52,252,73616,2,0,B|42:179|42:179|55:201,1,99.0000030212403,8|0,0:0|0:0,0:0:0:0:
106,370,73831,5,4,0:0:0:0:
45,252,73938,2,0,B|34:172|34:172|48:196,1,107.999996704102,8|0,0:0|0:0,0:0:0:0:
261,306,74152,5,2,0:0:0:0:
149,240,74259,1,2,0:0:0:0:
279,307,74366,1,2,0:0:0:0:
419,190,74474,6,0,B|427:136|427:136|452:89|452:89|459:34|459:34|427:77,1,215.999993408203,6|0,0:0|0:0,0:0:0:0:
344,283,74795,2,0,B|376:326|376:326|369:271|369:271|344:224|344:224|336:170,1,215.999993408203,8|0,0:0|0:0,0:0:0:0:
223,65,75116,1,0,0:0:0:0:
179,172,75224,2,0,P|128:188|78:169,1,107.999996704102,8|0,0:0|0:0,0:0:0:0:
60,41,75438,1,0,0:0:0:0:
207,46,75545,1,0,0:0:0:0:
133,19,75652,1,8,0:0:0:0:
133,19,75866,5,2,0:0:0:0:
120,317,75974,1,8,0:0:0:0:
120,317,76188,6,0,B|228:307|228:307|333:339|333:339|438:322,1,323.999990112305,4|4,0:0|0:0,0:0:0:0:
443,142,76616,1,0,0:0:0:0:
400,57,76724,1,4,0:0:0:0:
371,171,76831,1,0,0:0:0:0:
382,75,76939,1,4,0:0:0:0:
417,234,77045,6,0,P|366:248|316:228,1,107.999996704102,0|4,0:0|0:0,0:0:0:0:
171,101,77259,1,0,0:0:0:0:
288,47,77366,1,8,0:0:0:0:
151,187,77474,1,0,0:0:0:0:
90,75,77581,1,2,0:0:0:0:
245,169,77688,5,2,0:0:0:0:
234,334,77795,1,8,0:0:0:0:
89,267,77902,6,0,B|195:298|192:216|297:275,1,215.999993408203,4|0,0:0|0:0,0:0:0:0:
445,318,78224,1,8,0:0:0:0:
342,384,78331,1,0,0:0:0:0:
420,174,78438,1,0,0:0:0:0:
440,300,78545,1,0,0:0:0:0:
311,198,78652,1,8,0:0:0:0:
339,63,78759,1,0,0:0:0:0:
445,171,78866,1,0,0:0:0:0:
320,198,78973,1,0,0:0:0:0:
86,121,79081,6,0,P|78:67|79:13,1,107.999996704102,8|0,0:0|0:0,0:0:0:0:
228,187,79295,2,0,P|235:133|234:79,1,107.999996704102
32,246,79509,1,8,0:0:0:0:
44,353,79616,6,0,B|151:348|151:348|253:312|253:312|361:304,1,323.999990112305,4|12,0:0|0:0,0:0:0:0:
451,290,80045,1,0,0:0:0:0:
512,365,80152,2,0,B|458:379|458:379|401:371,1,107.999996704102,4|0,0:0|0:0,0:0:0:0:
392,220,80366,2,0,B|446:206|446:206|503:214,1,107.999996704102,4|0,0:0|0:0,0:0:0:0:
242,226,80581,6,0,L|186:222,1,53.9999983520508,2|0,0:0|0:0,0:0:0:0:
60,188,80688,2,0,L|114:185,1,53.9999983520508
256,212,80795,6,0,L|199:212,1,53.9999983520508,2|0,0:0|0:0,0:0:0:0:
60,205,80902,2,0,L|113:197,1,53.9999983520508
120,363,81009,5,2,0:0:0:0:
185,90,81116,1,2,0:0:0:0:
128,378,81224,1,2,0:0:0:0:
197,77,81331,6,0,B|296:46|296:121|410:80,1,215.999993408203,4|0,0:0|0:0,0:0:0:0:
351,6,81652,1,8,0:0:0:0:
303,222,81759,1,0,0:0:0:0:
349,19,81866,1,0,0:0:0:0:
401,239,81973,1,0,0:0:0:0:
346,27,82081,1,8,0:0:0:0:
324,300,82188,1,0,0:0:0:0:
176,93,82295,6,0,P|119:86|72:109,2,107.999996704102,2|0|0,0:0|0:0|0:0,0:0:0:0:
199,264,82616,1,0,0:0:0:0:
199,264,82724,2,0,L|194:378,1,107.999996704102,2|0,0:0|0:0,0:0:0:0:
96,211,82938,1,0,0:0:0:0:
382,343,83045,6,0,B|403:246|345:249|373:130,1,215.999993408203,6|0,0:0|0:0,0:0:0:0:
494,67,83366,1,8,0:0:0:0:
280,201,83473,1,0,0:0:0:0:
481,65,83580,1,0,0:0:0:0:
266,106,83688,1,0,0:0:0:0:
473,62,83795,1,8,0:0:0:0:
278,19,83902,1,0,0:0:0:0:
365,150,84009,6,0,B|336:268|394:265|373:362,1,215.999993408203,4|8,0:0|0:0,0:0:0:0:
216,332,84331,1,0,0:0:0:0:
498,271,84438,1,2,0:0:0:0:
80,283,84545,5,2,0:0:0:0:
397,372,84652,1,8,0:0:0:0:
84,45,84759,6,0,L|68:260,1,215.999993408203,4|0,0:0|0:0,0:0:0:0:
160,360,85081,2,0,L|46:367,1,107.999996704102,8|0,0:0|0:0,0:0:0:0:
203,207,85295,2,0,P|304:191|370:271,1,215.999993408203,2|0,0:0|0:0,0:0:0:0:
376,367,85616,1,0,0:0:0:0:
307,162,85724,6,0,P|294:109|297:56,1,107.999996704102
474,254,85938,2,0,P|486:201|483:148,1,107.999996704102,8|0,0:0|0:0,0:0:0:0:
270,279,86152,2,0,P|177:326|86:276,1,215.999993408203,2|8,0:0|0:0,0:0:0:0:
78,117,86474,1,0,0:0:0:0:
78,117,86581,2,0,B|196:80|193:161|315:107,1,215.999993408203
431,57,86902,1,0,0:0:0:0:
389,150,87009,5,2,0:0:0:0:
377,203,87063,1,0,0:0:0:0:
383,256,87116,1,0,0:0:0:0:
406,305,87170,1,0,0:0:0:0:
455,328,87224,1,8,0:0:0:0:
503,299,87277,1,0,0:0:0:0:
510,245,87331,1,0,0:0:0:0:
470,209,87384,1,0,0:0:0:0:
415,210,87438,1,2,0:0:0:0:
365,231,87491,1,0,0:0:0:0:
328,271,87545,1,0,0:0:0:0:
274,281,87599,1,0,0:0:0:0:
222,266,87652,1,8,0:0:0:0:
183,228,87706,1,0,0:0:0:0:
160,179,87759,1,0,0:0:0:0:
168,125,87813,1,0,0:0:0:0:
198,81,87866,1,6,0:0:0:0:
198,81,88081,6,0,L|307:70,1,107.999996704102
77,53,88295,6,0,P|56:158|69:265,1,215.999993408203,4|8,0:0|0:0,0:0:0:0:
161,354,88616,1,0,0:0:0:0:
224,292,88724,2,0,P|276:276|329:283,1,107.999996704102
467,350,88938,2,0,P|413:342|362:358,1,107.999996704102,8|0,0:0|0:0,0:0:0:0:
268,197,89152,2,0,L|256:73,1,107.999996704102
435,255,89366,2,0,L|447:131,1,107.999996704102,8|0,0:0|0:0,0:0:0:0:
333,34,89581,1,0,0:0:0:0:
333,34,89688,1,0,0:0:0:0:
184,128,89795,2,0,L|76:122,1,107.999996704102,8|0,0:0|0:0,0:0:0:0:
166,289,90009,6,0,P|268:271|317:179,1,215.999993408203,4|8,0:0|0:0,0:0:0:0:
87,256,90331,1,0,0:0:0:0:
18,307,90438,5,2,0:0:0:0:
22,333,90545,1,0,0:0:0:0:
166,289,90652,5,0,0:0:0:0:
170,263,90759,1,0,0:0:0:0:
96,312,90866,5,2,0:0:0:0:
105,384,90973,1,0,0:0:0:0:
245,262,91081,5,2,0:0:0:0:
254,190,91188,1,0,0:0:0:0:
304,349,91295,6,0,L|411:339,2,107.999996704102,2|0|0,0:0|0:0|0:0,0:0:0:0:
201,358,91616,1,0,0:0:0:0:
342,213,91724,6,0,P|274:136|176:166,1,215.999993408203,6|8,0:0|0:0,0:0:0:0:
83,234,92045,1,0,0:0:0:0:
200,180,92152,2,0,B|209:127|209:127|199:73,1,107.999996704102
53,254,92366,2,0,B|44:201|44:201|53:147,1,107.999996704102,8|0,0:0|0:0,0:0:0:0:
259,231,92581,2,0,P|213:259|162:248,1,107.999996704102
314,157,92795,6,0,P|343:255|266:322,1,215.999993408203,8|0,0:0|0:0,0:0:0:0:
259,231,93116,1,0,0:0:0:0:
423,298,93224,2,0,B|431:240|431:240|424:191,1,107.999996704102,8|0,0:0|0:0,0:0:0:0:
284,40,93438,6,0,P|389:56|472:124,1,215.999993408203,4|8,0:0|0:0,0:0:0:0:
488,212,93759,1,0,0:0:0:0:
350,347,93866,2,0,B|343:298|343:298|351:240,1,107.999996704102
512,244,94081,2,0,B|519:293|519:293|511:351,1,107.999996704102,8|0,0:0|0:0,0:0:0:0:
213,384,94295,6,0,P|195:277|187:169,1,215.999993408203,4|8,0:0|0:0,0:0:0:0:
213,52,94616,1,0,0:0:0:0:
106,206,94724,2,0,P|53:202|0:195,1,107.999996704102
274,157,94938,2,0,P|327:149|381:146,1,107.999996704102,8|0,0:0|0:0,0:0:0:0:
485,235,95099,1,0,0:0:0:0:
501,248,95152,6,0,B|404:230|399:305|278:278,1,215.999993408203,4|8,0:0|0:0,0:0:0:0:
131,248,95474,1,0,0:0:0:0:
190,331,95581,2,0,L|199:387,2,53.9999983520508
103,246,95795,1,8,0:0:0:0:
252,196,95902,2,0,L|260:142,2,53.9999983520508
75,244,96116,1,0,0:0:0:0:
291,280,96224,1,8,0:0:0:0:
213,78,96331,1,0,0:0:0:0:
182,262,96438,5,0,0:0:0:0:
252,177,96546,1,0,0:0:0:0:
144,161,96653,1,8,0:0:0:0:
309,296,96759,1,0,0:0:0:0:
348,83,96866,6,0,P|400:72|466:65,1,107.999996704102,4|0,0:0|0:0,0:0:0:0:
406,292,97081,5,10,0:0:0:0:
329,215,97188,1,0,0:0:0:0:
433,188,97295,1,0,0:0:0:0:
401,299,97402,5,2,0:0:0:0:
324,207,97509,1,8,0:0:0:0:
441,188,97616,1,0,0:0:0:0:
396,307,97724,5,2,0:0:0:0:
320,199,97831,1,0,0:0:0:0:
450,188,97938,1,8,0:0:0:0:
389,314,98045,5,2,0:0:0:0:
317,189,98152,1,0,0:0:0:0:
460,190,98259,1,0,0:0:0:0:
382,323,98366,5,8,0:0:0:0:
391,123,98473,1,0,0:0:0:0:
229,294,98581,6,0,L|121:283,1,107.999996704102,2|0,0:0|0:0,0:0:0:0:
337,224,98795,2,0,L|381:323,1,107.999996704102,2|0,0:0|0:0,0:0:0:0:
233,165,99009,2,0,L|296:76,1,107.999996704102,2|0,0:0|0:0,0:0:0:0:
256,322,99224,5,10,0:0:0:0:
94,305,99331,1,0,0:0:0:0:
122,104,99438,5,0,0:0:0:0:
183,235,99545,1,0,0:0:0:0:
40,221,99652,1,8,0:0:0:0:
207,143,99759,5,0,0:0:0:0:
105,288,99866,1,2,0:0:0:0:
32,127,99973,5,0,0:0:0:0:
260,276,100081,1,8,0:0:0:0:
17,121,100188,1,0,0:0:0:0:
202,44,100295,6,0,B|309:13|301:99|420:54,1,215.999993408203,4|8,0:0|0:0,0:0:0:0:
496,0,100616,1,0,0:0:0:0:
375,149,100724,2,0,P|352:196|359:249,1,107.999996704102
469,328,100938,2,0,P|492:280|485:227,1,107.999996704102,8|0,0:0|0:0,0:0:0:0:
310,340,101152,6,0,B|203:371|211:285|92:330,1,215.999993408203,4|8,0:0|0:0,0:0:0:0:
6,364,101474,1,0,0:0:0:0:
22,269,101581,1,0,0:0:0:0:
177,201,101688,5,0,0:0:0:0:
193,296,101795,1,8,0:0:0:0:
67,146,101902,5,0,0:0:0:0:
83,51,102009,2,0,P|171:34|261:27,2,180,4|8|6,0:0|0:0|0:0,0:0:0:0:
43,138,102545,1,0,0:0:0:0:
43,138,102759,5,0,0:0:0:0:
43,138,102813,1,0,0:0:0:0:
43,138,102866,1,0,0:0:0:0:
43,138,103081,6,0,P|68:159|100:169,1,67.5000025749208,8|0,0:0|0:0,0:0:0:0:
218,114,103295,2,0,P|248:99|281:98,1,67.5000025749208
435,160,103509,2,0,P|442:192|442:226,1,67.5000025749208,8|0,0:0|0:0,0:0:0:0:
301,329,103724,5,4,0:0:0:0:
368,73,103831,1,2,0:0:0:0:
197,316,103938,5,4,0:0:0:0:
370,59,104045,1,0,0:0:0:0:
411,337,104152,5,4,0:0:0:0:
271,63,104259,1,2,0:0:0:0:
101,328,104366,5,6,0:0:0:0:
265,49,104474,1,2,0:0:0:0:
241,384,104581,5,12,0:0:0:0:
197,258,113152,5,2,0:0:0:0:
127,129,113366,6,0,P|121:180|131:223,1,67.5000025749208,4|0,0:0|0:0,0:0:0:0:
217,279,113581,1,8,0:0:0:0:
291,225,113688,1,8,0:0:0:0:
451,283,113795,6,0,B|297:261|288:403|108:363,1,337.5,12|0,0:0|0:0,0:0:0:0:
0,246,114224,2,0,P|55:249|107:270,1,112.5,8|0,0:0|0:0,0:0:0:0:
237,384,114438,1,0,0:0:0:0:
300,192,114545,1,0,0:0:0:0:
214,277,114652,1,8,0:0:0:0:
402,177,114759,6,0,P|411:75|413:31,1,112.5,2|0,0:0|0:0,0:0:0:0:
199,167,114974,1,0,0:0:0:0:
361,262,115081,2,0,P|416:267|465:242,1,112.5,8|0,0:0|0:0,0:0:0:0:
237,87,115295,2,0,P|181:81|132:106,2,112.5,2|0|8,0:0|0:0|0:0,0:0:0:0:
55,365,115616,6,0,P|36:261|35:129,1,225,4|0,0:0|0:0,0:0:0:0:
58,40,115938,1,8,0:0:0:0:
236,186,116045,1,0,0:0:0:0:
110,178,116152,5,0,0:0:0:0:
110,178,116259,1,0,0:0:0:0:
359,121,116366,1,8,0:0:0:0:
359,121,116474,2,0,L|354:189,1,56.25
409,372,116581,6,0,L|418:260,1,112.5,4|0,0:0|0:0,0:0:0:0:
160,342,116795,2,0,L|169:230,1,112.5,8|0,0:0|0:0,0:0:0:0:
190,67,117009,1,2,0:0:0:0:
227,148,117116,1,0,0:0:0:0:
136,140,117224,1,10,0:0:0:0:
312,63,117331,1,0,0:0:0:0:
10,89,117438,6,0,P|120:111|226:147,1,225,6|8,0:0|0:0,0:0:0:0:
386,225,117759,1,0,0:0:0:0:
386,225,117866,2,0,P|297:239|257:242,1,112.5,2|0,0:0|0:0,0:0:0:0:
40,264,118081,2,0,P|129:250|169:247,1,112.5,10|0,0:0|0:0,0:0:0:0:
491,299,118295,6,0,P|380:276|274:240,1,225,6|8,0:0|0:0,0:0:0:0:
115,163,118616,1,0,0:0:0:0:
115,163,118723,2,0,P|204:149|244:146,1,112.5,2|0,0:0|0:0,0:0:0:0:
461,124,118938,2,0,P|372:138|332:141,1,112.5,10|0,0:0|0:0,0:0:0:0:
153,68,119152,5,4,0:0:0:0:
221,316,119259,1,0,0:0:0:0:
293,83,119366,5,4,0:0:0:0:
225,331,119473,1,0,0:0:0:0:
80,209,119581,5,4,0:0:0:0:
378,244,119688,1,0,0:0:0:0:
25,130,119795,5,4,0:0:0:0:
472,182,119902,1,0,0:0:0:0:
111,353,120009,5,4,0:0:0:0:
160,32,120116,1,0,0:0:0:0:
195,338,120224,5,4,0:0:0:0:
234,81,120331,1,0,0:0:0:0:
283,326,120438,5,4,0:0:0:0:
314,120,120545,1,0,0:0:0:0:
401,238,120652,5,4,0:0:0:0:
192,183,120759,2,0,P|107:193|182:233,1,225,6|0,0:0|0:0,0:0:0:0:
401,238,121081,2,0,L|280:221,1,112.5,8|0,0:0|0:0,0:0:0:0:
44,267,121295,1,0,0:0:0:0:
112,79,121402,1,0,0:0:0:0:
173,349,121509,1,8,0:0:0:0:
318,174,121616,6,0,P|420:187|329:235,1,270.000010299683,6|0,0:0|0:0,0:0:0:0:
66,241,121938,2,0,L|212:220,1,112.5,8|0,0:0|0:0,0:0:0:0:
497,276,122152,1,0,0:0:0:0:
414,49,122259,1,0,0:0:0:0:
341,375,122366,1,8,0:0:0:0:
224,124,122474,6,0,B|240:222|165:225|192:340,1,225,6|0,0:0|0:0,0:0:0:0:
297,202,122795,2,0,P|304:146|292:91,1,112.5,10|0,0:0|0:0,0:0:0:0:
120,247,123009,2,0,P|112:302|124:357,1,112.5
361,256,123224,2,0,P|382:204|385:148,1,112.5,8|0,0:0|0:0,0:0:0:0:
63,162,123438,6,0,P|20:265|13:377,2,225,4|0|8,0:0|0:0|0:0,0:0:0:0:
146,65,123974,1,0,0:0:0:0:
226,159,124081,1,8,0:0:0:0:
226,159,124134,1,0,0:0:0:0:
226,159,124188,1,2,0:0:0:0:
392,119,124295,6,0,P|338:102|282:100,1,112.5
175,323,124509,2,0,P|215:284|246:237,1,112.5,8|0,0:0|0:0,0:0:0:0:
111,22,124723,2,0,P|124:76|149:126,1,112.5
398,108,124938,2,0,P|344:91|288:89,1,112.5,8|0,0:0|0:0,0:0:0:0:
7,172,125152,6,0,B|110:207|124:129|225:158,2,225,0|8|0,0:0|0:0|0:0,0:0:0:0:
177,240,125688,1,0,0:0:0:0:
405,198,125795,2,0,L|417:137,2,56.25,8|0|0,0:0|0:0|0:0,0:0:0:0:
382,284,126009,5,4,0:0:0:0:
345,43,126116,1,0,0:0:0:0:
301,316,126224,5,8,0:0:0:0:
347,52,126331,1,0,0:0:0:0:
365,359,126438,5,4,0:0:0:0:
266,88,126545,1,0,0:0:0:0:
236,384,126652,5,4,0:0:0:0:
265,74,126759,1,0,0:0:0:0:
80,285,126866,5,4,0:0:0:0:
365,359,126974,1,0,0:0:0:0:
149,32,127081,5,12,0:0:0:0:
149,365,127188,1,2,0:0:0:0:
344,94,127295,1,12,0:0:0:0:
27,197,127402,1,2,0:0:0:0:
344,301,127509,1,12,0:0:0:0:
154,44,127616,6,0,B|77:28|75:76|-5:53,1,148.50000453186
0,49,127831,1,0,0:0:0:0:
122,120,127938,1,8,0:0:0:0:
400,53,128152,6,0,P|411:151|411:250,2,198.000006042481,2|8|4,0:0|0:0|0:0,0:0:0:0:
335,11,128688,1,0,0:0:0:0:
489,182,128795,1,8,0:0:0:0:
194,330,129009,5,0,0:0:0:0:
122,260,129116,1,0,0:0:0:0:
218,233,129224,1,8,0:0:0:0:
290,302,129331,1,2,0:0:0:0:
61,359,129545,5,0,0:0:0:0:
35,202,129652,2,0,P|37:147|51:66,1,99.0000030212403,8|0,0:0|0:0,0:0:0:0:
161,36,129866,2,0,P|167:85|168:134,1,99.0000030212403
18,212,130081,2,0,P|20:157|34:76,1,99.0000030212403,8|0,0:0|0:0,0:0:0:0:
179,23,130295,1,0,0:0:0:0:
185,72,130402,1,0,0:0:0:0:
186,121,130509,1,8,0:0:0:0:
98,278,130724,5,0,0:0:0:0:
191,246,130831,1,0,0:0:0:0:
286,271,130938,1,8,0:0:0:0:
340,353,131045,2,0,P|390:361|459:252,1,198.000006042481,2|0,0:0|0:0,0:0:0:0:
368,115,131366,2,0,P|358:177|366:230,1,99.0000030212403,10|0,0:0|0:0,0:0:0:0:
512,361,131581,6,0,L|404:354,2,99.0000030212403,0|0|8,0:0|0:0|0:0,0:0:0:0:
1,192,132009,2,0,L|109:185,2,99.0000030212403,0|0|8,0:0|0:0|0:0,0:0:0:0:
507,53,132438,2,0,L|399:46,1,99.0000030212403
393,209,132652,2,0,L|453:118,1,99.0000030212403,8|0,0:0|0:0,0:0:0:0:
304,85,132866,1,4,0:0:0:0:
304,85,133081,5,4,0:0:0:0:
421,288,133188,1,0,0:0:0:0:
386,37,133295,5,4,0:0:0:0:
416,301,133402,1,0,0:0:0:0:
474,15,133509,5,4,0:0:0:0:
413,312,133616,1,0,0:0:0:0:
144,233,133724,5,4,0:0:0:0:
433,200,133831,1,0,0:0:0:0:
104,161,133938,5,4,0:0:0:0:
450,121,134045,1,0,0:0:0:0:
203,88,134152,5,4,0:0:0:0:
226,295,134259,1,0,0:0:0:0:
282,126,134366,5,12,0:0:0:0:
150,343,134473,1,0,0:0:0:0:
34,199,134581,6,0,P|148:241|224:289,2,198.000006042481,4|8|0,0:0|0:0|0:0,0:0:0:0:
0,288,135116,1,0,0:0:0:0:
98,260,135224,1,8,0:0:0:0:
346,65,135438,5,0,0:0:0:0:
380,154,135545,1,0,0:0:0:0:
282,126,135653,1,8,0:0:0:0:
215,54,135759,1,0,0:0:0:0:
79,63,135866,5,0,0:0:0:0:
89,161,135973,1,0,0:0:0:0:
98,260,136081,1,8,0:0:0:0:
107,359,136188,1,0,0:0:0:0:
243,279,136295,6,0,L|251:223,1,49.5000015106202,6|0,0:0|0:0,0:0:0:0:
384,105,136509,6,0,L|392:161,1,49.5000015106202,6|0,0:0|0:0,0:0:0:0:
352,329,136724,6,0,L|360:273,1,49.5000015106202,6|0,0:0|0:0,0:0:0:0:
272,67,136938,6,0,L|280:123,1,49.5000015106202,6|0,0:0|0:0,0:0:0:0:
456,261,137152,5,4,0:0:0:0:
407,270,137206,1,0,0:0:0:0:
359,279,137259,1,0,0:0:0:0:
310,289,137313,1,0,0:0:0:0:
262,299,137366,2,0,L|146:316,1,99.0000030212403,8|0,0:0|0:0,0:0:0:0:
7,155,137581,2,0,P|30:163|46:181,1,49.5000015106202,2|0,0:0|0:0,0:0:0:0:
47,182,138009,6,0,B|93:207|93:207|144:215,1,103.500001974106,4|0,0:0|0:0,0:0:0:0:
230,59,138224,2,0,B|186:86|186:86|153:126,1,103.500001974106,8|0,0:0|0:0,0:0:0:0:
263,371,138438,2,0,B|259:267|259:267|223:171,1,207.000003948212,0|8,0:0|0:0,0:0:0:0:
144,215,138759,1,0,0:0:0:0:
355,255,138866,6,0,L|463:273,1,103.500001974106,4|0,0:0|0:0,0:0:0:0:
506,143,139081,2,0,L|398:161,1,103.500001974106,8|0,0:0|0:0,0:0:0:0:
394,367,139295,2,0,L|404:160,1,207.000003948212,0|8,0:0|0:0,0:0:0:0:
413,63,139616,1,0,0:0:0:0:
184,195,139724,6,0,L|71:212,1,103.500001974106,4|0,0:0|0:0,0:0:0:0:
335,298,139938,2,0,L|271:218,1,103.500001974106,8|0,0:0|0:0,0:0:0:0:
272,92,140152,2,0,L|196:284,1,207.000003948212,0|8,3:0|3:0,0:0:0:0:
156,368,140474,1,0,0:0:0:0:
36,240,140581,6,0,L|138:224,1,103.500001974106,4|0,0:0|0:0,0:0:0:0:
440,176,140795,2,0,L|337:160,1,103.500001974106,8|0,0:0|0:0,0:0:0:0:
116,139,141009,5,0,0:0:0:0:
152,295,141116,1,2,0:0:0:0:
188,94,141224,5,8,0:0:0:0:
169,309,141331,1,2,0:0:0:0:
323,249,141438,6,0,P|374:244|421:264,1,103.500001974106,4|0,0:0|0:0,0:0:0:0:
267,166,141652,2,0,P|245:212|204:243,1,103.500001974106,8|0,0:0|0:0,0:0:0:0:
367,157,141866,2,0,P|336:64|410:-4,1,207.000003948212,0|8,0:0|0:0,0:0:0:0:
424,86,142188,1,0,0:0:0:0:
177,160,142295,6,0,B|125:154|125:154|75:165,1,103.500001974106,4|0,0:0|0:0,0:0:0:0:
80,327,142509,2,0,B|131:332|131:332|181:321,1,103.500001974106,8|0,0:0|0:0,0:0:0:0:
224,84,142724,2,0,B|121:73|121:73|20:94,1,207.000003948212,0|8,0:0|0:0,0:0:0:0:
129,240,143045,1,0,0:0:0:0:
294,112,143152,6,0,P|300:61|273:18,1,103.500001974106,4|0,0:0|0:0,0:0:0:0:
355,171,143366,2,0,P|396:200|447:198,1,103.500001974106,8|0,0:0|0:0,0:0:0:0:
278,190,143581,2,0,P|197:250|193:350,1,207.000003948212,0|8,0:0|0:0,0:0:0:0:
289,373,143902,1,0,0:0:0:0:
388,303,144009,6,0,B|299:282|291:362|192:350,1,207.000003948212,4|8,0:0|0:0,0:0:0:0:
63,313,144331,1,0,0:0:0:0:
289,373,144438,1,0,0:0:0:0:
117,231,144545,5,0,0:0:0:0:
388,303,144652,1,8,0:0:0:0:
171,149,144759,6,0,L|113:144,1,51.7500009870529
221,210,144866,2,0,B|247:166|247:166|240:113,1,103.500001974106,4|0,0:0|0:0,0:0:0:0:
315,7,145081,2,0,B|340:51|340:51|390:71,1,103.500001974106,8|0,0:0|0:0,0:0:0:0:
509,170,145295,2,0,B|407:169|407:169|322:235,1,207.000003948212,0|8,0:0|0:0,0:0:0:0:
284,357,145616,1,0,0:0:0:0:
109,301,145724,6,0,P|87:254|90:203,1,103.500001974106,4|0,0:0|0:0,0:0:0:0:
267,155,145938,2,0,P|237:197|191:219,1,103.500001974106,8|0,0:0|0:0,0:0:0:0:
7,65,146152,2,0,P|107:56|178:126,1,207.000003948212,0|8,0:0|0:0,0:0:0:0:
212,316,146474,1,0,0:0:0:0:
417,276,146581,6,0,B|432:226|432:226|422:176,1,103.500001974106,4|0,0:0|0:0,0:0:0:0:
301,327,146795,2,0,B|286:277|286:277|296:227,1,103.500001974106,8|0,0:0|0:0,0:0:0:0:
432,86,147009,2,0,B|332:114|332:114|231:95,1,207.000003948212,0|8,0:0|0:0,0:0:0:0:
143,37,147331,5,0,0:0:0:0:
65,208,147438,1,4,0:0:0:0:
65,208,147491,1,0,0:0:0:0:
65,208,147545,2,0,L|81:317,2,103.500001974106,0|8|0,0:0|0:0|0:0,0:0:0:0:
139,383,147866,5,0,0:0:0:0:
219,139,147974,1,2,0:0:0:0:
261,374,148081,5,8,0:0:0:0:
342,124,148188,1,2,0:0:0:0:
460,283,148295,6,0,L|478:386,1,103.500001974106,4|0,0:0|0:0,0:0:0:0:
325,227,148509,2,0,L|342:125,1,103.500001974106,8|0,0:0|0:0,0:0:0:0:
342,347,148724,2,0,L|136:383,1,207.000003948212,0|8,0:0|0:0,0:0:0:0:
21,236,149045,1,0,0:0:0:0:
74,171,149152,6,0,P|101:215|96:266,1,103.500001974106,4|0,0:0|0:0,0:0:0:0:
102,76,149366,2,0,P|51:76|9:47,1,103.500001974106,8|0,0:0|0:0,0:0:0:0:
171,141,149581,2,0,P|195:96|242:75,1,103.500001974106
331,123,149795,1,8,0:0:0:0:
331,123,149902,1,0,0:0:0:0:
364,253,150009,6,0,L|351:365,1,103.500001974106,4|0,0:0|0:0,0:0:0:0:
455,153,150224,2,0,L|443:50,1,103.500001974106,8|0,0:0|0:0,0:0:0:0:
190,224,150438,5,8,0:0:0:0:
475,289,150545,1,2,0:0:0:0:
283,67,150652,5,8,0:0:0:0:
218,352,150759,1,2,0:0:0:0:
455,153,150866,5,4,0:0:0:0:
