osu file format v14

[General]
AudioFilename: audio.mp3
AudioLeadIn: 0
PreviewTime: 112934
Countdown: 1
SampleSet: Normal
StackLeniency: 0.2
Mode: 0
LetterboxInBreaks: 0
WidescreenStoryboard: 0

[Editor]
DistanceSpacing: 0.1
BeatDivisor: 4
GridSize: 32
TimelineZoom: 3.399999

[Metadata]
Title:Seven Style
TitleUnicode:Seven Style
Artist:Adust Rain
ArtistUnicode:Adust Rain
Creator:Raikozen
Version:Retribution
Source:
Tags:
BeatmapID:2069760
BeatmapSetID:989433

[Difficulty]
HPDrainRate:4.5
CircleSize:4.1
OverallDifficulty:9
ApproachRate:9.6
SliderMultiplier:2.6
SliderTickRate:1

[Events]
//Background and Video events
0,0,"bgg.jpg",0,0
//Break Periods
2,61116,63805
2,105488,112662
//Storyboard Layer 0 (Background)
//Storyboard Layer 1 (Fail)
//Storyboard Layer 2 (Pass)
//Storyboard Layer 3 (Foreground)
//Storyboard Sound Samples

[TimingPoints]
917,214.285714285714,4,1,0,60,1,0
1024,-153.846153846153,4,1,0,60,0,0
1184,-153.846153846153,4,1,0,5,0,0
1238,-153.846153846153,4,1,0,60,0,0
2631,-222.222222222222,4,1,0,60,0,0
6059,-100,4,1,0,60,0,0
7291,-100,4,1,0,5,0,0
7345,-100,4,1,0,60,0,0
8845,-90.9090909090909,4,1,0,60,0,0
9059,-125,4,1,0,60,0,0
9274,-200,4,1,0,60,0,0
11631,-100,4,1,0,60,0,0
12059,-133.333333333333,4,1,0,60,0,0
12916,-90.9090909090909,4,1,0,60,0,0
13077,-90.9090909090909,4,1,0,5,0,0
13131,-90.9090909090909,4,1,0,60,0,0
15059,-100,4,1,0,60,0,0
15488,-76.9230769230769,4,1,0,60,0,0
15702,-100,4,1,0,60,0,0
15916,-133.333333333333,4,1,0,60,0,0
16077,-222.222222222221,4,1,0,60,0,0
16345,-100,4,1,0,60,0,0
20631,-83.3333333333333,4,1,0,60,0,0
21059,-100,4,1,0,60,0,0
21488,-76.9230769230769,4,1,0,60,0,0
21702,-100,4,1,0,60,0,0
21916,-100,4,1,0,60,0,0
23202,-76.9230769230769,4,1,0,60,0,0
23416,-100,4,1,0,60,0,0
24488,-133.333333333333,4,1,0,60,0,0
27059,-222.222222222221,4,1,0,60,0,0
28238,-125,4,1,0,60,0,0
29524,-200,4,1,0,60,0,0
29845,-142.857142857143,4,1,0,60,0,0
30059,-125,4,1,0,60,0,0
30220,-125,4,1,0,5,0,0
30274,-125,4,1,0,60,0,0
33434,-125,4,1,0,5,0,0
33488,-1000,4,1,0,60,0,0
36916,-333.333333333333,4,1,0,60,0,0
39274,-200,4,1,0,60,0,0
39702,-142.857142857143,4,1,0,60,0,0
42756,-142.857142857143,4,1,0,5,0,0
42809,-142.857142857143,4,1,0,60,0,0
43345,-200,4,1,0,60,0,0
43559,-333.333333333334,4,1,0,60,0,0
43774,-100,4,1,0,60,0,0
44202,-100,4,1,0,60,0,0
45274,-76.9230769230769,4,1,0,60,0,0
45595,-200,4,1,0,60,0,0
46345,-333.333333333333,4,1,0,60,0,0
47095,-111.111111111111,4,1,1,60,0,1
47149,-111.111111111111,4,1,0,60,0,1
49934,-111.111111111111,4,1,0,5,0,1
49988,-111.111111111111,4,1,0,60,0,1
52559,-333.333333333333,4,1,0,60,0,1
53952,-100,4,1,0,60,0,1
54006,-100,4,1,0,60,0,1
54649,-100,4,1,0,5,0,1
54702,-100,4,1,0,60,0,1
58291,-100,4,1,0,5,0,1
58345,-100,4,1,0,60,0,1
59416,-333.333333333333,4,1,0,60,0,1
60916,-333.333333333333,4,1,0,60,0,0
64345,-100,4,1,0,60,0,0
67774,-133.333333333333,4,1,0,60,0,0
71202,-95.2380952380951,4,1,0,60,0,0
72059,-117.647058823529,4,1,0,60,0,0
72274,-153.846153846154,4,1,0,60,0,0
72488,-222.222222222222,4,1,0,60,0,0
72702,-400,4,1,0,60,0,0
73024,-153.846153846154,4,1,0,60,0,0
73345,-105.263157894737,4,1,0,60,0,0
73666,-86.9565217391304,4,1,0,60,0,0
75488,-100,4,1,0,60,0,0
76184,-100,4,1,0,5,0,0
76238,-100,4,1,0,60,0,0
76559,-333.333333333333,4,1,0,60,0,0
76988,-166.666666666667,4,1,0,60,0,0
77952,-100,4,1,0,60,0,0
79988,-333.333333333333,4,1,0,60,0,0
80416,-166.666666666667,4,1,0,60,0,0
81381,-133.333333333333,4,1,0,60,0,0
84809,-111.111111111111,4,1,0,60,0,0
88345,-90.9090909090909,4,1,0,60,0,1
92791,-90.9090909090909,4,1,0,5,0,1
92845,-90.9090909090909,4,1,0,60,0,1
97774,-111.111111111111,4,1,0,60,0,1
98095,-142.857142857143,4,1,0,60,0,1
98631,-90.9090909090909,4,1,0,60,0,1
102059,-133.333333333333,4,1,0,60,0,1
103774,-100,4,1,0,60,0,1
104631,-90.9090909090909,4,1,0,60,0,0
113202,-500,4,1,0,60,0,0
113256,-500,4,1,0,5,0,0
113309,-133.333333333333,4,1,0,60,0,0
113845,-90.9090909090909,4,1,0,60,0,0
113952,-90.9090909090909,4,1,1,60,0,1
114006,-90.9090909090909,4,1,0,60,0,1
117166,-125,4,1,0,60,0,1
117220,-90.9090909090909,4,1,0,60,0,1
123274,-181.818181818181,4,1,0,60,0,1
123327,-90.9090909090909,4,1,0,60,0,1
123863,-90.9090909090909,4,1,0,5,0,1
123916,-90.9090909090909,4,1,0,60,0,1
124720,-90.9090909090909,4,1,0,5,0,1
124774,-90.9090909090909,4,1,0,60,0,1
125791,-90.9090909090909,4,1,0,5,0,1
125845,-90.9090909090909,4,1,0,60,0,1
127077,-90.9090909090909,4,1,0,5,0,1
127131,-90.9090909090909,4,1,0,60,0,1
127666,-90.9090909090909,4,1,0,60,0,1
127988,-125,4,1,0,60,0,0
129006,-125,4,1,0,5,0,0
129059,-125,4,1,0,60,0,0
129541,-125,4,1,0,5,0,0
129595,-125,4,1,0,60,0,0
131095,-76.9230769230769,4,1,0,60,0,0
134416,-166.666666666667,4,1,0,60,0,0
134631,-83.3333333333333,4,1,0,60,0,1
138059,-83.3333333333333,4,1,1,60,0,0
138274,-133.333333333333,4,1,0,60,0,0
141381,-133.333333333333,4,1,0,60,0,0
141702,-114.942528735632,4,1,0,60,0,0
143952,-100,4,1,0,60,0,0
144809,-100,4,1,0,60,0,0
150274,-80,4,1,0,60,0,0
150702,-66.6666666666667,4,1,0,60,0,0

[Colours]
Combo1 : 105,73,83
Combo2 : 128,0,64
Combo3 : 166,43,36
Combo4 : 128,128,128

[HitObjects]
0,114,917,5,2,0:0:0:0:
54,9,1024,2,0,L|20:151,1,126.749994197846,10|0,0:0|0:0,0:0:0:0:
59,197,1238,5,10,0:0:0:0:
155,93,1452,5,10,0:0:0:0:
209,295,1666,5,10,0:0:0:0:
292,76,1881,5,10,0:0:0:0:
432,49,1988,1,10,0:0:0:0:
352,0,2095,5,10,0:0:0:0:
381,130,2202,1,10,0:0:0:0:
512,36,2309,5,0,3:0:0:0:
510,44,2416,1,0,3:0:0:0:
508,52,2524,1,0,3:0:0:0:
495,126,2631,6,0,B|400:102|426:184|303:148,1,175.499994644165,6|0,0:0|0:0,0:0:0:0:
276,207,3059,2,0,P|302:253|319:318,1,116.999996429443,2|0,0:0|0:0,0:0:0:0:
63,164,3488,5,2,0:0:0:0:
239,120,3702,2,0,L|52:155,1,175.499994644165,2|0,0:0|0:0,0:0:0:0:
0,210,4131,2,0,L|17:291,1,58.4999982147217,2|0,0:0|0:0,0:0:0:0:
31,340,4345,5,6,0:0:0:0:
262,384,4559,6,0,L|336:378,1,58.4999982147217,2|0,0:0|0:0,0:0:0:0:
177,214,4774,2,0,L|235:218,1,58.4999982147217,2|0,0:0|0:0,0:0:0:0:
41,349,4988,2,0,L|115:343,1,58.4999982147217,2|0,0:0|0:0,0:0:0:0:
381,319,5202,5,2,3:1:0:0:
397,313,5309,1,0,3:1:0:0:
385,308,5416,1,2,3:1:0:0:
393,325,5524,1,0,3:1:0:0:
341,384,5631,5,2,3:1:0:0:
512,162,6059,6,0,P|404:237|384:260,1,130,12|0,0:0|0:0,0:0:0:0:
278,0,6274,2,0,L|298:141,1,130,8|0,0:0|0:0,0:0:0:0:
251,337,6488,5,8,0:0:0:0:
188,230,6595,1,0,0:0:0:0:
186,375,6702,5,8,0:0:0:0:
260,192,6809,1,0,0:0:0:0:
123,331,6916,6,0,B|74:374|74:374|-12:351,1,130,8|0,0:0|0:0,0:0:0:0:
0,133,7131,2,0,B|115:90|92:190|209:136,1,195,8|0,0:0|0:0,0:0:0:0:
193,135,7345,6,0,P|179:62|145:1,1,130,8|0,0:0|0:0,0:0:0:0:
452,0,7559,2,0,P|400:39|363:92,1,130,8|0,0:0|0:0,0:0:0:0:
298,274,7774,5,8,0:0:0:0:
409,156,7881,1,0,0:0:0:0:
264,65,7988,2,0,L|288:208,1,130,8|0,0:0|0:0,0:0:0:0:
490,374,8202,6,0,L|512:246,1,130,8|0,0:0|0:0,0:0:0:0:
298,274,8416,2,0,B|255:312|255:312|102:278,1,195,8|0,0:0|0:0,0:0:0:0:
97,284,8631,5,8,0:0:0:0:
114,379,8738,1,0,0:0:0:0:
0,258,8845,6,0,L|44:106,1,143.000004364014,8|0,0:0|0:0,0:0:0:0:
107,144,9059,2,0,L|137:33,1,104,8|0,0:0|0:0,0:0:0:0:
202,62,9274,2,0,L|223:-10,1,65,8|0,0:0|0:0,0:0:0:0:
288,30,9488,5,8,0:0:0:0:
328,211,9702,1,8,0:0:0:0:
309,43,9917,5,8,0:0:0:0:
343,197,10131,1,8,0:0:0:0:
466,320,10345,5,8,0:0:0:0:
146,249,10559,1,8,0:0:0:0:
448,303,10774,5,8,0:0:0:0:
175,243,10988,1,8,0:0:0:0:
496,162,11202,5,8,3:0:0:0:
486,158,11256,1,0,3:0:0:0:
476,156,11309,1,0,3:0:0:0:
466,158,11363,1,0,3:0:0:0:
437,177,11416,5,8,3:0:0:0:
427,180,11470,1,0,3:0:0:0:
417,180,11524,1,0,3:0:0:0:
407,177,11577,1,0,3:0:0:0:
382,155,11631,6,0,L|369:73,3,65,8|0|0|0,3:0|3:0|3:0|3:0,3:0:0:0:
291,62,11845,2,0,L|313:-18,3,65,8|0|0|0,3:0|3:0|3:0|3:0,3:0:0:0:
177,91,12059,6,0,B|43:185|-77:86|-13:-11|72:-23|103:102,1,390.00001487732
9,321,12916,6,0,B|55:364|55:364|236:336,1,214.500006546021,6|0,0:0|0:0,0:0:0:0:
212,333,13131,6,0,P|228:245|169:208,1,143.000004364014,8|0,0:0|0:0,0:0:0:0:
244,70,13345,2,0,P|159:100|157:169,1,143.000004364014,8|0,0:0|0:0,0:0:0:0:
0,173,13559,2,0,P|68:230|129:198,1,143.000004364014,8|0,0:0|0:0,0:0:0:0:
439,293,13774,6,0,B|308:277|395:201|224:203,1,214.500006546021,2|0,0:0|0:0,0:0:0:0:
247,211,13988,6,0,P|198:289|242:361,1,143.000004364014,8|0,0:0|0:0,0:0:0:0:
281,384,14202,2,0,L|424:368,1,143.000004364014,8|0,0:0|0:0,0:0:0:0:
150,190,14416,2,0,L|-26:170,1,143.000004364014,8|0,0:0|0:0,0:0:0:0:
12,25,14631,6,0,B|57:26|91:11|91:11|129:49|129:49|174:35|230:73,1,214.500006546021,2|0,0:0|0:0,0:0:0:0:
221,70,14845,6,0,L|250:228,1,143.000004364014,8|0,0:0|0:0,0:0:0:0:
423,99,15059,2,0,P|423:19|361:2,1,130,8|0,0:0|0:0,0:0:0:0:
309,26,15274,2,0,P|297:86|346:124,1,130,8|0,0:0|0:0,0:0:0:0:
507,364,15488,6,0,L|336:391,1,168.999992263794,10|0,0:0|0:0,0:0:0:0:
457,218,15702,2,0,L|327:202,1,130,8|0,0:0|0:0,0:0:0:0:
332,321,15916,6,0,L|224:335,1,97.50000371933,8|0,0:0|0:0,0:0:0:0:
345,124,16131,2,0,L|288:114,1,58.4999982147217,8|0,0:0|0:0,0:0:0:0:
512,0,16345,6,0,B|475:45|475:45|336:20,1,195,6|0,0:0|0:0,0:0:0:0:
328,13,16559,6,0,P|257:29|212:106,1,130,8|0,0:0|0:0,0:0:0:0:
21,171,16774,2,0,L|163:148,1,130,8|0,0:0|0:0,0:0:0:0:
130,75,16988,2,0,L|-12:98,1,130,8|0,0:0|0:0,0:0:0:0:
129,384,17202,6,0,B|190:271|229:390|313:231,1,195,6|0,0:0|0:0,0:0:0:0:
285,262,17416,6,0,P|232:226|159:241,1,130,8|0,0:0|0:0,0:0:0:0:
16,384,17631,2,0,P|80:314|91:257,1,130,8|0,0:0|0:0,0:0:0:0:
21,171,17845,2,0,L|240:142,1,195,8|0,0:0|0:0,0:0:0:0:
230,138,18059,5,10,0:0:0:0:
304,55,18166,1,0,0:0:0:0:
227,0,18274,2,0,P|289:76|317:145,1,130,10|0,0:0|0:0,0:0:0:0:
397,277,18488,6,0,B|467:286|467:286|515:216,1,130,10|0,0:0|0:0,0:0:0:0:
479,152,18702,2,0,B|409:143|409:143|361:213,1,130,10|0,0:0|0:0,0:0:0:0:
297,356,18916,5,10,3:1:0:0:
265,281,19024,1,0,3:1:0:0:
201,340,19131,5,10,3:1:0:0:
197,331,19238,1,0,3:0:0:0:
123,360,19345,5,10,3:1:0:0:
103,356,19452,1,8,3:1:0:0:
83,353,19559,1,10,3:1:0:0:
63,350,19666,1,8,3:1:0:0:
0,384,19774,6,0,P|54:303|79:184,1,195,6|0,0:0|0:0,0:0:0:0:
77,193,19988,6,0,B|23:186|23:186|-25:276,1,130,8|0,0:0|0:0,0:0:0:0:
196,359,20202,2,0,L|178:203,1,130,8|0,0:0|0:0,0:0:0:0:
289,114,20416,2,0,L|274:243,1,130,8|0,0:0|0:0,0:0:0:0:
347,384,20631,6,0,B|371:268|442:331|476:179,1,233.999992858887,6|0,0:0|0:0,0:0:0:0:
469,178,20845,6,0,L|458:22,1,155.999995239258,8|0,0:0|0:0,0:0:0:0:
311,20,21059,2,0,L|170:-3,1,130,8|0,0:0|0:0,0:0:0:0:
128,108,21274,2,0,L|-23:132,1,130,8|0,0:0|0:0,0:0:0:0:
48,33,21488,6,0,B|145:58|145:58|171:148|171:148|239:134,1,253.499988395691,6|0,0:0|0:0,0:0:0:0:
244,131,21702,6,0,B|218:269,1,130,8|0,0:0|0:0,0:0:0:0:
1,368,21916,2,0,L|159:340,1,130,8|0,0:0|0:0,0:0:0:0:
336,356,22131,2,0,L|178:328,1,130,8|0,0:0|0:0,0:0:0:0:
86,262,22345,6,0,P|61:187|127:143,1,130,10|0,0:0|0:0,0:0:0:0:
235,22,22559,2,0,P|187:79|94:61,1,130,8|0,0:0|0:0,0:0:0:0:
0,17,22774,6,0,L|142:1,1,130,8|0,0:0|0:0,0:0:0:0:
243,179,22988,2,0,L|101:163,1,130,8|0,0:0|0:0,0:0:0:0:
506,0,23202,6,0,B|351:18|453:128|297:157,1,253.499988395691,6|0,0:0|0:0,0:0:0:0:
312,147,23416,6,0,P|333:216|343:284,1,130,8|0,0:0|0:0,0:0:0:0:
127,353,23631,2,0,B|58:372|58:372|12:313,1,130,8|0,0:0|0:0,0:0:0:0:
41,237,23845,2,0,B|110:218|110:218|156:277,1,130,8|0,0:0|0:0,0:0:0:0:
264,371,24059,6,0,L|242:233,1,130,8|0,0:0|0:0,0:0:0:0:
221,20,24274,2,0,L|190:191,1,130,8|0,0:0|0:0,0:0:0:0:
127,353,24488,6,0,L|148:258,1,97.50000371933,8|0,0:0|0:0,0:0:0:0:
297,67,24702,2,0,L|317:162,1,97.50000371933,8|0,0:0|0:0,0:0:0:0:
6,151,24916,5,8,0:0:0:0:
19,147,25024,1,0,0:0:0:0:
74,16,25131,5,8,0:0:0:0:
86,19,25238,1,0,0:0:0:0:
189,113,25345,6,0,L|84:134,1,97.50000371933,8|0,0:0|0:0,0:0:0:0:
0,0,25559,2,0,L|15:113,1,97.50000371933,8|0,0:0|0:0,0:0:0:0:
20,326,25774,5,8,3:1:0:0:
106,361,25881,1,0,3:1:0:0:
197,331,25988,1,8,3:1:0:0:
226,242,26095,1,0,3:1:0:0:
288,168,26202,5,8,3:1:0:0:
305,171,26309,1,8,3:1:0:0:
322,174,26416,1,8,3:1:0:0:
339,177,26524,1,8,3:1:0:0:
418,137,26631,5,6,0:1:0:0:
9,15,26845,1,8,0:0:0:0:
185,249,27059,6,0,L|174:173,1,58.4999982147217
197,331,27274,1,8,0:0:0:0:
373,49,27488,5,0,0:0:0:0:
97,118,27702,1,8,0:0:0:0:
283,167,27916,6,0,L|290:98,1,58.4999982147217
257,384,28131,1,8,0:0:0:0:
435,266,28238,6,0,B|344:256|344:256|325:289|325:289|227:311,1,208,2|0,0:0|0:0,0:0:0:0:
172,321,28559,5,10,0:0:0:0:
0,118,28774,1,0,0:0:0:0:
74,96,28881,1,0,0:0:0:0:
55,171,28988,1,8,0:0:0:0:
0,0,29202,5,0,0:0:0:0:
199,237,29416,1,8,0:0:0:0:
256,181,29524,6,0,L|238:31,1,130
291,0,29845,2,0,L|406:16,1,90.9999972229005,8|0,0:0|0:0,0:0:0:0:
506,29,30059,6,0,P|424:69|357:147,1,156,6|0,0:0|0:0,0:0:0:0:
370,128,30274,2,0,L|388:244,1,104,8|0,0:0|0:0,0:0:0:0:
459,375,30488,5,0,0:0:0:0:
488,200,30595,1,0,0:0:0:0:
459,375,30702,2,0,L|478:253,1,104,8|0,0:0|0:0,0:0:0:0:
319,304,30916,6,0,B|197:300|250:232|127:229,2,208,0|8|0,0:0|0:0|0:0,0:0:0:0:
254,243,31452,1,0,0:0:0:0:
203,384,31559,2,0,L|187:249,1,104,8|0,0:0|0:0,0:0:0:0:
178,160,31774,6,0,L|162:25,1,104
0,0,31988,2,0,L|220:31,1,208,8|0,0:0|0:0,0:0:0:0:
368,6,32309,1,0,0:0:0:0:
310,57,32416,2,0,L|331:194,1,104,8|0,0:0|0:0,0:0:0:0:
433,384,32631,6,0,B|496:325|496:325|445:204,1,208,0|8,0:0|0:0,0:0:0:0:
480,141,32952,1,0,0:0:0:0:
470,19,33059,6,0,L|492:144,1,104
364,264,33274,2,0,L|397:99,1,156,8|0,0:0|0:0,0:0:0:0:
403,81,33488,6,0,L|389:85,1,13,2|0,0:0|0:0,0:0:0:0:
331,3,33702,2,0,L|318:0,1,13,10|0,0:0|0:0,0:0:0:0:
185,381,33916,5,2,0:0:0:0:
258,338,34024,1,0,0:0:0:0:
199,271,34131,2,0,L|197:289,1,13,10|0,0:0|0:0,0:0:0:0:
5,298,34345,6,0,L|21:293,1,13,2|0,0:0|0:0,0:0:0:0:
44,367,34559,2,0,L|60:362,1,13,10|0,0:0|0:0,0:0:0:0:
103,69,34774,6,0,L|119:74,1,13,2|0,0:0|0:0,0:0:0:0:
142,0,34988,2,0,L|158:5,1,13,10|0,0:0|0:0,0:0:0:0:
319,369,35202,5,2,0:0:0:0:
319,369,35309,1,0,0:0:0:0:
319,369,35416,2,0,L|316:352,1,13,10|0,0:0|0:0,0:0:0:0:
437,19,35631,5,2,0:0:0:0:
437,19,35738,1,0,0:0:0:0:
437,19,35845,2,0,L|434:36,1,13,10|0,0:0|0:0,0:0:0:0:
495,198,36059,5,2,0:0:0:0:
331,215,36166,1,0,0:0:0:0:
390,167,36274,2,0,L|406:170,1,13,10|0,0:0|0:0,0:0:0:0:
154,238,36488,5,2,0:0:0:0:
268,167,36595,1,0,0:0:0:0:
86,182,36702,5,10,0:0:0:0:
252,245,36809,1,0,0:0:0:0:
0,265,36916,6,0,L|55:254,1,38.9999988098145,2|0,0:0|0:0,0:0:0:0:
227,100,37131,1,10,0:0:0:0:
119,0,37238,1,0,0:0:0:0:
154,238,37345,2,0,L|163:292,1,38.9999988098145,2|0,0:0|0:0,0:0:0:0:
203,384,37559,2,0,L|209:345,1,38.9999988098145,10|0,0:0|0:0,0:0:0:0:
259,88,37774,5,2,0:0:0:0:
354,196,37881,1,0,0:0:0:0:
136,149,37988,2,0,L|83:135,1,38.9999988098145,10|0,0:0|0:0,0:0:0:0:
342,41,38202,5,2,0:0:0:0:
301,260,38309,1,0,0:0:0:0:
81,221,38416,2,0,L|27:231,1,38.9999988098145,10|0,0:0|0:0,0:0:0:0:
36,135,38631,5,2,0:0:0:0:
36,135,38738,1,0,0:0:0:0:
13,15,38845,2,0,L|23:69,1,38.9999988098145,10|0,0:0|0:0,0:0:0:0:
192,42,39059,5,2,0:0:0:0:
192,42,39166,1,0,0:0:0:0:
161,227,39274,2,0,L|175:152,1,65,10|0,0:0|0:0,0:0:0:0:
345,270,39488,5,2,0:0:0:0:
345,270,39595,1,0,0:0:0:0:
314,0,39702,2,0,L|326:103,1,90.9999972229005,10|0,0:0|0:0,0:0:0:0:
448,313,39916,5,10,0:0:0:0:
490,13,40024,1,10,0:0:0:0:
448,313,40131,1,10,0:0:0:0:
509,127,40238,6,0,B|397:129|455:190|310:188,1,181.999994445801,6|0,0:0|0:0,0:0:0:0:
276,138,40559,2,0,L|265:36,1,90.9999972229005
12,9,40774,5,10,0:0:0:0:
184,47,40881,1,10,0:0:0:0:
63,171,40988,1,10,0:0:0:0:
85,84,41095,5,2,0:0:0:0:
85,84,41202,6,0,L|102:284,1,181.999994445801,6|0,0:0|0:0,0:0:0:0:
45,317,41524,1,0,0:0:0:0:
173,233,41631,2,0,L|282:220,2,90.9999972229005,8|8|8,0:0|0:0|0:0,0:0:0:0:
45,317,41952,6,0,B|97:370|97:370|237:344,1,181.999994445801,6|0,0:0|0:0,0:0:0:0:
376,325,42274,2,0,L|271:300,1,90.9999972229005
417,260,42488,1,8,0:0:0:0:
280,383,42595,2,0,L|263:230,1,136.499995834351
263,232,42809,5,2,0:0:0:0:
505,107,43024,1,0,0:0:0:0:
505,107,43131,6,0,P|488:29|479:0,1,90.9999972229005,2|0,0:0|0:0,0:0:0:0:
417,66,43345,2,0,P|396:24|379:2,1,65,2|0,0:0|0:0,0:0:0:0:
330,59,43559,2,0,P|303:42|290:38,1,38.9999988098145,2|0,0:0|0:0,0:0:0:0:
226,31,43774,6,0,L|81:42,1,130,4|0,0:0|0:0,0:0:0:0:
5,102,43988,5,10,0:0:0:0:
217,120,44095,1,0,0:0:0:0:
5,102,44202,2,0,P|67:139|102:202,1,130,10|0,0:0|0:0,0:0:0:0:
95,265,44416,5,10,0:0:0:0:
138,21,44524,1,0,0:0:0:0:
95,265,44631,2,0,L|118:118,1,130,10|0,0:0|0:0,0:0:0:0:
310,220,44845,5,10,0:0:0:0:
260,5,44952,1,0,0:0:0:0:
233,192,45059,5,10,0:0:0:0:
330,44,45166,1,0,0:0:0:0:
208,106,45274,6,0,B|307:83|262:155|379:121,1,168.999992263794,10|0,0:0|0:0,0:0:0:0:
506,82,45488,5,8,0:0:0:0:
441,42,45595,2,0,L|463:-40,2,65,2|2|2,0:3|0:3|0:3,0:3:0:0:
379,186,45916,5,8,0:0:0:0:
310,220,46023,2,0,L|324:303,2,65,2|2|2,0:3|0:3|0:3,0:3:0:0:
290,353,46345,6,0,L|132:335,1,155.999995239258,8|8,0:0|0:0,0:0:0:0:
10,379,47095,6,0,P|123:277|172:166,1,233.999992858887,6|0,0:0|0:0,0:0:0:0:
16,131,47416,2,0,P|40:222|70:270,1,116.999996429443,8|0,0:0|0:0,0:0:0:0:
226,53,47631,5,0,0:0:0:0:
86,80,47738,1,0,0:0:0:0:
254,133,47845,2,0,L|277:-5,1,116.999996429443,8|0,0:0|0:0,0:0:0:0:
498,109,48059,5,0,0:0:0:0:
370,144,48166,1,0,0:0:0:0:
401,68,48274,2,0,L|379:201,1,116.999996429443,8|0,0:0|0:0,0:0:0:0:
399,384,48488,5,0,0:0:0:0:
371,282,48595,1,0,0:0:0:0:
499,317,48702,1,8,0:0:0:0:
499,317,48809,6,0,B|365:278|386:374|274:349,1,233.999992858887
89,289,49131,2,0,L|238:271,1,116.999996429443,8|0,0:0|0:0,0:0:0:0:
193,379,49345,5,0,0:0:0:0:
0,340,49452,1,0,0:0:0:0:
50,150,49559,2,0,L|17:281,1,116.999996429443,8|0,0:0|0:0,0:0:0:0:
259,217,49774,6,0,L|232:30,1,175.499994644165
230,23,49988,2,0,L|361:50,1,116.999996429443,8|0,0:0|0:0,0:0:0:0:
508,2,50202,5,0,0:0:0:0:
454,59,50309,2,0,L|480:201,1,116.999996429443,0|8,0:0|0:0,0:0:0:0:
419,379,50524,1,0,0:0:0:0:
506,356,50631,6,0,L|238:315,2,233.999992858887,0|8|0,0:0|0:0|0:0,0:0:0:0:
353,248,51166,1,0,0:0:0:0:
213,377,51274,2,0,L|79:388,1,116.999996429443,8|0,0:0|0:0,0:0:0:0:
1,175,51488,6,0,B|138:161|96:264|234:256,2,233.999992858887,0|8|0,0:0|0:0|0:0,0:0:0:0:
35,264,52024,1,0,0:0:0:0:
158,139,52131,2,0,P|171:86|181:4,1,116.999996429443,8|0,0:0|0:0,0:0:0:0:
80,161,52345,5,4,0:0:0:0:
407,78,52559,6,0,L|364:91,1,38.9999988098145,10|0,0:0|0:0,0:0:0:0:
478,99,52774,2,0,L|510:129,1,38.9999988098145,10|0,0:0|0:0,0:0:0:0:
458,27,52988,2,0,L|468:-16,1,38.9999988098145,10|0,0:0|0:0,0:0:0:0:
356,384,53202,5,10,0:0:0:0:
422,156,53309,1,0,0:0:0:0:
443,269,53416,6,0,L|434:216,1,38.9999988098145,10|0,0:0|0:0,0:0:0:0:
332,60,53631,2,0,L|325:98,1,38.9999988098145,10|0,0:0|0:0,0:0:0:0:
312,175,53845,5,0,0:0:0:0:
287,1,53952,6,0,L|308:280,1,260,6|0,0:0|0:0,0:0:0:0:
290,378,54274,2,0,P|242:334|191:295,1,130,8|0,0:0|0:0,0:0:0:0:
0,300,54488,2,0,B|105:302|49:196|216:221,1,195
185,225,54702,5,8,0:0:0:0:
222,113,54809,1,0,0:0:0:0:
220,305,54916,6,0,L|187:31,1,260,6|8,0:0|0:0,0:0:0:0:
255,0,55238,1,0,0:0:0:0:
76,121,55345,2,0,L|121:-1,1,130
295,87,55559,1,8,0:0:0:0:
0,162,55666,6,0,B|49:209|49:209|250:171,1,260,2|0,0:0|0:0,0:0:0:0:
508,115,55988,2,0,L|351:90,1,130,8|0,0:0|0:0,0:0:0:0:
285,0,56202,2,0,L|317:184,1,130
337,384,56416,2,0,L|359:255,1,130,8|0,0:0|0:0,0:0:0:0:
467,202,56631,6,0,B|305:171|396:271|217:244,1,260,2|8,0:0|0:0,0:0:0:0:
164,188,56952,1,0,0:0:0:0:
234,0,57059,2,0,L|211:127,1,130
166,384,57274,1,8,0:0:0:0:
0,335,57381,6,0,B|158:372|72:257|273:322,1,260,2|0,0:0|0:0,0:0:0:0:
413,204,57702,2,0,P|313:246|304:304,1,130,8|0,0:0|0:0,0:0:0:0:
388,278,57916,2,0,P|398:347|462:390,1,130
512,138,58131,2,0,L|309:109,1,195,8|0,0:0|0:0,0:0:0:0:
305,100,58345,6,0,L|285:-35,1,130
19,103,58559,2,0,L|0:231,1,130,8|0,0:0|0:0,0:0:0:0:
281,179,58774,5,0,0:0:0:0:
113,55,58881,1,0,0:0:0:0:
185,322,58988,1,8,0:0:0:0:
229,121,59095,1,0,0:0:0:0:
118,365,59202,5,6,0:0:0:0:
0,347,59416,6,0,L|54:357,1,38.9999988098145,10|0,0:0|0:0,0:0:0:0:
259,307,59631,2,0,L|298:300,1,38.9999988098145,10|0,0:0|0:0,0:0:0:0:
461,377,59845,2,0,L|515:387,1,38.9999988098145,10|0,0:0|0:0,0:0:0:0:
506,177,60059,5,10,0:0:0:0:
327,243,60166,1,0,0:0:0:0:
416,226,60274,5,10,0:0:0:0:
228,174,60381,1,0,0:0:0:0:
342,156,60488,5,10,0:0:0:0:
170,251,60595,1,0,0:0:0:0:
259,307,60702,5,10,0:0:0:0:
79,171,60809,1,0,0:0:0:0:
63,384,60916,5,6,0:0:0:0:
4,42,64345,6,0,B|51:85|51:85|206:49,1,195,4|0,0:0|0:0,0:0:0:0:
197,46,64559,6,0,L|159:202,1,130,8|0,0:0|0:0,0:0:0:0:
495,104,64774,2,0,L|413:-6,1,130,8|0,0:0|0:0,0:0:0:0:
306,7,64988,2,0,L|335:172,1,130,8|0,0:0|0:0,0:0:0:0:
422,366,65202,6,0,B|445:297|445:297|385:241,1,130,8|0,0:0|0:0,0:0:0:0:
307,276,65416,2,0,B|284:342|284:342|344:401,1,130,8|0,0:0|0:0,0:0:0:0:
439,365,65631,6,0,B|462:296|462:296|402:240,1,130,8|0,0:0|0:0,0:0:0:0:
296,276,65845,2,0,B|273:342|273:342|333:401,1,130,8|0,0:0|0:0,0:0:0:0:
367,321,66059,5,4,0:0:0:0:
505,132,66274,1,8,0:0:0:0:
421,148,66381,1,0,0:0:0:0:
505,132,66488,2,0,L|366:117,1,130,8|0,0:0|0:0,0:0:0:0:
211,13,66702,2,0,L|350:-2,1,130,8|0,0:0|0:0,0:0:0:0:
182,158,66916,5,10,3:1:0:0:
108,183,67024,1,0,3:1:0:0:
81,111,67131,1,10,3:1:0:0:
155,84,67238,1,0,3:1:0:0:
57,277,67345,5,10,3:1:0:0:
41,265,67453,1,10,3:1:0:0:
52,249,67560,1,10,3:1:0:0:
68,260,67667,1,10,3:1:0:0:
9,359,67774,6,0,L|147:340,1,97.50000371933,6|0,0:0|0:0,0:0:0:0:
173,295,67988,1,0,0:0:0:0:
233,363,68095,1,0,0:0:0:0:
239,360,68149,1,0,0:0:0:0:
245,359,68202,2,0,L|274:136,1,195.00000743866,8|0,0:0|0:0,0:0:0:0:
509,77,68631,5,2,0:0:0:0:
456,18,68738,2,0,L|345:33,1,97.50000371933,10|0,0:0|0:0,0:0:0:0:
289,15,68952,1,0,0:0:0:0:
284,14,69006,1,0,0:0:0:0:
279,13,69059,2,0,L|318:237,1,195.00000743866,8|0,0:0|0:0,0:0:0:0:
47,168,69488,5,0,0:0:0:0:
0,112,69595,2,0,L|107:150,1,97.50000371933,10|0,0:0|0:0,0:0:0:0:
175,64,69809,1,0,0:0:0:0:
178,61,69863,1,0,0:0:0:0:
181,57,69916,2,0,L|140:273,1,195.00000743866,8|0,0:0|0:0,0:0:0:0:
460,382,70345,5,0,0:0:0:0:
401,197,70452,1,10,0:0:0:0:
500,245,70559,2,0,L|357:221,1,97.50000371933
347,285,70774,2,0,L|119:308,1,195.00000743866,8|0,0:0|0:0,0:0:0:0:
0,0,71202,6,0,B|42:54|42:54|-2:217,1,204.749993751526,6|0,0:0|0:0,0:0:0:0:
2,201,71416,2,0,P|59:247|144:195,1,136.499995834351,10|0,0:0|0:0,0:0:0:0:
208,45,71631,2,0,P|270:81|281:168,1,136.499995834351,10|0,0:0|0:0,0:0:0:0:
246,363,71845,2,0,P|311:339|351:254,1,136.499995834351,10|0,0:0|0:0,0:0:0:0:
409,29,72059,6,0,L|371:173,1,110.50000210762,8|0,0:0|0:0,0:0:0:0:
497,377,72274,6,0,L|470:258,1,84.4999961318971,8|0,0:0|0:0,0:0:0:0:
503,133,72488,6,0,L|487:202,1,58.4999982147217,8|0,0:0|0:0,0:0:0:0:
409,245,72702,6,0,L|402:207,1,32.5,10|0,0:0|0:0,0:0:0:0:
421,141,72916,5,0,0:0:0:0:
370,315,73024,2,0,L|186:294,1,168.999992263794,10|0,0:0|0:0,0:0:0:0:
63,384,73345,6,0,B|83:225|150:334|167:117,1,246.999993404389,10|0,0:0|0:0,0:3:0:0:
57,0,73666,6,0,B|-15:22|-15:22|12:133,1,149.500002851486,10|0,0:0|0:0,0:0:0:0:
73,73,73881,6,2,L|427:111,1,299.000005702973,10|0,0:0|0:0,0:0:0:0:
512,0,74202,6,0,L|339:23,1,149.500002851486,10|0,0:0|0:0,0:0:0:0:
292,0,74416,1,10,0:0:0:0:
512,108,74524,6,0,B|372:121|486:296|243:297,1,299.000005702973,6|0,0:0|0:0,0:0:0:0:
228,264,74845,2,0,P|213:171|238:76,1,149.500002851486,8|0,0:0|0:0,0:0:0:0:
0,8,75059,5,0,0:0:0:0:
88,47,75166,1,0,0:0:0:0:
0,92,75274,2,0,L|175:61,1,149.500002851486,8|0,0:0|0:0,0:0:0:0:
421,114,75488,5,0,0:0:0:0:
298,24,75595,1,0,0:0:0:0:
372,200,75702,2,0,L|411:50,1,130,8|0,0:0|0:0,0:0:0:0:
422,2,75916,5,0,0:0:0:0:
422,2,76024,2,0,B|315:-14|361:100|208:62,1,195,10|0,0:0|0:0,0:0:0:0:
233,61,76238,5,6,0:0:0:0:
10,383,76559,6,0,L|27:333,1,38.9999988098145,8|0,0:0|0:0,0:0:0:0:
150,37,76774,2,0,L|138:-13,1,38.9999988098145,8|0,0:0|0:0,0:0:0:0:
0,266,76988,6,0,L|107:277,1,77.999997619629,8|0,0:0|0:0,0:0:0:0:
186,368,77202,5,8,0:0:0:0:
193,366,77309,1,0,0:0:0:0:
264,149,77416,5,8,0:0:0:0:
271,151,77523,1,0,0:0:0:0:
314,296,77631,6,0,L|305:211,2,77.999997619629,8|8|8,0:0|0:0|0:0,0:0:0:0:
508,65,77952,6,0,B|356:65|433:143|266:150,1,260,4|0,0:0|0:0,0:0:0:0:
197,116,78274,2,0,P|189:42|253:-17,1,130,8|0,0:0|0:0,0:0:0:0:
0,133,78488,5,0,0:0:0:0:
167,216,78595,1,0,0:0:0:0:
0,133,78702,2,0,P|79:128|135:174,1,130,8|0,0:0|0:0,0:0:0:0:
221,274,78916,6,0,L|493:238,1,260,0|8,0:0|0:0,0:0:0:0:
510,170,79238,1,0,0:0:0:0:
446,0,79345,5,8,0:0:0:0:
446,123,79452,1,8,0:0:0:0:
493,58,79559,1,8,0:0:0:0:
478,239,79666,6,0,B|332:249|414:342|233:349,1,260,4|0,0:0|0:0,0:0:0:0:
182,324,79988,6,0,L|163:271,1,38.9999988098145,10|0,3:1|3:1,3:1:0:0:
25,36,80202,2,0,L|42:-13,1,38.9999988098145,10|0,3:1|3:1,3:1:0:0:
91,62,80416,6,0,L|-12:78,1,77.999997619629,10|0,3:1|3:1,3:1:0:0:
165,20,80631,5,10,3:1:0:0:
174,18,80684,1,0,3:1:0:0:
187,17,80738,1,0,3:1:0:0:
206,20,80791,1,0,3:1:0:0:
225,37,80845,1,10,3:1:0:0:
246,60,80899,1,0,3:1:0:0:
279,72,80952,1,0,3:1:0:0:
322,71,81006,1,0,3:1:0:0:
353,56,81059,2,0,L|370:-27,2,77.999997619629,10|10|10,3:1|3:1|3:1,3:1:0:0:
507,169,81381,6,0,B|392:198|434:114|290:153,1,195.00000743866,6|0,0:0|0:0,0:0:0:0:
271,204,81702,2,0,L|261:318,1,97.50000371933
3,334,81916,5,8,0:0:0:0:
76,360,82024,1,0,0:0:0:0:
146,326,82131,1,0,0:0:0:0:
179,255,82238,1,0,0:0:0:0:
140,187,82345,2,0,L|25:204,2,97.50000371933,0|8|0,0:0|0:0|0:0,0:0:0:0:
0,143,82666,1,0,0:0:0:0:
52,84,82774,5,10,0:0:0:0:
52,84,82881,1,10,0:0:0:0:
52,84,82988,1,10,0:0:0:0:
14,2,83095,6,0,B|49:58|49:58|217:73,1,195.00000743866,6|0,0:0|0:0,0:0:0:0:
243,20,83416,2,0,L|364:5,1,97.50000371933
501,151,83631,1,8,0:0:0:0:
396,109,83738,1,0,0:0:0:0:
436,0,83845,2,0,L|401:133,1,97.50000371933
512,26,84059,5,2,0:0:0:0:
512,270,84273,5,2,0:0:0:0:
402,319,84381,1,2,0:0:0:0:
512,347,84488,2,0,L|391:327,2,97.50000371933,10|10|10,0:0|0:0|0:0,0:0:0:0:
334,378,84809,6,0,B|207:369|285:266|144:249,1,233.999992858887,6|0,0:0|0:0,0:0:0:0:
0,384,85131,2,0,P|74:357|115:298,1,116.999996429443
183,162,85345,6,0,L|168:23,1,116.999996429443,10|0,0:0|0:0,0:0:0:0:
86,0,85559,2,0,L|101:139,1,116.999996429443
255,205,85774,6,0,L|394:190,1,116.999996429443,2|8,0:0|0:0,0:0:0:0:
417,108,85988,2,0,L|278:123,1,116.999996429443
200,384,86202,6,0,P|233:313|280:253,1,116.999996429443,10|0,0:0|0:0,0:0:0:0:
170,0,86416,2,0,P|203:70|250:130,1,116.999996429443
435,231,86631,5,8,0:0:0:0:
435,231,86845,1,8,0:0:0:0:
512,2,87059,5,2,3:0:0:0:
500,0,87113,1,0,3:0:0:0:
485,0,87166,1,0,3:0:0:0:
465,5,87220,1,0,3:0:0:0:
441,24,87274,1,2,3:0:0:0:
425,56,87327,1,0,3:0:0:0:
431,94,87381,1,0,3:0:0:0:
421,136,87434,1,0,3:0:0:0:
397,170,87488,5,2,3:0:0:0:
353,191,87541,1,0,3:0:0:0:
304,180,87595,1,0,3:0:0:0:
272,141,87649,1,0,3:0:0:0:
277,96,87702,2,0,L|294:16,3,58.4999982147217,2|0|0|0,3:0|3:1|3:1|3:1,3:1:0:0:
175,0,87916,6,0,L|194:128,1,116.999996429443,2|0,3:0|3:0,3:0:0:0:
14,382,88345,6,0,P|97:321|176:306,1,143.000004364014,6|0,0:0|0:0,0:0:0:0:
39,5,88559,2,0,P|30:124|-9:205,1,143.000004364014,8|0,0:0|0:0,0:0:0:0:
8,284,88774,5,2,0:0:0:0:
253,199,88881,1,0,0:0:0:0:
52,221,88988,2,0,L|211:250,1,143.000004364014,10|0,0:0|0:0,0:0:0:0:
468,217,89202,6,0,L|289:251,1,143.000004364014
143,2,89416,2,0,B|324:2|224:122|419:111,1,286.000008728028,10|0,0:0|0:0,0:0:0:0:
502,64,89738,1,0,0:0:0:0:
446,0,89845,2,0,L|481:201,1,143.000004364014,10|0,0:0|0:0,0:0:0:0:
512,337,90059,6,0,L|353:315,1,143.000004364014,2|0,0:0|0:0,0:0:0:0:
156,266,90274,2,0,P|220:354|246:412,1,143.000004364014,10|0,0:0|0:0,0:0:0:0:
285,153,90488,1,2,0:0:0:0:
285,153,90595,1,2,0:0:0:0:
285,153,90702,2,0,L|312:4,1,143.000004364014,10|0,0:0|0:0,0:0:0:0:
230,0,90916,6,0,L|203:149,1,143.000004364014,2|0,0:0|0:0,0:0:0:0:
41,355,91131,2,0,P|-14:278|49:209,1,143.000004364014,10|0,0:0|0:0,0:0:0:0:
101,24,91345,2,0,P|108:118|18:145,1,143.000004364014,2|0,0:0|0:0,0:0:0:0:
0,163,91559,2,0,L|171:186,1,143.000004364014,10|0,0:0|0:0,0:0:0:0:
506,191,91774,6,0,P|336:306|266:396,1,286.000008728028,6|8,0:0|0:0,0:0:0:0:
241,277,92095,1,0,0:0:0:0:
289,208,92202,6,0,L|262:67,1,143.000004364014,2|0,0:0|0:0,0:0:0:0:
399,0,92416,2,0,L|372:140,1,143.000004364014,10|0,0:0|0:0,0:0:0:0:
213,355,92631,6,0,B|97:357|151:239|-14:235,1,214.500006546021
23,238,92845,2,0,L|-10:64,1,143.000004364014,10|0,0:0|0:0,0:0:0:0:
128,1,93059,1,0,0:0:0:0:
128,1,93166,1,0,0:0:0:0:
128,1,93274,2,0,L|98:164,1,143.000004364014,10|0,0:0|0:0,0:0:0:0:
198,273,93488,6,0,L|339:239,1,143.000004364014
509,92,93702,2,0,B|350:53|398:163|215:102,2,286.000008728028,10|0|10,0:0|0:0|0:0,0:0:0:0:
420,8,94238,1,0,0:0:0:0:
512,171,94345,6,0,L|474:347,1,143.000004364014,2|0,0:0|0:0,0:0:0:0:
404,364,94559,5,8,3:1:0:0:
268,329,94666,1,0,3:1:0:0:
327,246,94774,5,0,3:1:0:0:
222,269,94881,1,0,3:1:0:0:
180,200,94988,5,10,3:1:0:0:
146,276,95095,1,0,3:1:0:0:
96,212,95202,6,0,L|71:46,1,143.000004364014,6|0,0:0|0:0,0:0:0:0:
267,0,95416,2,0,L|245:141,1,143.000004364014,10|0,0:0|0:0,0:0:0:0:
42,338,95631,5,2,3:1:0:0:
54,346,95684,1,0,3:1:0:0:
79,351,95738,1,2,3:1:0:0:
112,345,95791,1,0,3:1:0:0:
141,315,95845,1,10,3:1:0:0:
169,275,95899,1,0,3:1:0:0:
213,257,95952,1,2,3:1:0:0:
266,264,96006,1,0,3:1:0:0:
302,306,96059,6,0,L|446:318,1,143.000004364014,2|2,0:0|0:0,0:0:0:0:
475,97,96274,1,10,0:0:0:0:
384,151,96381,1,2,0:0:0:0:
497,176,96488,6,0,B|521:153|521:153|498:10,1,143.000004364014,2|0,0:0|0:0,0:0:0:0:
293,0,96702,2,0,B|275:108|275:108|299:131,1,143.000004364014,10|2,0:0|0:0,0:0:0:0:
384,151,96916,6,0,L|86:189,2,286.000008728028,2|10|2,0:0|0:0|0:0,0:0:0:0:
292,237,97452,5,2,0:0:0:0:
512,272,97559,2,0,L|352:248,1,143.000004364014,10|2,0:0|0:0,0:0:0:0:
180,358,97774,5,2,0:0:0:0:
371,327,97881,2,0,L|250:347,1,116.999996429443,2|10,0:0|0:0,0:0:0:0:
38,258,98095,5,2,0:0:0:0:
199,281,98202,2,0,L|101:266,1,90.9999972229005,2|2,0:0|0:0,0:0:0:0:
6,366,98416,5,10,0:0:0:0:
85,353,98524,1,2,0:0:0:0:
6,366,98631,6,0,B|31:333|31:333|14:195,1,143.000004364014,6|0,0:0|0:0,0:0:0:0:
1,7,98845,5,10,0:0:0:0:
71,177,98952,1,2,2:0:0:0:
74,37,99059,5,2,0:0:0:0:
3,140,99166,1,2,2:0:0:0:
137,117,99274,2,0,L|295:94,1,143.000004364014,10|0,0:0|0:0,0:0:0:0:
509,10,99488,5,2,0:0:0:0:
492,18,99595,1,2,0:0:0:0:
466,60,99702,1,10,0:0:0:0:
489,137,99809,1,2,0:0:0:0:
463,233,99916,2,0,L|288:259,1,143.000004364014,2|2,0:0|0:0,0:0:0:0:
65,363,100131,2,0,L|240:389,1,143.000004364014,10|2,0:0|0:0,0:0:0:0:
383,165,100345,5,2,0:0:0:0:
323,2,100452,2,0,L|299:175,1,143.000004364014,2|8,0:0|0:0,0:0:0:0:
5,155,100666,1,2,0:0:0:0:
59,214,100774,1,2,0:0:0:0:
87,53,100881,1,2,0:0:0:0:
0,269,100988,2,0,L|144:242,1,143.000004364014,10|0,0:0|0:0,0:0:0:0:
305,208,101202,5,2,0:0:0:0:
266,384,101309,1,2,0:0:0:0:
383,165,101416,5,10,0:0:0:0:
418,282,101524,1,2,0:0:0:0:
403,85,101631,5,2,0:0:0:0:
489,123,101738,1,2,0:0:0:0:
342,21,101845,6,0,L|493:-2,1,143.000004364014,10|0,0:0|0:0,0:0:0:0:
244,0,102059,6,0,B|145:27|145:27|124:108|124:108|130:122|130:122|102:194|102:194|-19:222,1,390.00001487732,6|8,0:0|0:0,0:0:0:0:
48,370,102595,2,0,L|159:386,1,97.50000371933,0|0,3:0|3:0,3:0:0:0:
240,258,102809,1,0,3:0:0:0:
240,258,102863,1,0,3:0:0:0:
240,258,102916,6,0,L|222:371,1,97.50000371933,0|0,3:0|3:0,3:0:0:0:
505,371,103131,5,2,0:0:0:0:
419,353,103238,1,2,0:0:0:0:
478,288,103345,5,10,0:0:0:0:
339,319,103452,1,2,0:0:0:0:
508,215,103559,6,2,L|382:179,1,97.50000371933
252,0,103774,6,0,L|280:280,1,260,14|0,0:0|0:0,0:0:0:0:
97,253,104095,1,8,0:0:0:0:
97,253,104202,6,0,P|156:182|235:181,1,130,2|0,0:0|0:0,0:0:0:0:
99,342,104416,2,0,P|23:301|26:207,1,130,10|0,0:0|0:0,0:0:0:0:
24,186,104631,5,14,0:0:0:0:
477,207,113202,6,0,L|463:210,1,13,0|0,3:0|3:0,3:0:0:0:
423,144,113309,1,0,3:0:0:0:
423,144,113416,6,0,L|441:251,1,97.50000371933,0|0,3:0|3:0,3:0:0:0:
356,384,113631,6,0,L|291:373,1,48.750001859665,0|0,3:0|3:0,3:0:0:0:
179,280,113738,2,0,L|114:289,1,48.750001859665,0|0,3:0|3:0,3:0:0:0:
36,369,113845,1,4,3:0:0:0:
36,369,113899,1,0,3:0:0:0:
36,369,113952,6,0,B|72:215|181:299|195:113,1,286.000008728028,6|0,0:0|0:0,0:0:0:0:
57,0,114274,2,0,P|85:94|140:173,1,143.000004364014,10|0,0:0|0:0,0:0:0:0:
256,278,114488,5,0,0:0:0:0:
302,18,114595,1,0,0:0:0:0:
251,295,114702,1,8,0:0:0:0:
512,97,114809,6,0,B|477:157|477:157|233:180,1,286.000008728028
3,229,115131,2,0,P|58:170|144:108,1,143.000004364014,10|0,0:0|0:0,0:0:0:0:
140,0,115345,2,0,P|184:103|191:176,1,143.000004364014,2|0,0:0|0:0,0:0:0:0:
53,288,115559,5,10,0:0:0:0:
0,71,115666,1,0,0:0:0:0:
130,311,115774,6,0,B|175:365|175:365|395:321,1,286.000008728028,2|8,0:0|0:0,0:0:0:0:
512,115,116095,2,0,P|418:165|401:239,1,143.000004364014,2|0,0:0|0:0,0:0:0:0:
491,269,116309,5,0,0:0:0:0:
305,0,116416,2,0,B|319:92|319:92|315:106|315:106|344:252,1,214.500006546021,10|0,0:0|0:0,0:0:0:0:
340,225,116631,6,0,P|257:254|195:182,1,143.000004364014
0,121,116845,2,0,L|150:147,1,143.000004364014,8|0,0:0|0:0,0:0:0:0:
211,216,117059,1,2,0:0:0:0:
245,137,117166,2,0,P|230:79|195:21,1,104,2|8,0:0|0:0,0:0:0:0:
167,331,117381,1,0,0:0:0:0:
167,331,117434,1,0,0:0:0:0:
167,331,117488,6,0,B|308:361|260:287|373:304,1,214.500006546021,2|0,0:0|0:0,0:0:0:0:
383,311,117702,6,0,L|437:161,1,143.000004364014,10|0,0:0|0:0,0:0:0:0:
405,0,117916,2,0,B|311:26|311:26|339:213,1,286.000008728028,2|8,0:0|0:0,0:0:0:0:
401,80,118238,1,0,0:0:0:0:
236,0,118345,6,0,B|121:7|193:120|68:130,1,214.500006546021,2|0,0:0|0:0,0:0:0:0:
63,129,118559,6,0,P|19:61|35:-25,1,143.000004364014,10|0,0:0|0:0,0:0:0:0:
256,193,118774,2,0,B|151:208|151:208|149:214|149:214|23:230,1,214.500006546021,2|0,0:0|0:0,0:0:0:0:
33,235,118988,2,0,B|103:247|103:247|136:337,1,143.000004364014,8|0,0:0|0:0,0:0:0:0:
76,384,119202,5,10,3:1:0:0:
83,375,119309,1,0,3:1:0:0:
226,384,119416,5,10,3:1:0:0:
222,373,119524,1,0,3:1:0:0:
336,328,119631,5,10,3:1:0:0:
329,322,119738,1,0,3:1:0:0:
397,272,119845,5,10,3:1:0:0:
392,269,119952,1,0,3:1:0:0:
412,153,120059,5,10,3:1:0:0:
412,153,120166,1,0,3:1:0:0:
350,14,120274,5,10,3:1:0:0:
350,14,120381,1,0,3:1:0:0:
312,92,120488,5,10,3:1:0:0:
312,92,120541,1,0,3:1:0:0:
312,92,120595,2,0,P|246:122|208:117,1,71.5000021820069,0|0,3:1|3:1,3:1:0:0:
212,52,120702,1,10,3:1:0:0:
186,38,120756,1,0,3:1:0:0:
159,28,120809,1,6,3:1:0:0:
130,27,120863,1,0,3:1:0:0:
101,31,120916,6,0,B|32:80|32:80|75:308,1,286.000008728028,0|8,0:0|0:0,0:0:0:0:
235,384,121238,1,0,0:0:0:0:
135,189,121345,6,0,P|192:280|206:353,1,143.000004364014,2|0,0:0|0:0,0:0:0:0:
312,92,121559,1,8,0:0:0:0:
238,129,121666,1,0,0:0:0:0:
238,129,121720,1,0,0:0:0:0:
238,129,121774,6,0,B|431:149|302:246|504:259,1,286.000008728028,2|8,0:0|0:0,0:0:0:0:
494,34,122095,1,0,0:0:0:0:
457,105,122202,6,0,L|304:125,1,143.000004364014,2|0,0:0|0:0,0:0:0:0:
0,0,122416,2,0,L|153:20,1,143.000004364014,8|0,0:0|0:0,0:0:0:0:
162,10,122577,1,0,0:0:0:0:
162,10,122631,6,0,P|110:98|89:160,1,143.000004364014,2|0,0:0|0:0,0:0:0:0:
238,315,122845,2,0,P|210:249|171:189,1,143.000004364014,10|0,0:0|0:0,0:0:0:0:
74,283,123059,5,2,0:0:0:0:
253,168,123166,1,0,0:0:0:0:
0,209,123274,2,0,L|-12:133,1,71.5000021820069,10|0,0:0|0:0,0:0:0:0:
130,365,123488,6,0,L|-15:387,1,143.000004364014,2|0,0:0|0:0,0:0:0:0:
87,176,123702,2,0,B|221:168|159:283|330:250,1,214.500006546021,10|0,0:0|0:0,0:0:0:0:
290,253,123916,6,0,P|334:144|334:84,1,143.000004364014
233,0,124131,1,10,0:0:0:0:
253,168,124238,1,0,0:0:0:0:
439,25,124345,6,0,L|270:60,1,143.000004364014,2|0,0:0|0:0,0:0:0:0:
0,0,124559,2,0,B|26:90|26:90|149:109,1,214.500006546021,10|0,0:0|0:0,0:0:0:0:
166,112,124774,6,0,P|233:34|229:-12,1,143.000004364014,2|0,0:0|0:0,0:0:0:0:
0,211,124988,2,0,L|171:188,1,143.000004364014,10|0,0:0|0:0,0:0:0:0:
464,144,125202,6,0,P|355:196|312:254,1,143.000004364014,2|0,0:0|0:0,0:0:0:0:
244,384,125416,1,10,0:0:0:0:
141,191,125524,6,0,B|244:197|244:197|312:351|312:351|443:367,1,357.500010910034
409,364,125845,2,0,P|447:263|449:197,1,143.000004364014,10|0,0:0|0:0,0:0:0:0:
422,59,126059,5,2,0:0:0:0:
18,21,126274,5,8,0:0:0:0:
28,14,126381,1,0,0:0:0:0:
65,7,126488,1,8,0:0:0:0:
134,29,126595,1,0,0:0:0:0:
165,110,126702,1,8,0:0:0:0:
244,176,126809,1,0,0:0:0:0:
362,192,126916,6,0,L|94:223,1,214.500006546021,10|0,0:0|0:0,0:0:0:0:
133,215,127131,2,0,P|88:153|92:62,1,143.000004364014,10|0,0:0|0:0,0:0:0:0:
273,64,127345,5,10,0:0:0:0:
236,355,127452,1,10,0:0:0:0:
274,51,127559,1,10,0:0:0:0:
512,261,127666,6,0,B|467:314|467:314|248:280,1,286.000008728028,6|0,0:0|0:0,0:0:0:0:
0,384,127988,2,0,L|120:367,1,104
127,141,128202,5,8,0:0:0:0:
57,203,128309,1,0,0:0:0:0:
158,216,128416,2,0,L|134:78,1,104
274,84,128631,5,0,0:0:0:0:
335,35,128738,1,0,0:0:0:0:
256,4,128845,2,0,B|275:113|210:70|244:198,1,156
242,171,129059,5,8,0:0:0:0:
391,251,129166,2,0,L|255:220,1,104
0,283,129381,6,0,B|112:273|112:273|138:317,1,156
142,329,129595,6,0,L|165:201,1,104,0|2,0:0|0:0,0:0:0:0:
179,138,129809,1,0,0:0:0:0:
214,349,129916,6,0,B|354:317|287:415|417:382,1,208,10|2,0:0|0:0,0:0:0:0:
373,309,130238,1,0,0:0:0:0:
373,309,130345,6,0,P|367:257|358:206,2,104,2|8|0,0:0|0:0|0:0,0:0:0:0:
286,138,130666,1,2,0:0:0:0:
477,189,130774,5,10,0:0:0:0:
276,145,130881,1,10,0:0:0:0:
490,193,130988,1,10,0:0:0:0:
114,384,131095,6,0,B|154:185|240:332|271:40,1,337.999984527589,6|0,0:0|0:0,0:0:0:0:
241,0,131416,2,0,B|158:34|158:34|144:137,1,168.999992263794,8|0,0:0|0:0,0:0:0:0:
388,288,131631,5,0,0:0:0:0:
353,122,131738,1,0,0:0:0:0:
471,314,131845,2,0,L|273:298,1,168.999992263794,8|0,0:0|0:0,0:0:0:0:
34,384,132059,5,0,0:0:0:0:
184,260,132166,1,0,0:0:0:0:
0,183,132274,2,0,P|64:260|91:345,1,168.999992263794,8|0,0:0|0:0,0:0:0:0:
220,353,132488,5,0,0:0:0:0:
259,148,132595,1,0,0:0:0:0:
184,260,132702,2,0,L|365:228,1,168.999992263794,8|0,0:0|0:0,0:0:0:0:
510,201,132916,5,4,0:0:0:0:
445,35,133131,5,8,3:1:0:0:
457,31,133238,1,0,3:1:0:0:
388,289,133345,5,8,3:1:0:0:
399,286,133452,1,0,3:1:0:0:
259,148,133559,5,8,3:1:0:0:
512,109,133666,1,0,3:1:0:0:
202,86,133774,5,8,3:1:0:0:
382,164,133881,1,0,3:1:0:0:
144,161,133988,5,8,3:1:0:0:
311,73,134095,1,0,3:1:0:0:
57,136,134202,5,8,3:1:0:0:
171,238,134309,1,0,3:1:0:0:
202,86,134416,2,0,L|214:-2,1,77.999997619629,8|8,3:1|3:1,3:1:0:0:
0,278,134631,6,0,B|156:235|83:385|283:347,1,311.999990478516,4|8,0:0|0:0,0:0:0:0:
434,29,135059,5,0,0:0:0:0:
347,138,135166,1,0,0:0:0:0:
508,26,135274,2,0,P|394:14|302:47,1,155.999995239258,8|0,0:0|0:0,0:0:0:0:
211,301,135488,6,0,B|283:250|283:250|254:9,1,311.999990478516,0|8,0:0|0:0,0:0:0:0:
0,212,135809,1,0,0:0:0:0:
0,212,135916,6,0,P|71:182|93:100,1,155.999995239258
182,107,136131,2,0,P|106:28|26:63,1,155.999995239258,8|0,0:0|0:0,0:0:0:0:
2,81,136345,5,8,0:0:0:0:
249,384,136559,5,8,0:0:0:0:
251,0,136774,5,8,0:0:0:0:
8,304,136988,5,8,0:0:0:0:
380,177,137202,5,8,3:1:0:0:
338,182,137274,1,0,3:1:0:0:
309,212,137345,1,0,3:1:0:0:
287,247,137416,1,8,3:1:0:0:
250,267,137488,1,0,3:1:0:0:
208,267,137559,1,0,3:1:0:0:
171,247,137631,2,0,L|160:99,1,103.999996826172,8|0,3:1|3:1,3:1:0:0:
104,384,138059,5,4,0:0:0:0:
20,318,138166,1,0,0:0:0:0:
181,378,138274,2,0,L|297:358,1,97.50000371933,8|0,0:0|0:0,0:0:0:0:
456,245,138488,5,0,0:0:0:0:
372,293,138595,1,0,0:0:0:0:
499,315,138702,2,0,L|481:202,1,97.50000371933,8|0,0:0|0:0,0:0:0:0:
512,68,138916,6,0,P|468:122|453:170,1,97.50000371933
263,0,139131,2,0,P|299:59|307:109,1,97.50000371933,8|0,0:0|2:0,2:0:0:0:
309,200,139345,6,0,L|340:-1,1,195.00000743866,0|8,0:0|0:0,0:0:0:0:
232,71,139666,1,0,0:0:0:0:
232,71,139774,6,0,P|147:120|127:144,1,97.50000371933
0,0,139988,2,0,P|65:72|77:101,1,97.50000371933,8|0,0:0|0:0,0:0:0:0:
41,330,140202,5,0,0:0:0:0:
82,176,140309,1,0,0:0:0:0:
37,343,140417,1,8,0:0:0:0:
0,184,140524,6,0,B|36:224|36:224|196:205,1,195.00000743866
233,155,140845,2,0,P|294:186|300:251,1,97.50000371933,8|0,0:0|0:0,0:0:0:0:
207,363,141059,1,0,0:0:0:0:
207,363,141166,2,0,P|245:306|303:299,1,97.50000371933,0|8,0:0|0:0,0:0:0:0:
510,312,141381,6,0,B|475:368|475:368|312:345,1,195.00000743866,4|0,0:0|0:0,0:0:0:0:
431,279,141702,2,0,L|405:139,1,113.100000949173,8|0,0:0|0:0,0:0:0:0:
437,27,141916,1,0,0:0:0:0:
511,69,142024,2,0,L|363:49,1,113.100000949173,0|8,0:0|0:0,0:0:0:0:
168,6,142238,6,0,P|257:83|316:212,1,226.200001898346
184,316,142559,2,0,L|222:155,1,113.100000949173,8|0,0:0|0:0,0:0:0:0:
382,50,142774,2,0,L|407:163,1,113.100000949173
512,357,142988,1,8,0:0:0:0:
512,357,143095,6,0,L|234:382,1,226.200001898346
0,384,143416,2,0,P|77:355|124:320,1,113.100000949173,8|0,0:0|0:0,0:0:0:0:
23,115,143631,2,0,P|46:201|72:259,1,113.100000949173
143,249,143845,1,8,0:0:0:0:
204,0,143952,6,0,B|151:131|284:100|211:265,1,260,6|0,0:0|0:0,0:0:0:0:
177,384,144274,2,0,P|268:265|395:286,1,260,14|0,0:0|0:0,0:0:0:0:
434,309,144595,5,0,0:0:0:0:
284,343,144702,1,8,0:0:0:0:
512,164,144809,6,0,B|471:215|471:215|224:160,1,260,6|0,0:0|0:0,0:0:0:0:
40,71,145131,2,0,P|123:27|165:-41,1,130,8|0,0:0|0:0,0:0:0:0:
167,163,145345,2,0,P|218:225|239:294,1,130
419,68,145559,1,8,0:0:0:0:
419,68,145666,6,0,B|295:136|326:20|159:90,1,260
12,378,145988,2,0,B|63:346|63:346|46:223,1,130,8|0,0:0|0:0,0:0:0:0:
38,146,146202,2,0,L|200:167,1,130
94,71,146416,1,8,0:0:0:0:
180,254,146524,6,0,B|251:211|251:211|229:20,1,260
356,0,146845,2,0,L|323:153,1,130,8|0,0:0|0:0,0:0:0:0:
512,137,147059,2,0,P|458:186|365:147,1,130
433,99,147274,1,8,0:0:0:0:
433,99,147381,6,0,L|162:134,1,260,6|0,0:0|0:0,0:0:0:0:
8,72,147702,2,0,B|83:13|83:13|13:200,1,260,14|0,0:0|0:0,0:0:0:0:
126,373,148024,2,0,L|109:219,1,130,2|8,0:0|0:0,0:0:0:0:
2,280,148238,6,0,B|144:218|108:357|291:296,1,260,6|0,0:0|0:0,0:0:0:0:
454,384,148559,2,0,L|279:358,1,130,8|0,0:0|0:0,0:0:0:0:
295,138,148774,2,0,L|318:300,1,130
394,259,148988,1,8,0:0:0:0:
219,166,149095,6,0,B|171:217|171:217|41:190|41:190|30:128,1,260
33,3,149416,2,0,P|96:59|110:153,1,130,8|0,0:0|0:0,0:0:0:0:
0,384,149631,2,0,P|46:308|122:268,1,130
370,301,149845,2,0,P|290:283|222:212,1,130,8|0,0:0|0:0,0:0:0:0:
188,86,150059,5,2,0:0:0:0:
188,86,150166,1,0,0:0:0:0:
398,0,150274,2,0,L|212:32,1,162.5,10|2,0:0|0:0,0:0:0:0:
173,244,150488,5,2,0:0:0:0:
173,244,150595,1,0,0:0:0:0:
0,141,150702,2,0,L|220:171,1,195.00000743866,14|0,0:0|0:0,0:0:0:0:
512,219,150916,5,12,0:0:0:0:
