osu file format v14

[General]
AudioFilename: audio.mp3
AudioLeadIn: 0
PreviewTime: 201277
Countdown: 0
SampleSet: Soft
StackLeniency: 0.4
Mode: 3
LetterboxInBreaks: 0
SpecialStyle: 0
WidescreenStoryboard: 1

[Editor]
Bookmarks: 34813,45789,102130,185545,192569,196082,212472,215984,217448,220374,220960,252277
DistanceSpacing: 1.1
BeatDivisor: 4
GridSize: 4
TimelineZoom: 2.100002

[Metadata]
Title:Misery Song
TitleUnicode:Misery Song
Artist:Adust Rain
ArtistUnicode:Adust Rain
Creator:[LS]Yunxmi
Version:Affliction
Source:
Tags:Judgement of the sun japanese rock j-rock okogeeechann kissssy123 menikichi shoota jrock marathon rag Antipole track 3 metal M3-2017秋 M3-2017 Autumn Fall 3rd EP 秀太
BeatmapID:4068081
BeatmapSetID:1962820

[Difficulty]
HPDrainRate:8.5
CircleSize:4
OverallDifficulty:8.5
ApproachRate:9.4
SliderMultiplier:1.6
SliderTickRate:1

[Events]
//Background and Video events
0,0,"BG.jpg",0,0
//Break Periods
//Storyboard Layer 0 (Background)
//Storyboard Layer 1 (Fail)
//Storyboard Layer 2 (Pass)
//Storyboard Layer 3 (Foreground)
//Storyboard Layer 4 (Overlay)
//Storyboard Sound Samples

[TimingPoints]
570,292.682926829268,4,2,1,70,1,0
61448,-100,4,2,1,70,0,1
94228,-100,4,2,1,70,0,0
98911,-100,4,2,1,70,0,1
103594,-100,4,2,1,70,0,0
136374,-100,4,2,1,70,0,1
169155,-100,4,2,1,70,0,0
206618,-100,4,2,1,70,0,1
234716,-100,4,2,1,70,0,0
239399,-100,4,2,1,70,0,1
244082,-100,4,2,1,70,0,0

[HitObjects]
64,192,570,5,0,0:0:0:0:
192,192,716,1,0,0:0:0:0:
448,192,862,1,0,0:0:0:0:
64,192,1009,1,0,0:0:0:0:
320,192,1082,1,0,0:0:0:0:
192,192,1155,1,0,0:0:0:0:
448,192,1155,1,0,0:0:0:0:
320,192,1301,1,0,0:0:0:0:
448,192,1448,1,0,0:0:0:0:
64,192,1594,1,0,0:0:0:0:
192,192,1667,1,0,0:0:0:0:
320,192,1740,1,0,0:0:0:0:
448,192,1740,1,0,0:0:0:0:
192,192,1887,1,0,0:0:0:0:
64,192,2033,1,0,0:0:0:0:
320,192,2179,1,0,0:0:0:0:
192,192,2252,1,0,0:0:0:0:
64,192,2326,1,0,0:0:0:0:
448,192,2326,1,0,0:0:0:0:
320,192,2472,1,0,0:0:0:0:
64,192,2618,1,0,0:0:0:0:
192,192,2618,1,0,0:0:0:0:
320,192,2765,1,0,0:0:0:0:
448,192,2838,1,0,0:0:0:0:
64,192,2911,1,0,0:0:0:0:
192,192,2911,1,0,0:0:0:0:
320,192,3057,1,0,0:0:0:0:
448,192,3204,1,0,0:0:0:0:
64,192,3350,1,0,0:0:0:0:
192,192,3496,1,0,0:0:0:0:
320,192,3496,1,0,0:0:0:0:
448,192,3643,1,0,0:0:0:0:
64,192,3789,1,0,0:0:0:0:
448,192,3935,1,0,0:0:0:0:
320,192,4009,1,0,0:0:0:0:
64,192,4082,1,0,0:0:0:0:
192,192,4082,1,0,0:0:0:0:
448,192,4228,1,0,0:0:0:0:
192,192,4301,1,0,0:0:0:0:
320,192,4301,1,0,0:0:0:0:
64,192,4521,1,0,0:0:0:0:
192,192,4594,1,0,0:0:0:0:
320,192,4667,1,0,0:0:0:0:
448,192,4667,1,0,0:0:0:0:
64,192,4813,1,0,0:0:0:0:
192,192,4960,1,0,0:0:0:0:
320,192,4960,1,0,0:0:0:0:
448,192,5252,1,0,0:0:0:0:
192,192,5399,1,0,0:0:0:0:
64,192,5545,1,0,0:0:0:0:
448,192,5691,1,0,0:0:0:0:
320,192,5765,1,0,0:0:0:0:
64,192,5838,1,0,0:0:0:0:
192,192,5838,1,0,0:0:0:0:
320,192,5984,1,0,0:0:0:0:
192,192,6130,1,0,0:0:0:0:
448,192,6277,1,0,0:0:0:0:
64,192,6350,1,0,0:0:0:0:
192,192,6423,1,0,0:0:0:0:
320,192,6569,1,0,0:0:0:0:
64,192,6716,1,0,0:0:0:0:
448,192,6862,1,0,0:0:0:0:
320,192,6935,1,0,0:0:0:0:
64,192,7009,1,0,0:0:0:0:
192,192,7009,1,0,0:0:0:0:
320,192,7155,1,0,0:0:0:0:
192,192,7301,1,0,0:0:0:0:
448,192,7301,1,0,0:0:0:0:
64,192,7448,1,0,0:0:0:0:
192,192,7521,1,0,0:0:0:0:
448,192,7594,1,0,0:0:0:0:
320,192,7740,1,0,0:0:0:0:
64,192,7887,1,0,0:0:0:0:
192,192,8033,1,0,0:0:0:0:
320,192,8179,1,0,0:0:0:0:
448,192,8179,1,0,0:0:0:0:
192,192,8326,1,0,0:0:0:0:
64,192,8472,1,0,0:0:0:0:
448,192,8472,1,0,0:0:0:0:
320,192,8618,1,0,0:0:0:0:
320,192,9057,1,0,0:0:0:70:LR_Cymbal.wav
448,192,9057,1,0,0:0:0:0:
64,192,9350,1,8,0:0:0:0:
192,192,9350,1,0,0:0:0:0:
448,192,9350,1,0,0:0:0:0:
192,192,9496,1,8,0:0:0:0:
320,192,9496,1,0,0:0:0:0:
448,192,9496,1,0,0:0:0:0:
64,192,9643,1,8,0:0:0:0:
192,192,9643,1,0,0:0:0:0:
320,192,9643,1,0,0:0:0:0:
64,192,9789,128,2,10082:0:0:0:0:
320,192,9789,1,4,0:0:0:0:
448,192,9789,128,0,10082:0:0:0:0:
192,192,10082,1,2,0:0:0:0:
320,192,10082,1,0,0:0:0:0:
64,192,10228,1,8,0:0:0:0:
320,192,10228,1,0,0:0:0:0:
448,192,10228,1,0,0:0:0:0:
192,192,10374,1,0,0:0:0:0:
64,192,10448,1,8,0:0:0:0:
448,192,10448,1,0,0:0:0:0:
192,192,10521,1,2,0:0:0:0:
320,192,10521,1,0,0:0:0:0:
320,192,10667,1,2,0:0:0:0:
448,192,10667,1,0,0:0:0:0:
64,192,10813,1,8,0:0:0:0:
192,192,10813,1,0,0:0:0:0:
448,192,10813,1,0,0:0:0:0:
64,192,10960,1,2,0:0:0:0:
192,192,10960,1,0,0:0:0:0:
448,192,11106,1,0,0:0:0:0:
64,192,11252,1,2,0:0:0:0:
320,192,11252,1,0,0:0:0:0:
192,192,11399,1,8,0:0:0:0:
320,192,11399,1,0,0:0:0:0:
448,192,11399,1,0,0:0:0:0:
64,192,11545,1,0,0:0:0:0:
192,192,11618,1,8,0:0:0:0:
320,192,11618,1,0,0:0:0:0:
64,192,11691,1,2,0:0:0:0:
448,192,11691,1,0,0:0:0:0:
192,192,11838,1,2,0:0:0:0:
320,192,11838,1,0,0:0:0:0:
64,192,11984,1,8,0:0:0:0:
320,192,11984,1,0,0:0:0:0:
448,192,11984,1,0,0:0:0:0:
64,192,12130,128,2,12423:0:0:0:0:
192,192,12130,128,4,12423:0:0:0:0:
448,192,12130,1,0,0:0:0:0:
320,192,12423,1,2,0:0:0:0:
448,192,12423,1,0,0:0:0:0:
64,192,12569,1,8,0:0:0:0:
192,192,12569,1,0,0:0:0:0:
448,192,12569,1,0,0:0:0:0:
320,192,12716,1,0,0:0:0:0:
64,192,12789,1,8,0:0:0:0:
448,192,12789,1,0,0:0:0:0:
192,192,12862,1,2,0:0:0:0:
320,192,12862,1,0,0:0:0:0:
64,192,13009,1,2,0:0:0:0:
448,192,13009,1,0,0:0:0:0:
64,192,13155,1,8,0:0:0:0:
192,192,13155,1,0,0:0:0:0:
448,192,13155,1,0,0:0:0:0:
192,192,13301,1,2,0:0:0:0:
320,192,13301,1,0,0:0:0:0:
64,192,13448,1,0,0:0:0:0:
320,192,13594,1,2,0:0:0:0:
448,192,13594,1,0,0:0:0:0:
64,192,13740,1,8,0:0:0:0:
192,192,13740,1,0,0:0:0:0:
448,192,13740,1,0,0:0:0:0:
320,192,13887,1,0,0:0:0:0:
64,192,13960,1,8,0:0:0:0:
192,192,13960,1,0,0:0:0:0:
320,192,14033,1,2,0:0:0:0:
448,192,14033,1,0,0:0:0:0:
64,192,14179,1,2,0:0:0:0:
448,192,14179,1,0,0:0:0:0:
64,192,14326,1,8,0:0:0:0:
192,192,14326,1,0,0:0:0:0:
320,192,14326,1,0,0:0:0:0:
192,192,14472,1,2,0:0:0:0:
320,192,14472,128,4,14765:0:0:0:0:
448,192,14472,128,0,14765:0:0:0:0:
64,192,14765,1,2,0:0:0:0:
192,192,14765,1,0,0:0:0:0:
192,192,14911,1,8,0:0:0:0:
320,192,14911,1,0,0:0:0:0:
448,192,14911,1,0,0:0:0:0:
64,192,15057,1,0,0:0:0:0:
192,192,15130,1,8,0:0:0:0:
320,192,15130,1,0,0:0:0:0:
64,192,15204,1,2,0:0:0:0:
448,192,15204,1,0,0:0:0:0:
320,192,15350,1,2,0:0:0:0:
448,192,15350,1,0,0:0:0:0:
64,192,15496,1,8,0:0:0:0:
192,192,15496,1,0,0:0:0:0:
320,192,15496,1,0,0:0:0:0:
64,192,15643,1,2,0:0:0:0:
448,192,15643,1,0,0:0:0:0:
192,192,15789,1,0,0:0:0:0:
320,192,15935,1,2,0:0:0:0:
448,192,15935,1,0,0:0:0:0:
64,192,16082,1,8,0:0:0:0:
192,192,16082,1,0,0:0:0:0:
448,192,16082,1,0,0:0:0:0:
320,192,16228,1,0,0:0:0:0:
64,192,16301,1,8,0:0:0:0:
192,192,16301,1,0,0:0:0:0:
320,192,16374,1,2,0:0:0:0:
448,192,16374,1,0,0:0:0:0:
64,192,16521,1,2,0:0:0:0:
448,192,16521,1,0,0:0:0:0:
64,192,16667,1,8,0:0:0:0:
192,192,16667,1,0,0:0:0:0:
320,192,16667,1,0,0:0:0:0:
64,192,16813,128,2,17106:0:0:0:0:
320,192,16813,1,4,0:0:0:0:
448,192,16813,128,0,17106:0:0:0:0:
192,192,17106,1,2,0:0:0:0:
320,192,17106,1,0,0:0:0:0:
64,192,17252,1,8,0:0:0:0:
192,192,17252,1,0,0:0:0:0:
320,192,17252,1,0,0:0:0:0:
448,192,17399,1,0,0:0:0:0:
64,192,17472,1,8,0:0:0:0:
192,192,17472,1,0,0:0:0:0:
320,192,17545,1,2,0:0:0:0:
448,192,17545,1,0,0:0:0:0:
64,192,17691,1,2,0:0:0:0:
192,192,17691,1,0,0:0:0:0:
64,192,17838,1,8,0:0:0:0:
320,192,17838,1,0,0:0:0:0:
448,192,17838,1,0,0:0:0:0:
192,192,17984,128,2,18277:0:0:0:0:
320,192,17984,128,4,18277:0:0:0:0:
448,192,17984,1,0,0:0:0:0:
64,192,18277,1,2,0:0:0:0:
448,192,18277,1,0,0:0:0:0:
64,192,18423,1,8,0:0:0:0:
320,192,18423,1,0,0:0:0:0:
192,192,18569,1,0,0:0:0:0:
320,192,18643,1,8,0:0:0:0:
448,192,18643,1,0,0:0:0:0:
64,192,18716,1,2,0:0:0:0:
192,192,18716,1,0,0:0:0:0:
64,192,18862,1,8,0:0:0:0:
320,192,18862,1,0,0:0:0:0:
320,192,19009,1,2,0:0:0:0:
448,192,19009,1,0,0:0:0:0:
64,192,19155,128,2,19448:0:0:0:0:
192,192,19155,128,4,19448:0:0:0:0:
448,192,19155,1,0,0:0:0:0:
320,192,19448,1,2,0:0:0:0:
448,192,19448,128,0,19594:0:0:0:0:
64,192,19594,128,2,19740:0:0:0:0:
320,192,19594,1,0,0:0:0:70:LR_Cymbal.wav
192,192,19740,128,2,19887:0:0:0:0:
448,192,19740,1,0,0:0:0:0:
320,192,19887,1,8,0:0:0:0:
448,192,19887,128,0,20033:0:0:0:70:LR_Cymbal.wav
64,192,20033,1,2,0:0:0:0:
320,192,20033,128,0,20179:0:0:0:0:
192,192,20179,128,2,20326:0:0:0:0:
448,192,20179,1,0,0:0:0:70:LR_Cymbal.wav
64,192,20326,128,2,20472:0:0:0:0:
448,192,20326,1,0,0:0:0:0:
320,192,20472,128,0,20618:0:0:0:70:LR_Cymbal.wav
192,192,20618,1,2,0:0:0:0:
448,192,20618,128,0,20765:0:0:0:0:
64,192,20765,128,2,20911:0:0:0:0:
320,192,20765,1,0,0:0:0:70:LR_Cymbal.wav
192,192,20911,128,2,21057:0:0:0:0:
448,192,20911,1,0,0:0:0:0:
64,192,21057,1,8,0:0:0:0:
448,192,21057,128,0,21204:0:0:0:70:LR_Cymbal.wav
192,192,21204,128,2,21350:0:0:0:0:
320,192,21204,1,0,0:0:0:0:
64,192,21350,1,2,0:0:0:0:
320,192,21350,128,0,21496:0:0:0:70:LR_Cymbal.wav
64,192,21496,128,2,21789:0:0:0:0:
192,192,21496,128,0,21789:0:0:0:0:
448,192,21643,1,0,0:0:0:70:LR_Cymbal.wav
320,192,21789,128,2,21935:0:0:0:0:
448,192,21789,1,0,0:0:0:0:
64,192,21935,128,2,22082:0:0:0:0:
192,192,21935,1,0,0:0:0:70:LR_Cymbal.wav
192,192,22082,128,2,22228:0:0:0:0:
320,192,22082,1,0,0:0:0:0:
320,192,22228,1,8,0:0:0:0:
448,192,22228,128,0,22374:0:0:0:70:LR_Cymbal.wav
64,192,22374,1,2,0:0:0:0:
320,192,22374,128,0,22521:0:0:0:0:
64,192,22521,128,2,22667:0:0:0:0:
448,192,22521,1,0,0:0:0:70:LR_Cymbal.wav
192,192,22667,128,2,22813:0:0:0:0:
320,192,22667,1,0,0:0:0:70:Crash.wav
320,192,22813,128,0,22960:0:0:0:0:
64,192,22960,128,2,23106:0:0:0:0:
448,192,22960,1,0,0:0:0:70:Crash.wav
320,192,23106,1,8,0:0:0:0:
448,192,23106,128,0,23252:0:0:0:0:
192,192,23179,1,8,0:0:0:0:
64,192,23252,1,8,0:0:0:0:
320,192,23252,128,0,23399:0:0:0:0:
64,192,23399,128,8,23545:0:0:0:0:
192,192,23399,1,0,0:0:0:0:
320,192,23545,128,0,23691:0:0:0:70:Tom1.wav
448,192,23545,1,0,0:0:0:0:
64,192,23691,128,0,23838:0:0:0:70:Tom2.wav
192,192,23691,1,0,0:0:0:0:
192,192,23838,128,2,24130:0:0:0:0:
320,192,23838,128,4,24130:0:0:0:0:
448,192,23838,1,0,0:0:0:0:
64,192,24130,128,2,24277:0:0:0:0:
448,192,24130,1,0,0:0:0:0:
192,192,24277,1,2,0:0:0:0:
320,192,24277,128,0,24423:0:0:0:70:LR_Cymbal.wav
192,192,24423,128,2,24569:0:0:0:0:
448,192,24423,1,0,0:0:0:0:
320,192,24569,1,8,0:0:0:0:
448,192,24569,128,0,24716:0:0:0:70:LR_Cymbal.wav
64,192,24716,128,2,24862:0:0:0:0:
320,192,24716,1,0,0:0:0:0:
192,192,24862,128,2,25009:0:0:0:0:
448,192,24862,1,0,0:0:0:70:LR_Cymbal.wav
320,192,25009,1,2,0:0:0:0:
448,192,25009,128,0,25155:0:0:0:0:
64,192,25155,128,2,25301:0:0:0:0:
192,192,25155,1,0,0:0:0:70:LR_Cymbal.wav
320,192,25301,128,2,25448:0:0:0:0:
448,192,25301,1,0,0:0:0:0:
192,192,25448,128,2,25594:0:0:0:0:
448,192,25448,1,0,0:0:0:70:LR_Cymbal.wav
64,192,25594,1,2,0:0:0:0:
320,192,25594,128,0,25740:0:0:0:0:
64,192,25740,128,8,25887:0:0:0:0:
192,192,25740,1,0,0:0:0:70:LR_Cymbal.wav
192,192,25887,128,2,26033:0:0:0:0:
448,192,25887,1,0,0:0:0:0:
64,192,26033,1,2,0:0:0:0:
320,192,26033,128,0,26179:0:0:0:70:LR_Cymbal.wav
64,192,26179,128,2,26472:0:0:0:0:
448,192,26179,128,0,26472:0:0:0:0:
192,192,26326,1,2,0:0:0:0:
320,192,26326,1,0,0:0:0:70:LR_Cymbal.wav
192,192,26472,1,2,0:0:0:0:
320,192,26472,128,0,26618:0:0:0:0:
64,192,26618,128,2,26765:0:0:0:0:
448,192,26618,1,0,0:0:0:70:LR_Cymbal.wav
192,192,26765,128,2,26911:0:0:0:0:
320,192,26765,1,0,0:0:0:0:
64,192,26911,1,8,0:0:0:0:
320,192,26911,128,0,27057:0:0:0:70:LR_Cymbal.wav
192,192,27057,1,2,0:0:0:0:
448,192,27057,128,0,27204:0:0:0:0:
64,192,27204,1,2,0:0:0:0:
192,192,27204,128,0,27350:0:0:0:70:LR_Cymbal.wav
64,192,27350,128,2,27496:0:0:0:0:
320,192,27350,1,0,0:0:0:70:Crash.wav
448,192,27350,1,0,0:0:0:0:
320,192,27496,128,0,27643:0:0:0:0:
64,192,27643,1,2,0:0:0:0:
192,192,27643,1,0,0:0:0:70:Crash.wav
448,192,27643,128,0,27789:0:0:0:0:
64,192,27789,1,8,0:0:0:0:
192,192,27789,1,0,0:0:0:0:
320,192,27862,1,8,0:0:0:0:
448,192,27862,1,0,0:0:0:0:
64,192,27935,1,8,0:0:0:0:
192,192,27935,1,0,0:0:0:0:
320,192,28082,1,0,0:0:0:70:Tom1.wav
448,192,28082,1,0,0:0:0:0:
192,192,28228,1,0,0:0:0:70:Tom2.wav
320,192,28228,1,0,0:0:0:0:
64,192,28374,1,0,0:0:0:70:Tom3.wav
192,192,28374,1,0,0:0:0:0:
320,192,28521,1,0,0:0:0:70:Tom3.wav
448,192,28521,1,0,0:0:0:0:
64,192,28667,128,2,29252:0:0:0:0:
448,192,28667,128,0,28887:0:0:0:0:
448,192,28960,128,0,29033:0:0:0:0:
448,192,29106,128,0,29179:0:0:0:0:
448,192,29252,128,0,29326:0:0:0:0:
448,192,29399,128,0,29472:0:0:0:0:
448,192,29545,128,0,29618:0:0:0:0:
448,192,29691,128,0,29765:0:0:0:0:
64,192,29838,128,0,30277:0:0:0:0:
448,192,29838,128,0,29911:0:0:0:0:
448,192,29984,128,0,30057:0:0:0:0:
448,192,30130,128,0,30204:0:0:0:0:
192,192,30277,128,0,30716:0:0:0:0:
448,192,30277,128,0,30350:0:0:0:0:
448,192,30423,128,0,30496:0:0:0:0:
448,192,30569,128,0,30643:0:0:0:0:
320,192,30716,128,0,31009:0:0:0:0:
448,192,30716,128,0,30789:0:0:0:0:
448,192,30862,128,0,30935:0:0:0:0:
64,192,31009,128,0,31082:0:0:0:0:
448,192,31009,128,0,31301:0:0:0:0:
64,192,31155,128,0,31228:0:0:0:0:
64,192,31301,128,0,31374:0:0:0:0:
64,192,31448,128,0,31521:0:0:0:0:
448,192,31448,128,0,31887:0:0:0:0:
64,192,31594,128,0,31667:0:0:0:0:
64,192,31740,128,0,31813:0:0:0:0:
64,192,31887,128,0,31960:0:0:0:0:
320,192,31887,128,0,32472:0:0:0:0:
64,192,32033,128,0,32106:0:0:0:0:
64,192,32179,128,0,32252:0:0:0:0:
64,192,32326,128,0,32399:0:0:0:0:
64,192,32472,128,0,32545:0:0:0:0:
64,192,32618,128,0,32691:0:0:0:0:
320,192,32765,1,8,0:0:0:0:
448,192,32765,1,0,0:0:0:0:
64,192,32813,1,8,0:0:0:0:
192,192,32813,1,0,0:0:0:0:
320,192,32862,1,0,0:0:0:70:Tom2.wav
448,192,32911,1,0,0:0:0:70:Tom1.wav
64,192,32960,1,2,0:0:0:0:
192,192,33009,1,2,0:0:0:0:
320,192,33057,1,8,0:0:0:0:
448,192,33057,1,0,0:0:0:70:Crash.wav
64,192,33204,128,2,33496:0:0:0:0:
320,192,33204,1,4,0:0:0:0:
448,192,33204,128,0,33496:0:0:0:0:
192,192,33496,1,2,0:0:0:0:
320,192,33496,1,0,0:0:0:0:
64,192,33643,1,8,0:0:0:0:
320,192,33643,1,0,0:0:0:0:
448,192,33643,1,0,0:0:0:0:
64,192,33935,1,2,0:0:0:0:
192,192,33935,1,0,0:0:0:0:
64,192,34082,1,2,0:0:0:0:
448,192,34082,1,0,0:0:0:0:
192,192,34228,1,8,0:0:0:0:
320,192,34228,1,0,0:0:0:0:
448,192,34228,1,0,0:0:0:0:
64,192,34521,1,2,0:0:0:0:
192,192,34521,1,0,0:0:0:0:
64,192,34667,1,2,0:0:0:0:
320,192,34667,1,0,0:0:0:0:
192,192,34813,1,8,0:0:0:0:
320,192,34813,1,0,0:0:0:0:
448,192,34813,1,0,0:0:0:0:
64,192,35106,1,2,0:0:0:0:
448,192,35106,1,0,0:0:0:0:
192,192,35252,1,2,0:0:0:0:
320,192,35252,1,0,0:0:0:0:
64,192,35399,1,8,0:0:0:0:
320,192,35399,1,0,0:0:0:0:
448,192,35399,1,0,0:0:0:0:
64,192,35545,128,2,35838:0:0:0:0:
192,192,35545,1,4,0:0:0:0:
448,192,35545,128,0,35838:0:0:0:0:
192,192,35838,1,2,0:0:0:0:
320,192,35838,1,0,0:0:0:0:
64,192,35984,1,8,0:0:0:0:
192,192,35984,1,0,0:0:0:70:LR_Cymbal.wav
448,192,35984,1,0,0:0:0:0:
64,192,36130,1,2,0:0:0:0:
320,192,36130,1,0,0:0:0:0:
192,192,36277,1,8,0:0:0:0:
320,192,36277,1,0,0:0:0:70:LR_Cymbal.wav
448,192,36277,1,0,0:0:0:0:
64,192,36423,1,2,0:0:0:0:
448,192,36423,1,0,0:0:0:0:
64,192,36569,1,8,0:0:0:0:
192,192,36569,1,0,0:0:0:70:LR_Cymbal.wav
320,192,36569,1,0,0:0:0:0:
320,192,36716,1,2,0:0:0:0:
448,192,36716,1,0,0:0:0:0:
64,192,36862,1,8,0:0:0:0:
192,192,36862,1,0,0:0:0:70:LR_Cymbal.wav
448,192,36862,1,0,0:0:0:0:
64,192,37009,1,2,0:0:0:0:
320,192,37009,1,0,0:0:0:0:
192,192,37155,1,8,0:0:0:0:
320,192,37155,1,0,0:0:0:70:Crash.wav
448,192,37155,1,0,0:0:0:0:
64,192,37301,1,2,0:0:0:0:
448,192,37301,1,0,0:0:0:0:
64,192,37448,1,8,0:0:0:0:
192,192,37448,1,0,0:0:0:0:
320,192,37496,1,8,0:0:0:0:
448,192,37496,1,0,0:0:0:0:
192,192,37545,1,0,0:0:0:70:Tom2.wav
64,192,37594,1,0,0:0:0:70:Tom1.wav
320,192,37643,1,2,0:0:0:0:
448,192,37691,1,2,0:0:0:0:
64,192,37740,1,8,0:0:0:0:
192,192,37740,1,0,0:0:0:70:Crash.wav
64,192,37887,128,2,38179:0:0:0:0:
320,192,37887,1,4,0:0:0:0:
448,192,37887,128,0,38179:0:0:0:0:
192,192,38179,1,2,0:0:0:0:
320,192,38179,1,0,0:0:0:0:
64,192,38326,1,8,0:0:0:0:
320,192,38326,1,0,0:0:0:0:
448,192,38326,1,0,0:0:0:0:
192,192,38618,1,2,0:0:0:0:
320,192,38618,1,0,0:0:0:0:
448,192,38618,1,0,0:0:0:0:
64,192,38765,1,2,0:0:0:0:
192,192,38765,1,0,0:0:0:0:
64,192,38911,1,8,0:0:0:0:
320,192,38911,1,0,0:0:0:0:
448,192,38911,1,0,0:0:0:0:
64,192,39204,1,2,0:0:0:0:
192,192,39204,1,0,0:0:0:0:
320,192,39204,1,0,0:0:0:0:
320,192,39350,1,2,0:0:0:0:
448,192,39350,1,0,0:0:0:0:
64,192,39496,1,8,0:0:0:0:
192,192,39496,1,0,0:0:0:0:
448,192,39496,1,0,0:0:0:0:
64,192,39789,1,2,0:0:0:0:
320,192,39789,1,0,0:0:0:0:
448,192,39789,1,0,0:0:0:0:
192,192,39935,1,2,0:0:0:0:
320,192,39935,1,0,0:0:0:0:
64,192,40082,1,8,0:0:0:0:
192,192,40082,1,0,0:0:0:0:
448,192,40082,1,0,0:0:0:0:
64,192,40228,1,2,0:0:0:0:
320,192,40228,128,4,40521:0:0:0:0:
448,192,40228,128,0,40521:0:0:0:0:
64,192,40521,1,2,0:0:0:0:
192,192,40521,1,0,0:0:0:0:
64,192,40667,1,8,0:0:0:0:
320,192,40667,1,0,0:0:0:0:
448,192,40667,1,0,0:0:0:0:
64,192,40960,1,2,0:0:0:0:
192,192,40960,1,0,0:0:0:0:
320,192,40960,1,0,0:0:0:0:
192,192,41106,128,2,41252:0:0:0:0:
448,192,41106,1,0,0:0:0:0:
64,192,41252,1,8,0:0:0:0:
320,192,41252,128,0,41399:0:0:0:0:
448,192,41252,1,0,0:0:0:0:
64,192,41399,128,0,41545:0:0:0:0:
192,192,41545,128,2,41691:0:0:0:0:
320,192,41545,1,0,0:0:0:0:
64,192,41691,1,2,0:0:0:0:
448,192,41691,128,0,41838:0:0:0:0:
64,192,41838,1,8,0:0:0:0:
192,192,41838,128,0,41984:0:0:0:0:
320,192,41838,1,0,0:0:0:0:
64,192,42130,1,2,0:0:0:0:
448,192,42130,128,0,42277:0:0:0:0:
192,192,42277,1,2,0:0:0:0:
320,192,42277,128,0,42423:0:0:0:0:
64,192,42423,1,8,0:0:0:0:
192,192,42423,1,0,0:0:0:0:
448,192,42423,1,0,0:0:0:0:
64,192,42569,128,2,42862:0:0:0:0:
320,192,42569,1,4,0:0:0:0:
448,192,42569,128,0,42862:0:0:0:0:
192,192,42862,1,2,0:0:0:0:
320,192,42862,1,0,0:0:0:0:
64,192,43009,1,8,0:0:0:0:
320,192,43009,1,0,0:0:0:0:
448,192,43009,1,0,0:0:0:0:
192,192,43155,1,2,0:0:0:0:
448,192,43155,1,0,0:0:0:0:
64,192,43301,1,8,0:0:0:0:
192,192,43301,1,0,0:0:0:0:
320,192,43301,1,0,0:0:0:0:
320,192,43448,1,2,0:0:0:0:
448,192,43448,1,0,0:0:0:0:
64,192,43594,1,8,0:0:0:0:
192,192,43594,1,0,0:0:0:0:
448,192,43594,1,0,0:0:0:0:
64,192,43740,1,2,0:0:0:0:
320,192,43740,1,0,0:0:0:0:
192,192,43887,1,8,0:0:0:0:
320,192,43887,1,0,0:0:0:0:
448,192,43887,1,0,0:0:0:0:
64,192,44033,1,2,0:0:0:0:
448,192,44033,1,0,0:0:0:0:
64,192,44179,1,8,0:0:0:0:
192,192,44179,1,0,0:0:0:70:Crash.wav
320,192,44179,1,0,0:0:0:0:
192,192,44326,1,2,0:0:0:0:
448,192,44326,1,0,0:0:0:0:
64,192,44472,1,2,0:0:0:0:
320,192,44472,1,0,0:0:0:70:Crash.wav
448,192,44472,1,0,0:0:0:0:
64,192,44618,1,8,0:0:0:0:
192,192,44618,1,0,0:0:0:0:
320,192,44691,1,8,0:0:0:0:
448,192,44691,1,0,0:0:0:0:
64,192,44765,1,8,0:0:0:0:
192,192,44765,1,0,0:0:0:0:
192,192,44911,1,2,0:0:0:0:
320,192,44911,1,4,0:0:0:0:
448,192,44911,1,0,0:0:0:0:
320,192,45204,1,2,0:0:0:0:
448,192,45204,1,0,0:0:0:0:
64,192,45350,1,8,0:0:0:0:
320,192,45350,1,0,0:0:0:70:LR_Cymbal.wav
448,192,45350,1,0,0:0:0:0:
64,192,45496,1,2,0:0:0:0:
192,192,45496,1,0,0:0:0:0:
320,192,45569,1,2,0:0:0:0:
64,192,45643,1,8,0:0:0:0:
192,192,45643,1,0,0:0:0:70:LR_Cymbal.wav
448,192,45643,1,0,0:0:0:0:
320,192,45789,1,2,0:0:0:0:
448,192,45789,1,0,0:0:0:0:
192,192,45862,1,2,0:0:0:0:
64,192,45935,1,8,0:0:0:0:
320,192,45935,1,0,0:0:0:70:LR_Cymbal.wav
448,192,45935,1,0,0:0:0:0:
64,192,46082,1,2,0:0:0:0:
192,192,46082,1,0,0:0:0:0:
320,192,46155,1,2,0:0:0:0:
64,192,46228,1,8,0:0:0:0:
192,192,46228,1,0,0:0:0:70:LR_Cymbal.wav
448,192,46228,1,0,0:0:0:0:
320,192,46374,1,2,0:0:0:0:
448,192,46374,1,0,0:0:0:0:
192,192,46448,1,2,0:0:0:0:
64,192,46521,1,8,0:0:0:0:
320,192,46521,1,0,0:0:0:70:LR_Cymbal.wav
448,192,46521,1,0,0:0:0:0:
64,192,46667,1,0,0:0:0:70:Tom1.wav
192,192,46667,1,0,0:0:0:0:
320,192,46813,1,0,0:0:0:70:Tom2.wav
448,192,46813,1,0,0:0:0:0:
192,192,46960,1,0,0:0:0:70:Tom3.wav
320,192,46960,1,0,0:0:0:0:
64,192,47106,1,2,0:0:0:0:
192,192,47106,1,0,0:0:0:70:Crash.wav
448,192,47106,1,0,0:0:0:0:
320,192,47252,1,8,0:0:0:0:
448,192,47252,1,0,0:0:0:0:
64,192,47399,1,2,0:0:0:0:
192,192,47399,128,4,47691:0:0:0:0:
320,192,47399,128,0,47691:0:0:0:0:
64,192,47691,1,2,0:0:0:0:
448,192,47691,1,0,0:0:0:0:
192,192,47838,1,8,0:0:0:0:
320,192,47838,1,0,0:0:0:0:
448,192,47838,1,0,0:0:0:0:
64,192,47984,1,0,0:0:0:0:
192,192,48130,1,2,0:0:0:0:
320,192,48130,1,0,0:0:0:0:
64,192,48277,1,8,0:0:0:0:
320,192,48277,1,0,0:0:0:0:
448,192,48277,1,0,0:0:0:0:
192,192,48423,1,2,0:0:0:0:
448,192,48423,1,0,0:0:0:0:
64,192,48569,1,0,0:0:0:0:
192,192,48716,1,0,0:0:0:70:Tom1.wav
320,192,48716,1,0,0:0:0:0:
64,192,48862,1,0,0:0:0:0:
320,192,49009,1,0,0:0:0:70:Tom2.wav
448,192,49009,1,0,0:0:0:0:
64,192,49155,1,8,0:0:0:0:
192,192,49155,1,0,0:0:0:0:
448,192,49155,1,0,0:0:0:0:
192,192,49301,1,2,0:0:0:0:
320,192,49301,1,0,0:0:0:0:
64,192,49448,1,8,0:0:0:0:
320,192,49448,1,0,0:0:0:0:
448,192,49448,1,0,0:0:0:0:
64,192,49594,1,8,0:0:0:0:
192,192,49594,1,0,0:0:0:0:
448,192,49594,1,0,0:0:0:0:
64,192,49740,128,2,50033:0:0:0:0:
192,192,49740,128,4,50033:0:0:0:0:
320,192,49740,1,0,0:0:0:0:
320,192,50033,1,2,0:0:0:0:
448,192,50033,1,0,0:0:0:0:
64,192,50179,1,8,0:0:0:0:
192,192,50179,1,0,0:0:0:0:
448,192,50179,1,0,0:0:0:0:
320,192,50326,1,0,0:0:0:0:
192,192,50472,1,2,0:0:0:0:
448,192,50472,1,0,0:0:0:0:
64,192,50618,1,8,0:0:0:0:
320,192,50618,1,0,0:0:0:0:
448,192,50618,1,0,0:0:0:0:
64,192,50765,1,2,0:0:0:0:
192,192,50765,1,0,0:0:0:0:
448,192,50911,1,0,0:0:0:0:
64,192,51057,1,0,0:0:0:70:Tom1.wav
192,192,51057,1,0,0:0:0:0:
448,192,51204,1,0,0:0:0:0:
64,192,51350,1,0,0:0:0:70:Tom2.wav
320,192,51350,1,0,0:0:0:0:
64,192,51496,1,8,0:0:0:0:
192,192,51496,1,0,0:0:0:0:
448,192,51496,1,0,0:0:0:0:
192,192,51643,1,2,0:0:0:0:
320,192,51643,1,0,0:0:0:0:
64,192,51789,128,8,51935:0:0:0:0:
320,192,51789,1,0,0:0:0:70:Crash.wav
448,192,51789,128,0,51935:0:0:0:0:
64,192,52082,128,4,52374:0:0:0:0:
320,192,52082,1,2,0:0:0:0:
448,192,52082,128,0,52374:0:0:0:0:
192,192,52374,1,2,0:0:0:0:
320,192,52374,1,0,0:0:0:0:
64,192,52521,1,8,0:0:0:0:
192,192,52521,1,0,0:0:0:0:
448,192,52521,1,0,0:0:0:0:
320,192,52667,1,0,0:0:0:0:
64,192,52813,1,2,0:0:0:0:
448,192,52813,1,0,0:0:0:0:
192,192,52960,1,8,0:0:0:0:
320,192,52960,1,0,0:0:0:0:
448,192,52960,1,0,0:0:0:0:
64,192,53106,1,2,0:0:0:0:
192,192,53106,1,0,0:0:0:0:
320,192,53252,1,0,0:0:0:0:
192,192,53399,1,0,0:0:0:70:Tom2.wav
448,192,53399,1,0,0:0:0:0:
320,192,53545,1,0,0:0:0:0:
64,192,53691,1,0,0:0:0:70:Tom3.wav
192,192,53691,1,0,0:0:0:0:
64,192,53838,1,8,0:0:0:0:
320,192,53838,1,0,0:0:0:0:
448,192,53838,1,0,0:0:0:0:
192,192,53984,1,2,0:0:0:0:
448,192,53984,1,0,0:0:0:0:
64,192,54130,1,8,0:0:0:0:
192,192,54130,1,0,0:0:0:0:
320,192,54130,1,0,0:0:0:0:
64,192,54277,1,8,0:0:0:0:
320,192,54277,1,0,0:0:0:0:
448,192,54277,1,0,0:0:0:0:
192,192,54423,1,2,0:0:0:0:
320,192,54423,128,4,54716:0:0:0:0:
448,192,54423,128,0,54716:0:0:0:0:
64,192,54716,1,2,0:0:0:0:
192,192,54716,1,0,0:0:0:0:
64,192,54862,1,8,0:0:0:0:
320,192,54862,1,0,0:0:0:0:
448,192,54862,1,0,0:0:0:0:
192,192,55009,1,0,0:0:0:0:
64,192,55155,1,2,0:0:0:0:
448,192,55155,1,0,0:0:0:0:
192,192,55301,1,8,0:0:0:0:
320,192,55301,1,0,0:0:0:0:
448,192,55301,1,0,0:0:0:0:
64,192,55448,1,2,0:0:0:0:
320,192,55448,1,0,0:0:0:0:
192,192,55594,1,0,0:0:0:0:
320,192,55740,1,0,0:0:0:70:Tom2.wav
448,192,55740,1,0,0:0:0:0:
192,192,55887,1,0,0:0:0:0:
64,192,56033,1,0,0:0:0:70:Tom3.wav
320,192,56033,1,0,0:0:0:0:
64,192,56179,1,8,0:0:0:0:
192,192,56179,1,0,0:0:0:0:
320,192,56252,1,0,0:0:0:70:Tom1.wav
448,192,56252,1,0,0:0:0:0:
64,192,56326,1,0,0:0:0:70:Tom2.wav
192,192,56326,1,0,0:0:0:0:
320,192,56399,1,0,0:0:0:70:Tom3.wav
64,192,56472,128,8,56618:0:0:0:0:
192,192,56472,1,0,0:0:0:70:Crash.wav
448,192,56472,128,0,56618:0:0:0:0:
192,192,56765,1,4,0:0:0:0:
320,192,56765,1,8,0:0:0:0:
448,192,56765,1,0,0:0:0:0:
64,192,56911,1,2,0:0:0:0:
192,192,56911,1,0,0:0:0:0:
64,192,57057,1,8,0:0:0:0:
320,192,57057,1,0,0:0:0:0:
448,192,57057,1,0,0:0:0:0:
192,192,57204,1,2,0:0:0:0:
448,192,57204,1,0,0:0:0:0:
64,192,57350,1,8,0:0:0:0:
192,192,57350,1,0,0:0:0:0:
320,192,57350,1,0,0:0:0:0:
320,192,57496,1,2,0:0:0:0:
448,192,57496,1,0,0:0:0:0:
192,192,57569,1,2,0:0:0:0:
64,192,57643,1,8,0:0:0:0:
320,192,57643,1,0,0:0:0:0:
448,192,57643,1,0,0:0:0:0:
64,192,57789,1,2,0:0:0:0:
192,192,57789,1,0,0:0:0:0:
192,192,57935,1,8,0:0:0:0:
320,192,57935,1,0,0:0:0:0:
448,192,57935,1,0,0:0:0:0:
64,192,58082,1,2,0:0:0:0:
448,192,58082,1,0,0:0:0:0:
64,192,58228,1,8,0:0:0:0:
192,192,58228,1,0,0:0:0:0:
320,192,58228,1,0,0:0:0:0:
320,192,58374,1,2,0:0:0:0:
448,192,58374,1,0,0:0:0:0:
64,192,58521,1,8,0:0:0:0:
192,192,58521,1,0,0:0:0:0:
448,192,58521,1,0,0:0:0:0:
64,192,58667,1,2,0:0:0:0:
320,192,58667,1,0,0:0:0:0:
192,192,58740,1,2,0:0:0:0:
64,192,58813,1,8,0:0:0:0:
320,192,58813,1,0,0:0:0:0:
448,192,58813,1,0,0:0:0:0:
192,192,58960,1,2,0:0:0:0:
448,192,58960,1,0,0:0:0:0:
64,192,59106,1,8,0:0:0:0:
448,192,59106,1,0,0:0:0:70:Crash.wav
320,192,59179,1,2,0:0:0:0:
64,192,59252,1,2,0:0:0:0:
192,192,59252,1,0,0:0:0:0:
320,192,59326,1,2,0:0:0:0:
64,192,59399,1,8,0:0:0:0:
448,192,59399,1,0,0:0:0:70:LR_Cymbal.wav
192,192,59472,1,2,0:0:0:0:
320,192,59545,1,2,0:0:0:0:
448,192,59545,1,0,0:0:0:0:
192,192,59618,1,2,0:0:0:0:
64,192,59691,1,8,0:0:0:0:
448,192,59691,1,0,0:0:0:70:LR_Cymbal.wav
320,192,59765,1,2,0:0:0:0:
64,192,59838,1,2,0:0:0:0:
192,192,59838,1,0,0:0:0:0:
320,192,59911,1,2,0:0:0:0:
192,192,59984,1,8,0:0:0:0:
448,192,59984,1,0,0:0:0:70:LR_Cymbal.wav
64,192,60057,1,2,0:0:0:0:
320,192,60130,1,2,0:0:0:0:
448,192,60130,1,0,0:0:0:0:
192,192,60204,1,2,0:0:0:0:
64,192,60277,1,8,0:0:0:0:
448,192,60277,1,0,0:0:0:0:
192,192,60350,1,8,0:0:0:0:
320,192,60350,1,0,0:0:0:0:
64,192,60423,1,2,0:0:0:0:
448,192,60423,1,0,0:0:0:0:
320,192,60496,1,2,0:0:0:0:
64,192,60569,1,8,0:0:0:0:
192,192,60569,1,0,0:0:0:0:
320,192,60716,1,2,0:0:0:0:
448,192,60716,1,0,0:0:0:0:
192,192,60789,1,2,0:0:0:0:
64,192,60862,1,8,0:0:0:0:
320,192,60862,1,2,0:0:0:0:
448,192,60862,1,0,0:0:0:0:
64,192,61009,1,8,0:0:0:0:
192,192,61009,1,2,0:0:0:0:
448,192,61009,1,0,0:0:0:0:
64,192,61448,1,4,0:0:0:0:
192,192,61448,1,2,0:0:0:0:
448,192,61448,1,0,0:0:0:0:
320,192,61594,1,2,0:0:0:0:
448,192,61594,1,0,0:0:0:0:
64,192,61740,1,8,0:0:0:0:
192,192,61740,1,0,0:0:0:0:
320,192,61740,1,0,0:0:0:0:
448,192,61887,128,0,62033:0:0:0:0:
64,192,62033,1,2,0:0:0:0:
192,192,62033,1,0,0:0:0:0:
192,192,62179,1,2,0:0:0:0:
320,192,62179,1,0,0:0:0:0:
64,192,62326,128,8,62472:0:0:0:0:
320,192,62326,1,0,0:0:0:0:
448,192,62326,1,0,0:0:0:0:
192,192,62472,1,2,0:0:0:0:
448,192,62472,1,0,0:0:0:0:
320,192,62618,1,0,0:0:0:0:
64,192,62765,1,2,0:0:0:0:
192,192,62765,1,0,0:0:0:0:
64,192,62911,1,8,0:0:0:0:
320,192,62911,1,0,0:0:0:0:
448,192,62911,1,0,0:0:0:0:
448,192,63057,128,0,63204:0:0:0:0:
64,192,63130,1,8,0:0:0:0:
192,192,63204,1,2,0:0:0:0:
320,192,63204,1,0,0:0:0:0:
64,192,63350,1,2,0:0:0:0:
192,192,63350,1,0,0:0:0:0:
64,192,63496,128,8,63643:0:0:0:0:
320,192,63496,1,0,0:0:0:0:
448,192,63496,1,0,0:0:0:0:
192,192,63789,1,2,0:0:0:0:
320,192,63789,1,4,0:0:0:0:
448,192,63789,1,0,0:0:0:0:
64,192,63935,1,2,0:0:0:0:
192,192,63935,1,0,0:0:0:0:
64,192,64082,1,8,0:0:0:0:
320,192,64082,1,0,0:0:0:0:
448,192,64082,1,0,0:0:0:0:
192,192,64228,128,0,64374:0:0:0:0:
320,192,64374,1,2,0:0:0:0:
448,192,64374,1,0,0:0:0:0:
64,192,64521,1,2,0:0:0:0:
192,192,64521,1,0,0:0:0:0:
64,192,64667,1,8,0:0:0:0:
320,192,64667,128,0,64813:0:0:0:0:
448,192,64667,1,0,0:0:0:0:
192,192,64813,1,2,0:0:0:0:
448,192,64813,1,0,0:0:0:0:
64,192,64960,1,0,0:0:0:0:
192,192,65106,1,2,0:0:0:0:
320,192,65106,1,0,0:0:0:0:
64,192,65252,1,8,0:0:0:0:
320,192,65252,1,0,0:0:0:0:
448,192,65252,1,0,0:0:0:0:
192,192,65399,128,0,65545:0:0:0:0:
320,192,65472,1,8,0:0:0:0:
64,192,65545,1,2,0:0:0:0:
448,192,65545,1,0,0:0:0:0:
64,192,65691,1,2,0:0:0:0:
320,192,65691,1,0,0:0:0:0:
192,192,65838,128,8,65984:0:0:0:0:
320,192,65838,1,0,0:0:0:0:
448,192,65838,1,0,0:0:0:0:
64,192,65984,1,8,0:0:0:0:
448,192,65984,1,0,0:0:0:0:
320,192,66057,1,8,0:0:0:0:
64,192,66130,1,2,0:0:0:0:
192,192,66130,1,4,0:0:0:0:
448,192,66130,1,0,0:0:0:0:
64,192,66277,1,2,0:0:0:0:
320,192,66277,1,0,0:0:0:0:
192,192,66423,1,8,0:0:0:0:
320,192,66423,1,0,0:0:0:0:
448,192,66423,1,0,0:0:0:0:
448,192,66569,128,0,66716:0:0:0:0:
64,192,66716,1,2,0:0:0:0:
192,192,66716,1,0,0:0:0:0:
320,192,66862,1,2,0:0:0:0:
448,192,66862,1,0,0:0:0:0:
64,192,67009,1,8,0:0:0:0:
192,192,67009,1,0,0:0:0:0:
448,192,67009,128,0,67155:0:0:0:0:
64,192,67155,1,2,0:0:0:0:
320,192,67155,1,0,0:0:0:0:
192,192,67301,1,0,0:0:0:0:
320,192,67448,1,2,0:0:0:0:
448,192,67448,1,0,0:0:0:0:
64,192,67594,1,8,0:0:0:0:
192,192,67594,1,0,0:0:0:0:
448,192,67594,1,0,0:0:0:0:
64,192,67740,128,0,67887:0:0:0:0:
448,192,67813,1,8,0:0:0:0:
192,192,67887,1,2,0:0:0:0:
320,192,67887,1,0,0:0:0:0:
64,192,68033,1,2,0:0:0:0:
192,192,68033,1,0,0:0:0:0:
64,192,68179,1,8,0:0:0:0:
320,192,68179,1,0,0:0:0:0:
448,192,68179,1,0,0:0:0:0:
192,192,68472,1,2,0:0:0:0:
320,192,68472,1,4,0:0:0:0:
448,192,68472,1,0,0:0:0:0:
64,192,68618,1,2,0:0:0:0:
192,192,68618,1,0,0:0:0:0:
64,192,68765,1,8,0:0:0:0:
320,192,68765,128,0,68911:0:0:0:0:
448,192,68765,1,0,0:0:0:0:
64,192,69057,1,2,0:0:0:0:
192,192,69057,1,0,0:0:0:0:
320,192,69204,1,2,0:0:0:0:
448,192,69204,1,0,0:0:0:0:
64,192,69350,1,8,0:0:0:0:
192,192,69350,1,0,0:0:0:0:
448,192,69350,1,0,0:0:0:0:
64,192,69496,1,2,0:0:0:0:
320,192,69496,1,0,0:0:0:0:
448,192,69643,1,0,0:0:0:0:
64,192,69789,1,2,0:0:0:0:
192,192,69789,1,0,0:0:0:0:
64,192,69935,1,8,0:0:0:0:
320,192,69935,1,0,0:0:0:0:
448,192,69935,1,0,0:0:0:0:
320,192,70155,1,8,0:0:0:0:
448,192,70155,1,0,0:0:0:0:
64,192,70228,1,2,0:0:0:0:
192,192,70228,1,0,0:0:0:0:
192,192,70374,1,2,0:0:0:0:
320,192,70374,1,0,0:0:0:0:
64,192,70521,1,8,0:0:0:0:
320,192,70521,1,0,0:0:0:0:
448,192,70521,128,0,70667:0:0:0:0:
64,192,70667,1,8,0:0:0:0:
192,192,70667,1,0,0:0:0:0:
320,192,70740,1,8,0:0:0:0:
64,192,70813,1,2,0:0:0:0:
192,192,70813,1,4,0:0:0:0:
448,192,70813,1,0,0:0:0:0:
320,192,70960,1,2,0:0:0:0:
448,192,70960,1,0,0:0:0:0:
64,192,71106,1,8,0:0:0:0:
192,192,71106,1,0,0:0:0:0:
320,192,71106,1,0,0:0:0:0:
64,192,71252,128,0,71399:0:0:0:0:
320,192,71399,1,2,0:0:0:0:
448,192,71399,1,0,0:0:0:0:
192,192,71545,1,2,0:0:0:0:
320,192,71545,1,0,0:0:0:0:
64,192,71691,1,8,0:0:0:0:
192,192,71691,128,0,71838:0:0:0:0:
448,192,71691,1,0,0:0:0:0:
64,192,71838,1,0,0:0:0:0:
320,192,71984,1,2,0:0:0:0:
448,192,71984,1,0,0:0:0:0:
64,192,72130,1,2,0:0:0:0:
448,192,72130,1,0,0:0:0:0:
64,192,72277,1,8,0:0:0:0:
192,192,72277,1,0,0:0:0:0:
320,192,72277,1,0,0:0:0:0:
448,192,72423,128,0,72569:0:0:0:0:
320,192,72496,1,8,0:0:0:0:
64,192,72569,1,2,0:0:0:0:
192,192,72569,1,0,0:0:0:0:
192,192,72716,1,2,0:0:0:0:
320,192,72716,1,0,0:0:0:0:
64,192,72862,128,8,73009:0:0:0:0:
320,192,72862,1,0,0:0:0:0:
448,192,72862,1,0,0:0:0:0:
192,192,73155,1,2,0:0:0:0:
320,192,73155,1,4,0:0:0:0:
448,192,73155,1,0,0:0:0:0:
64,192,73301,1,2,0:0:0:0:
192,192,73301,1,0,0:0:0:0:
64,192,73448,1,8,0:0:0:0:
320,192,73448,1,0,0:0:0:0:
448,192,73448,1,0,0:0:0:0:
320,192,73594,128,0,73740:0:0:0:0:
64,192,73740,1,2,0:0:0:0:
192,192,73740,1,0,0:0:0:0:
320,192,73887,1,2,0:0:0:0:
448,192,73887,1,0,0:0:0:0:
64,192,74033,1,8,0:0:0:0:
192,192,74033,128,0,74179:0:0:0:0:
448,192,74033,1,0,0:0:0:0:
64,192,74179,1,2,0:0:0:0:
320,192,74179,1,0,0:0:0:0:
320,192,74326,1,0,0:0:0:0:
64,192,74472,1,2,0:0:0:0:
192,192,74472,1,0,0:0:0:0:
64,192,74618,1,8,0:0:0:0:
320,192,74618,1,0,0:0:0:0:
448,192,74618,1,0,0:0:0:0:
320,192,74765,128,0,74911:0:0:0:0:
64,192,74838,1,8,0:0:0:0:
192,192,74911,1,2,0:0:0:0:
448,192,74911,1,0,0:0:0:0:
64,192,75057,1,2,0:0:0:0:
192,192,75057,1,0,0:0:0:0:
64,192,75204,1,8,0:0:0:0:
320,192,75204,128,0,75350:0:0:0:0:
448,192,75204,1,0,0:0:0:0:
64,192,75496,128,2,75643:0:0:0:0:
192,192,75496,1,4,0:0:0:0:
448,192,75496,128,0,75643:0:0:0:0:
64,192,75789,1,8,0:0:0:0:
192,192,75789,1,0,0:0:0:0:
320,192,75789,1,0,0:0:0:0:
320,192,75935,1,2,0:0:0:0:
448,192,75935,1,0,0:0:0:0:
64,192,76082,1,8,0:0:0:0:
192,192,76082,1,0,0:0:0:0:
448,192,76082,1,0,0:0:0:0:
64,192,76228,1,2,0:0:0:0:
320,192,76228,1,0,0:0:0:0:
192,192,76374,1,8,0:0:0:0:
320,192,76374,1,0,0:0:0:0:
448,192,76374,1,0,0:0:0:0:
64,192,76521,1,2,0:0:0:0:
192,192,76521,1,0,0:0:0:0:
64,192,76667,1,8,0:0:0:0:
320,192,76667,1,0,0:0:0:0:
448,192,76667,1,0,0:0:0:0:
192,192,76813,1,2,0:0:0:0:
448,192,76813,1,0,0:0:0:0:
320,192,76887,1,2,0:0:0:0:
64,192,76960,1,8,0:0:0:0:
192,192,76960,1,0,0:0:0:0:
448,192,76960,1,0,0:0:0:0:
64,192,77106,1,2,0:0:0:0:
320,192,77106,1,0,0:0:0:0:
192,192,77252,1,8,0:0:0:0:
320,192,77252,1,0,0:0:0:0:
448,192,77252,1,0,0:0:0:0:
64,192,77399,1,2,0:0:0:0:
448,192,77399,1,0,0:0:0:0:
320,192,77472,1,2,0:0:0:0:
64,192,77545,1,8,0:0:0:0:
192,192,77545,1,0,0:0:0:0:
192,192,77691,1,2,0:0:0:0:
320,192,77691,1,0,0:0:0:0:
64,192,77838,1,8,0:0:0:0:
320,192,77838,1,0,0:0:0:70:Crash.wav
448,192,77838,1,0,0:0:0:0:
64,192,77984,1,2,0:0:0:0:
192,192,77984,1,0,0:0:0:0:
320,192,78057,1,2,0:0:0:0:
64,192,78130,1,8,0:0:0:0:
192,192,78130,1,0,0:0:0:0:
448,192,78130,1,0,0:0:0:0:
320,192,78277,1,2,0:0:0:0:
448,192,78277,1,0,0:0:0:0:
64,192,78423,1,8,0:0:0:0:
192,192,78423,1,0,0:0:0:0:
320,192,78423,1,0,0:0:0:0:
64,192,78569,1,2,0:0:0:0:
448,192,78569,1,0,0:0:0:0:
192,192,78643,1,2,0:0:0:0:
64,192,78716,1,8,0:0:0:0:
320,192,78716,1,0,0:0:0:0:
448,192,78716,1,0,0:0:0:0:
192,192,78862,1,2,0:0:0:0:
320,192,78862,1,0,0:0:0:0:
64,192,79009,1,8,0:0:0:0:
192,192,79009,1,0,0:0:0:70:LR_Cymbal.wav
448,192,79082,1,2,0:0:0:0:
64,192,79155,1,2,0:0:0:0:
320,192,79155,1,0,0:0:0:0:
192,192,79228,1,2,0:0:0:0:
320,192,79301,1,8,0:0:0:0:
448,192,79301,1,0,0:0:0:70:LR_Cymbal.wav
192,192,79374,1,2,0:0:0:0:
64,192,79448,1,2,0:0:0:0:
448,192,79448,1,0,0:0:0:0:
320,192,79521,1,2,0:0:0:0:
64,192,79594,1,8,0:0:0:0:
192,192,79594,1,0,0:0:0:70:LR_Cymbal.wav
320,192,79667,1,2,0:0:0:0:
192,192,79740,1,2,0:0:0:0:
448,192,79740,1,0,0:0:0:0:
64,192,79813,1,2,0:0:0:0:
320,192,79887,1,8,0:0:0:0:
448,192,79887,1,0,0:0:0:0:
64,192,79960,1,8,0:0:0:0:
192,192,79960,1,0,0:0:0:0:
320,192,80033,1,8,0:0:0:0:
448,192,80033,1,0,0:0:0:0:
192,192,80106,1,8,0:0:0:0:
64,192,80179,1,4,0:0:0:0:
320,192,80179,1,2,0:0:0:0:
448,192,80179,1,0,0:0:0:0:
64,192,80326,1,2,0:0:0:0:
192,192,80326,1,0,0:0:0:0:
192,192,80472,1,8,0:0:0:0:
320,192,80472,1,0,0:0:0:0:
448,192,80472,1,0,0:0:0:0:
64,192,80618,128,0,80765:0:0:0:0:
320,192,80765,1,2,0:0:0:0:
448,192,80765,1,0,0:0:0:0:
64,192,80911,1,2,0:0:0:0:
448,192,80911,1,0,0:0:0:0:
64,192,81057,1,8,0:0:0:0:
192,192,81057,128,0,81204:0:0:0:0:
320,192,81057,1,0,0:0:0:0:
320,192,81204,1,2,0:0:0:0:
448,192,81204,1,0,0:0:0:0:
64,192,81350,1,0,0:0:0:0:
192,192,81496,1,2,0:0:0:0:
320,192,81496,1,0,0:0:0:0:
64,192,81643,1,8,0:0:0:0:
320,192,81643,1,0,0:0:0:0:
448,192,81643,1,0,0:0:0:0:
448,192,81789,128,0,81935:0:0:0:0:
192,192,81862,1,8,0:0:0:0:
64,192,81935,1,2,0:0:0:0:
320,192,81935,1,0,0:0:0:0:
64,192,82082,1,2,0:0:0:0:
192,192,82082,1,0,0:0:0:0:
192,192,82228,1,8,0:0:0:0:
320,192,82228,1,0,0:0:0:0:
448,192,82228,128,0,82374:0:0:0:0:
64,192,82521,1,2,0:0:0:0:
192,192,82521,1,4,0:0:0:0:
320,192,82521,1,0,0:0:0:0:
64,192,82667,1,2,0:0:0:0:
448,192,82667,1,0,0:0:0:0:
192,192,82813,1,8,0:0:0:0:
320,192,82813,1,0,0:0:0:0:
448,192,82813,1,0,0:0:0:0:
64,192,82960,128,0,83106:0:0:0:0:
192,192,83106,1,2,0:0:0:0:
320,192,83106,1,0,0:0:0:0:
320,192,83252,1,2,0:0:0:0:
448,192,83252,1,0,0:0:0:0:
64,192,83399,1,8,0:0:0:0:
192,192,83399,1,0,0:0:0:0:
448,192,83399,128,0,83545:0:0:0:0:
64,192,83545,1,2,0:0:0:0:
320,192,83545,1,0,0:0:0:0:
448,192,83691,1,0,0:0:0:0:
64,192,83838,1,2,0:0:0:0:
192,192,83838,1,0,0:0:0:0:
64,192,83984,1,8,0:0:0:0:
320,192,83984,1,0,0:0:0:0:
448,192,83984,1,0,0:0:0:0:
192,192,84130,128,0,84277:0:0:0:0:
448,192,84204,1,8,0:0:0:0:
64,192,84277,1,2,0:0:0:0:
320,192,84277,1,0,0:0:0:0:
64,192,84423,1,2,0:0:0:0:
192,192,84423,1,0,0:0:0:0:
192,192,84569,1,8,0:0:0:0:
320,192,84569,1,0,0:0:0:0:
448,192,84569,128,0,84716:0:0:0:0:
64,192,84716,1,8,0:0:0:0:
320,192,84716,1,0,0:0:0:0:
192,192,84789,1,8,0:0:0:0:
64,192,84862,1,2,0:0:0:0:
320,192,84862,1,4,0:0:0:0:
448,192,84862,1,0,0:0:0:0:
192,192,85009,1,2,0:0:0:0:
448,192,85009,1,0,0:0:0:0:
64,192,85155,1,8,0:0:0:0:
192,192,85155,1,0,0:0:0:0:
320,192,85155,1,0,0:0:0:0:
448,192,85301,128,0,85448:0:0:0:0:
192,192,85448,1,2,0:0:0:0:
320,192,85448,1,0,0:0:0:0:
64,192,85594,1,2,0:0:0:0:
192,192,85594,1,0,0:0:0:0:
64,192,85740,128,8,85887:0:0:0:0:
320,192,85740,1,0,0:0:0:0:
448,192,85740,1,0,0:0:0:0:
192,192,85887,1,2,0:0:0:0:
448,192,85887,1,0,0:0:0:0:
64,192,86033,1,0,0:0:0:0:
192,192,86179,1,2,0:0:0:0:
320,192,86179,1,0,0:0:0:0:
64,192,86326,1,8,0:0:0:0:
320,192,86326,1,0,0:0:0:0:
448,192,86326,1,0,0:0:0:0:
192,192,86472,128,0,86618:0:0:0:0:
320,192,86545,1,8,0:0:0:0:
64,192,86618,1,2,0:0:0:0:
448,192,86618,1,0,0:0:0:0:
192,192,86765,1,2,0:0:0:0:
320,192,86765,1,0,0:0:0:0:
64,192,86911,1,8,0:0:0:0:
192,192,86911,1,0,0:0:0:0:
448,192,86911,1,0,0:0:0:0:
64,192,87204,1,2,0:0:0:0:
192,192,87204,1,4,0:0:0:0:
320,192,87204,1,0,0:0:0:0:
320,192,87350,1,2,0:0:0:0:
448,192,87350,1,0,0:0:0:0:
64,192,87496,1,8,0:0:0:0:
192,192,87496,1,0,0:0:0:0:
448,192,87496,1,0,0:0:0:0:
320,192,87643,128,0,87789:0:0:0:0:
64,192,87789,1,2,0:0:0:0:
192,192,87789,1,0,0:0:0:0:
320,192,87935,1,2,0:0:0:0:
448,192,87935,1,0,0:0:0:0:
64,192,88082,128,8,88228:0:0:0:0:
192,192,88082,1,0,0:0:0:0:
320,192,88082,1,0,0:0:0:0:
192,192,88228,1,2,0:0:0:0:
448,192,88228,1,0,0:0:0:0:
320,192,88374,1,0,0:0:0:0:
64,192,88521,1,2,0:0:0:0:
192,192,88521,1,0,0:0:0:0:
64,192,88667,1,8,0:0:0:0:
320,192,88667,1,0,0:0:0:0:
448,192,88667,1,0,0:0:0:0:
64,192,88887,1,8,0:0:0:0:
192,192,88887,1,0,0:0:0:0:
320,192,88960,128,2,89106:0:0:0:0:
448,192,88960,1,0,0:0:0:0:
64,192,89106,1,2,0:0:0:0:
192,192,89106,1,0,0:0:0:0:
192,192,89252,128,8,89399:0:0:0:0:
320,192,89252,1,0,0:0:0:0:
64,192,89399,1,8,0:0:0:0:
448,192,89399,1,0,0:0:0:0:
320,192,89472,1,8,0:0:0:0:
64,192,89545,128,2,89691:0:0:0:0:
192,192,89545,128,4,89691:0:0:0:0:
448,192,89545,1,0,0:0:0:0:
192,192,89838,1,8,0:0:0:0:
320,192,89838,1,0,0:0:0:0:
448,192,89838,1,0,0:0:0:0:
64,192,89984,1,2,0:0:0:0:
320,192,89984,1,0,0:0:0:0:
64,192,90130,1,8,0:0:0:0:
192,192,90130,1,0,0:0:0:0:
448,192,90130,1,0,0:0:0:0:
192,192,90277,1,2,0:0:0:0:
320,192,90277,1,0,0:0:0:0:
64,192,90423,1,8,0:0:0:0:
320,192,90423,1,0,0:0:0:0:
448,192,90423,1,0,0:0:0:0:
64,192,90569,1,2,0:0:0:0:
192,192,90569,1,0,0:0:0:0:
192,192,90716,1,8,0:0:0:0:
320,192,90716,1,0,0:0:0:0:
448,192,90716,1,0,0:0:0:0:
64,192,90862,1,2,0:0:0:0:
448,192,90862,1,0,0:0:0:0:
320,192,90935,1,2,0:0:0:0:
64,192,91009,1,8,0:0:0:0:
192,192,91009,1,0,0:0:0:0:
448,192,91009,1,0,0:0:0:0:
192,192,91155,1,2,0:0:0:0:
320,192,91155,1,0,0:0:0:0:
64,192,91301,1,8,0:0:0:0:
320,192,91301,1,0,0:0:0:0:
448,192,91301,1,0,0:0:0:0:
64,192,91448,1,2,0:0:0:0:
448,192,91448,1,0,0:0:0:0:
192,192,91521,1,2,0:0:0:0:
64,192,91594,1,8,0:0:0:0:
320,192,91594,1,0,0:0:0:0:
448,192,91594,1,0,0:0:0:0:
192,192,91740,1,2,0:0:0:0:
320,192,91740,1,0,0:0:0:0:
64,192,91887,1,8,0:0:0:0:
192,192,91887,1,0,0:0:0:70:Crash.wav
448,192,91887,1,0,0:0:0:0:
320,192,92033,1,2,0:0:0:0:
448,192,92033,1,0,0:0:0:0:
192,192,92106,1,2,0:0:0:0:
64,192,92179,1,8,0:0:0:0:
320,192,92179,1,0,0:0:0:0:
448,192,92179,1,0,0:0:0:0:
64,192,92326,1,2,0:0:0:0:
192,192,92326,1,0,0:0:0:0:
192,192,92472,1,8,0:0:0:0:
320,192,92472,1,0,0:0:0:0:
448,192,92472,1,0,0:0:0:0:
64,192,92618,1,2,0:0:0:0:
320,192,92618,1,0,0:0:0:0:
192,192,92691,1,2,0:0:0:0:
64,192,92765,1,8,0:0:0:0:
320,192,92765,1,0,0:0:0:0:
448,192,92765,1,0,0:0:0:0:
192,192,92911,1,2,0:0:0:0:
448,192,92911,1,0,0:0:0:0:
64,192,93057,1,8,0:0:0:0:
192,192,93057,1,0,0:0:0:70:LR_Cymbal.wav
320,192,93130,1,2,0:0:0:0:
192,192,93204,1,2,0:0:0:0:
448,192,93204,1,0,0:0:0:0:
64,192,93277,1,2,0:0:0:0:
320,192,93350,1,8,0:0:0:0:
448,192,93350,1,0,0:0:0:70:LR_Cymbal.wav
192,192,93423,1,2,0:0:0:0:
64,192,93496,1,2,0:0:0:0:
448,192,93496,1,0,0:0:0:0:
320,192,93569,1,2,0:0:0:0:
64,192,93643,1,8,0:0:0:0:
192,192,93643,1,0,0:0:0:70:LR_Cymbal.wav
320,192,93716,1,2,0:0:0:0:
64,192,93789,1,2,0:0:0:0:
448,192,93789,1,0,0:0:0:0:
192,192,93862,1,2,0:0:0:0:
320,192,93935,1,8,0:0:0:0:
448,192,93935,1,0,0:0:0:0:
64,192,94009,1,8,0:0:0:0:
192,192,94009,1,0,0:0:0:0:
320,192,94082,1,8,0:0:0:0:
448,192,94082,1,0,0:0:0:0:
192,192,94155,1,8,0:0:0:0:
64,192,94228,1,2,0:0:0:0:
320,192,94228,128,4,94374:0:0:0:0:
448,192,94228,1,0,0:0:0:0:
64,192,94374,1,2,0:0:0:0:
192,192,94374,128,0,94521:0:0:0:0:
320,192,94521,128,8,94667:0:0:0:0:
448,192,94521,1,0,0:0:0:0:
192,192,94667,128,0,94813:0:0:0:0:
64,192,94813,128,2,94960:0:0:0:0:
448,192,94813,1,0,0:0:0:0:
192,192,94960,128,2,95106:0:0:0:0:
320,192,94960,1,0,0:0:0:0:
64,192,95106,1,8,0:0:0:0:
448,192,95106,128,0,95252:0:0:0:0:
64,192,95252,128,2,95399:0:0:0:0:
192,192,95252,1,0,0:0:0:0:
320,192,95399,128,0,95545:0:0:0:0:
64,192,95545,1,2,0:0:0:0:
192,192,95545,128,0,95691:0:0:0:0:
320,192,95691,1,8,0:0:0:0:
448,192,95691,128,0,95984:0:0:0:0:
64,192,95984,1,2,0:0:0:0:
192,192,95984,128,0,96130:0:0:0:0:
320,192,96130,1,2,0:0:0:0:
448,192,96130,128,0,96277:0:0:0:0:
64,192,96277,1,8,0:0:0:0:
192,192,96277,128,0,96423:0:0:0:0:
320,192,96423,128,0,96569:0:0:0:0:
64,192,96569,128,2,96716:0:0:0:0:
192,192,96569,1,4,0:0:0:0:
448,192,96569,1,0,0:0:0:0:
320,192,96716,1,2,0:0:0:0:
448,192,96716,128,0,96862:0:0:0:0:
192,192,96862,128,8,97009:0:0:0:0:
320,192,96862,1,0,0:0:0:0:
64,192,97009,128,0,97155:0:0:0:0:
320,192,97155,1,2,0:0:0:0:
448,192,97155,128,0,97301:0:0:0:0:
64,192,97301,1,2,0:0:0:0:
320,192,97301,128,0,97448:0:0:0:0:
64,192,97448,128,8,97594:0:0:0:0:
192,192,97448,1,0,0:0:0:0:
320,192,97594,128,2,97740:0:0:0:0:
448,192,97594,1,0,0:0:0:0:
192,192,97740,128,0,98033:0:0:0:0:
448,192,97740,128,0,97887:0:0:0:0:
64,192,97887,1,2,0:0:0:0:
320,192,97887,128,0,98033:0:0:0:0:
64,192,98033,128,8,98179:0:0:0:0:
448,192,98033,128,0,98326:0:0:0:0:
192,192,98179,128,0,98326:0:0:0:0:
64,192,98326,128,2,98618:0:0:0:0:
320,192,98326,128,0,98472:0:0:0:0:
192,192,98472,1,2,0:0:0:0:
448,192,98472,128,0,98618:0:0:0:0:
192,192,98618,128,8,98765:0:0:0:0:
320,192,98618,128,0,98765:0:0:0:0:
64,192,98765,1,8,0:0:0:0:
448,192,98765,1,0,0:0:0:0:
192,192,98838,1,8,0:0:0:0:
64,192,98911,128,2,99057:0:0:0:0:
320,192,98911,1,4,0:0:0:0:
448,192,98911,128,0,99057:0:0:0:0:
64,192,99204,1,8,0:0:0:0:
192,192,99204,1,0,0:0:0:0:
320,192,99204,1,0,0:0:0:0:
320,192,99350,1,2,0:0:0:0:
448,192,99350,1,0,0:0:0:0:
64,192,99496,1,8,0:0:0:0:
192,192,99496,1,0,0:0:0:0:
448,192,99496,1,0,0:0:0:0:
64,192,99643,1,2,0:0:0:0:
320,192,99643,1,0,0:0:0:0:
192,192,99716,1,2,0:0:0:0:
64,192,99789,1,8,0:0:0:0:
320,192,99789,1,0,0:0:0:0:
448,192,99789,1,0,0:0:0:0:
192,192,99935,1,2,0:0:0:0:
448,192,99935,1,0,0:0:0:0:
64,192,100082,1,8,0:0:0:0:
192,192,100082,1,0,0:0:0:0:
320,192,100082,1,0,0:0:0:0:
320,192,100228,1,2,0:0:0:0:
448,192,100228,1,0,0:0:0:0:
64,192,100374,1,8,0:0:0:0:
192,192,100374,1,0,0:0:0:0:
448,192,100374,1,0,0:0:0:0:
64,192,100521,1,2,0:0:0:0:
320,192,100521,1,0,0:0:0:0:
192,192,100667,1,8,0:0:0:0:
320,192,100667,1,0,0:0:0:0:
448,192,100667,1,0,0:0:0:0:
64,192,100813,1,2,0:0:0:0:
192,192,100813,1,0,0:0:0:0:
320,192,100887,1,2,0:0:0:0:
64,192,100960,1,8,0:0:0:0:
192,192,100960,1,0,0:0:0:70:Crash.wav
448,192,100960,1,0,0:0:0:0:
320,192,101106,1,2,0:0:0:0:
448,192,101106,1,0,0:0:0:0:
64,192,101252,1,8,0:0:0:0:
192,192,101252,1,0,0:0:0:70:LR_Cymbal.wav
320,192,101326,1,2,0:0:0:0:
64,192,101399,1,2,0:0:0:0:
448,192,101399,1,0,0:0:0:0:
192,192,101472,1,2,0:0:0:0:
320,192,101545,1,8,0:0:0:0:
448,192,101545,1,0,0:0:0:70:LR_Cymbal.wav
192,192,101618,1,2,0:0:0:0:
64,192,101691,1,2,0:0:0:0:
448,192,101691,1,0,0:0:0:0:
320,192,101765,1,2,0:0:0:0:
64,192,101838,1,8,0:0:0:0:
192,192,101838,1,0,0:0:0:70:LR_Cymbal.wav
320,192,101911,1,2,0:0:0:0:
192,192,101984,1,2,0:0:0:0:
448,192,101984,1,0,0:0:0:0:
64,192,102057,1,2,0:0:0:0:
320,192,102130,1,8,0:0:0:0:
448,192,102130,1,0,0:0:0:70:LR_Cymbal.wav
64,192,102204,1,2,0:0:0:0:
192,192,102277,1,2,0:0:0:0:
320,192,102277,1,0,0:0:0:0:
448,192,102350,1,2,0:0:0:0:
64,192,102423,1,8,0:0:0:0:
192,192,102423,1,0,0:0:0:70:Crash.wav
320,192,102496,1,2,0:0:0:0:
64,192,102569,1,2,0:0:0:0:
448,192,102569,1,0,0:0:0:0:
320,192,102643,1,2,0:0:0:0:
64,192,102716,1,8,0:0:0:0:
192,192,102716,1,0,0:0:0:70:Crash.wav
320,192,102789,1,2,0:0:0:0:
64,192,102862,1,2,0:0:0:0:
448,192,102862,1,0,0:0:0:0:
192,192,102935,1,2,0:0:0:0:
320,192,103009,1,8,0:0:0:0:
448,192,103009,1,0,0:0:0:0:
64,192,103082,1,8,0:0:0:0:
192,192,103082,1,0,0:0:0:0:
320,192,103155,1,8,0:0:0:0:
448,192,103155,1,0,0:0:0:0:
192,192,103228,1,8,0:0:0:0:
64,192,103301,1,0,0:0:0:70:Tom1.wav
320,192,103301,1,0,0:0:0:0:
448,192,103301,1,0,0:0:0:0:
192,192,103448,1,0,0:0:0:70:Tom2.wav
320,192,103448,1,0,0:0:0:0:
64,192,103594,1,4,0:0:0:0:
192,192,103594,1,2,0:0:0:0:
448,192,103594,1,0,0:0:0:0:
64,192,103740,1,2,0:0:0:0:
320,192,103740,1,0,0:0:0:0:
192,192,103887,1,8,0:0:0:0:
320,192,103887,1,0,0:0:0:0:
448,192,103887,1,0,0:0:0:0:
64,192,104179,1,2,0:0:0:0:
448,192,104179,1,0,0:0:0:0:
320,192,104326,1,2,0:0:0:0:
448,192,104326,1,0,0:0:0:0:
64,192,104472,1,8,0:0:0:0:
192,192,104472,1,0,0:0:0:0:
320,192,104472,1,0,0:0:0:0:
192,192,104765,1,2,0:0:0:0:
320,192,104765,1,0,0:0:0:0:
64,192,104911,1,2,0:0:0:0:
192,192,104911,1,0,0:0:0:0:
64,192,105057,1,8,0:0:0:0:
320,192,105057,1,0,0:0:0:0:
448,192,105057,1,0,0:0:0:0:
192,192,105204,1,2,0:0:0:0:
320,192,105204,1,0,0:0:0:0:
64,192,105496,1,2,0:0:0:0:
192,192,105496,1,0,0:0:0:0:
64,192,105643,1,8,0:0:0:0:
320,192,105643,1,0,0:0:0:0:
448,192,105643,1,0,0:0:0:0:
320,192,105935,1,2,0:0:0:0:
448,192,105935,1,0,0:0:0:0:
64,192,106082,1,2,0:0:0:0:
448,192,106082,1,0,0:0:0:0:
64,192,106228,1,8,0:0:0:0:
192,192,106228,1,0,0:0:0:0:
320,192,106228,1,0,0:0:0:0:
192,192,106521,1,2,0:0:0:0:
320,192,106521,1,0,0:0:0:0:
64,192,106667,1,2,0:0:0:0:
448,192,106667,1,0,0:0:0:0:
192,192,106813,1,8,0:0:0:0:
320,192,106813,1,0,0:0:0:0:
448,192,106813,1,0,0:0:0:0:
64,192,106960,1,2,0:0:0:0:
192,192,106960,1,0,0:0:0:0:
64,192,107252,1,2,0:0:0:0:
192,192,107252,1,0,0:0:0:0:
64,192,107399,1,8,0:0:0:0:
320,192,107399,1,0,0:0:0:0:
448,192,107399,1,0,0:0:0:0:
192,192,107545,1,2,0:0:0:0:
320,192,107545,1,0,0:0:0:0:
64,192,107691,1,8,0:0:0:0:
192,192,107691,1,0,0:0:0:0:
320,192,107740,1,8,0:0:0:0:
448,192,107740,1,0,0:0:0:0:
192,192,107789,1,0,0:0:0:70:Tom2.wav
64,192,107838,1,0,0:0:0:70:Tom1.wav
448,192,107887,1,2,0:0:0:0:
320,192,107935,1,2,0:0:0:0:
64,192,107984,1,8,0:0:0:0:
192,192,107984,1,0,0:0:0:70:Crash.wav
64,192,108130,128,4,108423:0:0:0:0:
320,192,108130,1,2,0:0:0:0:
448,192,108130,128,0,108423:0:0:0:0:
192,192,108423,1,2,0:0:0:0:
320,192,108423,1,0,0:0:0:0:
64,192,108569,1,8,0:0:0:0:
320,192,108569,1,0,0:0:0:0:
448,192,108569,1,0,0:0:0:0:
320,192,108862,1,2,0:0:0:0:
448,192,108862,1,0,0:0:0:0:
64,192,109009,1,2,0:0:0:0:
448,192,109009,1,0,0:0:0:0:
64,192,109155,1,8,0:0:0:0:
192,192,109155,1,0,0:0:0:0:
320,192,109155,1,0,0:0:0:0:
320,192,109448,1,2,0:0:0:0:
448,192,109448,1,0,0:0:0:0:
192,192,109594,1,2,0:0:0:0:
320,192,109594,1,0,0:0:0:0:
64,192,109740,1,8,0:0:0:0:
192,192,109740,1,0,0:0:0:0:
448,192,109740,1,0,0:0:0:0:
64,192,110033,1,2,0:0:0:0:
192,192,110033,1,0,0:0:0:0:
320,192,110179,1,2,0:0:0:0:
448,192,110179,1,0,0:0:0:0:
64,192,110326,1,8,0:0:0:0:
192,192,110326,1,0,0:0:0:0:
320,192,110326,1,0,0:0:0:0:
64,192,110472,128,2,110765:0:0:0:0:
192,192,110472,1,4,0:0:0:0:
448,192,110472,128,0,110765:0:0:0:0:
192,192,110765,1,2,0:0:0:0:
320,192,110765,1,0,0:0:0:0:
64,192,110911,1,8,0:0:0:0:
192,192,110911,1,0,0:0:0:70:LR_Cymbal.wav
320,192,110911,1,0,0:0:0:0:
64,192,111057,1,2,0:0:0:0:
448,192,111057,1,0,0:0:0:0:
192,192,111204,1,8,0:0:0:0:
320,192,111204,1,0,0:0:0:70:LR_Cymbal.wav
448,192,111204,1,0,0:0:0:0:
64,192,111350,1,2,0:0:0:0:
192,192,111350,1,0,0:0:0:0:
64,192,111496,1,8,0:0:0:0:
320,192,111496,1,0,0:0:0:70:LR_Cymbal.wav
448,192,111496,1,0,0:0:0:0:
192,192,111643,1,2,0:0:0:0:
448,192,111643,1,0,0:0:0:0:
64,192,111789,1,8,0:0:0:0:
192,192,111789,1,0,0:0:0:70:LR_Cymbal.wav
320,192,111789,1,0,0:0:0:0:
64,192,111935,1,2,0:0:0:0:
448,192,111935,1,0,0:0:0:0:
192,192,112082,1,8,0:0:0:0:
320,192,112082,1,0,0:0:0:70:Crash.wav
448,192,112082,1,0,0:0:0:0:
64,192,112228,1,0,0:0:0:0:
192,192,112228,1,0,0:0:0:0:
320,192,112374,1,8,0:0:0:0:
448,192,112374,1,0,0:0:0:0:
64,192,112423,1,8,0:0:0:0:
192,192,112423,1,0,0:0:0:0:
320,192,112472,1,0,0:0:0:70:Tom2.wav
448,192,112521,1,0,0:0:0:70:Tom1.wav
64,192,112569,1,2,0:0:0:0:
192,192,112618,1,2,0:0:0:0:
320,192,112667,1,8,0:0:0:0:
448,192,112667,1,0,0:0:0:70:Crash.wav
64,192,112813,128,2,113106:0:0:0:0:
192,192,112813,128,4,113106:0:0:0:0:
320,192,112813,1,0,0:0:0:0:
320,192,113106,1,2,0:0:0:0:
448,192,113106,1,0,0:0:0:0:
64,192,113252,1,8,0:0:0:0:
192,192,113252,1,0,0:0:0:0:
448,192,113252,1,0,0:0:0:0:
320,192,113545,1,2,0:0:0:0:
448,192,113545,1,0,0:0:0:0:
64,192,113691,1,2,0:0:0:0:
448,192,113691,1,0,0:0:0:0:
64,192,113838,1,8,0:0:0:0:
192,192,113838,1,0,0:0:0:0:
320,192,113838,1,0,0:0:0:0:
64,192,114130,1,2,0:0:0:0:
448,192,114130,1,0,0:0:0:0:
192,192,114277,1,2,0:0:0:0:
320,192,114277,1,0,0:0:0:0:
64,192,114423,1,8,0:0:0:0:
320,192,114423,1,0,0:0:0:0:
448,192,114423,1,0,0:0:0:0:
64,192,114716,1,2,0:0:0:0:
192,192,114716,1,0,0:0:0:0:
64,192,114862,1,2,0:0:0:0:
320,192,114862,1,0,0:0:0:0:
192,192,115009,1,8,0:0:0:0:
320,192,115009,1,0,0:0:0:0:
448,192,115009,1,0,0:0:0:0:
64,192,115155,128,4,115448:0:0:0:0:
192,192,115155,1,2,0:0:0:0:
448,192,115155,128,0,115448:0:0:0:0:
192,192,115448,1,2,0:0:0:0:
320,192,115448,1,0,0:0:0:0:
64,192,115594,1,8,0:0:0:0:
320,192,115594,1,0,0:0:0:0:
448,192,115594,1,0,0:0:0:0:
320,192,115887,1,2,0:0:0:0:
448,192,115887,1,0,0:0:0:0:
192,192,116033,1,2,0:0:0:0:
320,192,116033,1,0,0:0:0:0:
64,192,116179,1,8,0:0:0:0:
192,192,116179,1,0,0:0:0:0:
448,192,116179,1,0,0:0:0:0:
320,192,116472,1,2,0:0:0:0:
448,192,116472,1,0,0:0:0:0:
64,192,116618,1,2,0:0:0:0:
192,192,116618,1,0,0:0:0:0:
64,192,116765,1,8,0:0:0:0:
320,192,116765,1,0,0:0:0:0:
448,192,116765,1,0,0:0:0:0:
320,192,117057,1,2,0:0:0:0:
448,192,117057,1,0,0:0:0:0:
64,192,117204,1,2,0:0:0:0:
448,192,117204,1,0,0:0:0:0:
64,192,117350,1,8,0:0:0:0:
192,192,117350,1,0,0:0:0:0:
320,192,117350,1,0,0:0:0:0:
192,192,117496,128,2,117789:0:0:0:0:
320,192,117496,128,4,117789:0:0:0:0:
448,192,117496,1,0,0:0:0:0:
64,192,117789,1,2,0:0:0:0:
448,192,117789,1,0,0:0:0:0:
192,192,117935,1,8,0:0:0:0:
320,192,117935,1,0,0:0:0:0:
448,192,117935,1,0,0:0:0:0:
64,192,118082,1,2,0:0:0:0:
192,192,118082,1,0,0:0:0:0:
64,192,118228,1,8,0:0:0:0:
320,192,118228,1,0,0:0:0:0:
448,192,118228,1,0,0:0:0:0:
192,192,118374,1,2,0:0:0:0:
448,192,118374,1,0,0:0:0:0:
64,192,118521,1,8,0:0:0:0:
192,192,118521,1,0,0:0:0:0:
320,192,118521,1,0,0:0:0:0:
320,192,118667,1,2,0:0:0:0:
448,192,118667,1,0,0:0:0:0:
64,192,118813,1,8,0:0:0:0:
192,192,118813,1,0,0:0:0:0:
448,192,118813,1,0,0:0:0:0:
192,192,118960,1,2,0:0:0:0:
320,192,118960,1,0,0:0:0:0:
64,192,119106,1,8,0:0:0:0:
320,192,119106,1,0,0:0:0:70:Crash.wav
448,192,119106,1,0,0:0:0:0:
64,192,119252,1,2,0:0:0:0:
448,192,119252,1,0,0:0:0:0:
192,192,119399,1,2,0:0:0:0:
320,192,119399,1,0,0:0:0:70:Crash.wav
448,192,119399,1,0,0:0:0:0:
64,192,119545,1,8,0:0:0:0:
192,192,119545,1,0,0:0:0:0:
320,192,119618,1,8,0:0:0:0:
448,192,119618,1,0,0:0:0:0:
64,192,119691,1,8,0:0:0:0:
192,192,119691,1,0,0:0:0:0:
64,192,119838,1,2,0:0:0:0:
320,192,119838,1,4,0:0:0:0:
448,192,119838,1,0,0:0:0:0:
192,192,120130,1,2,0:0:0:0:
320,192,120130,1,0,0:0:0:0:
64,192,120277,1,8,0:0:0:0:
192,192,120277,1,0,0:0:0:70:LR_Cymbal.wav
448,192,120277,1,0,0:0:0:0:
320,192,120423,1,2,0:0:0:0:
448,192,120423,1,0,0:0:0:0:
192,192,120496,1,2,0:0:0:0:
64,192,120569,1,8,0:0:0:0:
320,192,120569,1,0,0:0:0:70:LR_Cymbal.wav
448,192,120569,1,0,0:0:0:0:
64,192,120716,1,2,0:0:0:0:
192,192,120716,1,0,0:0:0:0:
320,192,120789,1,2,0:0:0:0:
64,192,120862,1,8,0:0:0:0:
192,192,120862,1,0,0:0:0:70:LR_Cymbal.wav
448,192,120862,1,0,0:0:0:0:
320,192,121009,1,2,0:0:0:0:
448,192,121009,1,0,0:0:0:0:
192,192,121082,1,2,0:0:0:0:
64,192,121155,1,8,0:0:0:0:
320,192,121155,1,0,0:0:0:70:LR_Cymbal.wav
448,192,121155,1,0,0:0:0:0:
64,192,121301,1,2,0:0:0:0:
192,192,121301,1,0,0:0:0:0:
320,192,121374,1,2,0:0:0:0:
64,192,121448,1,8,0:0:0:0:
192,192,121448,1,0,0:0:0:70:LR_Cymbal.wav
448,192,121448,1,0,0:0:0:0:
320,192,121594,1,0,0:0:0:70:Tom1.wav
448,192,121594,1,0,0:0:0:0:
64,192,121740,1,0,0:0:0:70:Tom2.wav
192,192,121740,1,0,0:0:0:0:
192,192,121887,1,0,0:0:0:70:Tom3.wav
320,192,121887,1,0,0:0:0:0:
64,192,122033,1,2,0:0:0:0:
320,192,122033,128,0,122179:0:0:0:70:Crash.wav
448,192,122033,128,0,122179:0:0:0:0:
64,192,122179,1,8,0:0:0:0:
192,192,122179,1,0,0:0:0:0:
64,192,122326,128,4,122618:0:0:0:0:
192,192,122326,128,2,122618:0:0:0:0:
320,192,122326,1,0,0:0:0:0:
320,192,122618,1,2,0:0:0:0:
448,192,122618,1,0,0:0:0:0:
64,192,122765,1,8,0:0:0:0:
192,192,122765,1,0,0:0:0:0:
320,192,122765,1,0,0:0:0:0:
448,192,122911,1,0,0:0:0:0:
192,192,123057,1,2,0:0:0:0:
320,192,123057,1,0,0:0:0:0:
64,192,123204,1,8,0:0:0:0:
192,192,123204,1,0,0:0:0:0:
448,192,123204,1,0,0:0:0:0:
64,192,123350,1,2,0:0:0:0:
320,192,123350,1,0,0:0:0:0:
448,192,123496,1,0,0:0:0:0:
192,192,123643,1,0,0:0:0:70:Tom1.wav
320,192,123643,1,0,0:0:0:0:
448,192,123789,1,0,0:0:0:0:
64,192,123935,1,0,0:0:0:70:Tom2.wav
192,192,123935,1,0,0:0:0:0:
64,192,124082,1,8,0:0:0:0:
320,192,124082,1,0,0:0:0:0:
448,192,124082,1,0,0:0:0:0:
192,192,124228,1,2,0:0:0:0:
320,192,124228,1,0,0:0:0:0:
64,192,124374,1,8,0:0:0:0:
192,192,124374,1,0,0:0:0:0:
448,192,124374,1,0,0:0:0:0:
64,192,124521,1,8,0:0:0:0:
320,192,124521,1,0,0:0:0:0:
448,192,124521,1,0,0:0:0:0:
192,192,124667,1,4,0:0:0:0:
320,192,124667,128,2,124960:0:0:0:0:
448,192,124667,128,0,124960:0:0:0:0:
64,192,124960,1,2,0:0:0:0:
192,192,124960,1,0,0:0:0:0:
192,192,125106,1,8,0:0:0:0:
320,192,125106,1,0,0:0:0:0:
448,192,125106,1,0,0:0:0:0:
64,192,125252,1,0,0:0:0:0:
192,192,125399,1,2,0:0:0:0:
320,192,125399,1,0,0:0:0:0:
64,192,125545,1,8,0:0:0:0:
320,192,125545,1,0,0:0:0:0:
448,192,125545,1,0,0:0:0:0:
192,192,125691,1,2,0:0:0:0:
448,192,125691,1,0,0:0:0:0:
64,192,125838,1,0,0:0:0:0:
320,192,125984,1,0,0:0:0:70:Tom1.wav
448,192,125984,1,0,0:0:0:0:
64,192,126130,1,0,0:0:0:0:
192,192,126277,1,0,0:0:0:70:Tom2.wav
320,192,126277,1,0,0:0:0:0:
64,192,126423,1,8,0:0:0:0:
192,192,126423,1,0,0:0:0:0:
448,192,126423,1,0,0:0:0:0:
64,192,126569,1,2,0:0:0:0:
320,192,126569,1,0,0:0:0:0:
192,192,126716,1,8,0:0:0:0:
320,192,126716,128,0,126862:0:0:0:70:Crash.wav
448,192,126716,128,0,126862:0:0:0:0:
64,192,127009,128,2,127301:0:0:0:0:
192,192,127009,1,4,0:0:0:0:
448,192,127009,128,0,127301:0:0:0:0:
192,192,127301,1,2,0:0:0:0:
320,192,127301,1,0,0:0:0:0:
64,192,127448,1,8,0:0:0:0:
320,192,127448,1,0,0:0:0:0:
448,192,127448,1,0,0:0:0:0:
192,192,127594,1,0,0:0:0:0:
64,192,127740,1,2,0:0:0:0:
448,192,127740,1,0,0:0:0:0:
64,192,127887,1,8,0:0:0:0:
192,192,127887,1,0,0:0:0:0:
320,192,127887,1,0,0:0:0:0:
320,192,128033,1,2,0:0:0:0:
448,192,128033,1,0,0:0:0:0:
64,192,128179,1,0,0:0:0:0:
192,192,128326,1,0,0:0:0:70:Tom2.wav
320,192,128326,1,0,0:0:0:0:
64,192,128472,1,0,0:0:0:0:
320,192,128618,1,0,0:0:0:70:Tom3.wav
448,192,128618,1,0,0:0:0:0:
64,192,128765,1,8,0:0:0:0:
192,192,128765,1,0,0:0:0:0:
448,192,128765,1,0,0:0:0:0:
64,192,128911,1,2,0:0:0:0:
320,192,128911,1,0,0:0:0:0:
64,192,129057,1,8,0:0:0:0:
192,192,129057,1,0,0:0:0:0:
448,192,129057,1,0,0:0:0:0:
192,192,129204,1,8,0:0:0:0:
320,192,129204,1,0,0:0:0:0:
448,192,129204,1,0,0:0:0:0:
64,192,129350,128,4,129643:0:0:0:0:
192,192,129350,128,2,129643:0:0:0:0:
320,192,129350,1,0,0:0:0:0:
320,192,129643,1,2,0:0:0:0:
448,192,129643,1,0,0:0:0:0:
64,192,129789,1,8,0:0:0:0:
192,192,129789,1,0,0:0:0:0:
448,192,129789,1,0,0:0:0:0:
320,192,129935,1,0,0:0:0:0:
64,192,130082,1,2,0:0:0:0:
448,192,130082,1,0,0:0:0:0:
64,192,130228,1,8,0:0:0:0:
192,192,130228,1,0,0:0:0:0:
320,192,130228,1,0,0:0:0:0:
192,192,130374,1,2,0:0:0:0:
448,192,130374,1,0,0:0:0:0:
320,192,130521,1,0,0:0:0:0:
64,192,130667,1,0,0:0:0:70:Tom2.wav
192,192,130667,1,0,0:0:0:0:
320,192,130813,1,0,0:0:0:0:
64,192,130960,1,0,0:0:0:70:Tom3.wav
448,192,130960,1,0,0:0:0:0:
320,192,131106,1,8,0:0:0:0:
448,192,131106,1,0,0:0:0:0:
64,192,131179,1,0,0:0:0:70:Tom1.wav
192,192,131179,1,0,0:0:0:0:
320,192,131252,1,0,0:0:0:70:Tom2.wav
448,192,131252,1,0,0:0:0:0:
192,192,131326,1,0,0:0:0:70:Tom3.wav
64,192,131399,128,8,131545:0:0:0:0:
320,192,131399,1,0,0:0:0:70:Crash.wav
448,192,131399,128,0,131545:0:0:0:0:
64,192,131691,1,8,0:0:0:0:
192,192,131691,1,4,0:0:0:0:
320,192,131691,1,0,0:0:0:0:
320,192,131838,1,2,0:0:0:0:
448,192,131838,1,0,0:0:0:0:
64,192,131984,1,8,0:0:0:0:
192,192,131984,1,0,0:0:0:0:
448,192,131984,1,0,0:0:0:0:
64,192,132130,1,2,0:0:0:0:
320,192,132130,1,0,0:0:0:0:
192,192,132277,1,8,0:0:0:0:
320,192,132277,1,0,0:0:0:0:
448,192,132277,1,0,0:0:0:0:
64,192,132423,1,2,0:0:0:0:
192,192,132423,1,0,0:0:0:0:
320,192,132496,1,2,0:0:0:0:
64,192,132569,1,8,0:0:0:0:
192,192,132569,1,0,0:0:0:0:
448,192,132569,1,0,0:0:0:0:
320,192,132716,1,2,0:0:0:0:
448,192,132716,1,0,0:0:0:0:
64,192,132862,1,8,0:0:0:0:
192,192,132862,1,0,0:0:0:0:
320,192,132862,1,0,0:0:0:0:
64,192,133009,1,2,0:0:0:0:
448,192,133009,1,0,0:0:0:0:
192,192,133155,1,8,0:0:0:0:
320,192,133155,1,0,0:0:0:0:
448,192,133155,1,0,0:0:0:0:
64,192,133301,1,2,0:0:0:0:
320,192,133301,1,0,0:0:0:0:
64,192,133448,1,8,0:0:0:0:
192,192,133448,1,0,0:0:0:0:
448,192,133448,1,0,0:0:0:0:
320,192,133594,1,2,0:0:0:0:
448,192,133594,1,0,0:0:0:0:
64,192,133667,1,2,0:0:0:0:
192,192,133740,1,8,0:0:0:0:
320,192,133740,1,0,0:0:0:0:
448,192,133740,1,0,0:0:0:0:
64,192,133887,1,2,0:0:0:0:
192,192,133887,1,0,0:0:0:0:
64,192,134033,1,8,0:0:0:0:
320,192,134033,1,0,0:0:0:70:Crash.wav
448,192,134033,1,0,0:0:0:0:
192,192,134106,1,2,0:0:0:0:
320,192,134179,1,2,0:0:0:0:
448,192,134179,1,0,0:0:0:0:
192,192,134252,1,2,0:0:0:0:
64,192,134326,1,8,0:0:0:0:
448,192,134326,1,0,0:0:0:70:LR_Cymbal.wav
320,192,134399,1,2,0:0:0:0:
64,192,134472,1,2,0:0:0:0:
192,192,134472,1,0,0:0:0:0:
320,192,134545,1,2,0:0:0:0:
64,192,134618,1,8,0:0:0:0:
448,192,134618,1,0,0:0:0:70:LR_Cymbal.wav
192,192,134691,1,2,0:0:0:0:
320,192,134765,1,2,0:0:0:0:
448,192,134765,1,0,0:0:0:0:
192,192,134838,1,2,0:0:0:0:
64,192,134911,1,8,0:0:0:0:
320,192,134911,1,0,0:0:0:70:LR_Cymbal.wav
448,192,134984,1,2,0:0:0:0:
64,192,135057,1,2,0:0:0:0:
192,192,135057,1,0,0:0:0:0:
320,192,135130,1,2,0:0:0:0:
64,192,135204,1,8,0:0:0:0:
448,192,135204,1,0,0:0:0:0:
192,192,135277,1,8,0:0:0:0:
320,192,135277,1,0,0:0:0:0:
64,192,135350,1,2,0:0:0:0:
448,192,135350,1,0,0:0:0:0:
192,192,135423,1,2,0:0:0:0:
320,192,135496,1,8,0:0:0:0:
448,192,135496,1,0,0:0:0:0:
192,192,135569,1,0,0:0:0:0:
64,192,135643,1,2,0:0:0:0:
448,192,135643,1,0,0:0:0:0:
320,192,135716,1,2,0:0:0:0:
64,192,135789,1,2,0:0:0:0:
192,192,135789,1,8,0:0:0:0:
448,192,135789,1,0,0:0:0:0:
64,192,135935,1,2,0:0:0:0:
192,192,135935,1,8,0:0:0:0:
320,192,135935,1,0,0:0:0:0:
64,192,136374,1,4,0:0:0:0:
320,192,136374,1,2,0:0:0:0:
448,192,136374,1,0,0:0:0:0:
64,192,136521,1,2,0:0:0:0:
192,192,136521,1,0,0:0:0:0:
192,192,136667,1,8,0:0:0:0:
320,192,136667,1,0,0:0:0:0:
448,192,136667,1,0,0:0:0:0:
64,192,136813,128,0,136960:0:0:0:0:
320,192,136960,1,2,0:0:0:0:
448,192,136960,1,0,0:0:0:0:
192,192,137106,1,2,0:0:0:0:
320,192,137106,1,0,0:0:0:0:
64,192,137252,1,8,0:0:0:0:
192,192,137252,1,0,0:0:0:0:
448,192,137252,128,0,137399:0:0:0:0:
64,192,137399,1,2,0:0:0:0:
320,192,137399,1,0,0:0:0:0:
192,192,137545,1,0,0:0:0:0:
320,192,137691,1,2,0:0:0:0:
448,192,137691,1,0,0:0:0:0:
64,192,137838,1,8,0:0:0:0:
192,192,137838,1,0,0:0:0:0:
448,192,137838,1,0,0:0:0:0:
64,192,137984,128,0,138130:0:0:0:0:
448,192,138057,1,8,0:0:0:0:
192,192,138130,1,2,0:0:0:0:
320,192,138130,1,0,0:0:0:0:
320,192,138277,1,2,0:0:0:0:
448,192,138277,1,0,0:0:0:0:
64,192,138423,1,8,0:0:0:0:
192,192,138423,1,0,0:0:0:0:
448,192,138423,128,0,138569:0:0:0:0:
64,192,138716,1,2,0:0:0:0:
192,192,138716,1,4,0:0:0:0:
320,192,138716,1,0,0:0:0:0:
320,192,138862,1,2,0:0:0:0:
448,192,138862,1,0,0:0:0:0:
64,192,139009,1,8,0:0:0:0:
192,192,139009,1,0,0:0:0:0:
448,192,139009,1,0,0:0:0:0:
320,192,139155,128,0,139301:0:0:0:0:
64,192,139301,1,2,0:0:0:0:
192,192,139301,1,0,0:0:0:0:
320,192,139448,1,2,0:0:0:0:
448,192,139448,1,0,0:0:0:0:
64,192,139594,1,8,0:0:0:0:
192,192,139594,128,0,139740:0:0:0:0:
448,192,139594,1,0,0:0:0:0:
64,192,139740,1,2,0:0:0:0:
320,192,139740,1,0,0:0:0:0:
448,192,139887,1,0,0:0:0:0:
192,192,140033,1,2,0:0:0:0:
320,192,140033,1,0,0:0:0:0:
64,192,140179,1,8,0:0:0:0:
192,192,140179,1,0,0:0:0:0:
448,192,140179,1,0,0:0:0:0:
320,192,140326,128,0,140472:0:0:0:0:
192,192,140399,1,8,0:0:0:0:
64,192,140472,1,2,0:0:0:0:
448,192,140472,1,0,0:0:0:0:
192,192,140618,1,2,0:0:0:0:
448,192,140618,1,0,0:0:0:0:
64,192,140765,1,8,0:0:0:0:
192,192,140765,1,0,0:0:0:0:
320,192,140765,128,0,140911:0:0:0:0:
64,192,140911,1,8,0:0:0:0:
448,192,140911,1,0,0:0:0:0:
192,192,140984,1,8,0:0:0:0:
64,192,141057,1,2,0:0:0:0:
320,192,141057,1,4,0:0:0:0:
448,192,141057,1,0,0:0:0:0:
192,192,141204,1,2,0:0:0:0:
320,192,141204,1,0,0:0:0:0:
64,192,141350,1,8,0:0:0:0:
192,192,141350,1,0,0:0:0:0:
448,192,141350,1,0,0:0:0:0:
64,192,141496,128,0,141643:0:0:0:0:
320,192,141643,1,2,0:0:0:0:
448,192,141643,1,0,0:0:0:0:
64,192,141789,1,2,0:0:0:0:
192,192,141789,1,0,0:0:0:0:
64,192,141935,128,8,142082:0:0:0:0:
320,192,141935,1,0,0:0:0:0:
448,192,141935,1,0,0:0:0:0:
192,192,142082,1,2,0:0:0:0:
448,192,142082,1,0,0:0:0:0:
320,192,142228,1,0,0:0:0:0:
64,192,142374,1,2,0:0:0:0:
192,192,142374,1,0,0:0:0:0:
64,192,142521,1,8,0:0:0:0:
320,192,142521,1,0,0:0:0:0:
448,192,142521,1,0,0:0:0:0:
448,192,142667,128,0,142813:0:0:0:0:
64,192,142740,1,8,0:0:0:0:
192,192,142813,1,2,0:0:0:0:
320,192,142813,1,0,0:0:0:0:
320,192,142960,1,2,0:0:0:0:
448,192,142960,1,0,0:0:0:0:
64,192,143106,1,8,0:0:0:0:
192,192,143106,1,0,0:0:0:0:
448,192,143106,1,0,0:0:0:0:
64,192,143399,1,2,0:0:0:0:
192,192,143399,1,4,0:0:0:0:
320,192,143399,1,0,0:0:0:0:
320,192,143545,1,2,0:0:0:0:
448,192,143545,1,0,0:0:0:0:
64,192,143691,1,8,0:0:0:0:
192,192,143691,128,0,143838:0:0:0:0:
448,192,143691,1,0,0:0:0:0:
320,192,143984,1,2,0:0:0:0:
448,192,143984,1,0,0:0:0:0:
64,192,144130,1,2,0:0:0:0:
192,192,144130,1,0,0:0:0:0:
64,192,144277,1,8,0:0:0:0:
320,192,144277,1,0,0:0:0:0:
448,192,144277,1,0,0:0:0:0:
192,192,144423,1,2,0:0:0:0:
448,192,144423,1,0,0:0:0:0:
64,192,144569,1,0,0:0:0:0:
320,192,144716,1,2,0:0:0:0:
448,192,144716,1,0,0:0:0:0:
64,192,144862,1,8,0:0:0:0:
192,192,144862,1,0,0:0:0:0:
448,192,144862,1,0,0:0:0:0:
64,192,145082,1,8,0:0:0:0:
320,192,145155,1,2,0:0:0:0:
448,192,145155,1,0,0:0:0:0:
192,192,145301,1,2,0:0:0:0:
320,192,145301,1,0,0:0:0:0:
64,192,145448,128,8,145594:0:0:0:0:
192,192,145448,1,0,0:0:0:0:
448,192,145448,1,0,0:0:0:0:
320,192,145594,1,8,0:0:0:0:
448,192,145594,1,0,0:0:0:0:
192,192,145667,1,8,0:0:0:0:
64,192,145740,1,2,0:0:0:0:
320,192,145740,1,4,0:0:0:0:
448,192,145740,1,0,0:0:0:0:
64,192,145887,1,2,0:0:0:0:
192,192,145887,1,0,0:0:0:0:
192,192,146033,1,8,0:0:0:0:
320,192,146033,1,0,0:0:0:0:
448,192,146033,1,0,0:0:0:0:
448,192,146179,128,0,146326:0:0:0:0:
64,192,146326,1,2,0:0:0:0:
192,192,146326,1,0,0:0:0:0:
192,192,146472,1,2,0:0:0:0:
320,192,146472,1,0,0:0:0:0:
64,192,146618,1,8,0:0:0:0:
320,192,146618,128,0,146765:0:0:0:0:
448,192,146618,1,0,0:0:0:0:
448,192,146765,1,0,0:0:0:0:
64,192,146911,1,2,0:0:0:0:
192,192,146911,1,0,0:0:0:0:
64,192,147057,1,2,0:0:0:0:
448,192,147057,1,0,0:0:0:0:
192,192,147204,1,8,0:0:0:0:
320,192,147204,1,0,0:0:0:0:
448,192,147204,1,0,0:0:0:0:
64,192,147350,128,0,147496:0:0:0:0:
192,192,147423,1,8,0:0:0:0:
320,192,147496,1,2,0:0:0:0:
448,192,147496,1,0,0:0:0:0:
192,192,147643,1,2,0:0:0:0:
320,192,147643,1,0,0:0:0:0:
64,192,147789,1,8,0:0:0:0:
192,192,147789,1,0,0:0:0:0:
448,192,147789,128,0,147935:0:0:0:0:
64,192,148082,1,2,0:0:0:0:
192,192,148082,1,4,0:0:0:0:
320,192,148082,1,0,0:0:0:0:
320,192,148228,1,2,0:0:0:0:
448,192,148228,1,0,0:0:0:0:
64,192,148374,1,8,0:0:0:0:
192,192,148374,1,0,0:0:0:0:
448,192,148374,1,0,0:0:0:0:
192,192,148521,128,0,148667:0:0:0:0:
64,192,148667,1,2,0:0:0:0:
448,192,148667,1,0,0:0:0:0:
64,192,148813,1,2,0:0:0:0:
192,192,148813,1,0,0:0:0:0:
192,192,148960,1,8,0:0:0:0:
320,192,148960,128,0,149106:0:0:0:0:
448,192,148960,1,0,0:0:0:0:
64,192,149106,1,2,0:0:0:0:
448,192,149106,1,0,0:0:0:0:
192,192,149252,1,0,0:0:0:0:
320,192,149399,1,2,0:0:0:0:
448,192,149399,1,0,0:0:0:0:
64,192,149545,1,8,0:0:0:0:
192,192,149545,1,0,0:0:0:0:
448,192,149545,1,0,0:0:0:0:
192,192,149691,128,0,149838:0:0:0:0:
448,192,149765,1,8,0:0:0:0:
64,192,149838,1,2,0:0:0:0:
320,192,149838,1,0,0:0:0:0:
320,192,149984,1,2,0:0:0:0:
448,192,149984,1,0,0:0:0:0:
64,192,150130,1,8,0:0:0:0:
192,192,150130,128,0,150277:0:0:0:0:
448,192,150130,1,0,0:0:0:0:
64,192,150423,128,2,150569:0:0:0:0:
320,192,150423,1,4,0:0:0:0:
448,192,150423,128,0,150569:0:0:0:0:
192,192,150716,1,8,0:0:0:0:
320,192,150716,1,0,0:0:0:0:
448,192,150716,1,0,0:0:0:0:
64,192,150862,1,2,0:0:0:0:
192,192,150862,1,0,0:0:0:0:
64,192,151009,1,8,0:0:0:0:
320,192,151009,1,0,0:0:0:0:
448,192,151009,1,0,0:0:0:0:
192,192,151155,1,2,0:0:0:0:
448,192,151155,1,0,0:0:0:0:
64,192,151301,1,8,0:0:0:0:
192,192,151301,1,0,0:0:0:0:
320,192,151301,1,0,0:0:0:0:
320,192,151448,1,2,0:0:0:0:
448,192,151448,1,0,0:0:0:0:
64,192,151594,1,8,0:0:0:0:
192,192,151594,1,0,0:0:0:0:
448,192,151594,1,0,0:0:0:0:
64,192,151740,1,2,0:0:0:0:
320,192,151740,1,0,0:0:0:0:
192,192,151813,1,2,0:0:0:0:
64,192,151887,1,8,0:0:0:0:
320,192,151887,1,0,0:0:0:0:
448,192,151887,1,0,0:0:0:0:
192,192,152033,1,2,0:0:0:0:
448,192,152033,1,0,0:0:0:0:
64,192,152179,1,8,0:0:0:0:
192,192,152179,1,0,0:0:0:0:
320,192,152179,1,0,0:0:0:0:
64,192,152326,1,2,0:0:0:0:
448,192,152326,1,0,0:0:0:0:
192,192,152399,1,2,0:0:0:0:
320,192,152472,1,8,0:0:0:0:
448,192,152472,1,0,0:0:0:0:
192,192,152618,1,2,0:0:0:0:
320,192,152618,1,0,0:0:0:0:
64,192,152765,1,8,0:0:0:0:
192,192,152765,1,0,0:0:0:70:Crash.wav
448,192,152765,1,0,0:0:0:0:
320,192,152911,1,2,0:0:0:0:
448,192,152911,1,0,0:0:0:0:
192,192,152984,1,2,0:0:0:0:
64,192,153057,1,8,0:0:0:0:
320,192,153057,1,0,0:0:0:0:
448,192,153057,1,0,0:0:0:0:
64,192,153204,1,2,0:0:0:0:
192,192,153204,1,0,0:0:0:0:
192,192,153350,1,8,0:0:0:0:
320,192,153350,1,0,0:0:0:0:
448,192,153350,1,0,0:0:0:0:
64,192,153496,1,2,0:0:0:0:
448,192,153496,1,0,0:0:0:0:
320,192,153569,1,2,0:0:0:0:
64,192,153643,1,8,0:0:0:0:
192,192,153643,1,0,0:0:0:0:
448,192,153643,1,0,0:0:0:0:
192,192,153789,1,2,0:0:0:0:
320,192,153789,1,0,0:0:0:0:
320,192,153935,1,8,0:0:0:0:
448,192,153935,1,0,0:0:0:70:LR_Cymbal.wav
64,192,154009,1,2,0:0:0:0:
192,192,154082,1,2,0:0:0:0:
448,192,154082,1,0,0:0:0:0:
320,192,154155,1,2,0:0:0:0:
64,192,154228,1,8,0:0:0:0:
192,192,154228,1,0,0:0:0:70:LR_Cymbal.wav
320,192,154301,1,2,0:0:0:0:
64,192,154374,1,2,0:0:0:0:
448,192,154374,1,0,0:0:0:0:
192,192,154448,1,2,0:0:0:0:
320,192,154521,1,8,0:0:0:0:
448,192,154521,1,0,0:0:0:70:LR_Cymbal.wav
192,192,154594,1,2,0:0:0:0:
64,192,154667,1,2,0:0:0:0:
320,192,154667,1,0,0:0:0:0:
448,192,154740,1,2,0:0:0:0:
64,192,154813,1,8,0:0:0:0:
192,192,154813,1,0,0:0:0:0:
320,192,154887,1,8,0:0:0:0:
448,192,154887,1,0,0:0:0:0:
64,192,154960,1,8,0:0:0:0:
192,192,154960,1,0,0:0:0:0:
320,192,155033,1,8,0:0:0:0:
64,192,155106,1,4,0:0:0:0:
192,192,155106,1,2,0:0:0:0:
448,192,155106,1,0,0:0:0:0:
320,192,155252,1,2,0:0:0:0:
448,192,155252,1,0,0:0:0:0:
64,192,155399,1,8,0:0:0:0:
192,192,155399,1,0,0:0:0:0:
320,192,155399,1,0,0:0:0:0:
448,192,155545,128,0,155691:0:0:0:0:
64,192,155691,1,2,0:0:0:0:
192,192,155691,1,0,0:0:0:0:
64,192,155838,1,2,0:0:0:0:
448,192,155838,1,0,0:0:0:0:
192,192,155984,1,8,0:0:0:0:
320,192,155984,128,0,156130:0:0:0:0:
448,192,155984,1,0,0:0:0:0:
64,192,156130,1,2,0:0:0:0:
192,192,156130,1,0,0:0:0:0:
448,192,156277,1,0,0:0:0:0:
192,192,156423,1,2,0:0:0:0:
320,192,156423,1,0,0:0:0:0:
64,192,156569,1,8,0:0:0:0:
192,192,156569,1,0,0:0:0:0:
448,192,156569,1,0,0:0:0:0:
64,192,156716,128,0,156862:0:0:0:0:
320,192,156789,1,8,0:0:0:0:
192,192,156862,1,2,0:0:0:0:
448,192,156862,1,0,0:0:0:0:
320,192,157009,1,2,0:0:0:0:
448,192,157009,1,0,0:0:0:0:
64,192,157155,128,8,157301:0:0:0:0:
192,192,157155,1,0,0:0:0:0:
320,192,157155,1,0,0:0:0:0:
192,192,157448,1,2,0:0:0:0:
320,192,157448,1,4,0:0:0:0:
448,192,157448,1,0,0:0:0:0:
64,192,157594,1,2,0:0:0:0:
448,192,157594,1,0,0:0:0:0:
64,192,157740,1,8,0:0:0:0:
192,192,157740,1,0,0:0:0:0:
320,192,157740,1,0,0:0:0:0:
448,192,157887,1,0,0:0:0:0:
192,192,158033,1,2,0:0:0:0:
320,192,158033,1,0,0:0:0:0:
64,192,158179,1,2,0:0:0:0:
192,192,158179,1,0,0:0:0:0:
64,192,158326,128,8,158472:0:0:0:0:
320,192,158326,1,0,0:0:0:0:
448,192,158326,1,0,0:0:0:0:
192,192,158472,1,2,0:0:0:0:
448,192,158472,1,0,0:0:0:0:
64,192,158618,1,0,0:0:0:0:
320,192,158765,1,2,0:0:0:0:
448,192,158765,1,0,0:0:0:0:
64,192,158911,1,8,0:0:0:0:
192,192,158911,1,0,0:0:0:0:
448,192,158911,1,0,0:0:0:0:
320,192,159057,128,0,159204:0:0:0:0:
64,192,159130,1,8,0:0:0:0:
192,192,159204,1,2,0:0:0:0:
448,192,159204,1,0,0:0:0:0:
320,192,159350,1,2,0:0:0:0:
448,192,159350,1,0,0:0:0:0:
64,192,159496,128,8,159643:0:0:0:0:
192,192,159496,1,0,0:0:0:0:
320,192,159496,1,0,0:0:0:0:
192,192,159643,1,8,0:0:0:0:
448,192,159643,1,0,0:0:0:0:
320,192,159716,1,8,0:0:0:0:
64,192,159789,1,2,0:0:0:0:
192,192,159789,1,4,0:0:0:0:
448,192,159789,1,0,0:0:0:0:
64,192,159935,1,2,0:0:0:0:
320,192,159935,1,0,0:0:0:0:
192,192,160082,1,8,0:0:0:0:
320,192,160082,1,0,0:0:0:0:
448,192,160082,1,0,0:0:0:0:
64,192,160228,128,0,160374:0:0:0:0:
192,192,160374,1,2,0:0:0:0:
320,192,160374,1,0,0:0:0:0:
320,192,160521,1,2,0:0:0:0:
448,192,160521,1,0,0:0:0:0:
64,192,160667,1,8,0:0:0:0:
192,192,160667,1,0,0:0:0:0:
448,192,160667,128,0,160813:0:0:0:0:
64,192,160813,1,2,0:0:0:0:
320,192,160813,1,0,0:0:0:0:
448,192,160960,1,0,0:0:0:0:
192,192,161106,1,2,0:0:0:0:
320,192,161106,1,0,0:0:0:0:
64,192,161252,1,8,0:0:0:0:
192,192,161252,1,0,0:0:0:0:
448,192,161252,1,0,0:0:0:0:
320,192,161399,128,0,161545:0:0:0:0:
192,192,161472,1,8,0:0:0:0:
64,192,161545,1,2,0:0:0:0:
448,192,161545,1,0,0:0:0:0:
192,192,161691,1,2,0:0:0:0:
320,192,161691,1,0,0:0:0:0:
64,192,161838,1,8,0:0:0:0:
320,192,161838,1,0,0:0:0:0:
448,192,161838,1,0,0:0:0:0:
192,192,162130,1,2,0:0:0:0:
320,192,162130,1,4,0:0:0:0:
448,192,162130,1,0,0:0:0:0:
64,192,162277,1,2,0:0:0:0:
192,192,162277,1,0,0:0:0:0:
64,192,162423,1,8,0:0:0:0:
320,192,162423,1,0,0:0:0:0:
448,192,162423,1,0,0:0:0:0:
192,192,162569,128,0,162716:0:0:0:0:
320,192,162716,1,2,0:0:0:0:
448,192,162716,1,0,0:0:0:0:
64,192,162862,1,2,0:0:0:0:
192,192,162862,1,0,0:0:0:0:
192,192,163009,1,8,0:0:0:0:
320,192,163009,1,0,0:0:0:0:
448,192,163009,128,0,163155:0:0:0:0:
64,192,163155,1,2,0:0:0:0:
320,192,163155,1,0,0:0:0:0:
192,192,163301,1,0,0:0:0:0:
320,192,163448,1,2,0:0:0:0:
448,192,163448,1,0,0:0:0:0:
64,192,163594,1,8,0:0:0:0:
192,192,163594,1,0,0:0:0:0:
448,192,163594,1,0,0:0:0:0:
320,192,163813,1,8,0:0:0:0:
448,192,163813,1,0,0:0:0:0:
64,192,163887,1,2,0:0:0:0:
192,192,163887,128,0,164033:0:0:0:0:
320,192,164033,1,2,0:0:0:0:
448,192,164033,1,0,0:0:0:0:
192,192,164179,1,8,0:0:0:0:
320,192,164179,128,0,164326:0:0:0:0:
64,192,164326,1,8,0:0:0:0:
448,192,164326,1,0,0:0:0:0:
192,192,164399,1,8,0:0:0:0:
64,192,164472,1,2,0:0:0:0:
320,192,164472,128,4,164618:0:0:0:0:
448,192,164472,128,0,164618:0:0:0:0:
64,192,164765,1,8,0:0:0:0:
192,192,164765,1,0,0:0:0:0:
320,192,164765,1,0,0:0:0:0:
192,192,164911,1,2,0:0:0:0:
448,192,164911,1,0,0:0:0:0:
64,192,165057,1,8,0:0:0:0:
320,192,165057,1,0,0:0:0:0:
448,192,165057,1,0,0:0:0:0:
192,192,165204,1,2,0:0:0:0:
320,192,165204,1,0,0:0:0:0:
64,192,165350,1,8,0:0:0:0:
192,192,165350,1,0,0:0:0:0:
448,192,165350,1,0,0:0:0:0:
320,192,165496,1,2,0:0:0:0:
448,192,165496,1,0,0:0:0:0:
64,192,165643,1,8,0:0:0:0:
192,192,165643,1,0,0:0:0:0:
320,192,165643,1,0,0:0:0:0:
64,192,165789,1,2,0:0:0:0:
448,192,165789,1,0,0:0:0:0:
192,192,165862,1,2,0:0:0:0:
64,192,165935,1,8,0:0:0:0:
320,192,165935,1,0,0:0:0:0:
448,192,165935,1,0,0:0:0:0:
192,192,166082,1,2,0:0:0:0:
320,192,166082,1,0,0:0:0:0:
64,192,166228,1,8,0:0:0:0:
192,192,166228,1,0,0:0:0:0:
448,192,166228,1,0,0:0:0:0:
64,192,166374,1,2,0:0:0:0:
448,192,166374,1,0,0:0:0:0:
320,192,166448,1,2,0:0:0:0:
64,192,166521,1,8,0:0:0:0:
192,192,166521,1,0,0:0:0:0:
448,192,166521,1,0,0:0:0:0:
192,192,166667,1,2,0:0:0:0:
320,192,166667,1,0,0:0:0:0:
64,192,166813,1,8,0:0:0:0:
320,192,166813,1,0,0:0:0:70:Crash.wav
448,192,166813,1,0,0:0:0:0:
64,192,166960,1,2,0:0:0:0:
192,192,166960,1,0,0:0:0:0:
320,192,167033,1,2,0:0:0:0:
64,192,167106,1,8,0:0:0:0:
192,192,167106,1,0,0:0:0:0:
448,192,167106,1,0,0:0:0:0:
320,192,167252,1,2,0:0:0:0:
448,192,167252,1,0,0:0:0:0:
64,192,167399,1,8,0:0:0:0:
192,192,167399,1,0,0:0:0:0:
320,192,167399,1,0,0:0:0:0:
192,192,167545,1,2,0:0:0:0:
448,192,167545,1,0,0:0:0:0:
320,192,167618,1,2,0:0:0:0:
64,192,167691,1,8,0:0:0:0:
192,192,167691,1,0,0:0:0:0:
448,192,167691,1,0,0:0:0:0:
64,192,167838,1,2,0:0:0:0:
320,192,167838,1,0,0:0:0:0:
320,192,167984,1,8,0:0:0:0:
448,192,167984,1,0,0:0:0:70:LR_Cymbal.wav
192,192,168057,1,2,0:0:0:0:
64,192,168130,1,2,0:0:0:0:
320,192,168130,1,0,0:0:0:0:
448,192,168204,1,2,0:0:0:0:
64,192,168277,1,8,0:0:0:0:
192,192,168277,1,0,0:0:0:70:LR_Cymbal.wav
320,192,168350,1,2,0:0:0:0:
64,192,168423,1,2,0:0:0:0:
448,192,168423,1,0,0:0:0:0:
192,192,168496,1,2,0:0:0:0:
320,192,168569,1,8,0:0:0:0:
448,192,168569,1,0,0:0:0:70:LR_Cymbal.wav
192,192,168643,1,2,0:0:0:0:
64,192,168716,1,2,0:0:0:0:
448,192,168716,1,0,0:0:0:0:
320,192,168789,1,2,0:0:0:0:
64,192,168862,1,8,0:0:0:0:
192,192,168862,1,0,0:0:0:0:
320,192,168935,1,8,0:0:0:0:
448,192,168935,1,0,0:0:0:0:
64,192,169009,1,8,0:0:0:0:
192,192,169009,1,0,0:0:0:0:
320,192,169082,1,8,0:0:0:0:
448,192,169082,1,0,0:0:0:0:
192,192,169155,1,0,0:0:0:0:
64,192,169301,1,0,0:0:0:0:
192,192,169448,1,0,0:0:0:0:
448,192,169594,1,0,0:0:0:0:
320,192,169667,1,0,0:0:0:0:
64,192,169740,1,0,0:0:0:0:
192,192,169740,1,0,0:0:0:0:
320,192,169887,1,0,0:0:0:0:
448,192,170033,1,0,0:0:0:0:
192,192,170179,1,0,0:0:0:0:
64,192,170252,1,0,0:0:0:0:
320,192,170326,1,0,0:0:0:0:
64,192,170472,1,0,0:0:0:0:
192,192,170618,1,0,0:0:0:0:
448,192,170765,1,0,0:0:0:0:
64,192,170838,1,0,0:0:0:0:
192,192,170911,1,0,0:0:0:0:
320,192,170911,1,0,0:0:0:0:
448,192,171057,1,0,0:0:0:0:
64,192,171204,1,0,0:0:0:0:
192,192,171204,1,0,0:0:0:0:
64,192,171350,1,0,0:0:0:0:
448,192,171423,1,0,0:0:0:0:
320,192,171496,1,0,0:0:0:0:
64,192,171643,1,0,0:0:0:0:
192,192,171789,1,0,0:0:0:0:
448,192,171935,1,0,0:0:0:0:
320,192,172009,1,0,0:0:0:0:
64,192,172082,1,0,0:0:0:0:
192,192,172082,1,0,0:0:0:0:
320,192,172228,1,0,0:0:0:0:
448,192,172374,1,0,0:0:0:0:
192,192,172521,1,0,0:0:0:0:
64,192,172594,1,0,0:0:0:0:
320,192,172667,1,0,0:0:0:0:
448,192,172813,1,0,0:0:0:0:
320,192,172887,1,0,0:0:0:0:
64,192,172960,1,0,0:0:0:0:
448,192,173033,1,0,0:0:0:0:
192,192,173106,1,0,0:0:0:0:
320,192,173179,1,0,0:0:0:0:
64,192,173252,1,0,0:0:0:0:
192,192,173252,1,0,0:0:0:0:
320,192,173399,1,0,0:0:0:0:
192,192,173472,1,0,0:0:0:0:
320,192,173545,1,0,0:0:0:0:
448,192,173545,1,0,0:0:0:0:
64,192,173691,1,0,0:0:0:0:
320,192,173765,1,0,0:0:0:0:
192,192,173838,1,0,0:0:0:0:
448,192,173984,1,0,0:0:0:0:
320,192,174130,1,0,0:0:0:0:
192,192,174277,1,0,0:0:0:0:
320,192,174350,1,0,0:0:0:0:
64,192,174423,1,0,0:0:0:0:
192,192,174423,1,0,0:0:0:0:
64,192,174569,1,0,0:0:0:0:
448,192,174716,1,0,0:0:0:0:
64,192,174862,1,0,0:0:0:0:
192,192,174935,1,0,0:0:0:0:
320,192,175009,1,0,0:0:0:0:
448,192,175155,1,0,0:0:0:0:
192,192,175301,1,0,0:0:0:0:
64,192,175448,1,0,0:0:0:0:
192,192,175521,1,0,0:0:0:0:
320,192,175594,1,0,0:0:0:0:
448,192,175594,1,0,0:0:0:0:
448,192,175740,1,0,0:0:0:0:
64,192,175887,1,0,0:0:0:0:
192,192,175887,1,0,0:0:0:0:
320,192,176033,1,0,0:0:0:0:
192,192,176106,1,0,0:0:0:0:
448,192,176179,1,0,0:0:0:0:
192,192,176326,1,0,0:0:0:0:
64,192,176472,1,0,0:0:0:0:
192,192,176618,1,0,0:0:0:0:
320,192,176691,1,0,0:0:0:0:
64,192,176765,1,0,0:0:0:0:
448,192,176765,128,0,177350:0:0:0:0:
320,192,176911,1,0,0:0:0:0:
64,192,177057,1,0,0:0:0:0:
192,192,177057,1,0,0:0:0:0:
320,192,177204,1,0,0:0:0:0:
64,192,177935,1,2,0:0:0:0:
448,192,177935,1,0,0:0:0:70:Tom2.wav
64,192,178521,128,4,178667:0:0:0:0:
320,192,178521,1,2,0:0:0:0:
448,192,178521,1,0,0:0:0:0:
192,192,178667,1,2,0:0:0:0:
448,192,178667,128,0,178813:0:0:0:0:
64,192,178813,1,8,0:0:0:0:
320,192,178813,128,0,178960:0:0:0:0:
448,192,178960,128,0,179106:0:0:0:0:
192,192,179033,1,8,0:0:0:0:
64,192,179106,1,2,0:0:0:0:
320,192,179106,1,0,0:0:0:0:
320,192,179252,128,2,179399:0:0:0:0:
448,192,179252,1,0,0:0:0:0:
64,192,179326,1,2,0:0:0:0:
192,192,179399,128,8,179545:0:0:0:0:
448,192,179399,1,0,0:0:0:0:
64,192,179545,128,2,179838:0:0:0:0:
320,192,179545,1,0,0:0:0:0:
192,192,179691,1,0,0:0:0:0:
320,192,179838,1,2,0:0:0:0:
448,192,179838,128,0,179984:0:0:0:0:
192,192,179911,1,2,0:0:0:0:
64,192,179984,1,8,0:0:0:0:
320,192,179984,128,0,180130:0:0:0:0:
64,192,180130,128,0,180862:0:0:0:0:
448,192,180204,1,8,0:0:0:0:
192,192,180277,1,2,0:0:0:0:
320,192,180277,1,0,0:0:0:0:
448,192,180423,1,2,0:0:0:0:
320,192,180496,1,2,0:0:0:0:
192,192,180569,1,8,0:0:0:0:
448,192,180569,1,0,0:0:0:0:
192,192,180716,1,2,0:0:0:0:
320,192,180716,1,0,0:0:0:0:
320,192,180862,1,0,0:0:0:0:
448,192,180862,128,0,181301:0:0:0:0:
64,192,181009,1,2,0:0:0:0:
192,192,181009,1,0,0:0:0:0:
320,192,181082,1,2,0:0:0:0:
64,192,181155,1,8,0:0:0:0:
192,192,181155,1,0,0:0:0:0:
192,192,181301,128,0,181740:0:0:0:0:
320,192,181374,1,8,0:0:0:0:
64,192,181448,1,2,0:0:0:0:
448,192,181448,1,0,0:0:0:0:
320,192,181594,1,2,0:0:0:0:
448,192,181594,1,0,0:0:0:0:
64,192,181740,1,8,0:0:0:0:
320,192,181740,128,0,182179:0:0:0:0:
64,192,181887,1,2,0:0:0:0:
192,192,181887,1,0,0:0:0:0:
192,192,182033,1,0,0:0:0:0:
64,192,182179,1,2,0:0:0:0:
448,192,182179,1,0,0:0:0:0:
320,192,182252,1,2,0:0:0:0:
64,192,182326,1,8,0:0:0:0:
192,192,182326,1,0,0:0:0:0:
320,192,182399,1,8,0:0:0:0:
448,192,182399,1,0,0:0:0:0:
64,192,182472,1,8,0:0:0:0:
192,192,182472,1,0,0:0:0:0:
320,192,182618,1,0,0:0:0:70:Tom1.wav
448,192,182618,1,0,0:0:0:0:
192,192,182765,1,0,0:0:0:70:Tom2.wav
448,192,182765,1,0,0:0:0:0:
64,192,182911,1,0,0:0:0:70:Tom3.wav
192,192,182911,1,0,0:0:0:0:
64,192,183057,128,4,183350:0:0:0:0:
320,192,183057,1,2,0:0:0:0:
448,192,183057,128,0,183350:0:0:0:0:
192,192,183350,1,2,0:0:0:0:
64,192,183496,128,8,183643:0:0:0:0:
320,192,183496,1,0,0:0:0:0:
448,192,183496,1,0,0:0:0:0:
320,192,183643,128,0,183789:0:0:0:0:
448,192,183716,1,8,0:0:0:0:
64,192,183789,1,2,0:0:0:0:
192,192,183789,1,0,0:0:0:0:
320,192,183935,1,2,0:0:0:0:
448,192,183935,128,0,184228:0:0:0:0:
64,192,184009,1,2,0:0:0:0:
192,192,184082,1,8,0:0:0:0:
320,192,184082,1,0,0:0:0:0:
64,192,184228,128,2,184521:0:0:0:0:
192,192,184228,1,0,0:0:0:0:
448,192,184374,1,0,0:0:0:0:
192,192,184521,1,2,0:0:0:0:
320,192,184521,128,0,184667:0:0:0:0:
448,192,184594,1,2,0:0:0:0:
64,192,184667,1,8,0:0:0:0:
192,192,184667,128,0,184813:0:0:0:0:
448,192,184813,128,0,184960:0:0:0:0:
320,192,184887,1,8,0:0:0:0:
64,192,184960,128,2,185106:0:0:0:0:
192,192,184960,1,0,0:0:0:0:
192,192,185106,128,2,185252:0:0:0:0:
448,192,185106,1,0,0:0:0:0:
320,192,185179,1,2,0:0:0:0:
64,192,185252,128,8,185399:0:0:0:0:
448,192,185252,1,0,0:0:0:0:
192,192,185399,1,2,0:0:0:0:
320,192,185399,128,0,185545:0:0:0:0:
448,192,185545,128,0,185643:0:0:0:0:
64,192,185643,128,0,185740:0:0:0:0:
192,192,185740,128,0,185838:0:0:0:0:
64,192,185838,1,8,0:0:0:0:
448,192,185838,128,0,185935:0:0:0:0:
320,192,185935,128,0,186033:0:0:0:0:
192,192,186033,128,0,186130:0:0:0:0:
320,192,186130,1,2,0:0:0:0:
448,192,186130,128,0,186228:0:0:0:0:
64,192,186228,128,0,186326:0:0:0:0:
192,192,186326,128,0,186423:0:0:0:0:
64,192,186423,1,8,0:0:0:0:
320,192,186423,128,0,186521:0:0:0:0:
448,192,186521,128,0,186618:0:0:0:0:
192,192,186618,128,0,186716:0:0:0:0:
64,192,186716,128,0,186813:0:0:0:0:
320,192,186813,128,0,186911:0:0:0:0:
448,192,186911,128,0,187009:0:0:0:0:
64,192,187009,1,8,0:0:0:0:
192,192,187009,1,0,0:0:0:0:
320,192,187082,1,8,0:0:0:0:
448,192,187082,1,0,0:0:0:0:
64,192,187155,1,8,0:0:0:0:
192,192,187155,1,0,0:0:0:0:
64,192,187301,1,0,0:0:0:70:Tom1.wav
320,192,187301,1,0,0:0:0:0:
448,192,187301,128,0,187740:0:0:0:0:
192,192,187448,1,0,0:0:0:70:Tom2.wav
320,192,187448,1,0,0:0:0:0:
64,192,187594,1,0,0:0:0:70:Tom3.wav
192,192,187594,1,0,0:0:0:0:
64,192,187740,1,4,0:0:0:0:
192,192,187740,1,2,0:0:0:0:
320,192,187740,1,0,0:0:0:0:
64,192,188033,1,2,0:0:0:0:
320,192,188033,1,0,0:0:0:0:
64,192,188179,1,2,0:0:0:0:
448,192,188179,1,0,0:0:0:0:
192,192,188326,1,2,0:0:0:0:
320,192,188326,1,0,0:0:0:0:
64,192,188472,1,8,0:0:0:0:
192,192,188472,1,0,0:0:0:70:LR_Cymbal.wav
448,192,188472,1,0,0:0:0:0:
64,192,188618,1,2,0:0:0:0:
320,192,188618,1,0,0:0:0:0:
192,192,188765,1,2,0:0:0:0:
448,192,188765,1,0,0:0:0:0:
64,192,188911,1,8,0:0:0:0:
192,192,188911,1,0,0:0:0:0:
64,192,189057,1,2,0:0:0:0:
320,192,189057,1,0,0:0:0:70:LR_Cymbal.wav
448,192,189057,1,0,0:0:0:0:
192,192,189204,1,8,0:0:0:0:
448,192,189204,1,0,0:0:0:0:
64,192,189350,1,2,0:0:0:0:
320,192,189350,1,0,0:0:0:0:
320,192,189496,1,2,0:0:0:0:
448,192,189496,1,0,0:0:0:0:
64,192,189643,1,8,0:0:0:0:
192,192,189643,1,0,0:0:0:70:LR_Cymbal.wav
448,192,189643,1,0,0:0:0:0:
64,192,189789,1,2,0:0:0:0:
192,192,189789,1,0,0:0:0:0:
320,192,189935,1,2,0:0:0:0:
448,192,189935,1,0,0:0:0:0:
64,192,190082,1,8,0:0:0:0:
192,192,190082,1,0,0:0:0:0:
64,192,190228,1,2,0:0:0:0:
320,192,190228,1,0,0:0:0:70:LR_Cymbal.wav
448,192,190228,1,0,0:0:0:0:
192,192,190374,1,2,0:0:0:0:
448,192,190374,1,0,0:0:0:0:
64,192,190521,1,2,0:0:0:0:
320,192,190521,1,0,0:0:0:0:
64,192,190667,1,2,0:0:0:0:
192,192,190667,1,0,0:0:0:0:
192,192,190813,1,8,0:0:0:0:
320,192,190813,1,0,0:0:0:70:LR_Cymbal.wav
448,192,190813,1,0,0:0:0:0:
64,192,190960,1,2,0:0:0:0:
448,192,190960,1,0,0:0:0:0:
192,192,191106,1,2,0:0:0:0:
320,192,191106,1,0,0:0:0:0:
64,192,191252,1,8,0:0:0:0:
192,192,191252,1,0,0:0:0:0:
64,192,191399,1,2,0:0:0:0:
320,192,191399,1,0,0:0:0:70:LR_Cymbal.wav
448,192,191399,1,0,0:0:0:0:
192,192,191545,1,8,0:0:0:0:
320,192,191545,1,0,0:0:0:0:
64,192,191691,1,2,0:0:0:0:
448,192,191691,1,0,0:0:0:0:
192,192,191838,1,2,0:0:0:0:
320,192,191838,1,0,0:0:0:0:
64,192,191984,1,8,0:0:0:0:
320,192,191984,1,0,0:0:0:70:LR_Cymbal.wav
448,192,191984,1,0,0:0:0:0:
64,192,192130,1,2,0:0:0:0:
192,192,192130,1,0,0:0:0:0:
320,192,192277,1,8,0:0:0:0:
448,192,192277,1,0,0:0:0:0:
64,192,192423,1,8,0:0:0:0:
448,192,192423,1,0,0:0:0:0:
320,192,192496,1,8,0:0:0:0:
64,192,192569,1,2,0:0:0:0:
192,192,192569,1,4,0:0:0:0:
448,192,192569,1,0,0:0:0:0:
192,192,192716,1,2,0:0:0:0:
320,192,192716,1,0,0:0:0:0:
64,192,192862,1,2,0:0:0:0:
448,192,192862,1,0,0:0:0:0:
320,192,193009,1,2,0:0:0:0:
64,192,193155,1,8,0:0:0:0:
192,192,193155,1,0,0:0:0:70:LR_Cymbal.wav
448,192,193155,1,0,0:0:0:0:
64,192,193301,1,2,0:0:0:0:
192,192,193301,1,0,0:0:0:0:
320,192,193448,1,2,0:0:0:0:
448,192,193448,1,0,0:0:0:0:
192,192,193594,1,8,0:0:0:0:
320,192,193594,1,0,0:0:0:0:
64,192,193740,1,2,0:0:0:0:
192,192,193740,1,0,0:0:0:70:LR_Cymbal.wav
448,192,193740,1,0,0:0:0:0:
320,192,193887,1,8,0:0:0:0:
448,192,193887,1,0,0:0:0:0:
64,192,194033,1,2,0:0:0:0:
192,192,194033,1,0,0:0:0:0:
192,192,194179,1,2,0:0:0:0:
448,192,194179,1,0,0:0:0:0:
64,192,194326,1,8,0:0:0:0:
320,192,194326,1,0,0:0:0:70:LR_Cymbal.wav
448,192,194326,1,0,0:0:0:0:
64,192,194472,1,2,0:0:0:0:
192,192,194472,1,0,0:0:0:0:
320,192,194618,1,2,0:0:0:0:
448,192,194618,1,0,0:0:0:0:
192,192,194765,1,8,0:0:0:0:
320,192,194765,1,0,0:0:0:0:
64,192,194911,1,2,0:0:0:0:
192,192,194911,1,0,0:0:0:70:LR_Cymbal.wav
448,192,194911,1,0,0:0:0:0:
320,192,195057,1,2,0:0:0:0:
448,192,195057,1,0,0:0:0:0:
64,192,195204,1,2,0:0:0:0:
192,192,195204,1,0,0:0:0:0:
192,192,195350,1,2,0:0:0:0:
320,192,195350,1,0,0:0:0:0:
64,192,195496,1,8,0:0:0:0:
320,192,195496,1,0,0:0:0:70:LR_Cymbal.wav
448,192,195496,1,0,0:0:0:0:
64,192,195643,1,2,0:0:0:0:
192,192,195643,1,0,0:0:0:0:
320,192,195789,1,2,0:0:0:0:
448,192,195789,1,0,0:0:0:0:
64,192,195935,1,8,0:0:0:0:
192,192,195935,1,0,0:0:0:0:
192,192,196082,1,2,0:0:0:0:
320,192,196082,1,0,0:0:0:70:LR_Cymbal.wav
448,192,196082,1,0,0:0:0:0:
64,192,196228,1,8,0:0:0:0:
448,192,196228,1,0,0:0:0:0:
192,192,196374,1,2,0:0:0:0:
320,192,196374,1,0,0:0:0:0:
192,192,196521,1,2,0:0:0:0:
448,192,196521,1,0,0:0:0:0:
64,192,196667,1,8,0:0:0:0:
320,192,196667,1,0,0:0:0:70:LR_Cymbal.wav
448,192,196667,1,0,0:0:0:0:
64,192,196813,1,2,0:0:0:0:
192,192,196813,1,0,0:0:0:0:
192,192,196960,1,8,0:0:0:0:
320,192,196960,1,0,0:0:0:0:
448,192,196960,1,0,0:0:0:0:
64,192,197106,1,8,0:0:0:0:
320,192,197106,1,0,0:0:0:0:
448,192,197106,1,0,0:0:0:0:
64,192,197252,128,8,197399:0:0:0:0:
192,192,197252,128,2,197399:0:0:0:0:
448,192,197252,1,0,0:0:0:0:
64,192,197691,1,2,0:0:0:0:
320,192,197691,128,8,197838:0:0:0:0:
448,192,197691,128,0,197838:0:0:0:0:
64,192,198130,128,2,198277:0:0:0:0:
192,192,198130,128,8,198277:0:0:0:0:
448,192,198130,1,0,0:0:0:0:
192,192,198423,128,2,198569:0:0:0:0:
320,192,198423,128,8,198569:0:0:0:0:
448,192,198423,1,0,0:0:0:0:
64,192,198862,128,8,199009:0:0:0:0:
320,192,198862,1,2,0:0:0:0:
448,192,198862,128,0,199009:0:0:0:0:
64,192,199301,128,8,199448:0:0:0:0:
192,192,199301,128,2,199448:0:0:0:0:
320,192,199301,1,0,0:0:0:0:
192,192,199594,1,8,0:0:0:0:
320,192,199594,128,2,199740:0:0:0:0:
448,192,199594,128,0,199740:0:0:0:0:
192,192,200033,1,8,0:0:0:0:
320,192,200033,128,2,200179:0:0:0:0:
448,192,200033,128,0,200179:0:0:0:0:
64,192,200472,128,8,200618:0:0:0:0:
192,192,200472,1,2,0:0:0:0:
448,192,200472,128,0,200618:0:0:0:0:
64,192,200765,128,2,200911:0:0:0:0:
192,192,200765,128,8,200911:0:0:0:0:
320,192,200765,1,0,0:0:0:0:
192,192,201935,128,0,204277:0:0:0:70:1.wav
448,192,201935,1,0,0:0:0:0:
448,192,202228,1,0,0:0:0:70:1.wav
448,192,202521,1,0,0:0:0:70:1.wav
448,192,202813,1,0,0:0:0:70:1.wav
448,192,203106,1,0,0:0:0:70:1.wav
448,192,203399,1,0,0:0:0:70:1.wav
448,192,203691,1,0,0:0:0:70:1.wav
448,192,203984,1,0,0:0:0:70:1.wav
64,192,204277,1,0,0:0:0:70:1.wav
448,192,204277,128,0,205448:0:0:0:0:
64,192,204569,1,0,0:0:0:70:1.wav
64,192,204862,1,0,0:0:0:70:1.wav
64,192,205155,1,0,0:0:0:70:1.wav
64,192,205448,128,0,206033:0:0:0:70:1.wav
320,192,205448,1,0,0:0:0:0:
320,192,205740,1,0,0:0:0:70:1.wav
192,192,206033,1,8,0:0:0:0:
320,192,206033,1,2,0:0:0:0:
448,192,206033,1,0,0:0:0:0:
64,192,206179,1,2,0:0:0:0:
192,192,206179,1,8,0:0:0:0:
448,192,206179,1,0,0:0:0:0:
64,192,206618,128,4,206765:0:0:0:0:
192,192,206618,1,2,0:0:0:0:
448,192,206618,128,0,206765:0:0:0:0:
192,192,206911,1,8,0:0:0:0:
320,192,206911,1,0,0:0:0:0:
448,192,206911,1,0,0:0:0:0:
64,192,207057,1,2,0:0:0:0:
192,192,207057,1,0,0:0:0:0:
64,192,207204,1,8,0:0:0:0:
320,192,207204,1,0,0:0:0:0:
448,192,207204,1,0,0:0:0:0:
192,192,207350,1,2,0:0:0:0:
448,192,207350,1,0,0:0:0:0:
64,192,207496,1,8,0:0:0:0:
192,192,207496,1,0,0:0:0:0:
320,192,207496,1,0,0:0:0:0:
320,192,207643,1,2,0:0:0:0:
448,192,207643,1,0,0:0:0:0:
64,192,207789,1,8,0:0:0:0:
192,192,207789,1,0,0:0:0:0:
448,192,207789,1,0,0:0:0:0:
64,192,207935,1,2,0:0:0:0:
320,192,207935,1,0,0:0:0:0:
192,192,208009,1,2,0:0:0:0:
64,192,208082,1,8,0:0:0:0:
320,192,208082,1,0,0:0:0:0:
448,192,208082,1,0,0:0:0:0:
192,192,208228,1,2,0:0:0:0:
448,192,208228,1,0,0:0:0:0:
64,192,208374,1,8,0:0:0:0:
192,192,208374,1,0,0:0:0:0:
320,192,208374,1,0,0:0:0:0:
320,192,208521,1,2,0:0:0:0:
448,192,208521,1,0,0:0:0:0:
192,192,208594,1,2,0:0:0:0:
64,192,208667,1,8,0:0:0:0:
320,192,208667,1,0,0:0:0:0:
448,192,208667,1,0,0:0:0:0:
64,192,208813,1,2,0:0:0:0:
192,192,208813,1,0,0:0:0:0:
64,192,208960,1,8,0:0:0:0:
192,192,208960,1,0,0:0:0:0:
448,192,208960,1,0,0:0:0:0:
320,192,209106,1,2,0:0:0:0:
448,192,209106,1,0,0:0:0:0:
192,192,209179,1,2,0:0:0:0:
64,192,209252,1,8,0:0:0:0:
320,192,209252,1,0,0:0:0:0:
448,192,209252,1,0,0:0:0:0:
64,192,209399,1,2,0:0:0:0:
192,192,209399,1,0,0:0:0:0:
192,192,209545,1,8,0:0:0:0:
320,192,209545,1,0,0:0:0:0:
448,192,209545,1,0,0:0:0:0:
64,192,209691,1,2,0:0:0:0:
448,192,209691,1,0,0:0:0:0:
64,192,209838,1,8,0:0:0:0:
192,192,209838,1,0,0:0:0:0:
320,192,209838,1,0,0:0:0:0:
320,192,209984,1,2,0:0:0:0:
448,192,209984,1,0,0:0:0:0:
64,192,210130,1,8,0:0:0:0:
192,192,210130,1,0,0:0:0:0:
448,192,210130,1,0,0:0:0:0:
64,192,210277,1,2,0:0:0:0:
192,192,210277,1,0,0:0:0:0:
320,192,210350,1,2,0:0:0:0:
64,192,210423,1,8,0:0:0:0:
192,192,210423,1,0,0:0:0:0:
448,192,210423,1,0,0:0:0:0:
320,192,210569,1,2,0:0:0:0:
448,192,210569,1,0,0:0:0:0:
64,192,210716,1,8,0:0:0:0:
192,192,210716,1,0,0:0:0:0:
320,192,210716,1,0,0:0:0:0:
192,192,210862,1,2,0:0:0:0:
448,192,210862,1,0,0:0:0:0:
320,192,210935,1,2,0:0:0:0:
64,192,211009,1,8,0:0:0:0:
192,192,211009,1,0,0:0:0:0:
320,192,211082,1,8,0:0:0:0:
448,192,211082,1,0,0:0:0:0:
64,192,211155,1,8,0:0:0:0:
192,192,211155,1,0,0:0:0:0:
320,192,211228,1,8,0:0:0:0:
64,192,211301,128,2,211448:0:0:0:0:
192,192,211301,1,4,0:0:0:0:
448,192,211301,128,0,211448:0:0:0:0:
64,192,211594,1,8,0:0:0:0:
320,192,211594,1,0,0:0:0:0:
448,192,211594,1,0,0:0:0:0:
192,192,211740,1,2,0:0:0:0:
448,192,211740,128,0,211887:0:0:0:0:
64,192,211887,1,8,0:0:0:0:
192,192,211887,1,0,0:0:0:0:
320,192,211887,1,0,0:0:0:0:
64,192,212033,1,2,0:0:0:0:
448,192,212033,1,0,0:0:0:0:
192,192,212179,1,8,0:0:0:0:
320,192,212179,1,0,0:0:0:0:
448,192,212179,128,0,212326:0:0:0:0:
64,192,212326,1,2,0:0:0:0:
192,192,212326,1,0,0:0:0:0:
64,192,212472,1,8,0:0:0:0:
320,192,212472,1,0,0:0:0:0:
448,192,212472,1,0,0:0:0:0:
192,192,212618,1,2,0:0:0:0:
448,192,212618,1,0,0:0:0:0:
64,192,212765,1,8,0:0:0:0:
192,192,212765,1,0,0:0:0:0:
320,192,212765,1,0,0:0:0:0:
320,192,212911,1,2,0:0:0:0:
448,192,212911,1,0,0:0:0:0:
64,192,213057,1,8,0:0:0:0:
192,192,213057,1,0,0:0:0:0:
448,192,213057,1,0,0:0:0:0:
64,192,213204,1,2,0:0:0:0:
320,192,213204,1,0,0:0:0:0:
192,192,213350,1,8,0:0:0:0:
320,192,213350,1,0,0:0:0:0:
448,192,213350,1,0,0:0:0:0:
64,192,213496,1,2,0:0:0:0:
192,192,213496,1,0,0:0:0:0:
320,192,213569,1,2,0:0:0:0:
64,192,213643,1,8,0:0:0:0:
192,192,213643,1,0,0:0:0:0:
448,192,213643,1,0,0:0:0:0:
320,192,213789,1,2,0:0:0:0:
448,192,213789,1,0,0:0:0:0:
192,192,213862,1,2,0:0:0:0:
64,192,213935,1,8,0:0:0:0:
320,192,213935,1,0,0:0:0:0:
448,192,213935,1,0,0:0:0:0:
64,192,214082,128,2,214228:0:0:0:0:
192,192,214082,1,0,0:0:0:0:
192,192,214228,1,8,0:0:0:0:
320,192,214228,1,0,0:0:0:0:
448,192,214228,1,0,0:0:0:0:
64,192,214374,1,2,0:0:0:0:
448,192,214374,1,0,0:0:0:0:
320,192,214448,1,2,0:0:0:0:
64,192,214521,1,8,0:0:0:0:
192,192,214521,1,0,0:0:0:0:
448,192,214521,128,0,214667:0:0:0:0:
192,192,214667,1,2,0:0:0:0:
320,192,214667,1,0,0:0:0:0:
64,192,214813,1,8,0:0:0:0:
320,192,214813,1,0,0:0:0:0:
448,192,214813,1,0,0:0:0:0:
192,192,214960,1,2,0:0:0:0:
448,192,214960,1,0,0:0:0:0:
64,192,215106,1,8,0:0:0:0:
192,192,215106,1,0,0:0:0:0:
320,192,215106,1,0,0:0:0:0:
64,192,215252,1,2,0:0:0:0:
448,192,215252,1,0,0:0:0:0:
192,192,215399,1,8,0:0:0:0:
320,192,215399,1,0,0:0:0:0:
448,192,215399,1,0,0:0:0:0:
64,192,215545,1,2,0:0:0:0:
192,192,215545,1,0,0:0:0:0:
448,192,215618,1,2,0:0:0:0:
64,192,215691,1,8,0:0:0:0:
192,192,215691,1,0,0:0:0:0:
320,192,215691,1,0,0:0:0:0:
320,192,215838,1,8,0:0:0:0:
448,192,215838,1,0,0:0:0:0:
64,192,215911,1,8,0:0:0:0:
192,192,215911,1,0,0:0:0:0:
320,192,215984,1,2,0:0:0:0:
448,192,215984,1,4,0:0:0:0:
192,192,216057,1,2,0:0:0:0:
64,192,216130,1,2,0:0:0:0:
448,192,216130,1,0,0:0:0:0:
320,192,216204,1,2,0:0:0:0:
64,192,216277,1,8,0:0:0:0:
192,192,216277,1,0,0:0:0:0:
320,192,216350,1,2,0:0:0:0:
192,192,216423,1,2,0:0:0:0:
448,192,216423,1,0,0:0:0:0:
64,192,216496,1,2,0:0:0:0:
320,192,216569,1,8,0:0:0:0:
448,192,216569,1,0,0:0:0:0:
192,192,216643,1,2,0:0:0:0:
64,192,216716,1,2,0:0:0:0:
448,192,216716,1,0,0:0:0:0:
320,192,216789,1,2,0:0:0:0:
64,192,216862,1,8,0:0:0:0:
192,192,216862,1,0,0:0:0:0:
448,192,216935,1,2,0:0:0:0:
64,192,217009,1,2,0:0:0:0:
320,192,217009,1,0,0:0:0:0:
192,192,217082,1,2,0:0:0:0:
320,192,217155,1,8,0:0:0:0:
448,192,217155,1,0,0:0:0:0:
192,192,217228,1,2,0:0:0:0:
64,192,217301,1,2,0:0:0:0:
320,192,217301,1,0,0:0:0:0:
448,192,217374,1,2,0:0:0:0:
64,192,217448,1,8,0:0:0:0:
192,192,217448,1,0,0:0:0:0:
320,192,217521,1,2,0:0:0:0:
64,192,217594,1,2,0:0:0:0:
448,192,217594,1,0,0:0:0:0:
192,192,217667,1,2,0:0:0:0:
320,192,217740,1,8,0:0:0:0:
448,192,217740,1,0,0:0:0:0:
192,192,217813,1,2,0:0:0:0:
64,192,217887,1,2,0:0:0:0:
448,192,217887,1,0,0:0:0:0:
320,192,217960,1,2,0:0:0:0:
64,192,218033,1,8,0:0:0:0:
192,192,218033,1,0,0:0:0:0:
320,192,218106,1,2,0:0:0:0:
192,192,218179,1,2,0:0:0:0:
448,192,218179,1,0,0:0:0:0:
64,192,218252,1,2,0:0:0:0:
320,192,218326,1,8,0:0:0:0:
448,192,218326,1,0,0:0:0:70:LR_Cymbal.wav
192,192,218399,1,2,0:0:0:0:
64,192,218472,1,2,0:0:0:0:
448,192,218472,1,0,0:0:0:0:
320,192,218545,1,2,0:0:0:0:
64,192,218618,1,8,0:0:0:0:
192,192,218618,1,0,0:0:0:70:LR_Cymbal.wav
320,192,218691,1,2,0:0:0:0:
64,192,218765,1,2,0:0:0:0:
448,192,218765,1,0,0:0:0:0:
192,192,218838,1,2,0:0:0:0:
320,192,218911,1,8,0:0:0:0:
448,192,218911,1,0,0:0:0:70:LR_Cymbal.wav
192,192,218984,1,2,0:0:0:0:
64,192,219057,1,2,0:0:0:0:
448,192,219057,1,0,0:0:0:0:
320,192,219130,1,2,0:0:0:0:
64,192,219204,1,8,0:0:0:0:
192,192,219204,1,0,0:0:0:70:LR_Cymbal.wav
320,192,219277,1,2,0:0:0:0:
64,192,219350,1,2,0:0:0:0:
448,192,219350,1,0,0:0:0:0:
192,192,219423,1,2,0:0:0:0:
320,192,219496,1,8,0:0:0:0:
448,192,219496,1,0,0:0:0:70:LR_Cymbal.wav
64,192,219569,1,2,0:0:0:0:
192,192,219643,1,2,0:0:0:0:
320,192,219643,1,0,0:0:0:0:
448,192,219716,1,2,0:0:0:0:
64,192,219789,1,8,0:0:0:0:
192,192,219789,1,0,0:0:0:0:
320,192,219862,1,2,0:0:0:0:
64,192,219935,1,2,0:0:0:0:
448,192,219935,1,0,0:0:0:0:
192,192,220009,1,2,0:0:0:0:
320,192,220082,1,8,0:0:0:0:
448,192,220082,1,0,0:0:0:70:LR_Cymbal.wav
64,192,220155,1,2,0:0:0:0:
192,192,220228,1,2,0:0:0:0:
448,192,220228,1,0,0:0:0:0:
320,192,220301,1,2,0:0:0:0:
64,192,220374,1,8,0:0:0:0:
192,192,220374,1,0,0:0:0:0:
320,192,220448,1,8,0:0:0:0:
448,192,220448,1,0,0:0:0:0:
64,192,220521,1,8,0:0:0:0:
192,192,220521,1,0,0:0:0:0:
320,192,220594,1,8,0:0:0:0:
64,192,220667,1,4,0:0:0:0:
192,192,220667,1,2,0:0:0:0:
448,192,220667,1,0,0:0:0:0:
320,192,220813,1,2,0:0:0:0:
448,192,220813,1,0,0:0:0:0:
64,192,220960,1,8,0:0:0:0:
192,192,220960,1,0,0:0:0:0:
320,192,220960,1,0,0:0:0:0:
448,192,221106,128,0,221252:0:0:0:0:
64,192,221252,1,2,0:0:0:0:
192,192,221252,1,0,0:0:0:0:
64,192,221399,1,2,0:0:0:0:
448,192,221399,1,0,0:0:0:0:
192,192,221545,1,8,0:0:0:0:
320,192,221545,128,0,221691:0:0:0:0:
448,192,221545,1,0,0:0:0:0:
64,192,221691,1,2,0:0:0:0:
192,192,221691,1,0,0:0:0:0:
448,192,221838,1,0,0:0:0:0:
192,192,221984,1,2,0:0:0:0:
320,192,221984,1,0,0:0:0:0:
64,192,222130,1,8,0:0:0:0:
192,192,222130,1,0,0:0:0:0:
448,192,222130,1,0,0:0:0:0:
64,192,222277,128,0,222423:0:0:0:0:
320,192,222350,1,8,0:0:0:0:
192,192,222423,1,2,0:0:0:0:
448,192,222423,1,0,0:0:0:0:
320,192,222569,1,2,0:0:0:0:
448,192,222569,1,0,0:0:0:0:
64,192,222716,128,8,222862:0:0:0:0:
192,192,222716,1,0,0:0:0:0:
320,192,222716,1,0,0:0:0:0:
192,192,223009,1,2,0:0:0:0:
320,192,223009,1,4,0:0:0:0:
448,192,223009,1,0,0:0:0:0:
64,192,223155,1,2,0:0:0:0:
448,192,223155,1,0,0:0:0:0:
64,192,223301,1,8,0:0:0:0:
192,192,223301,1,0,0:0:0:0:
320,192,223301,1,0,0:0:0:0:
448,192,223448,128,0,223594:0:0:0:0:
192,192,223594,1,2,0:0:0:0:
320,192,223594,1,0,0:0:0:0:
64,192,223740,1,2,0:0:0:0:
192,192,223740,1,0,0:0:0:0:
64,192,223887,128,8,224033:0:0:0:0:
320,192,223887,1,0,0:0:0:0:
448,192,223887,1,0,0:0:0:0:
192,192,224033,1,2,0:0:0:0:
448,192,224033,1,0,0:0:0:0:
64,192,224179,1,0,0:0:0:0:
320,192,224326,1,2,0:0:0:0:
448,192,224326,1,0,0:0:0:0:
64,192,224472,1,8,0:0:0:0:
192,192,224472,1,0,0:0:0:0:
448,192,224472,1,0,0:0:0:0:
320,192,224618,128,0,224765:0:0:0:0:
64,192,224691,1,8,0:0:0:0:
192,192,224765,1,2,0:0:0:0:
448,192,224765,1,0,0:0:0:0:
320,192,224911,1,2,0:0:0:0:
448,192,224911,1,0,0:0:0:0:
64,192,225057,128,8,225204:0:0:0:0:
192,192,225057,1,0,0:0:0:0:
320,192,225057,1,0,0:0:0:0:
192,192,225204,1,8,0:0:0:0:
448,192,225204,1,0,0:0:0:0:
320,192,225277,1,8,0:0:0:0:
64,192,225350,1,2,0:0:0:0:
192,192,225350,1,4,0:0:0:0:
448,192,225350,1,0,0:0:0:0:
64,192,225496,1,2,0:0:0:0:
320,192,225496,1,0,0:0:0:0:
192,192,225643,1,8,0:0:0:0:
320,192,225643,1,0,0:0:0:0:
448,192,225643,1,0,0:0:0:0:
64,192,225789,128,0,225935:0:0:0:0:
192,192,225935,1,2,0:0:0:0:
320,192,225935,1,0,0:0:0:0:
320,192,226082,1,2,0:0:0:0:
448,192,226082,1,0,0:0:0:0:
64,192,226228,1,8,0:0:0:0:
192,192,226228,1,0,0:0:0:0:
448,192,226228,128,0,226374:0:0:0:0:
64,192,226374,1,2,0:0:0:0:
320,192,226374,1,0,0:0:0:0:
448,192,226521,1,0,0:0:0:0:
192,192,226667,1,2,0:0:0:0:
320,192,226667,1,0,0:0:0:0:
64,192,226813,1,8,0:0:0:0:
192,192,226813,1,0,0:0:0:0:
448,192,226813,1,0,0:0:0:0:
320,192,226960,128,0,227106:0:0:0:0:
192,192,227033,1,8,0:0:0:0:
64,192,227106,1,2,0:0:0:0:
448,192,227106,1,0,0:0:0:0:
192,192,227252,1,2,0:0:0:0:
320,192,227252,1,0,0:0:0:0:
64,192,227399,1,8,0:0:0:0:
320,192,227399,1,0,0:0:0:0:
448,192,227399,1,0,0:0:0:0:
192,192,227691,1,2,0:0:0:0:
320,192,227691,1,4,0:0:0:0:
448,192,227691,1,0,0:0:0:0:
64,192,227838,1,2,0:0:0:0:
192,192,227838,1,0,0:0:0:0:
64,192,227984,1,8,0:0:0:0:
320,192,227984,1,0,0:0:0:0:
448,192,227984,1,0,0:0:0:0:
192,192,228130,128,0,228277:0:0:0:0:
320,192,228277,1,2,0:0:0:0:
448,192,228277,1,0,0:0:0:0:
64,192,228423,1,2,0:0:0:0:
192,192,228423,1,0,0:0:0:0:
192,192,228569,1,8,0:0:0:0:
320,192,228569,1,0,0:0:0:0:
448,192,228569,128,0,228716:0:0:0:0:
64,192,228716,1,2,0:0:0:0:
320,192,228716,1,0,0:0:0:0:
192,192,228862,1,0,0:0:0:0:
320,192,229009,1,2,0:0:0:0:
448,192,229009,1,0,0:0:0:0:
64,192,229155,1,8,0:0:0:0:
192,192,229155,1,0,0:0:0:0:
448,192,229155,1,0,0:0:0:0:
320,192,229374,1,8,0:0:0:0:
448,192,229374,1,0,0:0:0:0:
64,192,229448,1,2,0:0:0:0:
192,192,229448,128,0,229594:0:0:0:0:
320,192,229594,1,2,0:0:0:0:
448,192,229594,1,0,0:0:0:0:
192,192,229740,1,8,0:0:0:0:
320,192,229740,128,0,229887:0:0:0:0:
64,192,229887,1,8,0:0:0:0:
448,192,229887,1,0,0:0:0:0:
192,192,229960,1,8,0:0:0:0:
64,192,230033,1,2,0:0:0:0:
320,192,230033,128,4,230179:0:0:0:0:
448,192,230033,128,0,230179:0:0:0:0:
64,192,230326,1,8,0:0:0:0:
192,192,230326,1,0,0:0:0:0:
320,192,230326,1,0,0:0:0:0:
192,192,230472,1,2,0:0:0:0:
448,192,230472,1,0,0:0:0:0:
64,192,230618,1,8,0:0:0:0:
320,192,230618,1,0,0:0:0:0:
448,192,230618,1,0,0:0:0:0:
192,192,230765,1,2,0:0:0:0:
320,192,230765,1,0,0:0:0:0:
64,192,230911,1,8,0:0:0:0:
192,192,230911,1,0,0:0:0:0:
448,192,230911,1,0,0:0:0:0:
320,192,231057,1,2,0:0:0:0:
448,192,231057,1,0,0:0:0:0:
64,192,231204,1,8,0:0:0:0:
192,192,231204,1,0,0:0:0:0:
320,192,231204,1,0,0:0:0:0:
64,192,231350,1,2,0:0:0:0:
448,192,231350,1,0,0:0:0:0:
192,192,231423,1,2,0:0:0:0:
64,192,231496,1,8,0:0:0:0:
320,192,231496,1,0,0:0:0:0:
448,192,231496,1,0,0:0:0:0:
192,192,231643,1,2,0:0:0:0:
448,192,231643,1,0,0:0:0:0:
64,192,231789,1,8,0:0:0:0:
192,192,231789,1,0,0:0:0:0:
320,192,231789,1,0,0:0:0:0:
64,192,231935,1,2,0:0:0:0:
448,192,231935,1,0,0:0:0:0:
320,192,232009,1,2,0:0:0:0:
64,192,232082,1,8,0:0:0:0:
192,192,232082,1,0,0:0:0:0:
448,192,232082,1,0,0:0:0:0:
320,192,232228,1,2,0:0:0:0:
448,192,232228,1,0,0:0:0:0:
64,192,232374,1,8,0:0:0:0:
192,192,232374,1,0,0:0:0:70:Crash.wav
320,192,232374,1,0,0:0:0:0:
64,192,232521,1,2,0:0:0:0:
192,192,232521,1,0,0:0:0:0:
320,192,232594,1,2,0:0:0:0:
64,192,232667,1,8,0:0:0:0:
192,192,232667,1,0,0:0:0:0:
448,192,232667,1,0,0:0:0:0:
320,192,232813,1,2,0:0:0:0:
448,192,232813,1,0,0:0:0:0:
64,192,232960,1,8,0:0:0:0:
192,192,232960,1,0,0:0:0:0:
320,192,232960,1,0,0:0:0:0:
64,192,233106,1,2,0:0:0:0:
448,192,233106,1,0,0:0:0:0:
192,192,233179,1,2,0:0:0:0:
64,192,233252,1,8,0:0:0:0:
320,192,233252,1,0,0:0:0:0:
448,192,233252,1,0,0:0:0:0:
64,192,233399,1,2,0:0:0:0:
192,192,233399,1,0,0:0:0:0:
320,192,233545,1,8,0:0:0:0:
448,192,233545,1,0,0:0:0:70:LR_Cymbal.wav
192,192,233618,1,2,0:0:0:0:
64,192,233691,1,2,0:0:0:0:
320,192,233691,1,0,0:0:0:0:
448,192,233765,1,2,0:0:0:0:
64,192,233838,1,8,0:0:0:0:
192,192,233838,1,0,0:0:0:70:LR_Cymbal.wav
320,192,233911,1,2,0:0:0:0:
64,192,233984,1,2,0:0:0:0:
448,192,233984,1,0,0:0:0:0:
192,192,234057,1,2,0:0:0:0:
320,192,234130,1,8,0:0:0:0:
448,192,234130,1,0,0:0:0:70:LR_Cymbal.wav
64,192,234204,1,8,0:0:0:0:
192,192,234204,1,0,0:0:0:0:
320,192,234277,1,8,0:0:0:0:
448,192,234277,1,0,0:0:0:0:
192,192,234350,1,8,0:0:0:0:
64,192,234423,1,0,0:0:0:70:Tom1.wav
448,192,234423,1,0,0:0:0:0:
192,192,234496,1,0,0:0:0:70:Tom1.wav
320,192,234496,1,0,0:0:0:0:
64,192,234569,1,0,0:0:0:70:Tom2.wav
448,192,234569,1,0,0:0:0:0:
320,192,234643,1,0,0:0:0:70:Tom3.wav
64,192,234716,1,2,0:0:0:0:
192,192,234716,128,4,234862:0:0:0:0:
448,192,234716,1,0,0:0:0:0:
320,192,234862,128,2,235009:0:0:0:0:
448,192,234862,1,0,0:0:0:0:
64,192,235009,128,8,235155:0:0:0:0:
192,192,235009,1,0,0:0:0:0:
192,192,235155,128,0,235301:0:0:0:0:
64,192,235301,1,2,0:0:0:0:
448,192,235301,128,0,235448:0:0:0:0:
192,192,235448,1,2,0:0:0:0:
320,192,235448,128,0,235594:0:0:0:0:
64,192,235594,1,8,0:0:0:0:
448,192,235594,128,0,235740:0:0:0:0:
64,192,235740,128,2,235887:0:0:0:0:
192,192,235740,1,0,0:0:0:0:
320,192,235887,128,0,236033:0:0:0:0:
64,192,236033,1,2,0:0:0:0:
192,192,236033,128,0,236179:0:0:0:0:
64,192,236179,1,8,0:0:0:0:
320,192,236179,1,0,0:0:0:0:
448,192,236179,128,0,236472:0:0:0:0:
64,192,236472,1,2,0:0:0:0:
192,192,236472,128,0,236618:0:0:0:0:
320,192,236618,1,2,0:0:0:0:
448,192,236618,128,0,236765:0:0:0:0:
64,192,236765,1,8,0:0:0:0:
192,192,236765,128,0,236911:0:0:0:0:
320,192,236911,128,0,237057:0:0:0:0:
64,192,237057,128,2,237204:0:0:0:0:
192,192,237057,1,4,0:0:0:0:
448,192,237057,1,0,0:0:0:0:
320,192,237204,1,2,0:0:0:0:
448,192,237204,128,0,237350:0:0:0:0:
192,192,237350,128,8,237496:0:0:0:0:
320,192,237350,1,0,0:0:0:0:
64,192,237496,128,0,237643:0:0:0:0:
320,192,237643,1,2,0:0:0:0:
448,192,237643,128,0,237789:0:0:0:0:
64,192,237789,1,2,0:0:0:0:
320,192,237789,128,0,237935:0:0:0:0:
64,192,237935,128,8,238082:0:0:0:0:
192,192,237935,1,0,0:0:0:0:
320,192,238082,128,2,238228:0:0:0:0:
448,192,238082,1,0,0:0:0:0:
192,192,238228,128,0,238521:0:0:0:0:
448,192,238228,128,0,238374:0:0:0:0:
64,192,238374,1,2,0:0:0:0:
320,192,238374,128,0,238521:0:0:0:0:
64,192,238521,128,8,238667:0:0:0:0:
448,192,238521,128,0,238813:0:0:0:0:
192,192,238667,128,0,238813:0:0:0:0:
64,192,238813,128,2,239106:0:0:0:0:
320,192,238813,128,0,238960:0:0:0:0:
192,192,238960,1,2,0:0:0:0:
448,192,238960,128,0,239106:0:0:0:0:
192,192,239106,128,8,239252:0:0:0:0:
320,192,239106,128,0,239252:0:0:0:0:
64,192,239252,1,8,0:0:0:0:
448,192,239252,1,0,0:0:0:0:
192,192,239326,1,8,0:0:0:0:
64,192,239399,128,2,239545:0:0:0:0:
320,192,239399,1,4,0:0:0:0:
448,192,239399,128,0,239545:0:0:0:0:
64,192,239691,1,8,0:0:0:0:
192,192,239691,1,0,0:0:0:0:
320,192,239691,1,0,0:0:0:0:
320,192,239838,1,2,0:0:0:0:
448,192,239838,1,0,0:0:0:0:
64,192,239984,1,8,0:0:0:0:
192,192,239984,1,0,0:0:0:0:
448,192,239984,1,0,0:0:0:0:
64,192,240130,1,2,0:0:0:0:
320,192,240130,1,0,0:0:0:0:
192,192,240204,1,2,0:0:0:0:
64,192,240277,1,8,0:0:0:0:
320,192,240277,1,0,0:0:0:0:
448,192,240277,1,0,0:0:0:0:
192,192,240423,1,2,0:0:0:0:
448,192,240423,1,0,0:0:0:0:
64,192,240569,1,8,0:0:0:0:
192,192,240569,1,0,0:0:0:0:
320,192,240569,1,0,0:0:0:0:
320,192,240716,1,2,0:0:0:0:
448,192,240716,1,0,0:0:0:0:
64,192,240862,1,8,0:0:0:0:
192,192,240862,1,0,0:0:0:0:
448,192,240862,1,0,0:0:0:0:
64,192,241009,1,2,0:0:0:0:
320,192,241009,1,0,0:0:0:0:
192,192,241155,1,8,0:0:0:0:
320,192,241155,1,0,0:0:0:0:
448,192,241155,1,0,0:0:0:0:
64,192,241301,1,2,0:0:0:0:
448,192,241301,1,0,0:0:0:0:
320,192,241374,1,2,0:0:0:0:
64,192,241448,1,8,0:0:0:0:
192,192,241448,1,0,0:0:0:70:Crash.wav
448,192,241448,1,0,0:0:0:0:
320,192,241594,1,2,0:0:0:0:
448,192,241594,1,0,0:0:0:0:
64,192,241740,1,8,0:0:0:0:
192,192,241740,1,4,0:0:0:0:
320,192,241813,1,2,0:0:0:0:
64,192,241887,1,2,0:0:0:0:
448,192,241887,1,0,0:0:0:0:
192,192,241960,1,2,0:0:0:0:
320,192,242033,1,8,0:0:0:0:
448,192,242033,1,0,0:0:0:70:LR_Cymbal.wav
192,192,242106,1,2,0:0:0:0:
64,192,242179,1,2,0:0:0:0:
448,192,242179,1,0,0:0:0:0:
320,192,242252,1,2,0:0:0:0:
64,192,242326,1,8,0:0:0:0:
192,192,242326,1,0,0:0:0:70:LR_Cymbal.wav
320,192,242399,1,2,0:0:0:0:
64,192,242472,1,2,0:0:0:0:
448,192,242472,1,0,0:0:0:0:
192,192,242545,1,2,0:0:0:0:
320,192,242618,1,8,0:0:0:0:
448,192,242618,1,0,0:0:0:70:LR_Cymbal.wav
192,192,242691,1,2,0:0:0:0:
64,192,242765,1,2,0:0:0:0:
448,192,242765,1,0,0:0:0:0:
320,192,242838,1,2,0:0:0:0:
64,192,242911,1,8,0:0:0:0:
192,192,242911,1,0,0:0:0:70:Crash.wav
448,192,242984,1,2,0:0:0:0:
64,192,243057,1,2,0:0:0:0:
320,192,243057,1,0,0:0:0:0:
192,192,243130,1,2,0:0:0:0:
320,192,243204,1,8,0:0:0:0:
448,192,243204,1,0,0:0:0:0:
64,192,243277,1,2,0:0:0:0:
192,192,243350,1,2,0:0:0:0:
448,192,243350,1,0,0:0:0:0:
320,192,243423,1,2,0:0:0:0:
64,192,243496,1,8,0:0:0:0:
192,192,243496,1,0,0:0:0:0:
320,192,243569,1,8,0:0:0:0:
448,192,243569,1,0,0:0:0:0:
64,192,243643,1,8,0:0:0:0:
192,192,243643,1,0,0:0:0:0:
320,192,243716,1,8,0:0:0:0:
448,192,243716,1,0,0:0:0:0:
64,192,243789,1,0,0:0:0:70:Tom1.wav
192,192,243789,1,0,0:0:0:0:
320,192,243935,1,0,0:0:0:70:Tom2.wav
448,192,243935,1,0,0:0:0:0:
64,192,244082,128,4,247009:0:0:0:0:
192,192,244082,1,2,0:0:0:0:
320,192,244082,1,0,0:0:0:0:
448,192,244082,128,0,252277:0:0:0:0:
