osu file format v14

[General]
AudioFilename: audio.ogg
AudioLeadIn: 0
PreviewTime: 70284
Countdown: 0
SampleSet: Soft
StackLeniency: 0.7
Mode: 3
LetterboxInBreaks: 0
SpecialStyle: 0
WidescreenStoryboard: 0

[Editor]
Bookmarks: 27801,46435,58705,71057,83417,95778,114319,116637,145220,157580,169941
DistanceSpacing: 1.2
BeatDivisor: 6
GridSize: 32
TimelineZoom: 1.6

[Metadata]
Title:Dawn
TitleUnicode:Dawn
Artist:Adust Rain
ArtistUnicode:Adust Rain
Creator:laughingcomet
Version:Insane
Source:東方地霊殿 ~ Subterranean Animism.
Tags:Silent Snow okogeeechann おこげちゃん menikichi めにきち kissssy Green Eyed Jealousy 緑眼のジェラシー Ryokugan no Jerashii Protastic101 Touhou Project 東方Project toho 2hu th11 Touhou Chireiden 上海アリス幻樂団 Shanhai Arisu Gengakudan ZUN 太田顺也 Oota Jun'ya 水橋パルスィ Mizuhashi Parsee Reitaisai 14 例大祭14 metal rock japanese english
BeatmapID:1392149
BeatmapSetID:657204

[Difficulty]
HPDrainRate:8.3
CircleSize:4
OverallDifficulty:9
ApproachRate:5
SliderMultiplier:1.4
SliderTickRate:1

[Events]
//Background and Video events
0,0,"vuFx2Tn.jpg",0,0
//Break Periods
//Storyboard Layer 0 (Background)
//Storyboard Layer 1 (Fail)
//Storyboard Layer 2 (Pass)
//Storyboard Layer 3 (Foreground)
//Storyboard Layer 4 (Overlay)
//Storyboard Sound Samples

[TimingPoints]
1530,257.510729613734,3,2,1,25,1,0
12345,-100,3,2,1,60,0,0
15435,-100,3,2,1,60,0,1
27796,-100,3,2,1,60,0,0
40156,-100,3,2,1,60,0,1
46336,-100,3,2,1,60,0,0
58697,-100,3,2,1,25,0,0
70285,-100,3,2,1,60,0,0
95778,-100,3,2,1,40,0,0
113547,-100,3,2,1,60,0,0
114319,-100,3,2,1,60,0,1
145220,-100,3,2,1,25,0,0
157581,-100,3,2,1,60,0,0
182302,-100,3,2,1,60,0,1
194405,-100,3,2,1,60,0,0

[HitObjects]
192,192,1530,5,0,0:0:0:0:
64,192,1530,1,0,0:0:0:30:E5.wav
320,192,1594,1,0,0:0:0:0:
448,192,1658,1,0,0:0:0:0:
64,192,1723,1,0,0:0:0:0:
320,192,1787,1,0,0:0:0:0:
448,192,2045,1,0,0:0:0:0:
192,192,2087,1,0,0:0:0:0:
64,192,2302,1,0,0:0:0:30:B5.wav
448,192,2302,1,0,0:0:0:0:
64,192,2817,1,0,0:0:0:0:
320,192,2860,1,0,0:0:0:0:
320,192,3075,1,0,0:0:0:30:Eb5.wav
448,192,3075,1,0,0:0:0:0:
192,192,3139,1,0,0:0:0:0:
64,192,3203,1,0,0:0:0:0:
448,192,3268,1,0,0:0:0:0:
192,192,3332,1,0,0:0:0:0:
448,192,3590,1,0,0:0:0:0:
320,192,3633,1,0,0:0:0:0:
192,192,3847,1,0,0:0:0:0:
64,192,3847,1,0,0:0:0:30:F#5.wav
448,192,4362,1,0,0:0:0:0:
192,192,4405,1,0,0:0:0:0:
64,192,4620,1,0,0:0:0:30:D5.wav
320,192,4620,1,0,0:0:0:0:
192,192,4684,1,0,0:0:0:0:
448,192,4748,1,0,0:0:0:0:
64,192,4813,1,0,0:0:0:0:
320,192,4877,1,0,0:0:0:0:
192,192,5135,1,0,0:0:0:0:
320,192,5178,1,0,0:0:0:0:
448,192,5392,1,0,0:0:0:0:
64,192,5392,1,0,0:0:0:30:D6.wav
320,192,5907,1,0,0:0:0:0:
64,192,5950,1,0,0:0:0:0:
192,192,6165,1,0,0:0:0:30:C#5.wav
448,192,6165,1,0,0:0:0:0:
320,192,6229,1,0,0:0:0:0:
64,192,6293,1,0,0:0:0:0:
448,192,6358,1,0,0:0:0:0:
192,192,6422,1,0,0:0:0:0:
64,192,6680,1,0,0:0:0:0:
320,192,6723,1,0,0:0:0:0:
192,192,6937,1,0,0:0:0:30:G5.wav
448,192,6937,1,0,0:0:0:0:
320,192,7452,1,0,0:0:0:0:
64,192,7495,1,0,0:0:0:0:
192,192,7710,1,0,0:0:0:30:E5.wav
448,192,7710,1,0,0:0:0:0:
320,192,7774,1,0,0:0:0:0:
64,192,7839,1,0,0:0:0:0:
192,192,7903,1,0,0:0:0:0:
448,192,7967,1,0,0:0:0:0:
320,192,8225,1,0,0:0:0:0:
192,192,8268,1,0,0:0:0:0:
64,192,8482,1,0,0:0:0:30:G5.wav
448,192,8482,1,0,0:0:0:0:
448,192,8997,1,0,0:0:0:0:
192,192,9040,1,0,0:0:0:0:
320,192,9255,1,0,0:0:0:0:
64,192,9255,1,0,0:0:0:30:B5.wav
192,192,9319,1,0,0:0:0:0:
448,192,9384,1,0,0:0:0:0:
320,192,9448,1,0,0:0:0:0:
64,192,9512,1,0,0:0:0:0:
64,192,9770,1,0,0:0:0:0:
320,192,9813,1,0,0:0:0:0:
192,192,10027,1,0,0:0:0:30:D5.wav
448,192,10027,1,0,0:0:0:0:
320,192,10542,1,0,0:0:0:0:
192,192,10585,1,0,0:0:0:0:
448,192,10800,1,0,0:0:0:0:
64,192,10800,1,0,0:0:0:30:C#5.wav
192,192,10864,1,0,0:0:0:0:
320,192,10929,1,0,0:0:0:0:
448,192,10993,1,0,0:0:0:0:
192,192,11057,1,0,0:0:0:0:
64,192,11315,1,0,0:0:0:0:
320,192,11358,1,0,0:0:0:0:
448,192,11572,1,0,0:0:0:0:
192,192,11572,1,0,0:0:0:30:E5.wav
64,192,12087,1,0,0:0:0:0:
448,192,12130,1,0,0:0:0:0:
192,192,12345,1,2,0:0:0:0:
320,192,12345,1,0,0:0:0:30:B5.wav
64,192,12345,128,0,13890:0:0:0:30:Eb5.wav
320,192,13890,1,2,0:0:0:0:
320,192,14019,1,2,0:0:0:0:
192,192,14148,1,8,0:0:0:0:
448,192,14148,1,0,0:0:0:0:
192,192,14276,1,2,0:0:0:0:
448,192,14534,1,0,0:0:0:0:
64,192,14534,1,8,0:0:0:0:
192,192,14663,1,2,0:0:0:0:
320,192,14920,1,2,0:0:0:0:
448,192,15178,1,0,0:0:0:0:
64,192,15178,1,8,0:0:0:0:
192,192,15435,1,0,0:0:0:0:
448,192,15435,1,8,0:0:0:0:
192,192,15564,1,2,0:0:0:0:
64,192,15693,1,8,0:0:0:0:
320,192,15693,1,0,0:0:0:0:
320,192,15821,1,2,0:0:0:0:
448,192,15950,1,0,0:0:0:0:
192,192,15950,1,8,0:0:0:0:
192,192,16079,1,2,0:0:0:0:
320,192,16143,1,2,0:0:0:0:
64,192,16208,1,8,0:0:0:0:
448,192,16208,1,0,0:0:0:0:
448,192,16336,1,2,0:0:0:0:
192,192,16465,1,0,0:0:0:0:
64,192,16465,1,8,0:0:0:0:
192,192,16594,1,2,0:0:0:0:
448,192,16723,1,0,0:0:0:0:
320,192,16723,1,8,0:0:0:0:
320,192,16851,1,2,0:0:0:0:
192,192,16916,1,2,0:0:0:0:
448,192,16980,1,0,0:0:0:0:
64,192,16980,1,8,0:0:0:0:
64,192,17109,1,2,0:0:0:0:
448,192,17238,1,8,0:0:0:0:
320,192,17238,1,0,0:0:0:0:
448,192,17366,1,2,0:0:0:0:
192,192,17495,1,0,0:0:0:0:
64,192,17495,1,8,0:0:0:0:
192,192,17624,1,2,0:0:0:0:
320,192,17753,1,0,0:0:0:0:
448,192,17753,1,8,0:0:0:0:
320,192,17881,1,2,0:0:0:0:
192,192,18010,1,0,0:0:0:0:
64,192,18010,1,8,0:0:0:0:
192,192,18139,1,2,0:0:0:0:
64,192,18268,1,0,0:0:0:0:
448,192,18268,1,8,0:0:0:0:
448,192,18396,1,2,0:0:0:0:
320,192,18461,1,2,0:0:0:0:
192,192,18525,1,8,0:0:0:0:
64,192,18525,1,0,0:0:0:0:
192,192,18654,1,2,0:0:0:0:
448,192,18783,1,0,0:0:0:0:
320,192,18783,1,8,0:0:0:0:
320,192,18911,1,2,0:0:0:0:
448,192,19040,1,8,0:0:0:0:
64,192,19040,1,0,0:0:0:0:
64,192,19169,1,2,0:0:0:0:
320,192,19298,1,0,0:0:0:0:
192,192,19298,1,8,0:0:0:0:
320,192,19426,1,2,0:0:0:0:
448,192,19555,1,8,0:0:0:0:
192,192,19555,1,0,0:0:0:0:
192,192,19684,1,2,0:0:0:0:
64,192,19813,1,8,0:0:0:0:
320,192,19813,1,0,0:0:0:0:
64,192,19942,1,2,0:0:0:0:
192,192,20006,1,2,0:0:0:0:
320,192,20070,1,8,0:0:0:0:
448,192,20070,1,0,0:0:0:0:
448,192,20199,1,2,0:0:0:0:
192,192,20328,1,8,0:0:0:0:
64,192,20328,1,0,0:0:0:0:
64,192,20457,1,2,0:0:0:0:
320,192,20585,1,8,0:0:0:0:
448,192,20585,1,0,0:0:0:0:
320,192,20714,1,2,0:0:0:0:
192,192,20778,1,2,0:0:0:0:
448,192,20843,1,0,0:0:0:0:
64,192,20843,1,8,0:0:0:0:
64,192,20972,1,2,0:0:0:0:
448,192,21100,1,8,0:0:0:0:
192,192,21100,1,0,0:0:0:0:
448,192,21229,1,2,0:0:0:0:
320,192,21358,1,8,0:0:0:0:
64,192,21358,1,0,0:0:0:0:
64,192,21487,1,2,0:0:0:0:
192,192,21551,1,2,0:0:0:0:
320,192,21615,1,4,0:0:0:0:
448,192,21615,1,8,0:0:0:0:
320,192,21744,1,2,0:0:0:0:
192,192,21873,1,0,0:0:0:0:
64,192,21873,1,8,0:0:0:0:
192,192,22002,1,2,0:0:0:0:
448,192,22130,1,8,0:0:0:0:
64,192,22130,1,0,0:0:0:0:
448,192,22259,1,2,0:0:0:0:
320,192,22323,1,2,0:0:0:0:
64,192,22388,1,8,0:0:0:0:
192,192,22388,1,0,0:0:0:0:
64,192,22517,1,2,0:0:0:0:
320,192,22645,1,0,0:0:0:0:
448,192,22645,1,8,0:0:0:0:
320,192,22774,1,2,0:0:0:0:
448,192,22903,1,8,0:0:0:0:
192,192,22903,1,0,0:0:0:0:
192,192,23032,1,2,0:0:0:0:
320,192,23096,1,2,0:0:0:0:
64,192,23160,1,0,0:0:0:0:
448,192,23160,1,8,0:0:0:0:
448,192,23289,1,2,0:0:0:0:
64,192,23418,1,8,0:0:0:0:
192,192,23418,1,0,0:0:0:0:
192,192,23547,1,2,0:0:0:0:
448,192,23675,1,8,0:0:0:0:
320,192,23675,1,0,0:0:0:0:
320,192,23804,1,2,0:0:0:0:
192,192,23933,1,8,0:0:0:0:
64,192,23933,1,0,0:0:0:0:
192,192,24062,1,2,0:0:0:0:
64,192,24190,1,8,0:0:0:0:
448,192,24190,1,0,0:0:0:0:
448,192,24319,1,2,0:0:0:0:
64,192,24448,1,8,0:0:0:0:
192,192,24448,1,0,0:0:0:0:
64,192,24577,1,2,0:0:0:0:
192,192,24641,1,2,0:0:0:0:
320,192,24705,1,0,0:0:0:0:
448,192,24705,1,8,0:0:0:0:
320,192,24834,1,2,0:0:0:0:
64,192,24963,1,8,0:0:0:0:
192,192,24963,1,0,0:0:0:0:
192,192,25092,1,2,0:0:0:0:
320,192,25220,1,8,0:0:0:0:
448,192,25220,1,0,0:0:0:0:
448,192,25349,1,2,0:0:0:0:
192,192,25478,1,0,0:0:0:0:
64,192,25478,1,8,0:0:0:0:
64,192,25607,1,2,0:0:0:0:
320,192,25736,1,8,0:0:0:0:
448,192,25736,1,0,0:0:0:0:
448,192,25864,1,2,0:0:0:0:
320,192,25993,1,0,0:0:0:0:
64,192,25993,1,8,0:0:0:0:
64,192,26122,1,2,0:0:0:0:
192,192,26186,1,2,0:0:0:0:
320,192,26251,1,0,0:0:0:0:
448,192,26251,1,8,0:0:0:0:
448,192,26379,1,2,0:0:0:0:
64,192,26508,1,8,0:0:0:0:
192,192,26508,1,0,0:0:0:0:
192,192,26637,1,2,0:0:0:0:
64,192,26766,1,8,0:0:0:0:
320,192,26766,1,0,0:0:0:0:
320,192,26894,1,2,0:0:0:0:
192,192,26959,1,2,0:0:0:0:
64,192,27023,1,4,0:0:0:0:
448,192,27023,1,8,0:0:0:0:
64,192,27152,1,2,0:0:0:0:
320,192,27281,1,8,0:0:0:0:
192,192,27345,1,8,0:0:0:0:
320,192,27409,1,8,0:0:0:0:
448,192,27538,1,0,0:0:0:0:
192,192,27538,1,2,0:0:0:0:
192,192,27667,1,2,0:0:0:0:
64,192,27796,1,4,0:0:0:0:
448,192,27796,1,2,0:0:0:0:
448,192,27924,1,2,0:0:0:0:
64,192,27924,1,0,0:0:0:0:
320,192,28053,1,0,0:0:0:0:
192,192,28182,1,0,0:0:0:0:
448,192,28182,1,2,0:0:0:0:
64,192,28311,1,0,0:0:0:0:
320,192,28439,1,2,0:0:0:0:
192,192,28439,1,0,0:0:0:0:
192,192,28568,1,0,0:0:0:0:
64,192,28568,1,0,0:0:0:0:
448,192,28568,1,8,0:0:0:0:
320,192,28826,1,0,0:0:0:0:
64,192,28954,1,0,0:0:0:0:
448,192,29083,1,0,0:0:0:0:
192,192,29212,1,0,0:0:0:0:
64,192,29341,1,2,0:0:0:0:
320,192,29341,1,0,0:0:0:0:
64,192,29469,1,2,0:0:0:0:
320,192,29469,1,0,0:0:0:0:
192,192,29598,1,0,0:0:0:0:
64,192,29727,1,0,0:0:0:0:
448,192,29727,1,2,0:0:0:0:
320,192,29856,1,0,0:0:0:0:
192,192,29984,1,2,0:0:0:0:
448,192,29984,1,0,0:0:0:0:
64,192,30113,1,0,0:0:0:0:
320,192,30113,1,8,0:0:0:0:
448,192,30113,1,0,0:0:0:0:
320,192,30371,1,0,0:0:0:0:
64,192,30499,1,0,0:0:0:0:
448,192,30628,1,0,0:0:0:0:
192,192,30757,1,0,0:0:0:0:
320,192,30886,1,2,0:0:0:0:
448,192,30886,1,0,0:0:0:0:
320,192,31014,1,2,0:0:0:0:
448,192,31014,1,0,0:0:0:0:
64,192,31143,1,0,0:0:0:0:
192,192,31272,1,0,0:0:0:0:
448,192,31272,1,2,0:0:0:0:
320,192,31401,1,0,0:0:0:0:
192,192,31530,1,2,0:0:0:0:
64,192,31530,1,0,0:0:0:0:
64,192,31658,1,8,0:0:0:0:
320,192,31658,1,0,0:0:0:0:
448,192,31658,1,0,0:0:0:0:
448,192,31916,1,0,0:0:0:0:
64,192,32045,1,0,0:0:0:0:
320,192,32173,1,0,0:0:0:0:
448,192,32302,1,0,0:0:0:0:
192,192,32431,1,0,0:0:0:0:
64,192,32431,1,2,0:0:0:0:
192,192,32560,1,0,0:0:0:0:
64,192,32560,1,2,0:0:0:0:
448,192,32688,1,0,0:0:0:0:
192,192,32817,1,2,0:0:0:0:
320,192,32817,1,0,0:0:0:0:
64,192,32946,1,0,0:0:0:0:
448,192,33075,1,2,0:0:0:0:
320,192,33139,1,2,0:0:0:0:
192,192,33203,1,0,0:0:0:0:
64,192,33203,1,0,0:0:0:0:
448,192,33203,1,2,0:0:0:0:
320,192,33332,1,2,0:0:0:0:
192,192,33332,1,0,0:0:0:0:
320,192,33461,1,0,0:0:0:0:
448,192,33461,1,2,0:0:0:0:
192,192,33590,1,2,0:0:0:0:
64,192,33590,1,0,0:0:0:0:
320,192,33718,1,0,0:0:0:0:
448,192,33718,1,8,0:0:0:0:
448,192,33847,1,8,0:0:0:0:
320,192,33847,1,0,0:0:0:0:
64,192,33976,1,2,0:0:0:0:
192,192,33976,1,4,0:0:0:0:
64,192,34105,1,2,0:0:0:0:
192,192,34105,1,0,0:0:0:0:
448,192,34233,1,0,0:0:0:0:
192,192,34362,1,0,0:0:0:0:
320,192,34362,1,2,0:0:0:0:
64,192,34491,1,0,0:0:0:0:
448,192,34620,1,2,0:0:0:0:
320,192,34620,1,0,0:0:0:0:
64,192,34748,1,0,0:0:0:0:
320,192,34748,1,0,0:0:0:0:
192,192,34748,1,8,0:0:0:0:
192,192,35006,1,0,0:0:0:0:
448,192,35135,1,0,0:0:0:0:
64,192,35263,1,0,0:0:0:0:
192,192,35392,1,0,0:0:0:0:
320,192,35521,1,2,0:0:0:0:
448,192,35521,1,0,0:0:0:0:
320,192,35650,1,2,0:0:0:0:
448,192,35650,1,0,0:0:0:0:
64,192,35778,1,0,0:0:0:0:
192,192,35907,1,0,0:0:0:0:
320,192,35907,1,2,0:0:0:0:
448,192,36036,1,0,0:0:0:0:
320,192,36165,1,2,0:0:0:0:
64,192,36165,1,0,0:0:0:0:
192,192,36293,1,0,0:0:0:0:
320,192,36293,1,8,0:0:0:0:
448,192,36293,1,0,0:0:0:0:
192,192,36551,1,0,0:0:0:0:
448,192,36680,1,0,0:0:0:0:
64,192,36808,1,0,0:0:0:0:
320,192,36937,1,0,0:0:0:0:
448,192,37066,1,2,0:0:0:0:
192,192,37066,1,0,0:0:0:0:
192,192,37195,1,0,0:0:0:0:
448,192,37195,1,2,0:0:0:0:
64,192,37323,1,0,0:0:0:0:
320,192,37452,1,2,0:0:0:0:
448,192,37452,1,0,0:0:0:0:
192,192,37581,1,0,0:0:0:0:
64,192,37710,1,0,0:0:0:0:
448,192,37710,1,2,0:0:0:0:
320,192,37839,1,0,0:0:0:0:
192,192,37839,1,8,0:0:0:0:
64,192,37839,1,0,0:0:0:0:
64,192,38096,1,0,0:0:0:0:
320,192,38225,1,0,0:0:0:0:
448,192,38354,1,0,0:0:0:0:
192,192,38482,1,0,0:0:0:0:
320,192,38611,1,0,0:0:0:0:
64,192,38611,1,2,0:0:0:0:
320,192,38740,1,0,0:0:0:0:
64,192,38740,1,2,0:0:0:0:
192,192,38869,1,0,0:0:0:0:
64,192,38997,1,0,0:0:0:0:
448,192,38997,1,2,0:0:0:0:
192,192,39126,1,0,0:0:0:0:
320,192,39255,1,0,0:0:0:0:
448,192,39255,1,2,0:0:0:0:
64,192,39384,1,0,0:0:0:0:
192,192,39384,1,0,0:0:0:0:
448,192,39384,1,8,0:0:0:0:
64,192,39512,1,2,0:0:0:0:
320,192,39512,1,0,0:0:0:0:
192,192,39641,1,8,0:0:0:0:
320,192,39705,1,8,0:0:0:0:
192,192,39770,1,8,0:0:0:0:
320,192,39899,1,2,0:0:0:0:
448,192,39899,1,0,0:0:0:0:
64,192,40156,1,8,0:0:0:0:
448,192,40156,1,2,0:0:0:0:
64,192,40285,1,0,0:0:0:0:
448,192,40285,1,2,0:0:0:0:
192,192,40414,1,8,0:0:0:0:
320,192,40414,1,0,0:0:0:0:
320,192,40542,1,2,0:0:0:0:
64,192,40671,1,0,0:0:0:0:
192,192,40671,1,8,0:0:0:0:
64,192,40800,1,2,0:0:0:0:
320,192,40864,1,2,0:0:0:0:
192,192,40929,1,8,0:0:0:0:
448,192,40929,1,0,0:0:0:0:
448,192,41057,1,2,0:0:0:0:
192,192,41186,1,0,0:0:0:0:
320,192,41186,1,8,0:0:0:0:
192,192,41315,1,2,0:0:0:0:
64,192,41444,1,8,0:0:0:0:
320,192,41444,1,0,0:0:0:0:
320,192,41572,1,2,0:0:0:0:
192,192,41637,1,2,0:0:0:0:
64,192,41701,1,8,0:0:0:0:
448,192,41701,1,0,0:0:0:0:
64,192,41830,1,2,0:0:0:0:
320,192,41959,1,8,0:0:0:0:
448,192,41959,1,0,0:0:0:0:
448,192,42087,1,2,0:0:0:0:
192,192,42216,1,0,0:0:0:0:
64,192,42216,1,8,0:0:0:0:
192,192,42345,1,2,0:0:0:0:
320,192,42474,1,0,0:0:0:0:
448,192,42474,1,8,0:0:0:0:
320,192,42602,1,2,0:0:0:0:
448,192,42731,1,12,0:0:0:0:
64,192,42731,1,0,0:0:0:0:
64,192,42860,1,2,0:0:0:0:
320,192,42989,1,8,0:0:0:0:
192,192,43053,1,8,0:0:0:0:
320,192,43117,1,8,0:0:0:0:
192,192,43182,1,8,0:0:0:0:
320,192,43246,1,12,0:0:0:0:
448,192,43246,1,2,0:0:0:0:
448,192,43375,1,2,0:0:0:0:
64,192,43504,1,2,0:0:0:0:
192,192,43504,1,12,0:0:0:0:
64,192,43633,1,2,0:0:0:0:
448,192,43761,1,12,0:0:0:0:
320,192,43761,1,2,0:0:0:0:
320,192,43890,1,2,0:0:0:0:
64,192,44019,1,2,0:0:0:0:
448,192,44019,1,12,0:0:0:0:
64,192,44148,1,2,0:0:0:0:
192,192,44276,1,4,0:0:0:0:
448,192,44276,1,2,0:0:0:0:
320,192,44405,1,2,0:0:0:0:
448,192,44405,1,8,0:0:0:0:
64,192,44534,1,4,0:0:0:0:
192,192,44534,1,2,0:0:0:0:
320,192,44663,1,2,0:0:0:0:
64,192,44663,1,8,0:0:0:0:
448,192,44791,1,4,0:0:0:0:
192,192,44791,1,2,0:0:0:0:
448,192,44920,1,2,0:0:0:0:
192,192,45049,1,2,0:0:0:0:
64,192,45049,1,12,0:0:0:0:
192,192,45178,1,2,0:0:0:0:
448,192,45306,1,2,0:0:0:0:
448,192,45435,1,2,0:0:0:0:
320,192,45435,1,8,0:0:0:0:
64,192,45564,1,4,0:0:0:0:
192,192,45564,1,2,0:0:0:0:
64,192,45693,1,2,0:0:0:0:
192,192,45821,1,8,0:0:0:0:
320,192,45821,1,2,0:0:0:0:
192,192,45950,1,8,0:0:0:0:
320,192,45950,1,2,0:0:0:0:
64,192,46079,1,2,0:0:0:0:
448,192,46079,1,8,0:0:0:0:
64,192,46208,1,2,0:0:0:0:
448,192,46208,1,8,0:0:0:0:
192,192,46336,1,4,0:0:0:0:
320,192,46336,1,2,0:0:0:0:
320,192,46465,1,2,0:0:0:0:
192,192,46465,1,0,0:0:0:0:
64,192,46594,1,0,0:0:0:0:
448,192,46723,1,8,0:0:0:0:
320,192,46723,1,0,0:0:0:0:
192,192,46851,1,0,0:0:0:0:
320,192,46980,1,2,0:0:0:0:
64,192,46980,1,0,0:0:0:0:
64,192,47109,1,8,0:0:0:0:
448,192,47109,1,0,0:0:0:0:
192,192,47366,1,0,0:0:0:0:
320,192,47366,1,2,0:0:0:0:
64,192,47495,1,0,0:0:0:0:
448,192,47624,1,2,0:0:0:0:
192,192,47624,1,0,0:0:0:0:
64,192,47753,1,8,0:0:0:0:
192,192,47753,1,0,0:0:0:0:
320,192,47881,1,2,0:0:0:0:
448,192,47881,1,0,0:0:0:0:
320,192,48010,1,2,0:0:0:0:
448,192,48010,1,0,0:0:0:0:
192,192,48139,1,0,0:0:0:0:
64,192,48268,1,8,0:0:0:0:
320,192,48268,1,0,0:0:0:0:
448,192,48396,1,0,0:0:0:0:
192,192,48525,1,2,0:0:0:0:
64,192,48525,1,0,0:0:0:0:
320,192,48654,1,8,0:0:0:0:
64,192,48654,1,0,0:0:0:0:
192,192,48911,1,0,0:0:0:0:
448,192,48911,1,2,0:0:0:0:
320,192,49040,1,0,0:0:0:0:
64,192,49169,1,8,0:0:0:0:
448,192,49169,1,0,0:0:0:0:
192,192,49298,1,0,0:0:0:0:
64,192,49426,1,0,0:0:0:0:
320,192,49426,1,2,0:0:0:0:
64,192,49555,1,0,0:0:0:0:
320,192,49555,1,2,0:0:0:0:
448,192,49684,1,0,0:0:0:0:
192,192,49813,1,8,0:0:0:0:
320,192,49813,1,0,0:0:0:0:
64,192,49942,1,0,0:0:0:0:
192,192,50070,1,0,0:0:0:0:
448,192,50070,1,2,0:0:0:0:
320,192,50199,1,8,0:0:0:0:
448,192,50199,1,0,0:0:0:0:
320,192,50457,1,2,0:0:0:0:
64,192,50457,1,0,0:0:0:0:
192,192,50585,1,0,0:0:0:0:
320,192,50714,1,0,0:0:0:0:
448,192,50714,1,2,0:0:0:0:
64,192,50843,1,8,0:0:0:0:
320,192,50843,1,0,0:0:0:0:
192,192,50972,1,0,0:0:0:0:
448,192,50972,1,2,0:0:0:0:
192,192,51100,1,0,0:0:0:0:
448,192,51100,1,2,0:0:0:0:
64,192,51229,1,0,0:0:0:0:
192,192,51358,1,0,0:0:0:0:
320,192,51358,1,8,0:0:0:0:
448,192,51487,1,0,0:0:0:0:
64,192,51615,1,0,0:0:0:0:
320,192,51615,1,2,0:0:0:0:
192,192,51744,1,8,0:0:0:0:
64,192,51744,1,0,0:0:0:0:
320,192,51873,1,0,0:0:0:0:
448,192,51873,1,2,0:0:0:0:
448,192,52002,1,2,0:0:0:0:
64,192,52002,1,0,0:0:0:0:
192,192,52130,1,8,0:0:0:0:
320,192,52195,1,8,0:0:0:0:
64,192,52259,1,8,0:0:0:0:
448,192,52323,1,8,0:0:0:0:
192,192,52388,1,8,0:0:0:0:
320,192,52452,1,8,0:0:0:0:
448,192,52517,1,2,0:0:0:0:
64,192,52517,1,4,0:0:0:0:
448,192,52645,1,2,0:0:0:0:
64,192,52645,1,0,0:0:0:0:
192,192,52774,1,0,0:0:0:0:
320,192,52903,1,8,0:0:0:0:
448,192,52903,1,0,0:0:0:0:
192,192,53032,1,0,0:0:0:0:
64,192,53160,1,2,0:0:0:0:
192,192,53225,1,2,0:0:0:0:
320,192,53289,1,8,0:0:0:0:
448,192,53289,1,0,0:0:0:0:
192,192,53547,1,0,0:0:0:0:
448,192,53547,1,2,0:0:0:0:
320,192,53675,1,0,0:0:0:0:
64,192,53804,1,0,0:0:0:0:
448,192,53804,1,2,0:0:0:0:
320,192,53933,1,8,0:0:0:0:
64,192,53933,1,0,0:0:0:0:
192,192,54062,1,2,0:0:0:0:
448,192,54062,1,0,0:0:0:0:
448,192,54190,1,0,0:0:0:0:
192,192,54190,1,2,0:0:0:0:
320,192,54319,1,0,0:0:0:0:
448,192,54448,1,8,0:0:0:0:
64,192,54448,1,0,0:0:0:0:
192,192,54577,1,0,0:0:0:0:
448,192,54705,1,2,0:0:0:0:
320,192,54770,1,2,0:0:0:0:
192,192,54834,1,0,0:0:0:0:
64,192,54834,1,8,0:0:0:0:
64,192,55092,1,2,0:0:0:0:
448,192,55092,1,0,0:0:0:0:
192,192,55220,1,0,0:0:0:0:
320,192,55349,1,8,0:0:0:0:
448,192,55349,1,0,0:0:0:0:
64,192,55607,1,0,0:0:0:0:
192,192,55607,1,2,0:0:0:0:
64,192,55736,1,0,0:0:0:0:
192,192,55736,1,2,0:0:0:0:
192,192,55993,1,0,0:0:0:0:
448,192,55993,1,8,0:0:0:0:
64,192,56122,1,0,0:0:0:0:
320,192,56251,1,2,0:0:0:0:
64,192,56315,1,2,0:0:0:0:
448,192,56379,1,8,0:0:0:0:
192,192,56379,1,0,0:0:0:0:
64,192,56637,1,0,0:0:0:0:
192,192,56637,1,2,0:0:0:0:
320,192,56766,1,0,0:0:0:0:
64,192,56894,1,0,0:0:0:0:
448,192,56894,1,2,0:0:0:0:
192,192,57023,1,8,0:0:0:0:
64,192,57023,1,0,0:0:0:0:
320,192,57152,1,2,0:0:0:0:
448,192,57152,1,4,0:0:0:0:
320,192,57281,1,8,0:0:0:0:
448,192,57281,1,0,0:0:0:0:
64,192,57409,1,2,0:0:0:0:
192,192,57409,1,0,0:0:0:0:
64,192,57538,5,0,0:0:0:0:
320,192,57538,1,8,0:0:0:0:
320,192,57667,1,2,0:0:0:0:
448,192,57667,1,0,0:0:0:0:
64,192,57796,1,0,0:0:0:0:
192,192,57796,1,2,0:0:0:0:
320,192,57924,1,2,0:0:0:0:
448,192,57924,1,0,0:0:0:0:
64,192,58053,1,0,0:0:0:0:
448,192,58053,1,8,0:0:0:0:
64,192,58182,1,2,0:0:0:0:
192,192,58182,1,0,0:0:0:0:
320,192,58311,1,8,0:0:0:0:
448,192,58311,1,0,0:0:0:0:
64,192,58439,1,8,0:0:0:0:
192,192,58504,1,8,0:0:0:0:
320,192,58568,1,4,0:0:0:0:
448,192,58568,1,8,0:0:0:0:
64,192,58697,5,0,0:0:0:30:E5.wav
192,192,58740,1,0,0:0:0:0:
192,192,58954,1,0,0:0:0:30:G5.wav
320,192,58997,1,0,0:0:0:0:
448,192,59083,1,0,0:0:0:0:
64,192,59212,1,0,0:0:0:30:B5.wav
192,192,59255,1,0,0:0:0:0:
448,192,59341,1,0,0:0:0:0:
320,192,59405,1,0,0:0:0:0:
192,192,59469,1,0,0:0:0:0:
64,192,59727,1,0,0:0:0:30:B5.wav
448,192,59984,1,0,0:0:0:30:G5.wav
320,192,60027,1,0,0:0:0:0:
64,192,60242,1,0,0:0:0:30:E5.wav
192,192,60306,1,0,0:0:0:0:
320,192,60371,1,0,0:0:0:0:
448,192,60435,1,0,0:0:0:0:
64,192,60499,1,0,0:0:0:30:G5.wav
192,192,60542,1,0,0:0:0:0:
320,192,60628,1,0,0:0:0:0:
192,192,60757,1,0,0:0:0:30:B5.wav
64,192,60800,1,0,0:0:0:0:
448,192,60886,1,0,0:0:0:0:
320,192,60950,1,0,0:0:0:0:
64,192,61014,1,0,0:0:0:0:
192,192,61143,1,0,0:0:0:0:
448,192,61272,1,0,0:0:0:30:B5.wav
320,192,61401,1,0,0:0:0:0:
64,192,61530,1,0,0:0:0:30:G5.wav
192,192,61572,1,0,0:0:0:0:
320,192,61658,1,0,0:0:0:0:
448,192,61787,1,0,0:0:0:30:Eb5.wav
320,192,61851,1,0,0:0:0:0:
64,192,61916,1,0,0:0:0:0:
192,192,61980,1,0,0:0:0:0:
448,192,62045,1,0,0:0:0:30:F#5.wav
320,192,62087,1,0,0:0:0:0:
64,192,62173,1,0,0:0:0:0:
320,192,62302,1,0,0:0:0:30:A5.wav
448,192,62345,1,0,0:0:0:0:
64,192,62431,1,0,0:0:0:0:
192,192,62495,1,0,0:0:0:0:
448,192,62560,1,0,0:0:0:0:
320,192,62817,1,0,0:0:0:30:A5.wav
192,192,63075,1,0,0:0:0:30:F#5.wav
64,192,63117,1,0,0:0:0:0:
64,192,63332,1,0,0:0:0:30:Eb5.wav
192,192,63396,1,0,0:0:0:0:
320,192,63461,1,0,0:0:0:0:
448,192,63525,1,0,0:0:0:0:
64,192,63590,1,0,0:0:0:30:F#5.wav
192,192,63633,1,0,0:0:0:0:
448,192,63718,1,0,0:0:0:0:
192,192,63847,1,0,0:0:0:30:A5.wav
64,192,63890,1,0,0:0:0:0:
448,192,63976,1,0,0:0:0:0:
320,192,64040,1,0,0:0:0:0:
192,192,64105,1,0,0:0:0:0:
448,192,64233,1,0,0:0:0:0:
192,192,64362,1,0,0:0:0:30:A5.wav
64,192,64491,1,0,0:0:0:0:
320,192,64620,1,0,0:0:0:30:F#5.wav
448,192,64663,1,0,0:0:0:0:
64,192,64748,1,0,0:0:0:0:
448,192,64877,1,0,0:0:0:30:E5.wav
320,192,64942,1,0,0:0:0:0:
64,192,65006,1,0,0:0:0:0:
192,192,65070,1,0,0:0:0:0:
320,192,65135,1,0,0:0:0:30:G5.wav
448,192,65178,1,0,0:0:0:0:
64,192,65263,1,0,0:0:0:0:
320,192,65392,1,0,0:0:0:30:B5.wav
192,192,65435,1,0,0:0:0:0:
448,192,65521,1,0,0:0:0:0:
320,192,65585,1,0,0:0:0:0:
192,192,65650,1,0,0:0:0:0:
64,192,65907,1,0,0:0:0:30:B5.wav
320,192,66165,1,0,0:0:0:30:G5.wav
448,192,66208,1,0,0:0:0:0:
64,192,66422,1,0,0:0:0:30:E5.wav
192,192,66487,1,0,0:0:0:0:
320,192,66551,1,0,0:0:0:0:
448,192,66615,1,0,0:0:0:0:
192,192,66680,1,0,0:0:0:30:G5.wav
64,192,66723,1,0,0:0:0:0:
320,192,66808,1,0,0:0:0:0:
448,192,66937,1,0,0:0:0:30:B5.wav
320,192,66980,1,0,0:0:0:0:
64,192,67066,1,0,0:0:0:0:
192,192,67130,1,0,0:0:0:0:
320,192,67195,1,0,0:0:0:0:
64,192,67323,1,0,0:0:0:0:
448,192,67452,1,0,0:0:0:30:B5.wav
192,192,67581,1,0,0:0:0:0:
64,192,67710,1,0,0:0:0:30:G5.wav
192,192,67753,1,0,0:0:0:0:
448,192,67839,1,0,0:0:0:0:
64,192,67967,1,0,0:0:0:30:Eb5.wav
192,192,68032,1,0,0:0:0:0:
320,192,68096,1,0,0:0:0:0:
448,192,68160,1,0,0:0:0:0:
64,192,68225,1,0,0:0:0:30:F#5.wav
192,192,68268,1,0,0:0:0:0:
448,192,68354,1,0,0:0:0:0:
192,192,68482,1,0,0:0:0:30:A5.wav
64,192,68525,1,0,0:0:0:0:
448,192,68611,1,0,0:0:0:0:
320,192,68675,1,0,0:0:0:0:
192,192,68740,1,0,0:0:0:30:B4.wav
64,192,68783,1,0,0:0:0:0:
192,192,68997,1,0,0:0:0:30:F#5.wav
448,192,69040,1,0,0:0:0:0:
320,192,69255,1,0,0:0:0:30:A5.wav
64,192,69298,1,0,0:0:0:0:
448,192,69384,1,0,0:0:0:0:
64,192,69512,1,0,0:0:0:30:B5.wav
192,192,69577,1,0,0:0:0:0:
320,192,69641,1,0,0:0:0:0:
448,192,69705,1,0,0:0:0:0:
64,192,69770,1,0,0:0:0:0:
320,192,69834,1,0,0:0:0:0:
192,192,69899,1,0,0:0:0:0:
64,192,69963,1,0,0:0:0:0:
448,192,70027,1,0,0:0:0:0:
64,192,70156,1,0,0:0:0:0:
192,192,70220,1,0,0:0:0:0:
448,192,70285,1,0,0:0:0:0:
320,192,70285,1,8,0:0:0:0:
192,192,71057,1,4,0:0:0:0:
64,192,71057,1,2,0:0:0:0:
448,192,71057,1,0,0:0:0:0:
64,192,71186,1,2,0:0:0:0:
192,192,71186,1,0,0:0:0:0:
320,192,71315,1,0,0:0:0:0:
192,192,71444,1,2,0:0:0:0:
448,192,71444,1,0,0:0:0:0:
64,192,71572,1,0,0:0:0:0:
448,192,71701,1,2,0:0:0:0:
320,192,71766,1,2,0:0:0:0:
192,192,71830,1,2,0:0:0:0:
64,192,71830,1,8,0:0:0:0:
448,192,71959,1,0,0:0:0:0:
64,192,72087,1,0,0:0:0:0:
320,192,72087,1,2,0:0:0:0:
192,192,72216,1,0,0:0:0:0:
448,192,72345,1,0,0:0:0:0:
64,192,72345,1,2,0:0:0:0:
192,192,72474,1,0,0:0:0:0:
448,192,72602,1,2,0:0:0:0:
320,192,72602,1,0,0:0:0:0:
448,192,72731,1,2,0:0:0:0:
320,192,72731,1,0,0:0:0:0:
64,192,72860,1,0,0:0:0:0:
192,192,72989,1,0,0:0:0:0:
320,192,72989,1,2,0:0:0:0:
448,192,73117,1,0,0:0:0:0:
192,192,73246,1,2,0:0:0:0:
64,192,73246,1,0,0:0:0:0:
320,192,73375,1,8,0:0:0:0:
64,192,73375,1,0,0:0:0:0:
448,192,73504,1,0,0:0:0:0:
320,192,73633,1,0,0:0:0:0:
64,192,73633,1,2,0:0:0:0:
192,192,73761,1,0,0:0:0:0:
448,192,73890,1,2,0:0:0:0:
320,192,73890,1,0,0:0:0:0:
192,192,74019,1,0,0:0:0:0:
320,192,74148,1,2,0:0:0:0:
64,192,74148,1,0,0:0:0:0:
64,192,74276,1,0,0:0:0:0:
320,192,74276,1,2,0:0:0:0:
448,192,74405,1,0,0:0:0:0:
64,192,74534,1,0,0:0:0:0:
192,192,74534,1,2,0:0:0:0:
320,192,74663,1,0,0:0:0:0:
448,192,74791,1,2,0:0:0:0:
192,192,74791,1,0,0:0:0:0:
64,192,74920,1,0,0:0:0:0:
448,192,74920,1,8,0:0:0:0:
192,192,75049,1,0,0:0:0:0:
320,192,75178,1,2,0:0:0:0:
448,192,75178,1,0,0:0:0:0:
64,192,75306,1,0,0:0:0:0:
192,192,75435,1,2,0:0:0:0:
448,192,75435,1,0,0:0:0:0:
320,192,75564,1,0,0:0:0:0:
448,192,75693,1,0,0:0:0:0:
64,192,75693,1,2,0:0:0:0:
64,192,75821,1,2,0:0:0:0:
448,192,75821,1,0,0:0:0:0:
192,192,75950,1,0,0:0:0:0:
320,192,76079,1,2,0:0:0:0:
64,192,76079,1,0,0:0:0:0:
192,192,76208,1,0,0:0:0:0:
320,192,76336,1,2,0:0:0:0:
448,192,76336,1,0,0:0:0:0:
64,192,76465,1,0,0:0:0:0:
448,192,76465,1,8,0:0:0:0:
192,192,76594,1,0,0:0:0:0:
448,192,76723,1,0,0:0:0:0:
320,192,76723,1,2,0:0:0:0:
192,192,76851,1,0,0:0:0:0:
192,192,76980,1,2,0:0:0:0:
64,192,76980,1,0,0:0:0:0:
320,192,77109,1,8,0:0:0:0:
448,192,77109,1,0,0:0:0:0:
64,192,77238,1,4,0:0:0:0:
192,192,77238,1,2,0:0:0:0:
448,192,77238,1,0,0:0:0:0:
64,192,77366,1,0,0:0:0:0:
192,192,77366,1,2,0:0:0:0:
448,192,77495,1,0,0:0:0:0:
320,192,77624,1,2,0:0:0:0:
64,192,77624,1,0,0:0:0:0:
192,192,77753,1,0,0:0:0:0:
64,192,77881,1,0,0:0:0:0:
448,192,77881,1,2,0:0:0:0:
320,192,78010,1,8,0:0:0:0:
448,192,78010,1,0,0:0:0:0:
192,192,78139,1,0,0:0:0:0:
64,192,78268,1,0,0:0:0:0:
320,192,78268,1,2,0:0:0:0:
448,192,78396,1,0,0:0:0:0:
64,192,78525,1,2,0:0:0:0:
320,192,78525,1,0,0:0:0:0:
192,192,78654,1,0,0:0:0:0:
320,192,78783,1,2,0:0:0:0:
448,192,78783,1,0,0:0:0:0:
320,192,78911,1,2,0:0:0:0:
448,192,78911,1,0,0:0:0:0:
64,192,79040,1,0,0:0:0:0:
192,192,79169,1,0,0:0:0:0:
448,192,79169,1,2,0:0:0:0:
320,192,79298,1,0,0:0:0:0:
64,192,79426,1,0,0:0:0:0:
192,192,79426,1,2,0:0:0:0:
64,192,79555,1,8,0:0:0:0:
448,192,79555,1,0,0:0:0:0:
320,192,79684,1,0,0:0:0:0:
192,192,79813,1,2,0:0:0:0:
64,192,79813,1,0,0:0:0:0:
448,192,79942,1,0,0:0:0:0:
192,192,80070,1,0,0:0:0:0:
320,192,80070,1,2,0:0:0:0:
448,192,80199,1,0,0:0:0:0:
64,192,80328,1,0,0:0:0:0:
320,192,80328,1,2,0:0:0:0:
64,192,80457,1,0,0:0:0:0:
320,192,80457,1,2,0:0:0:0:
192,192,80585,1,0,0:0:0:0:
320,192,80714,1,8,0:0:0:0:
448,192,80714,1,0,0:0:0:0:
192,192,80843,1,0,0:0:0:0:
64,192,80972,1,2,0:0:0:0:
448,192,81036,1,2,0:0:0:0:
320,192,81100,1,2,0:0:0:0:
192,192,81100,1,8,0:0:0:0:
64,192,81229,1,2,0:0:0:0:
320,192,81229,1,0,0:0:0:0:
192,192,81358,1,0,0:0:0:0:
320,192,81487,1,0,0:0:0:0:
448,192,81487,1,2,0:0:0:0:
192,192,81615,1,8,0:0:0:0:
320,192,81680,1,8,0:0:0:0:
192,192,81744,1,8,0:0:0:0:
320,192,81808,1,8,0:0:0:0:
64,192,81873,1,2,0:0:0:0:
192,192,81873,1,4,0:0:0:0:
64,192,82002,1,2,0:0:0:0:
192,192,82002,1,0,0:0:0:0:
320,192,82130,1,0,0:0:0:0:
448,192,82130,1,8,0:0:0:0:
192,192,82259,1,2,0:0:0:0:
64,192,82388,1,2,0:0:0:0:
448,192,82388,1,0,0:0:0:0:
320,192,82517,1,2,0:0:0:0:
448,192,82517,1,0,0:0:0:0:
64,192,82645,1,4,0:0:0:0:
192,192,82645,1,2,0:0:0:0:
448,192,82774,1,0,0:0:0:0:
64,192,82903,1,0,0:0:0:0:
320,192,82903,1,8,0:0:0:0:
192,192,83032,1,2,0:0:0:0:
64,192,83032,1,0,0:0:0:0:
448,192,83160,1,0,0:0:0:0:
320,192,83160,1,8,0:0:0:0:
448,192,83289,1,0,0:0:0:0:
320,192,83289,1,8,0:0:0:0:
64,192,83418,1,2,0:0:0:0:
192,192,83418,1,0,0:0:0:0:
448,192,83418,1,4,0:0:0:0:
64,192,83547,1,2,0:0:0:0:
192,192,83547,1,0,0:0:0:0:
448,192,83675,1,0,0:0:0:0:
320,192,83804,1,2,0:0:0:0:
64,192,83804,1,0,0:0:0:0:
192,192,83933,1,0,0:0:0:0:
448,192,84062,1,2,0:0:0:0:
320,192,84126,1,2,0:0:0:0:
64,192,84190,1,8,0:0:0:0:
192,192,84190,1,2,0:0:0:0:
448,192,84319,1,0,0:0:0:0:
320,192,84448,1,2,0:0:0:0:
64,192,84448,1,0,0:0:0:0:
192,192,84577,1,0,0:0:0:0:
320,192,84705,1,2,0:0:0:0:
448,192,84705,1,0,0:0:0:0:
64,192,84834,1,0,0:0:0:0:
192,192,84963,1,0,0:0:0:0:
320,192,84963,1,2,0:0:0:0:
192,192,85092,1,0,0:0:0:0:
320,192,85092,1,2,0:0:0:0:
448,192,85220,1,0,0:0:0:0:
64,192,85349,1,0,0:0:0:0:
192,192,85349,1,2,0:0:0:0:
320,192,85478,1,0,0:0:0:0:
448,192,85607,1,2,0:0:0:0:
320,192,85671,1,2,0:0:0:0:
192,192,85736,1,2,0:0:0:0:
64,192,85736,1,8,0:0:0:0:
448,192,85864,1,0,0:0:0:0:
320,192,85993,1,2,0:0:0:0:
192,192,85993,1,0,0:0:0:0:
64,192,86122,1,0,0:0:0:0:
192,192,86251,1,2,0:0:0:0:
448,192,86251,1,0,0:0:0:0:
64,192,86379,1,0,0:0:0:0:
192,192,86508,1,2,0:0:0:0:
448,192,86508,1,0,0:0:0:0:
192,192,86637,1,2,0:0:0:0:
448,192,86637,1,0,0:0:0:0:
320,192,86766,1,0,0:0:0:0:
448,192,86894,1,2,0:0:0:0:
64,192,86894,1,0,0:0:0:0:
320,192,87023,1,0,0:0:0:0:
64,192,87152,1,2,0:0:0:0:
192,192,87216,1,2,0:0:0:0:
320,192,87281,1,8,0:0:0:0:
448,192,87281,1,2,0:0:0:0:
64,192,87409,1,0,0:0:0:0:
192,192,87538,1,0,0:0:0:0:
320,192,87538,1,2,0:0:0:0:
448,192,87667,1,0,0:0:0:0:
64,192,87796,1,0,0:0:0:0:
192,192,87796,1,2,0:0:0:0:
320,192,87924,1,0,0:0:0:0:
64,192,88053,1,0,0:0:0:0:
448,192,88053,1,2,0:0:0:0:
448,192,88182,1,2,0:0:0:0:
64,192,88182,1,0,0:0:0:0:
192,192,88311,1,0,0:0:0:0:
448,192,88439,1,2,0:0:0:0:
64,192,88439,1,0,0:0:0:0:
320,192,88568,1,0,0:0:0:0:
64,192,88697,1,2,0:0:0:0:
192,192,88761,1,2,0:0:0:0:
448,192,88826,1,2,0:0:0:0:
320,192,88826,1,8,0:0:0:0:
192,192,88954,1,0,0:0:0:0:
64,192,89083,1,0,0:0:0:0:
448,192,89083,1,2,0:0:0:0:
320,192,89212,1,0,0:0:0:0:
192,192,89341,1,0,0:0:0:0:
64,192,89341,1,2,0:0:0:0:
320,192,89469,1,8,0:0:0:0:
448,192,89469,1,0,0:0:0:0:
192,192,89598,1,4,0:0:0:0:
64,192,89598,1,2,0:0:0:0:
448,192,89598,1,0,0:0:0:0:
192,192,89727,1,0,0:0:0:0:
64,192,89727,1,2,0:0:0:0:
320,192,89856,1,0,0:0:0:0:
448,192,89984,1,2,0:0:0:0:
64,192,89984,1,0,0:0:0:0:
192,192,90113,1,0,0:0:0:0:
320,192,90242,1,2,0:0:0:0:
192,192,90306,1,2,0:0:0:0:
64,192,90371,1,8,0:0:0:0:
448,192,90371,1,2,0:0:0:0:
320,192,90499,1,0,0:0:0:0:
192,192,90628,1,0,0:0:0:0:
448,192,90628,1,2,0:0:0:0:
64,192,90757,1,0,0:0:0:0:
192,192,90886,1,2,0:0:0:0:
320,192,90886,1,0,0:0:0:0:
448,192,91014,1,0,0:0:0:0:
320,192,91143,1,2,0:0:0:0:
64,192,91143,1,0,0:0:0:0:
64,192,91272,1,0,0:0:0:0:
320,192,91272,1,2,0:0:0:0:
448,192,91401,1,0,0:0:0:0:
64,192,91530,1,0,0:0:0:0:
192,192,91530,1,2,0:0:0:0:
320,192,91658,1,0,0:0:0:0:
64,192,91787,1,2,0:0:0:0:
192,192,91851,1,2,0:0:0:0:
320,192,91916,1,2,0:0:0:0:
448,192,91916,1,8,0:0:0:0:
448,192,92045,1,0,0:0:0:0:
64,192,92173,1,0,0:0:0:0:
192,192,92173,1,2,0:0:0:0:
320,192,92302,1,0,0:0:0:0:
448,192,92431,1,2,0:0:0:0:
64,192,92431,1,0,0:0:0:0:
192,192,92560,1,0,0:0:0:0:
448,192,92688,1,0,0:0:0:0:
320,192,92688,1,2,0:0:0:0:
448,192,92817,1,0,0:0:0:0:
320,192,92817,1,2,0:0:0:0:
192,192,92946,1,0,0:0:0:0:
64,192,93075,1,0,0:0:0:0:
448,192,93075,1,8,0:0:0:0:
192,192,93203,1,0,0:0:0:0:
448,192,93332,1,2,0:0:0:0:
320,192,93396,1,2,0:0:0:0:
192,192,93461,1,8,0:0:0:0:
64,192,93461,1,2,0:0:0:0:
64,192,93590,1,0,0:0:0:0:
448,192,93590,1,2,0:0:0:0:
320,192,93718,1,0,0:0:0:0:
320,192,93847,1,0,0:0:0:0:
448,192,93847,1,2,0:0:0:0:
64,192,93911,1,2,0:0:0:0:
192,192,93976,1,8,0:0:0:0:
320,192,94040,1,8,0:0:0:0:
192,192,94105,1,8,0:0:0:0:
320,192,94169,1,8,0:0:0:0:
448,192,94233,1,4,0:0:0:0:
192,192,94233,1,2,0:0:0:0:
64,192,94233,1,0,0:0:0:0:
448,192,94362,1,0,0:0:0:0:
320,192,94362,1,2,0:0:0:0:
64,192,94491,1,0,0:0:0:0:
192,192,94491,1,8,0:0:0:0:
320,192,94620,5,2,0:0:0:0:
192,192,94748,1,2,0:0:0:0:
448,192,94748,1,0,0:0:0:0:
64,192,94877,1,2,0:0:0:0:
448,192,94877,1,0,0:0:0:0:
64,192,95006,1,2,0:0:0:0:
192,192,95006,1,4,0:0:0:0:
320,192,95006,1,0,0:0:0:0:
320,192,95135,1,0,0:0:0:0:
448,192,95263,1,2,0:0:0:0:
192,192,95263,1,0,0:0:0:0:
64,192,95392,1,8,0:0:0:0:
320,192,95392,1,0,0:0:0:0:
64,192,95521,1,8,0:0:0:0:
448,192,95521,1,0,0:0:0:0:
448,192,95650,1,8,0:0:0:0:
192,192,95650,1,0,0:0:0:0:
320,192,95778,1,8,0:0:0:0:
192,192,95778,1,2,0:0:0:0:
64,192,96036,1,0,0:0:0:0:
192,192,96100,1,0,0:0:0:0:
320,192,96165,1,0,0:0:0:0:
448,192,96422,1,0,0:0:0:0:
320,192,96487,1,0,0:0:0:0:
192,192,96551,1,0,0:0:0:0:
64,192,96551,1,8,0:0:0:0:
64,192,96808,1,8,0:0:0:0:
192,192,96808,1,0,0:0:0:0:
320,192,97066,1,0,0:0:0:0:
192,192,97130,1,0,0:0:0:0:
64,192,97195,1,0,0:0:0:0:
448,192,97323,1,0,0:0:0:0:
320,192,97366,1,0,0:0:0:0:
192,192,97366,1,0,0:0:0:0:
64,192,97967,1,0,0:0:0:0:
192,192,98096,1,0,0:0:0:0:
448,192,98139,1,0,0:0:0:0:
320,192,98139,1,0,0:0:0:0:
192,192,98611,1,0,0:0:0:0:
320,192,98869,1,8,0:0:0:0:
448,192,98869,1,2,0:0:0:0:
64,192,98869,1,0,0:0:0:0:
192,192,99126,1,0,0:0:0:0:
448,192,99126,1,8,0:0:0:0:
64,192,99384,1,0,0:0:0:0:
192,192,99448,1,0,0:0:0:0:
64,192,99512,1,0,0:0:0:0:
192,192,99577,1,0,0:0:0:0:
448,192,99641,1,8,0:0:0:0:
320,192,99641,1,0,0:0:0:0:
192,192,99899,1,0,0:0:0:0:
64,192,99899,1,8,0:0:0:0:
448,192,100156,1,0,0:0:0:0:
320,192,100220,1,0,0:0:0:0:
448,192,100285,1,0,0:0:0:0:
320,192,100349,1,0,0:0:0:0:
64,192,100414,1,8,0:0:0:0:
192,192,100414,1,2,0:0:0:0:
448,192,100671,1,0,0:0:0:0:
320,192,100736,1,0,0:0:0:0:
192,192,100800,1,0,0:0:0:0:
64,192,100864,1,0,0:0:0:0:
448,192,100929,1,0,0:0:0:0:
320,192,101057,1,0,0:0:0:0:
192,192,101122,1,0,0:0:0:0:
448,192,101186,1,2,0:0:0:0:
64,192,101186,1,8,0:0:0:0:
64,192,101444,1,0,0:0:0:0:
320,192,101444,1,2,0:0:0:0:
320,192,101701,1,2,0:0:0:0:
448,192,101701,1,0,0:0:0:0:
320,192,101959,1,4,0:0:0:0:
448,192,101959,1,0,0:0:0:0:
192,192,101959,1,2,0:0:0:0:
64,192,102216,1,2,0:0:0:0:
192,192,102216,1,0,0:0:0:0:
64,192,102474,1,0,0:0:0:0:
448,192,102602,1,0,0:0:0:0:
320,192,102602,1,2,0:0:0:0:
64,192,102731,128,0,102989:0:0:0:0:
192,192,102731,1,8,0:0:0:0:
320,192,102989,128,0,103246:0:0:0:0:
192,192,102989,1,2,0:0:0:0:
448,192,103246,128,0,103504:0:0:0:0:
192,192,103246,1,0,0:0:0:0:
64,192,103311,1,0,0:0:0:0:
192,192,103504,128,0,103890:0:0:0:0:
320,192,103504,1,2,0:0:0:0:
64,192,103761,1,2,0:0:0:0:
320,192,103890,1,0,0:0:0:0:
448,192,103933,128,0,104276:0:0:0:0:
192,192,104148,1,2,0:0:0:0:
320,192,104276,128,0,104663:0:0:0:0:
64,192,104276,1,8,0:0:0:0:
192,192,104534,1,2,0:0:0:0:
64,192,104663,128,0,105049:0:0:0:0:
448,192,104791,1,0,0:0:0:0:
320,192,104856,1,0,0:0:0:0:
192,192,105049,1,2,0:0:0:0:
320,192,105092,128,0,105435:0:0:0:0:
448,192,105092,1,0,0:0:0:0:
192,192,105306,1,2,0:0:0:0:
64,192,105435,1,0,0:0:0:0:
448,192,105435,128,0,105821:0:0:0:0:
320,192,105693,1,2,0:0:0:0:
192,192,105821,128,0,106208:0:0:0:0:
64,192,105821,1,8,0:0:0:0:
448,192,106079,1,2,0:0:0:0:
320,192,106208,128,0,106594:0:0:0:0:
64,192,106336,1,0,0:0:0:0:
192,192,106401,1,0,0:0:0:0:
448,192,106594,128,0,107109:0:0:0:0:
64,192,106594,1,2,0:0:0:0:
64,192,106851,1,8,0:0:0:0:
192,192,106980,1,2,0:0:0:0:
320,192,107109,128,0,107366:0:0:0:0:
448,192,107238,1,2,0:0:0:0:
64,192,107366,128,0,108139:0:0:0:0:
192,192,107366,1,8,0:0:0:0:
448,192,107624,1,2,0:0:0:0:
192,192,107881,128,0,108139:0:0:0:0:
320,192,108010,1,0,0:0:0:0:
448,192,108139,128,0,109684:0:0:0:0:
320,192,108139,1,2,0:0:0:0:
192,192,108396,1,2,0:0:0:0:
64,192,108783,1,2,0:0:0:0:
192,192,108911,1,8,0:0:0:0:
320,192,108911,1,0,0:0:0:0:
320,192,109169,1,2,0:0:0:0:
192,192,109426,1,0,0:0:0:0:
64,192,109491,1,0,0:0:0:0:
320,192,109684,1,2,0:0:0:0:
192,192,109727,128,0,110457:0:0:0:0:
448,192,109942,1,2,0:0:0:0:
320,192,110328,1,2,0:0:0:0:
64,192,110457,128,0,111229:0:0:0:0:
448,192,110457,1,8,0:0:0:0:
192,192,110714,1,2,0:0:0:0:
448,192,110972,128,0,111229:0:0:0:0:
192,192,111100,1,0,0:0:0:0:
320,192,111229,128,0,112002:0:0:0:0:
192,192,111229,1,2,0:0:0:0:
192,192,111487,1,2,0:0:0:0:
64,192,111615,1,2,0:0:0:0:
64,192,111873,1,2,0:0:0:0:
192,192,112002,1,8,0:0:0:0:
448,192,112002,128,0,112645:0:0:0:0:
64,192,112259,1,2,0:0:0:0:
320,192,112517,1,0,0:0:0:0:
192,192,112581,1,0,0:0:0:0:
64,192,112774,128,0,113547:0:0:0:0:
448,192,112903,1,8,0:0:0:0:
192,192,113032,1,2,0:0:0:0:
448,192,113160,1,2,0:0:0:0:
320,192,113418,1,2,0:0:0:0:
192,192,113482,1,2,0:0:0:0:
320,192,113547,128,2,114062:0:0:0:0:
448,192,113547,128,0,114062:0:0:0:0:
64,192,114062,1,0,0:0:0:0:
192,192,114126,1,0,0:0:0:0:
448,192,114190,1,0,0:0:0:0:
320,192,114255,1,0,0:0:0:0:
192,192,114319,128,0,114834:0:0:0:0:
64,192,114319,1,2,0:0:0:0:
448,192,114448,1,2,0:0:0:0:
64,192,114577,1,8,0:0:0:0:
448,192,114705,1,2,0:0:0:0:
320,192,114834,128,0,115092:0:0:0:0:
448,192,114963,1,8,0:0:0:0:
192,192,115092,1,2,0:0:0:0:
64,192,115092,128,0,115349:0:0:0:0:
320,192,115349,1,2,0:0:0:0:
192,192,115349,128,0,115607:0:0:0:0:
64,192,115607,1,8,0:0:0:0:
448,192,115607,128,0,115864:0:0:0:0:
64,192,115864,1,2,0:0:0:0:
320,192,115864,128,0,115993:0:0:0:0:
192,192,115993,1,2,0:0:0:0:
64,192,115993,128,0,116122:0:0:0:0:
320,192,116122,1,8,0:0:0:0:
448,192,116122,128,0,116251:0:0:0:0:
64,192,116251,1,2,0:0:0:0:
192,192,116251,128,0,116379:0:0:0:0:
320,192,116379,128,0,116637:0:0:0:0:
448,192,116508,1,8,0:0:0:0:
192,192,116637,1,2,0:0:0:0:
64,192,116637,128,0,116723:0:0:0:0:
448,192,116723,128,0,116808:0:0:0:0:
320,192,116808,128,0,116894:0:0:0:0:
64,192,116894,1,2,0:0:0:0:
192,192,116894,128,0,117023:0:0:0:0:
320,192,117023,128,0,117152:0:0:0:0:
192,192,117152,1,8,0:0:0:0:
448,192,117152,128,0,117409:0:0:0:0:
320,192,117409,1,2,0:0:0:0:
64,192,117409,128,0,117667:0:0:0:0:
192,192,117538,1,2,0:0:0:0:
448,192,117667,1,8,0:0:0:0:
320,192,117731,1,0,0:0:0:0:
64,192,117796,1,2,0:0:0:0:
192,192,117796,128,0,117924:0:0:0:0:
320,192,117924,128,0,118182:0:0:0:0:
64,192,118053,1,8,0:0:0:0:
192,192,118182,1,2,0:0:0:0:
448,192,118182,128,0,118439:0:0:0:0:
64,192,118439,1,2,0:0:0:0:
192,192,118504,1,0,0:0:0:0:
448,192,118568,1,0,0:0:0:0:
320,192,118633,1,0,0:0:0:0:
192,192,118697,1,8,0:0:0:0:
64,192,118697,128,0,118954:0:0:0:0:
320,192,118954,1,2,0:0:0:0:
448,192,118954,128,0,119083:0:0:0:0:
64,192,119083,1,2,0:0:0:0:
192,192,119083,128,0,119212:0:0:0:0:
448,192,119212,1,8,0:0:0:0:
320,192,119212,1,0,0:0:0:0:
192,192,119341,1,2,0:0:0:0:
64,192,119341,1,0,0:0:0:0:
448,192,119341,128,0,119469:0:0:0:0:
320,192,119469,128,0,119555:0:0:0:0:
64,192,119555,1,0,0:0:0:0:
448,192,119598,1,0,0:0:0:0:
192,192,119598,1,8,0:0:0:0:
320,192,119641,1,0,0:0:0:0:
64,192,119727,1,2,0:0:0:0:
192,192,119727,128,0,119856:0:0:0:0:
448,192,119856,128,0,119984:0:0:0:0:
320,192,119984,1,2,0:0:0:0:
64,192,119984,128,0,120113:0:0:0:0:
192,192,120113,1,0,0:0:0:0:
320,192,120156,1,0,0:0:0:0:
448,192,120199,1,0,0:0:0:0:
192,192,120242,128,0,120499:0:0:0:0:
64,192,120242,1,2,0:0:0:0:
320,192,120371,1,8,0:0:0:0:
448,192,120499,1,2,0:0:0:0:
64,192,120499,128,4,120628:0:0:0:0:
448,192,120628,1,2,0:0:0:0:
320,192,120628,128,0,120757:0:0:0:0:
64,192,120757,1,8,0:0:0:0:
192,192,120757,128,0,120886:0:0:0:0:
448,192,120886,128,0,121014:0:0:0:0:
320,192,120886,1,2,0:0:0:0:
64,192,121014,128,0,121143:0:0:0:0:
448,192,121143,1,8,0:0:0:0:
320,192,121143,128,0,121272:0:0:0:0:
64,192,121272,1,2,0:0:0:0:
192,192,121272,128,0,121530:0:0:0:0:
64,192,121530,1,2,0:0:0:0:
448,192,121615,1,0,0:0:0:0:
320,192,121658,1,0,0:0:0:0:
64,192,121701,1,0,0:0:0:0:
192,192,121744,1,0,0:0:0:0:
320,192,121787,1,8,0:0:0:0:
448,192,121787,128,0,121916:0:0:0:0:
192,192,121916,128,0,122045:0:0:0:0:
448,192,122045,1,2,0:0:0:0:
64,192,122045,128,0,122173:0:0:0:0:
192,192,122173,1,2,0:0:0:0:
320,192,122173,128,0,122302:0:0:0:0:
64,192,122302,1,8,0:0:0:0:
448,192,122302,128,0,122431:0:0:0:0:
192,192,122431,1,2,0:0:0:0:
320,192,122560,128,0,122688:0:0:0:0:
448,192,122688,1,8,0:0:0:0:
64,192,122688,128,0,122817:0:0:0:0:
320,192,122817,1,2,0:0:0:0:
192,192,122817,128,0,122946:0:0:0:0:
448,192,122946,128,0,123075:0:0:0:0:
64,192,123075,1,2,0:0:0:0:
320,192,123075,128,0,123332:0:0:0:0:
192,192,123332,1,8,0:0:0:0:
448,192,123332,128,0,123590:0:0:0:0:
320,192,123590,1,2,0:0:0:0:
64,192,123590,128,0,123718:0:0:0:0:
448,192,123718,1,2,0:0:0:0:
192,192,123718,128,0,123847:0:0:0:0:
64,192,123847,1,8,0:0:0:0:
320,192,123847,128,0,123976:0:0:0:0:
192,192,123976,1,2,0:0:0:0:
448,192,123976,128,0,124233:0:0:0:0:
320,192,124233,1,8,0:0:0:0:
64,192,124233,128,0,124362:0:0:0:0:
448,192,124362,1,2,0:0:0:0:
192,192,124362,128,0,124491:0:0:0:0:
320,192,124491,128,0,124620:0:0:0:0:
64,192,124620,1,2,0:0:0:0:
448,192,124620,128,0,124877:0:0:0:0:
320,192,124877,1,8,0:0:0:0:
64,192,124877,128,0,125006:0:0:0:0:
192,192,125006,128,0,125135:0:0:0:0:
64,192,125135,1,2,0:0:0:0:
320,192,125135,128,0,125263:0:0:0:0:
192,192,125263,1,2,0:0:0:0:
448,192,125263,128,0,125392:0:0:0:0:
64,192,125392,1,8,0:0:0:0:
320,192,125392,128,0,125521:0:0:0:0:
448,192,125521,128,0,125650:0:0:0:0:
192,192,125521,1,2,0:0:0:0:
320,192,125650,128,0,125778:0:0:0:0:
64,192,125778,1,8,0:0:0:0:
192,192,125778,128,0,125907:0:0:0:0:
448,192,125907,1,2,0:0:0:0:
320,192,125907,128,4,126165:0:0:0:0:
64,192,126165,1,8,0:0:0:0:
192,192,126251,1,8,0:0:0:0:
320,192,126336,1,2,0:0:0:0:
448,192,126422,1,2,0:0:0:0:
192,192,126508,1,2,0:0:0:0:
448,192,126594,1,2,0:0:0:0:
320,192,126637,1,0,0:0:0:0:
64,192,126680,128,4,127130:0:0:0:0:
192,192,126680,1,2,0:0:0:0:
320,192,126808,1,2,0:0:0:0:
448,192,126937,1,8,0:0:0:0:
320,192,127066,1,2,0:0:0:0:
192,192,127130,128,0,127452:0:0:0:0:
320,192,127323,1,8,0:0:0:0:
448,192,127452,128,0,128225:0:0:0:0:
64,192,127452,1,2,0:0:0:0:
320,192,127710,1,2,0:0:0:0:
192,192,127967,1,8,0:0:0:0:
192,192,128225,128,0,128611:0:0:0:0:
64,192,128225,1,2,0:0:0:0:
320,192,128354,1,2,0:0:0:0:
64,192,128482,1,8,0:0:0:0:
320,192,128611,128,0,128997:0:0:0:0:
448,192,128611,1,2,0:0:0:0:
192,192,128869,1,8,0:0:0:0:
64,192,128997,128,0,129770:0:0:0:0:
448,192,128997,1,2,0:0:0:0:
192,192,129255,1,2,0:0:0:0:
320,192,129512,1,2,0:0:0:0:
448,192,129641,1,8,0:0:0:0:
192,192,129770,128,0,130156:0:0:0:0:
320,192,129770,1,2,0:0:0:0:
448,192,129899,1,2,0:0:0:0:
64,192,130027,1,8,0:0:0:0:
320,192,130156,128,0,130414:0:0:0:0:
448,192,130156,1,2,0:0:0:0:
448,192,130414,128,0,130542:0:0:0:0:
64,192,130414,1,8,0:0:0:0:
192,192,130542,128,0,130628:0:0:0:0:
320,192,130542,1,2,0:0:0:0:
64,192,130628,128,0,130800:0:0:0:0:
320,192,130800,128,0,130864:0:0:0:0:
448,192,130800,1,2,0:0:0:0:
192,192,130864,128,0,131057:0:0:0:0:
448,192,131057,128,0,131186:0:0:0:0:
320,192,131057,1,8,0:0:0:0:
64,192,131186,128,0,131315:0:0:0:0:
320,192,131315,128,0,131572:0:0:0:0:
448,192,131315,1,2,0:0:0:0:
192,192,131444,1,2,0:0:0:0:
64,192,131572,128,0,131830:0:0:0:0:
448,192,131572,1,8,0:0:0:0:
192,192,131701,1,2,0:0:0:0:
448,192,131830,128,0,131959:0:0:0:0:
320,192,131959,128,0,132087:0:0:0:0:
64,192,131959,1,8,0:0:0:0:
192,192,132087,128,0,132345:0:0:0:0:
448,192,132087,1,2,0:0:0:0:
448,192,132345,128,0,132602:0:0:0:0:
320,192,132345,1,2,0:0:0:0:
320,192,132602,128,0,132860:0:0:0:0:
64,192,132602,1,2,0:0:0:0:
192,192,132731,1,8,0:0:0:0:
64,192,132860,128,4,132989:0:0:0:0:
448,192,132860,1,2,0:0:0:0:
192,192,132989,128,0,133117:0:0:0:0:
320,192,132989,1,2,0:0:0:0:
448,192,133117,128,0,133246:0:0:0:0:
64,192,133117,1,8,0:0:0:0:
64,192,133246,128,0,133375:0:0:0:0:
192,192,133246,1,2,0:0:0:0:
320,192,133375,128,0,133504:0:0:0:0:
448,192,133504,128,0,133633:0:0:0:0:
192,192,133504,1,8,0:0:0:0:
64,192,133633,128,0,134148:0:0:0:0:
320,192,133633,1,2,0:0:0:0:
448,192,133890,1,2,0:0:0:0:
192,192,134148,128,0,134405:0:0:0:0:
320,192,134148,1,8,0:0:0:0:
320,192,134405,128,4,134663:0:0:0:0:
448,192,134405,1,2,0:0:0:0:
64,192,134534,1,2,0:0:0:0:
448,192,134663,128,0,134791:0:0:0:0:
192,192,134663,1,8,0:0:0:0:
64,192,134791,128,0,134920:0:0:0:0:
192,192,134791,1,2,0:0:0:0:
320,192,134920,128,0,135049:0:0:0:0:
448,192,135049,128,0,135178:0:0:0:0:
64,192,135049,1,8,0:0:0:0:
192,192,135178,128,0,135435:0:0:0:0:
320,192,135178,1,2,0:0:0:0:
64,192,135435,128,0,135693:0:0:0:0:
448,192,135435,1,2,0:0:0:0:
448,192,135693,128,0,135950:0:0:0:0:
192,192,135693,1,2,0:0:0:0:
320,192,135821,1,8,0:0:0:0:
192,192,135950,128,4,136079:0:0:0:0:
64,192,135950,1,2,0:0:0:0:
320,192,136079,128,0,136208:0:0:0:0:
448,192,136079,1,2,0:0:0:0:
64,192,136208,128,0,136336:0:0:0:0:
192,192,136208,1,8,0:0:0:0:
448,192,136336,128,0,136465:0:0:0:0:
320,192,136336,1,2,0:0:0:0:
192,192,136465,128,0,136594:0:0:0:0:
64,192,136594,128,0,136723:0:0:0:0:
320,192,136594,1,8,0:0:0:0:
448,192,136723,128,4,136851:0:0:0:0:
320,192,136723,1,2,0:0:0:0:
192,192,136851,1,2,0:0:0:0:
64,192,136851,128,0,136980:0:0:0:0:
448,192,136980,128,0,137109:0:0:0:0:
320,192,136980,1,8,0:0:0:0:
192,192,137109,128,0,137238:0:0:0:0:
64,192,137109,1,2,0:0:0:0:
320,192,137238,128,0,137366:0:0:0:0:
192,192,137366,128,0,137495:0:0:0:0:
448,192,137366,1,8,0:0:0:0:
64,192,137495,128,4,137753:0:0:0:0:
320,192,137495,1,2,0:0:0:0:
448,192,137624,1,2,0:0:0:0:
320,192,137753,128,0,137881:0:0:0:0:
192,192,137753,1,8,0:0:0:0:
448,192,137881,128,0,138010:0:0:0:0:
64,192,137881,1,2,0:0:0:0:
192,192,138010,128,0,138268:0:0:0:0:
64,192,138139,1,8,0:0:0:0:
448,192,138268,1,2,0:0:0:0:
320,192,138268,128,0,138461:0:0:0:0:
192,192,138525,1,2,0:0:0:0:
320,192,138525,128,0,138783:0:0:0:0:
448,192,138783,1,8,0:0:0:0:
64,192,138847,1,8,0:0:0:0:
192,192,138911,1,8,0:0:0:0:
448,192,138976,1,8,0:0:0:0:
192,192,139040,128,4,139298:0:0:0:0:
320,192,139040,1,2,0:0:0:0:
64,192,139169,1,2,0:0:0:0:
448,192,139298,128,0,139426:0:0:0:0:
320,192,139298,1,8,0:0:0:0:
64,192,139426,128,0,139684:0:0:0:0:
192,192,139426,1,2,0:0:0:0:
320,192,139684,128,0,139899:0:0:0:0:
448,192,139684,1,2,0:0:0:0:
192,192,139813,1,2,0:0:0:0:
448,192,139899,128,0,139984:0:0:0:0:
64,192,139984,128,0,140070:0:0:0:0:
320,192,140070,1,2,0:0:0:0:
192,192,140070,128,0,140135:0:0:0:0:
448,192,140135,128,0,140585:0:0:0:0:
192,192,140328,1,2,0:0:0:0:
64,192,140457,1,8,0:0:0:0:
192,192,140585,128,4,141358:0:0:0:0:
320,192,140585,1,2,0:0:0:0:
64,192,140714,1,2,0:0:0:0:
320,192,140843,1,8,0:0:0:0:
448,192,140972,1,2,0:0:0:0:
64,192,141229,1,8,0:0:0:0:
448,192,141358,128,4,141873:0:0:0:0:
320,192,141358,1,2,0:0:0:0:
64,192,141487,1,2,0:0:0:0:
192,192,141615,1,8,0:0:0:0:
64,192,141744,1,2,0:0:0:0:
320,192,141873,128,0,142002:0:0:0:0:
192,192,141873,1,2,0:0:0:0:
64,192,142002,128,0,142130:0:0:0:0:
448,192,142002,1,2,0:0:0:0:
192,192,142130,128,4,142903:0:0:0:0:
320,192,142130,1,2,0:0:0:0:
448,192,142259,1,2,0:0:0:0:
320,192,142388,1,8,0:0:0:0:
64,192,142517,1,2,0:0:0:0:
64,192,142774,1,8,0:0:0:0:
448,192,142903,128,4,143418:0:0:0:0:
320,192,142903,1,2,0:0:0:0:
64,192,143160,1,6,0:0:0:0:
192,192,143418,1,8,0:0:0:0:
320,192,143482,1,8,0:0:0:0:
64,192,143547,1,8,0:0:0:0:
192,192,143611,1,8,0:0:0:0:
448,192,143675,128,0,143804:0:0:0:0:
320,192,143675,1,2,0:0:0:0:
64,192,143804,128,0,143933:0:0:0:0:
320,192,143804,1,2,0:0:0:0:
448,192,143933,128,0,144062:0:0:0:0:
192,192,143933,1,8,0:0:0:0:
192,192,144062,128,0,144190:0:0:0:0:
64,192,144062,1,2,0:0:0:0:
448,192,144190,128,0,144319:0:0:0:0:
320,192,144190,1,2,0:0:0:0:
320,192,144319,128,0,144448:0:0:0:0:
64,192,144319,1,2,0:0:0:0:
192,192,144448,1,0,0:0:0:0:
448,192,144448,1,2,0:0:0:0:
64,192,145220,5,0,0:0:0:30:E5.wav
448,192,145220,1,0,0:0:0:0:
192,192,145285,1,0,0:0:0:0:
320,192,145349,1,0,0:0:0:0:
448,192,145414,1,0,0:0:0:0:
64,192,145478,1,0,0:0:0:0:
192,192,145607,1,0,0:0:0:0:
448,192,145736,1,0,0:0:0:0:
320,192,145778,1,0,0:0:0:0:
64,192,145864,1,0,0:0:0:0:
192,192,145929,1,0,0:0:0:0:
320,192,145993,1,0,0:0:0:30:B5.wav
448,192,145993,1,0,0:0:0:0:
192,192,146251,1,0,0:0:0:0:
448,192,146508,1,0,0:0:0:0:
320,192,146551,1,0,0:0:0:0:
192,192,146766,1,0,0:0:0:0:
64,192,146766,1,0,0:0:0:30:Eb5.wav
320,192,146830,1,0,0:0:0:0:
448,192,146894,1,0,0:0:0:0:
64,192,146959,1,0,0:0:0:0:
192,192,147023,1,0,0:0:0:0:
320,192,147152,1,0,0:0:0:0:
448,192,147281,1,0,0:0:0:0:
320,192,147323,1,0,0:0:0:0:
64,192,147409,1,0,0:0:0:0:
192,192,147474,1,0,0:0:0:0:
320,192,147538,1,0,0:0:0:30:F#5.wav
448,192,147538,1,0,0:0:0:0:
192,192,147796,1,0,0:0:0:0:
64,192,147924,1,0,0:0:0:0:
320,192,148053,1,0,0:0:0:0:
448,192,148096,1,0,0:0:0:0:
64,192,148182,1,0,0:0:0:0:
448,192,148311,1,0,0:0:0:0:
320,192,148311,1,0,0:0:0:30:D5.wav
192,192,148375,1,0,0:0:0:0:
64,192,148439,1,0,0:0:0:0:
448,192,148504,1,0,0:0:0:0:
320,192,148568,1,0,0:0:0:0:
192,192,148697,1,0,0:0:0:0:
448,192,148826,1,0,0:0:0:0:
320,192,148869,1,0,0:0:0:0:
64,192,148954,1,0,0:0:0:0:
192,192,149019,1,0,0:0:0:0:
320,192,149083,1,0,0:0:0:30:D6.wav
448,192,149083,1,0,0:0:0:0:
64,192,149341,1,0,0:0:0:0:
320,192,149598,1,0,0:0:0:0:
448,192,149641,1,0,0:0:0:0:
64,192,149856,1,0,0:0:0:30:C#5.wav
192,192,149856,1,0,0:0:0:0:
320,192,149920,1,0,0:0:0:0:
448,192,149984,1,0,0:0:0:0:
64,192,150049,1,0,0:0:0:0:
192,192,150113,1,0,0:0:0:0:
320,192,150242,1,0,0:0:0:0:
448,192,150371,1,0,0:0:0:0:
320,192,150414,1,0,0:0:0:0:
64,192,150499,1,0,0:0:0:0:
192,192,150564,1,0,0:0:0:0:
320,192,150628,1,0,0:0:0:0:
448,192,150628,1,0,0:0:0:30:G5.wav
320,192,150886,1,0,0:0:0:0:
64,192,151014,1,0,0:0:0:0:
448,192,151143,1,0,0:0:0:0:
320,192,151186,1,0,0:0:0:0:
64,192,151272,1,0,0:0:0:0:
320,192,151401,1,0,0:0:0:30:E5.wav
448,192,151401,1,0,0:0:0:0:
192,192,151465,1,0,0:0:0:0:
64,192,151530,1,0,0:0:0:0:
448,192,151594,1,0,0:0:0:0:
192,192,151658,1,0,0:0:0:0:
64,192,151787,1,0,0:0:0:0:
448,192,151916,1,0,0:0:0:0:
320,192,151959,1,0,0:0:0:0:
64,192,152045,1,0,0:0:0:0:
192,192,152109,1,0,0:0:0:0:
320,192,152173,1,0,0:0:0:30:G5.wav
448,192,152173,1,0,0:0:0:0:
64,192,152431,1,0,0:0:0:0:
448,192,152688,1,0,0:0:0:0:
320,192,152731,1,0,0:0:0:0:
448,192,152946,1,0,0:0:0:0:
64,192,152946,1,0,0:0:0:30:B5.wav
320,192,153010,1,0,0:0:0:0:
192,192,153075,1,0,0:0:0:0:
64,192,153139,1,0,0:0:0:0:
448,192,153203,1,0,0:0:0:0:
192,192,153332,1,0,0:0:0:0:
448,192,153461,1,0,0:0:0:0:
320,192,153504,1,0,0:0:0:0:
64,192,153590,1,0,0:0:0:0:
448,192,153654,1,0,0:0:0:0:
192,192,153718,1,0,0:0:0:30:D5.wav
320,192,153718,1,0,0:0:0:0:
64,192,153976,1,0,0:0:0:0:
192,192,154105,1,0,0:0:0:0:
448,192,154233,1,0,0:0:0:0:
320,192,154276,1,0,0:0:0:0:
192,192,154362,1,0,0:0:0:0:
64,192,154491,1,0,0:0:0:30:C#5.wav
448,192,154491,1,0,0:0:0:0:
320,192,154555,1,0,0:0:0:0:
192,192,154620,1,0,0:0:0:0:
64,192,154684,1,0,0:0:0:0:
448,192,154748,1,0,0:0:0:0:
192,192,154877,1,0,0:0:0:0:
448,192,155006,1,0,0:0:0:0:
320,192,155049,1,0,0:0:0:0:
64,192,155135,1,0,0:0:0:0:
192,192,155199,1,0,0:0:0:0:
320,192,155263,1,0,0:0:0:30:E5.wav
448,192,155263,1,0,0:0:0:0:
64,192,155521,1,0,0:0:0:0:
320,192,155778,1,0,0:0:0:0:
192,192,155821,1,0,0:0:0:0:
448,192,155907,1,0,0:0:0:0:
64,192,156036,1,0,0:0:0:30:B5.wav
192,192,156036,1,0,0:0:0:0:
320,192,156100,1,0,0:0:0:0:
448,192,156165,1,0,0:0:0:0:
64,192,156229,1,0,0:0:0:0:
192,192,156293,1,0,0:0:0:0:
320,192,156358,1,0,0:0:0:0:
448,192,156422,1,0,0:0:0:0:
64,192,156487,1,0,0:0:0:0:
320,192,156551,1,0,0:0:0:0:
448,192,156744,1,0,0:0:0:0:
320,192,156808,1,0,0:0:0:0:
192,192,156873,1,0,0:0:0:0:
64,192,156937,1,0,0:0:0:0:
64,192,157581,1,2,0:0:0:0:
192,192,157581,1,4,0:0:0:0:
320,192,157581,1,0,0:0:0:0:
64,192,157710,1,2,0:0:0:0:
192,192,157710,1,0,0:0:0:0:
448,192,157839,1,0,0:0:0:0:
320,192,157839,1,8,0:0:0:0:
192,192,157967,1,2,0:0:0:0:
448,192,157967,1,0,0:0:0:0:
64,192,158096,1,0,0:0:0:0:
448,192,158225,1,2,0:0:0:0:
320,192,158289,1,2,0:0:0:0:
64,192,158354,1,0,0:0:0:0:
192,192,158354,1,8,0:0:0:0:
448,192,158482,1,0,0:0:0:0:
64,192,158611,1,0,0:0:0:0:
320,192,158611,1,2,0:0:0:0:
448,192,158740,1,0,0:0:0:0:
64,192,158869,1,2,0:0:0:0:
320,192,158869,1,0,0:0:0:0:
192,192,158997,1,8,0:0:0:0:
64,192,158997,1,0,0:0:0:0:
320,192,159126,1,0,0:0:0:0:
448,192,159126,1,2,0:0:0:0:
448,192,159255,1,2,0:0:0:0:
320,192,159255,1,0,0:0:0:0:
64,192,159384,1,8,0:0:0:0:
192,192,159384,1,0,0:0:0:0:
448,192,159512,1,2,0:0:0:0:
192,192,159512,1,0,0:0:0:0:
320,192,159641,1,0,0:0:0:0:
448,192,159770,1,0,0:0:0:0:
64,192,159770,1,2,0:0:0:0:
192,192,159899,1,0,0:0:0:0:
448,192,159899,1,8,0:0:0:0:
320,192,160027,1,0,0:0:0:0:
192,192,160156,1,2,0:0:0:0:
64,192,160156,1,0,0:0:0:0:
320,192,160285,1,0,0:0:0:0:
448,192,160414,1,2,0:0:0:0:
192,192,160414,1,0,0:0:0:0:
448,192,160542,1,0,0:0:0:0:
320,192,160542,1,8,0:0:0:0:
64,192,160671,1,0,0:0:0:0:
192,192,160671,1,2,0:0:0:0:
64,192,160800,1,0,0:0:0:0:
192,192,160800,1,2,0:0:0:0:
320,192,160929,1,0,0:0:0:0:
448,192,160929,1,8,0:0:0:0:
64,192,161057,1,2,0:0:0:0:
320,192,161057,1,0,0:0:0:0:
448,192,161186,1,0,0:0:0:0:
64,192,161315,1,2,0:0:0:0:
192,192,161379,1,2,0:0:0:0:
320,192,161444,1,8,0:0:0:0:
448,192,161444,1,0,0:0:0:0:
64,192,161572,1,0,0:0:0:0:
192,192,161701,1,0,0:0:0:0:
448,192,161701,1,2,0:0:0:0:
320,192,161830,1,0,0:0:0:0:
192,192,161959,1,2,0:0:0:0:
64,192,161959,1,0,0:0:0:0:
448,192,162087,1,8,0:0:0:0:
64,192,162087,1,0,0:0:0:0:
192,192,162216,1,0,0:0:0:0:
320,192,162216,1,2,0:0:0:0:
192,192,162345,1,0,0:0:0:0:
320,192,162345,1,2,0:0:0:0:
448,192,162474,1,0,0:0:0:0:
64,192,162474,1,8,0:0:0:0:
192,192,162602,1,2,0:0:0:0:
448,192,162602,1,0,0:0:0:0:
64,192,162731,1,0,0:0:0:0:
448,192,162860,1,2,0:0:0:0:
320,192,162924,1,2,0:0:0:0:
192,192,162989,1,8,0:0:0:0:
64,192,162989,1,4,0:0:0:0:
448,192,163117,1,0,0:0:0:0:
320,192,163246,1,2,0:0:0:0:
64,192,163246,1,4,0:0:0:0:
448,192,163375,1,0,0:0:0:0:
64,192,163504,1,2,0:0:0:0:
320,192,163504,1,4,0:0:0:0:
64,192,163633,1,8,0:0:0:0:
192,192,163633,1,0,0:0:0:0:
448,192,163761,1,2,0:0:0:0:
320,192,163761,1,4,0:0:0:0:
320,192,163890,1,0,0:0:0:0:
448,192,163890,1,2,0:0:0:0:
64,192,164019,1,0,0:0:0:0:
192,192,164019,1,8,0:0:0:0:
64,192,164148,1,2,0:0:0:0:
448,192,164148,1,0,0:0:0:0:
192,192,164276,1,0,0:0:0:0:
448,192,164405,1,2,0:0:0:0:
320,192,164469,1,2,0:0:0:0:
192,192,164534,1,8,0:0:0:0:
64,192,164534,1,0,0:0:0:0:
448,192,164663,1,0,0:0:0:0:
64,192,164791,1,0,0:0:0:0:
320,192,164791,1,2,0:0:0:0:
192,192,164920,1,0,0:0:0:0:
320,192,165049,1,2,0:0:0:0:
64,192,165049,1,0,0:0:0:0:
448,192,165178,1,8,0:0:0:0:
64,192,165178,1,0,0:0:0:0:
192,192,165306,1,2,0:0:0:0:
320,192,165306,1,0,0:0:0:0:
320,192,165435,1,2,0:0:0:0:
192,192,165435,1,0,0:0:0:0:
448,192,165564,1,8,0:0:0:0:
64,192,165564,1,0,0:0:0:0:
192,192,165693,1,0,0:0:0:0:
448,192,165693,1,2,0:0:0:0:
320,192,165821,1,0,0:0:0:0:
64,192,165950,1,2,0:0:0:0:
192,192,166014,1,2,0:0:0:0:
320,192,166079,1,8,0:0:0:0:
448,192,166079,1,0,0:0:0:0:
64,192,166208,1,0,0:0:0:0:
192,192,166336,1,2,0:0:0:0:
448,192,166336,1,0,0:0:0:0:
320,192,166465,1,0,0:0:0:0:
64,192,166594,1,2,0:0:0:0:
448,192,166594,1,0,0:0:0:0:
64,192,166723,1,0,0:0:0:0:
192,192,166723,1,8,0:0:0:0:
320,192,166851,1,2,0:0:0:0:
448,192,166851,1,0,0:0:0:0:
448,192,166980,1,0,0:0:0:0:
320,192,166980,1,2,0:0:0:0:
64,192,167109,1,8,0:0:0:0:
192,192,167109,1,0,0:0:0:0:
64,192,167238,1,2,0:0:0:0:
448,192,167238,1,0,0:0:0:0:
320,192,167366,1,0,0:0:0:0:
64,192,167495,1,2,0:0:0:0:
192,192,167560,1,2,0:0:0:0:
320,192,167624,1,8,0:0:0:0:
448,192,167624,1,0,0:0:0:0:
64,192,167753,1,2,0:0:0:0:
192,192,167753,1,0,0:0:0:0:
320,192,167881,1,0,0:0:0:0:
64,192,168010,1,2,0:0:0:0:
448,192,168010,1,0,0:0:0:0:
320,192,168075,1,2,0:0:0:0:
192,192,168139,1,8,0:0:0:0:
448,192,168203,1,8,0:0:0:0:
320,192,168203,1,0,0:0:0:0:
64,192,168268,1,0,0:0:0:0:
192,192,168268,1,8,0:0:0:0:
448,192,168332,1,8,0:0:0:0:
320,192,168332,1,0,0:0:0:0:
64,192,168396,1,2,0:0:0:0:
192,192,168396,1,0,0:0:0:0:
64,192,168525,1,2,0:0:0:0:
320,192,168525,1,0,0:0:0:0:
320,192,168654,1,0,0:0:0:0:
448,192,168654,1,8,0:0:0:0:
192,192,168783,1,2,0:0:0:0:
448,192,168783,1,0,0:0:0:0:
64,192,168911,1,2,0:0:0:0:
320,192,168911,1,0,0:0:0:0:
448,192,169040,1,0,0:0:0:0:
64,192,169040,1,2,0:0:0:0:
320,192,169169,1,2,0:0:0:0:
448,192,169169,1,4,0:0:0:0:
192,192,169298,1,0,0:0:0:0:
64,192,169426,1,4,0:0:0:0:
448,192,169426,1,2,0:0:0:0:
320,192,169555,1,8,0:0:0:0:
64,192,169555,1,0,0:0:0:0:
320,192,169684,1,8,0:0:0:0:
192,192,169684,1,0,0:0:0:0:
448,192,169813,1,0,0:0:0:0:
192,192,169813,1,8,0:0:0:0:
64,192,169942,1,4,0:0:0:0:
448,192,169942,1,0,0:0:0:0:
320,192,169942,1,2,0:0:0:0:
192,192,170199,1,0,0:0:0:0:
448,192,170328,1,2,0:0:0:0:
320,192,170392,1,2,0:0:0:0:
192,192,170457,1,8,0:0:0:0:
64,192,170457,1,0,0:0:0:0:
64,192,170714,1,0,0:0:0:0:
448,192,170714,1,2,0:0:0:0:
192,192,170843,1,8,0:0:0:0:
64,192,170843,1,0,0:0:0:0:
448,192,170972,1,0,0:0:0:0:
320,192,171100,1,0,0:0:0:0:
192,192,171100,1,2,0:0:0:0:
64,192,171229,1,8,0:0:0:0:
320,192,171229,1,0,0:0:0:0:
320,192,171487,1,0,0:0:0:0:
192,192,171487,1,2,0:0:0:0:
448,192,171615,1,8,0:0:0:0:
192,192,171615,1,0,0:0:0:0:
320,192,171744,1,0,0:0:0:0:
64,192,171873,1,2,0:0:0:0:
192,192,171937,1,2,0:0:0:0:
320,192,172002,1,8,0:0:0:0:
448,192,172002,1,0,0:0:0:0:
192,192,172259,1,2,0:0:0:0:
448,192,172259,1,0,0:0:0:0:
320,192,172388,1,8,0:0:0:0:
448,192,172388,1,0,0:0:0:0:
192,192,172517,1,0,0:0:0:0:
320,192,172645,1,2,0:0:0:0:
64,192,172645,1,0,0:0:0:0:
448,192,172774,1,0,0:0:0:0:
320,192,172774,1,8,0:0:0:0:
64,192,172860,1,8,0:0:0:0:
448,192,172860,1,0,0:0:0:0:
64,192,172946,1,0,0:0:0:0:
192,192,172946,1,8,0:0:0:0:
448,192,173032,1,2,0:0:0:0:
320,192,173032,1,4,0:0:0:0:
192,192,173289,1,0,0:0:0:0:
448,192,173418,1,2,0:0:0:0:
320,192,173482,1,2,0:0:0:0:
64,192,173547,1,0,0:0:0:0:
192,192,173547,1,8,0:0:0:0:
64,192,173804,1,0,0:0:0:0:
448,192,173804,1,2,0:0:0:0:
192,192,173933,1,8,0:0:0:0:
448,192,173933,1,0,0:0:0:0:
64,192,174062,1,0,0:0:0:0:
448,192,174190,1,2,0:0:0:0:
320,192,174190,1,0,0:0:0:0:
64,192,174319,1,0,0:0:0:0:
448,192,174319,1,2,0:0:0:0:
64,192,174448,1,2,0:0:0:0:
192,192,174448,1,0,0:0:0:0:
448,192,174577,1,8,0:0:0:0:
320,192,174577,1,0,0:0:0:0:
320,192,174705,1,2,0:0:0:0:
64,192,174705,1,0,0:0:0:0:
192,192,174834,1,8,0:0:0:0:
64,192,174834,1,0,0:0:0:0:
448,192,174963,1,2,0:0:0:0:
320,192,175027,1,2,0:0:0:0:
64,192,175092,1,0,0:0:0:0:
192,192,175092,1,8,0:0:0:0:
320,192,175220,1,2,0:0:0:0:
448,192,175220,1,0,0:0:0:0:
192,192,175349,1,0,0:0:0:0:
448,192,175349,1,8,0:0:0:0:
64,192,175478,1,2,0:0:0:0:
192,192,175542,1,2,0:0:0:0:
448,192,175607,1,0,0:0:0:0:
320,192,175607,1,8,0:0:0:0:
64,192,175736,1,2,0:0:0:0:
192,192,175736,1,0,0:0:0:0:
64,192,175864,1,2,0:0:0:0:
448,192,175864,1,0,0:0:0:0:
320,192,175993,1,0,0:0:0:0:
192,192,176122,1,4,0:0:0:0:
64,192,176122,1,0,0:0:0:0:
448,192,176122,1,2,0:0:0:0:
320,192,176379,1,0,0:0:0:0:
64,192,176508,1,2,0:0:0:0:
192,192,176572,1,2,0:0:0:0:
320,192,176637,1,8,0:0:0:0:
448,192,176637,1,0,0:0:0:0:
64,192,176894,1,2,0:0:0:0:
320,192,176894,1,0,0:0:0:0:
64,192,177023,1,8,0:0:0:0:
448,192,177023,1,0,0:0:0:0:
192,192,177152,1,0,0:0:0:0:
320,192,177281,1,0,0:0:0:0:
448,192,177281,1,2,0:0:0:0:
64,192,177409,1,0,0:0:0:0:
448,192,177409,1,8,0:0:0:0:
64,192,177667,1,2,0:0:0:0:
320,192,177667,1,0,0:0:0:0:
192,192,177796,1,0,0:0:0:0:
64,192,177796,1,8,0:0:0:0:
320,192,177924,1,0,0:0:0:0:
448,192,178053,1,2,0:0:0:0:
320,192,178117,1,2,0:0:0:0:
192,192,178182,1,8,0:0:0:0:
64,192,178182,1,0,0:0:0:0:
64,192,178439,1,0,0:0:0:0:
448,192,178439,1,2,0:0:0:0:
64,192,178568,1,0,0:0:0:0:
320,192,178568,1,8,0:0:0:0:
192,192,178697,1,0,0:0:0:0:
320,192,178826,1,0,0:0:0:0:
448,192,178826,1,2,0:0:0:0:
64,192,178954,1,0,0:0:0:0:
192,192,178954,1,8,0:0:0:0:
64,192,179040,1,8,0:0:0:0:
320,192,179040,1,0,0:0:0:0:
448,192,179126,1,8,0:0:0:0:
320,192,179126,1,0,0:0:0:0:
64,192,179212,1,2,0:0:0:0:
192,192,179212,1,4,0:0:0:0:
320,192,179469,1,0,0:0:0:0:
448,192,179598,1,2,0:0:0:0:
320,192,179663,1,2,0:0:0:0:
192,192,179727,1,8,0:0:0:0:
64,192,179727,1,0,0:0:0:0:
64,192,179856,1,8,0:0:0:0:
448,192,179856,1,0,0:0:0:0:
320,192,179984,1,4,0:0:0:0:
448,192,179984,1,2,0:0:0:0:
64,192,180113,1,0,0:0:0:0:
192,192,180113,1,8,0:0:0:0:
192,192,180242,1,8,0:0:0:0:
320,192,180242,1,0,0:0:0:0:
448,192,180371,1,8,0:0:0:0:
64,192,180371,1,2,0:0:0:0:
320,192,180499,1,2,0:0:0:0:
448,192,180499,1,0,0:0:0:0:
192,192,180564,1,2,0:0:0:0:
64,192,180628,1,2,0:0:0:0:
448,192,180628,1,0,0:0:0:0:
320,192,180693,1,2,0:0:0:0:
192,192,180757,1,4,0:0:0:0:
64,192,180757,1,0,0:0:0:0:
448,192,181014,1,2,0:0:0:0:
320,192,181079,1,2,0:0:0:0:
192,192,181143,5,8,0:0:0:0:
64,192,181143,1,0,0:0:0:0:
320,192,181272,1,0,0:0:0:0:
448,192,181272,1,2,0:0:0:0:
64,192,181401,1,0,0:0:0:0:
448,192,181401,1,2,0:0:0:0:
192,192,181530,1,8,0:0:0:0:
64,192,181530,1,0,0:0:0:0:
320,192,181594,1,2,0:0:0:0:
448,192,181658,1,2,0:0:0:0:
64,192,181658,1,0,0:0:0:0:
192,192,181723,1,2,0:0:0:0:
320,192,181787,1,8,0:0:0:0:
448,192,181787,1,0,0:0:0:0:
192,192,181851,1,2,0:0:0:0:
64,192,181916,1,0,0:0:0:0:
448,192,181916,1,2,0:0:0:0:
320,192,181980,1,2,0:0:0:0:
192,192,182045,1,8,0:0:0:0:
64,192,182045,1,0,0:0:0:0:
320,192,182109,1,2,0:0:0:0:
448,192,182173,1,2,0:0:0:0:
64,192,182173,1,0,0:0:0:0:
192,192,182238,1,2,0:0:0:0:
320,192,182302,1,2,0:0:0:0:
448,192,182302,1,4,0:0:0:0:
64,192,182431,1,2,0:0:0:0:
192,192,182495,1,2,0:0:0:0:
320,192,182560,1,8,0:0:0:0:
448,192,182560,1,0,0:0:0:0:
64,192,182688,1,2,0:0:0:0:
448,192,182688,1,0,0:0:0:0:
192,192,182817,1,8,0:0:0:0:
64,192,182817,1,0,0:0:0:0:
448,192,182946,1,2,0:0:0:0:
320,192,183010,1,2,0:0:0:0:
64,192,183075,1,4,0:0:0:0:
192,192,183075,1,8,0:0:0:0:
320,192,183203,1,2,0:0:0:0:
64,192,183203,1,0,0:0:0:0:
320,192,183332,1,8,0:0:0:0:
448,192,183332,1,0,0:0:0:0:
64,192,183461,1,2,0:0:0:0:
192,192,183525,1,2,0:0:0:0:
320,192,183590,1,8,0:0:0:0:
448,192,183590,1,0,0:0:0:0:
64,192,183718,1,0,0:0:0:0:
192,192,183718,1,2,0:0:0:0:
64,192,183847,1,8,0:0:0:0:
320,192,183847,1,4,0:0:0:0:
448,192,183976,1,2,0:0:0:0:
320,192,184040,1,2,0:0:0:0:
192,192,184105,1,8,0:0:0:0:
64,192,184105,1,0,0:0:0:0:
192,192,184233,1,0,0:0:0:0:
448,192,184233,1,2,0:0:0:0:
448,192,184362,1,8,0:0:0:0:
320,192,184362,1,0,0:0:0:0:
64,192,184491,1,2,0:0:0:0:
192,192,184555,1,2,0:0:0:0:
320,192,184620,1,8,0:0:0:0:
448,192,184620,1,4,0:0:0:0:
64,192,184748,1,0,0:0:0:0:
320,192,184748,1,2,0:0:0:0:
64,192,184877,1,0,0:0:0:0:
448,192,184877,1,2,0:0:0:0:
192,192,184942,1,2,0:0:0:0:
320,192,185006,1,8,0:0:0:0:
448,192,185006,1,0,0:0:0:0:
64,192,185070,1,8,0:0:0:0:
192,192,185135,1,10,0:0:0:0:
320,192,185263,1,2,0:0:0:0:
448,192,185263,1,0,0:0:0:0:
192,192,185392,1,8,0:0:0:0:
64,192,185392,1,4,0:0:0:0:
448,192,185392,1,0,0:0:0:0:
320,192,185521,1,2,0:0:0:0:
448,192,185521,1,0,0:0:0:0:
320,192,185650,1,2,0:0:0:0:
448,192,185650,1,0,0:0:0:0:
64,192,185778,1,4,0:0:0:0:
192,192,185778,1,8,0:0:0:0:
64,192,185907,1,0,0:0:0:0:
448,192,185907,1,2,0:0:0:0:
192,192,186036,1,0,0:0:0:0:
448,192,186036,1,2,0:0:0:0:
320,192,186165,1,4,0:0:0:0:
192,192,186165,1,8,0:0:0:0:
64,192,186293,1,2,0:0:0:0:
448,192,186293,1,0,0:0:0:0:
64,192,186422,1,2,0:0:0:0:
320,192,186422,1,0,0:0:0:0:
192,192,186551,1,4,0:0:0:0:
320,192,186551,1,8,0:0:0:0:
192,192,186680,1,0,0:0:0:0:
448,192,186680,1,2,0:0:0:0:
448,192,186808,1,2,0:0:0:0:
64,192,186808,1,0,0:0:0:0:
64,192,186937,1,0,0:0:0:0:
320,192,186937,1,8,0:0:0:0:
448,192,187066,1,2,0:0:0:0:
320,192,187130,1,2,0:0:0:0:
64,192,187195,1,0,0:0:0:0:
192,192,187195,1,8,0:0:0:0:
64,192,187323,1,2,0:0:0:0:
192,192,187388,1,2,0:0:0:0:
320,192,187452,1,8,0:0:0:0:
448,192,187452,1,0,0:0:0:0:
448,192,187581,1,2,0:0:0:0:
320,192,187645,1,2,0:0:0:0:
64,192,187710,1,0,0:0:0:0:
192,192,187710,1,8,0:0:0:0:
448,192,187839,1,0,0:0:0:0:
320,192,187839,1,2,0:0:0:0:
64,192,187967,1,0,0:0:0:0:
192,192,187967,1,8,0:0:0:0:
448,192,188032,1,2,0:0:0:0:
64,192,188096,1,0,0:0:0:0:
320,192,188096,1,8,0:0:0:0:
192,192,188160,1,2,0:0:0:0:
320,192,188225,1,8,0:0:0:0:
448,192,188225,1,0,0:0:0:0:
192,192,188289,1,2,0:0:0:0:
64,192,188354,1,0,0:0:0:0:
320,192,188354,1,8,0:0:0:0:
448,192,188418,1,2,0:0:0:0:
64,192,188482,1,4,0:0:0:0:
192,192,188482,1,10,0:0:0:0:
448,192,188568,1,2,0:0:0:0:
320,192,188654,1,2,0:0:0:0:
192,192,188740,1,2,0:0:0:0:
64,192,188740,1,8,0:0:0:0:
320,192,188826,1,2,0:0:0:0:
448,192,188911,1,2,0:0:0:0:
192,192,188997,1,2,0:0:0:0:
64,192,188997,1,8,0:0:0:0:
448,192,189083,1,2,0:0:0:0:
320,192,189169,1,2,0:0:0:0:
64,192,189255,1,10,0:0:0:0:
192,192,189255,1,4,0:0:0:0:
320,192,189341,1,2,0:0:0:0:
448,192,189426,1,2,0:0:0:0:
64,192,189512,1,8,0:0:0:0:
320,192,189512,1,2,0:0:0:0:
192,192,189598,1,2,0:0:0:0:
320,192,189684,1,2,0:0:0:0:
192,192,189770,1,2,0:0:0:0:
448,192,189770,1,8,0:0:0:0:
64,192,189856,1,2,0:0:0:0:
192,192,189942,1,2,0:0:0:0:
448,192,190027,1,10,0:0:0:0:
320,192,190027,1,4,0:0:0:0:
192,192,190113,1,2,0:0:0:0:
64,192,190199,1,2,0:0:0:0:
448,192,190285,1,2,0:0:0:0:
320,192,190285,1,8,0:0:0:0:
64,192,190371,1,2,0:0:0:0:
192,192,190457,1,2,0:0:0:0:
448,192,190542,1,2,0:0:0:0:
320,192,190542,1,8,0:0:0:0:
192,192,190628,1,2,0:0:0:0:
64,192,190714,1,2,0:0:0:0:
448,192,190800,1,10,0:0:0:0:
320,192,190800,1,4,0:0:0:0:
192,192,190886,1,2,0:0:0:0:
320,192,190972,1,2,0:0:0:0:
64,192,191057,1,2,0:0:0:0:
192,192,191057,1,8,0:0:0:0:
448,192,191143,1,2,0:0:0:0:
192,192,191229,1,2,0:0:0:0:
320,192,191315,1,8,0:0:0:0:
448,192,191315,1,2,0:0:0:0:
64,192,191401,1,0,0:0:0:0:
192,192,191401,1,8,0:0:0:0:
320,192,191487,1,8,0:0:0:0:
448,192,191487,1,0,0:0:0:0:
192,192,191572,1,10,0:0:0:0:
64,192,191572,1,4,0:0:0:0:
448,192,191701,1,8,0:0:0:0:
320,192,191701,1,0,0:0:0:0:
64,192,191830,1,2,0:0:0:0:
192,192,191894,1,2,0:0:0:0:
320,192,191959,1,8,0:0:0:0:
448,192,191959,1,0,0:0:0:0:
64,192,192087,1,0,0:0:0:0:
448,192,192087,1,2,0:0:0:0:
64,192,192216,1,0,0:0:0:0:
320,192,192216,1,2,0:0:0:0:
320,192,192345,1,4,0:0:0:0:
448,192,192345,1,2,0:0:0:0:
192,192,192474,1,0,0:0:0:0:
64,192,192474,1,8,0:0:0:0:
448,192,192602,1,2,0:0:0:0:
320,192,192667,1,2,0:0:0:0:
192,192,192731,1,8,0:0:0:0:
64,192,192731,1,0,0:0:0:0:
64,192,192860,1,0,0:0:0:0:
448,192,192860,1,2,0:0:0:0:
192,192,192989,1,2,0:0:0:0:
64,192,193117,1,4,0:0:0:0:
320,192,193117,1,2,0:0:0:0:
192,192,193246,1,0,0:0:0:0:
320,192,193246,1,2,0:0:0:0:
192,192,193375,1,0,0:0:0:0:
448,192,193375,1,2,0:0:0:0:
448,192,193504,1,4,0:0:0:0:
64,192,193504,1,8,0:0:0:0:
320,192,193504,1,0,0:0:0:0:
320,192,193761,1,0,0:0:0:0:
448,192,193761,1,2,0:0:0:0:
192,192,193890,1,0,0:0:0:0:
64,192,193890,1,8,0:0:0:0:
320,192,193954,1,2,0:0:0:0:
64,192,194019,1,0,0:0:0:0:
448,192,194019,1,8,0:0:0:0:
192,192,194083,1,2,0:0:0:0:
320,192,194148,1,0,0:0:0:0:
448,192,194148,1,8,0:0:0:0:
192,192,194212,1,2,0:0:0:0:
64,192,194276,1,0,0:0:0:0:
448,192,194276,1,8,0:0:0:0:
320,192,194341,1,2,0:0:0:0:
64,192,194405,1,4,0:0:0:0:
192,192,194405,1,8,0:0:0:0:
