osu file format v14

[General]
AudioFilename: audio.ogg
AudioLeadIn: 0
PreviewTime: 70284
Countdown: 0
SampleSet: Soft
StackLeniency: 0.7
Mode: 3
LetterboxInBreaks: 0
SpecialStyle: 0
WidescreenStoryboard: 0

[Editor]
Bookmarks: 27801,46435,58705,71057,83417,95778,114319,145220,157580,169941
DistanceSpacing: 1.2
BeatDivisor: 6
GridSize: 32
TimelineZoom: 1.1

[Metadata]
Title:Dawn
TitleUnicode:Dawn
Artist:Adust Rain
ArtistUnicode:Adust Rain
Creator:laughingcomet
Version:Easy
Source:東方地霊殿 ~ Subterranean Animism.
Tags:Silent Snow okogeeechann おこげちゃん menikichi めにきち kissssy Green Eyed Jealousy 緑眼のジェラシー Ryokugan no Jerashii Protastic101 Touhou Project 東方Project toho 2hu th11 Touhou Chireiden 上海アリス幻樂団 Shanhai Arisu Gengakudan ZUN 太田顺也 Oota Jun'ya 水橋パルスィ Mizuhashi Parsee Reitaisai 14 例大祭14 metal rock japanese english
BeatmapID:1405116
BeatmapSetID:657204

[Difficulty]
HPDrainRate:7
CircleSize:4
OverallDifficulty:7
ApproachRate:5
SliderMultiplier:1.4
SliderTickRate:1

[Events]
//Background and Video events
0,0,"vuFx2Tn.jpg",0,0
//Break Periods
//Storyboard Layer 0 (Background)
//Storyboard Layer 1 (Fail)
//Storyboard Layer 2 (Pass)
//Storyboard Layer 3 (Foreground)
//Storyboard Layer 4 (Overlay)
//Storyboard Sound Samples

[TimingPoints]
1530,257.510729613734,3,2,1,25,1,0
12345,-100,3,2,1,60,0,0
15435,-100,3,2,1,60,0,1
27796,-100,3,2,1,60,0,0
40156,-100,3,2,1,60,0,1
46336,-100,3,2,1,60,0,0
58697,-100,3,2,1,25,0,0
70285,-100,3,2,1,60,0,0
95778,-100,3,2,1,40,0,0
113547,-100,3,2,1,60,0,0
114319,-100,3,2,1,60,0,1
145220,-100,3,2,1,25,0,0
157581,-100,3,2,1,60,0,0
182302,-100,3,2,1,60,0,1
194405,-100,3,2,1,60,0,0

[HitObjects]
192,192,1530,5,0,0:0:0:30:E5.wav
448,192,1787,1,0,0:0:0:0:
320,192,2045,1,0,0:0:0:0:
64,192,2302,1,0,0:0:0:30:B5.wav
448,192,2817,1,0,0:0:0:0:
192,192,3075,1,0,0:0:0:30:Eb5.wav
448,192,3332,1,0,0:0:0:0:
64,192,3590,1,0,0:0:0:0:
320,192,3847,1,0,0:0:0:30:F#5.wav
64,192,4362,1,0,0:0:0:0:
448,192,4620,1,0,0:0:0:30:D5.wav
320,192,4877,1,0,0:0:0:0:
192,192,5135,1,0,0:0:0:0:
64,192,5392,1,0,0:0:0:30:D6.wav
192,192,5907,1,0,0:0:0:0:
320,192,6165,1,0,0:0:0:30:C#5.wav
448,192,6422,1,0,0:0:0:0:
320,192,6680,1,0,0:0:0:0:
64,192,6937,1,0,0:0:0:30:G5.wav
192,192,7452,1,0,0:0:0:0:
320,192,7710,1,0,0:0:0:30:E5.wav
448,192,7967,1,0,0:0:0:0:
64,192,8225,1,0,0:0:0:0:
192,192,8482,1,0,0:0:0:30:G5.wav
448,192,8997,1,0,0:0:0:0:
64,192,9255,1,0,0:0:0:30:B5.wav
320,192,9512,1,0,0:0:0:0:
192,192,9770,1,0,0:0:0:0:
320,192,10027,1,0,0:0:0:30:D5.wav
192,192,10542,1,0,0:0:0:0:
448,192,10800,1,0,0:0:0:30:C#5.wav
64,192,11057,1,0,0:0:0:0:
192,192,11315,1,0,0:0:0:0:
320,192,11572,1,0,0:0:0:30:E5.wav
448,192,12087,1,0,0:0:0:0:
64,192,12345,1,2,0:0:0:0:
192,192,12345,1,0,0:0:0:30:Eb5.wav
64,192,13890,1,2,0:0:0:0:
192,192,14148,1,8,0:0:0:0:
448,192,14663,1,2,0:0:0:0:
320,192,14920,1,2,0:0:0:0:
192,192,15178,1,8,0:0:0:0:
64,192,15435,1,8,0:0:0:0:
320,192,15435,1,0,0:0:0:0:
448,192,15693,1,8,0:0:0:0:
320,192,15950,1,8,0:0:0:0:
64,192,16208,1,8,0:0:0:0:
192,192,16465,1,8,0:0:0:0:
320,192,16723,1,8,0:0:0:0:
64,192,16980,1,8,0:0:0:0:
448,192,17238,1,8,0:0:0:0:
192,192,17495,1,8,0:0:0:0:
320,192,17753,1,8,0:0:0:0:
64,192,18010,1,8,0:0:0:0:
448,192,18268,1,8,0:0:0:0:
64,192,18525,1,8,0:0:0:0:
192,192,18783,1,8,0:0:0:0:
320,192,19040,1,8,0:0:0:0:
448,192,19298,1,8,0:0:0:0:
320,192,19555,1,8,0:0:0:0:
192,192,19813,1,8,0:0:0:0:
320,192,20070,1,8,0:0:0:0:
448,192,20328,1,8,0:0:0:0:
64,192,20585,1,8,0:0:0:0:
320,192,20843,1,8,0:0:0:0:
192,192,21100,1,8,0:0:0:0:
64,192,21358,1,8,0:0:0:0:
448,192,21615,1,12,0:0:0:0:
320,192,21873,1,8,0:0:0:0:
64,192,22130,1,8,0:0:0:0:
448,192,22388,1,8,0:0:0:0:
320,192,22645,1,8,0:0:0:0:
192,192,22903,1,8,0:0:0:0:
448,192,23160,1,8,0:0:0:0:
64,192,23418,1,8,0:0:0:0:
320,192,23675,1,8,0:0:0:0:
192,192,23933,1,8,0:0:0:0:
448,192,24190,1,8,0:0:0:0:
64,192,24448,1,8,0:0:0:0:
320,192,24705,1,8,0:0:0:0:
448,192,24963,1,8,0:0:0:0:
320,192,25220,1,8,0:0:0:0:
192,192,25478,1,8,0:0:0:0:
64,192,25736,1,8,0:0:0:0:
192,192,25993,1,8,0:0:0:0:
448,192,26251,1,8,0:0:0:0:
64,192,26508,1,8,0:0:0:0:
320,192,26766,1,8,0:0:0:0:
192,192,27023,1,12,0:0:0:0:
64,192,27281,128,8,27538:0:0:0:0:
448,192,27538,128,2,27796:0:0:0:0:
192,192,27796,1,4,0:0:0:0:
320,192,27796,1,2,0:0:0:0:
64,192,28182,1,2,0:0:0:0:
448,192,28568,1,8,0:0:0:0:
192,192,28826,1,0,0:0:0:0:
320,192,29083,1,0,0:0:0:0:
64,192,29341,1,2,0:0:0:0:
192,192,29727,1,2,0:0:0:0:
448,192,30113,1,8,0:0:0:0:
192,192,30371,1,0,0:0:0:0:
64,192,30628,1,0,0:0:0:0:
448,192,30886,1,2,0:0:0:0:
320,192,31272,1,2,0:0:0:0:
64,192,31658,1,8,0:0:0:0:
448,192,31916,1,0,0:0:0:0:
192,192,32173,1,0,0:0:0:0:
320,192,32431,1,2,0:0:0:0:
64,192,32817,1,2,0:0:0:0:
448,192,33203,1,2,0:0:0:0:
64,192,33461,1,2,0:0:0:0:
192,192,33718,1,8,0:0:0:0:
448,192,33976,1,6,0:0:0:0:
320,192,34362,1,2,0:0:0:0:
192,192,34748,1,8,0:0:0:0:
448,192,35006,1,0,0:0:0:0:
64,192,35263,1,0,0:0:0:0:
320,192,35521,1,2,0:0:0:0:
192,192,35907,1,2,0:0:0:0:
64,192,36293,1,8,0:0:0:0:
448,192,36551,1,0,0:0:0:0:
192,192,36808,1,0,0:0:0:0:
448,192,37066,1,2,0:0:0:0:
320,192,37452,1,2,0:0:0:0:
64,192,37839,1,8,0:0:0:0:
192,192,38096,1,0,0:0:0:0:
448,192,38354,1,0,0:0:0:0:
320,192,38611,1,2,0:0:0:0:
448,192,38997,1,2,0:0:0:0:
64,192,39384,1,8,0:0:0:0:
192,192,39641,1,8,0:0:0:0:
320,192,39899,1,2,0:0:0:0:
64,192,40156,1,8,0:0:0:0:
448,192,40156,1,2,0:0:0:0:
192,192,40414,1,8,0:0:0:0:
320,192,40671,1,8,0:0:0:0:
192,192,40929,1,8,0:0:0:0:
448,192,41186,1,8,0:0:0:0:
64,192,41444,1,8,0:0:0:0:
320,192,41701,1,8,0:0:0:0:
192,192,41959,1,8,0:0:0:0:
448,192,42216,1,8,0:0:0:0:
64,192,42474,1,8,0:0:0:0:
320,192,42731,1,12,0:0:0:0:
192,192,42989,1,8,0:0:0:0:
64,192,43246,1,12,0:0:0:0:
448,192,43246,1,2,0:0:0:0:
320,192,43504,1,14,0:0:0:0:
192,192,43761,1,14,0:0:0:0:
64,192,44019,1,14,0:0:0:0:
192,192,44276,1,6,0:0:0:0:
320,192,44534,1,6,0:0:0:0:
448,192,44791,1,6,0:0:0:0:
320,192,45049,1,14,0:0:0:0:
192,192,45306,1,2,0:0:0:0:
64,192,45564,1,6,0:0:0:0:
192,192,45821,1,10,0:0:0:0:
320,192,46079,1,10,0:0:0:0:
64,192,46336,1,4,0:0:0:0:
448,192,46336,1,2,0:0:0:0:
320,192,46723,1,8,0:0:0:0:
64,192,47109,1,8,0:0:0:0:
320,192,47366,1,2,0:0:0:0:
448,192,47624,1,2,0:0:0:0:
192,192,47881,1,2,0:0:0:0:
448,192,48268,1,8,0:0:0:0:
320,192,48654,1,8,0:0:0:0:
64,192,48911,1,2,0:0:0:0:
192,192,49169,1,8,0:0:0:0:
448,192,49426,1,2,0:0:0:0:
320,192,49813,1,8,0:0:0:0:
64,192,50199,1,8,0:0:0:0:
448,192,50457,1,2,0:0:0:0:
192,192,50714,1,2,0:0:0:0:
64,192,50972,1,2,0:0:0:0:
320,192,51358,1,8,0:0:0:0:
448,192,51744,1,8,0:0:0:0:
64,192,52002,1,2,0:0:0:0:
192,192,52259,128,8,52517:0:0:0:0:
320,192,52517,1,6,0:0:0:0:
64,192,52903,1,8,0:0:0:0:
448,192,53289,1,8,0:0:0:0:
192,192,53547,1,2,0:0:0:0:
320,192,53804,1,2,0:0:0:0:
64,192,54062,1,2,0:0:0:0:
448,192,54448,1,8,0:0:0:0:
64,192,54834,1,8,0:0:0:0:
320,192,55092,1,2,0:0:0:0:
192,192,55349,1,8,0:0:0:0:
448,192,55607,1,2,0:0:0:0:
64,192,55993,1,8,0:0:0:0:
448,192,56379,1,8,0:0:0:0:
320,192,56637,1,2,0:0:0:0:
192,192,56894,1,2,0:0:0:0:
448,192,57152,1,6,0:0:0:0:
320,192,57409,1,2,0:0:0:0:
192,192,57667,1,2,0:0:0:0:
64,192,57924,1,2,0:0:0:0:
192,192,58182,1,2,0:0:0:0:
320,192,58439,1,8,0:0:0:0:
448,192,58697,1,0,0:0:0:30:E5.wav
64,192,58954,1,0,0:0:0:30:G5.wav
320,192,59212,1,0,0:0:0:30:B5.wav
192,192,59727,1,0,0:0:0:30:B5.wav
448,192,59984,1,0,0:0:0:30:G5.wav
64,192,60242,1,0,0:0:0:30:E5.wav
320,192,60499,1,0,0:0:0:30:G5.wav
192,192,60757,1,0,0:0:0:30:B5.wav
320,192,61272,1,0,0:0:0:30:B5.wav
448,192,61530,1,0,0:0:0:30:G5.wav
192,192,61787,1,0,0:0:0:30:Eb5.wav
448,192,62045,1,0,0:0:0:30:F#5.wav
64,192,62302,1,0,0:0:0:30:A5.wav
320,192,62817,1,0,0:0:0:30:A5.wav
192,192,63075,1,0,0:0:0:30:F#5.wav
448,192,63332,1,0,0:0:0:30:Eb5.wav
64,192,63590,1,0,0:0:0:30:F#5.wav
320,192,63847,1,0,0:0:0:30:A5.wav
192,192,64362,1,0,0:0:0:30:A5.wav
320,192,64620,1,0,0:0:0:30:F#5.wav
448,192,64877,1,0,0:0:0:30:E5.wav
64,192,65135,1,0,0:0:0:30:G5.wav
320,192,65392,1,0,0:0:0:30:B5.wav
192,192,65907,1,0,0:0:0:30:B5.wav
448,192,66165,1,0,0:0:0:30:G5.wav
64,192,66422,1,0,0:0:0:30:E5.wav
320,192,66680,1,0,0:0:0:30:G5.wav
192,192,66937,1,0,0:0:0:30:B5.wav
448,192,67452,1,0,0:0:0:30:B5.wav
192,192,67710,1,0,0:0:0:30:G5.wav
320,192,67967,1,0,0:0:0:30:Eb5.wav
192,192,68225,1,0,0:0:0:30:F#5.wav
64,192,68482,1,0,0:0:0:30:A5.wav
320,192,68740,1,0,0:0:0:30:B4.wav
192,192,68997,1,0,0:0:0:30:F#5.wav
64,192,69255,1,0,0:0:0:30:A5.wav
320,192,69512,1,0,0:0:0:30:B5.wav
448,192,69512,1,0,0:0:0:0:
192,192,70285,1,8,0:0:0:0:
64,192,71057,1,4,0:0:0:0:
192,192,71057,1,2,0:0:0:0:
320,192,71444,1,2,0:0:0:0:
64,192,71830,1,10,0:0:0:0:
448,192,72087,1,2,0:0:0:0:
192,192,72345,1,2,0:0:0:0:
320,192,72602,1,2,0:0:0:0:
448,192,72989,1,2,0:0:0:0:
192,192,73375,1,8,0:0:0:0:
448,192,73633,1,2,0:0:0:0:
320,192,73890,1,2,0:0:0:0:
64,192,74148,1,2,0:0:0:0:
192,192,74534,1,2,0:0:0:0:
64,192,74920,1,8,0:0:0:0:
448,192,75178,1,2,0:0:0:0:
320,192,75435,1,2,0:0:0:0:
192,192,75693,1,2,0:0:0:0:
64,192,76079,1,2,0:0:0:0:
320,192,76465,1,8,0:0:0:0:
192,192,76723,1,2,0:0:0:0:
448,192,76980,1,2,0:0:0:0:
64,192,77238,1,4,0:0:0:0:
192,192,77238,1,2,0:0:0:0:
448,192,77624,1,2,0:0:0:0:
192,192,78010,1,8,0:0:0:0:
320,192,78268,1,2,0:0:0:0:
64,192,78525,1,2,0:0:0:0:
448,192,78783,1,2,0:0:0:0:
192,192,79169,1,2,0:0:0:0:
64,192,79555,1,8,0:0:0:0:
320,192,79813,1,2,0:0:0:0:
192,192,80070,1,2,0:0:0:0:
64,192,80328,1,2,0:0:0:0:
448,192,80714,1,8,0:0:0:0:
192,192,81100,1,10,0:0:0:0:
320,192,81358,1,0,0:0:0:0:
448,192,81615,1,8,0:0:0:0:
192,192,81873,1,6,0:0:0:0:
64,192,82130,1,8,0:0:0:0:
448,192,82388,1,2,0:0:0:0:
320,192,82645,1,6,0:0:0:0:
64,192,82903,1,8,0:0:0:0:
192,192,83160,1,8,0:0:0:0:
320,192,83418,1,2,0:0:0:0:
448,192,83418,1,4,0:0:0:0:
64,192,83804,1,2,0:0:0:0:
192,192,84190,1,10,0:0:0:0:
448,192,84448,1,2,0:0:0:0:
320,192,84705,1,2,0:0:0:0:
64,192,84963,1,2,0:0:0:0:
448,192,85349,1,2,0:0:0:0:
192,192,85736,1,10,0:0:0:0:
320,192,85993,1,2,0:0:0:0:
64,192,86251,1,2,0:0:0:0:
448,192,86508,1,2,0:0:0:0:
192,192,86894,1,2,0:0:0:0:
320,192,87281,1,10,0:0:0:0:
448,192,87538,1,2,0:0:0:0:
64,192,87796,1,2,0:0:0:0:
192,192,88053,1,2,0:0:0:0:
448,192,88439,1,2,0:0:0:0:
192,192,88826,1,10,0:0:0:0:
320,192,89083,1,2,0:0:0:0:
64,192,89341,1,2,0:0:0:0:
448,192,89598,1,6,0:0:0:0:
320,192,89984,1,2,0:0:0:0:
64,192,90371,1,10,0:0:0:0:
448,192,90628,1,2,0:0:0:0:
192,192,90886,1,2,0:0:0:0:
64,192,91143,1,2,0:0:0:0:
320,192,91530,1,2,0:0:0:0:
448,192,91916,1,10,0:0:0:0:
192,192,92173,1,2,0:0:0:0:
320,192,92431,1,2,0:0:0:0:
64,192,92688,1,2,0:0:0:0:
448,192,93075,1,8,0:0:0:0:
192,192,93461,1,10,0:0:0:0:
64,192,93718,1,0,0:0:0:0:
448,192,93976,1,8,0:0:0:0:
192,192,94233,1,6,0:0:0:0:
320,192,94491,1,8,0:0:0:0:
448,192,94748,1,2,0:0:0:0:
320,192,95006,1,6,0:0:0:0:
192,192,95263,1,2,0:0:0:0:
64,192,95521,1,8,0:0:0:0:
192,192,95778,1,10,0:0:0:0:
320,192,96165,1,0,0:0:0:0:
64,192,96551,1,8,0:0:0:0:
448,192,96808,1,8,0:0:0:0:
192,192,97066,1,0,0:0:0:0:
320,192,97323,1,0,0:0:0:0:
64,192,98096,1,0,0:0:0:0:
448,192,98869,1,10,0:0:0:0:
192,192,99126,1,8,0:0:0:0:
320,192,99641,1,8,0:0:0:0:
448,192,99899,1,8,0:0:0:0:
64,192,100414,1,10,0:0:0:0:
320,192,101186,1,10,0:0:0:0:
64,192,101444,1,2,0:0:0:0:
192,192,101701,1,2,0:0:0:0:
320,192,101959,1,4,0:0:0:0:
448,192,101959,1,2,0:0:0:0:
64,192,102731,1,8,0:0:0:0:
448,192,102989,1,2,0:0:0:0:
192,192,103246,1,0,0:0:0:0:
320,192,103504,1,2,0:0:0:0:
64,192,103890,1,0,0:0:0:0:
320,192,104276,1,8,0:0:0:0:
192,192,104663,1,0,0:0:0:0:
448,192,105049,1,2,0:0:0:0:
64,192,105435,1,0,0:0:0:0:
320,192,105821,1,8,0:0:0:0:
448,192,106208,1,0,0:0:0:0:
64,192,106594,1,2,0:0:0:0:
192,192,107109,1,0,0:0:0:0:
320,192,107366,1,8,0:0:0:0:
448,192,108139,1,2,0:0:0:0:
192,192,108911,1,8,0:0:0:0:
320,192,109684,1,2,0:0:0:0:
64,192,110457,1,8,0:0:0:0:
448,192,111229,1,2,0:0:0:0:
192,192,112002,1,8,0:0:0:0:
320,192,112774,1,0,0:0:0:0:
64,192,113547,1,2,0:0:0:0:
448,192,113547,128,0,114319:0:0:0:0:
64,192,114319,1,2,0:0:0:0:
192,192,114319,1,0,0:0:0:0:
320,192,115092,1,2,0:0:0:0:
448,192,115349,1,2,0:0:0:0:
192,192,115607,1,8,0:0:0:0:
448,192,115864,128,2,116379:0:0:0:0:
64,192,116379,1,0,0:0:0:0:
320,192,116637,128,2,117152:0:0:0:0:
192,192,117152,1,8,0:0:0:0:
448,192,117409,1,2,0:0:0:0:
64,192,117667,1,8,0:0:0:0:
320,192,117924,1,0,0:0:0:0:
192,192,118182,1,2,0:0:0:0:
64,192,118439,1,2,0:0:0:0:
448,192,118697,1,8,0:0:0:0:
192,192,118954,128,2,119727:0:0:0:0:
448,192,119727,128,2,120242:0:0:0:0:
320,192,120242,1,2,0:0:0:0:
192,192,120499,1,6,0:0:0:0:
320,192,120757,1,8,0:0:0:0:
448,192,121014,1,0,0:0:0:0:
64,192,121272,1,2,0:0:0:0:
320,192,121530,128,2,122045:0:0:0:0:
64,192,122045,1,2,0:0:0:0:
192,192,122302,1,8,0:0:0:0:
448,192,122560,1,0,0:0:0:0:
320,192,122817,1,2,0:0:0:0:
192,192,123075,1,2,0:0:0:0:
448,192,123332,1,8,0:0:0:0:
64,192,123590,128,2,123976:0:0:0:0:
448,192,123976,1,2,0:0:0:0:
192,192,124362,1,2,0:0:0:0:
320,192,124620,1,2,0:0:0:0:
448,192,124877,1,8,0:0:0:0:
64,192,125135,128,2,125907:0:0:0:0:
448,192,125907,128,6,126680:0:0:0:0:
192,192,126680,128,6,127195:0:0:0:0:
320,192,127195,128,0,127452:0:0:0:0:
64,192,127452,128,2,128225:0:0:0:0:
448,192,128225,128,2,128611:0:0:0:0:
192,192,128611,128,2,128997:0:0:0:0:
320,192,128997,128,2,129770:0:0:0:0:
64,192,129770,128,2,130156:0:0:0:0:
192,192,130156,128,2,130414:0:0:0:0:
448,192,130414,1,8,0:0:0:0:
320,192,130542,1,2,0:0:0:0:
64,192,130800,1,2,0:0:0:0:
192,192,131057,1,8,0:0:0:0:
320,192,131315,128,2,131572:0:0:0:0:
448,192,131572,128,8,131830:0:0:0:0:
64,192,131830,128,0,132087:0:0:0:0:
192,192,132087,128,2,132345:0:0:0:0:
448,192,132345,128,2,132602:0:0:0:0:
320,192,132602,128,2,132860:0:0:0:0:
64,192,132860,128,6,133633:0:0:0:0:
320,192,133633,128,2,134148:0:0:0:0:
448,192,134148,128,8,134405:0:0:0:0:
192,192,134405,128,6,134663:0:0:0:0:
320,192,134663,1,8,0:0:0:0:
448,192,134920,1,0,0:0:0:0:
64,192,135178,128,2,135435:0:0:0:0:
192,192,135435,128,2,135693:0:0:0:0:
448,192,135693,128,2,135950:0:0:0:0:
64,192,135950,128,6,136208:0:0:0:0:
192,192,136208,128,8,136465:0:0:0:0:
320,192,136465,128,0,136723:0:0:0:0:
448,192,136723,128,6,136980:0:0:0:0:
320,192,136980,128,8,137238:0:0:0:0:
64,192,137238,128,0,137495:0:0:0:0:
448,192,137495,128,6,137753:0:0:0:0:
192,192,137753,128,8,138010:0:0:0:0:
320,192,138010,128,0,138268:0:0:0:0:
64,192,138268,128,2,138783:0:0:0:0:
448,192,138783,128,8,139040:0:0:0:0:
192,192,139040,128,6,139298:0:0:0:0:
320,192,139298,128,8,139555:0:0:0:0:
64,192,139555,128,0,140199:0:0:0:0:
320,192,140199,128,0,140585:0:0:0:0:
192,192,140585,128,6,141358:0:0:0:0:
448,192,141358,128,6,141873:0:0:0:0:
320,192,141873,128,2,142130:0:0:0:0:
64,192,142130,128,6,142903:0:0:0:0:
192,192,142903,128,6,143418:0:0:0:0:
448,192,143418,128,8,143675:0:0:0:0:
64,192,143675,128,2,143933:0:0:0:0:
192,192,143933,128,8,144190:0:0:0:0:
320,192,144190,1,2,0:0:0:0:
448,192,144448,1,2,0:0:0:0:
320,192,145220,1,0,0:0:0:30:E5.wav
192,192,145478,1,0,0:0:0:0:
64,192,145736,1,0,0:0:0:0:
320,192,145993,1,0,0:0:0:30:B5.wav
448,192,146508,1,0,0:0:0:0:
192,192,146766,1,0,0:0:0:30:Eb5.wav
320,192,147023,1,0,0:0:0:0:
64,192,147281,1,0,0:0:0:0:
448,192,147538,1,0,0:0:0:30:F#5.wav
192,192,148053,1,0,0:0:0:0:
64,192,148311,1,0,0:0:0:30:D5.wav
448,192,148568,1,0,0:0:0:0:
192,192,148826,1,0,0:0:0:0:
320,192,149083,1,0,0:0:0:30:D6.wav
448,192,149598,1,0,0:0:0:0:
64,192,149856,1,0,0:0:0:30:C#5.wav
192,192,150113,1,0,0:0:0:0:
320,192,150371,1,0,0:0:0:0:
64,192,150628,1,0,0:0:0:30:G5.wav
448,192,151143,1,0,0:0:0:0:
192,192,151401,1,0,0:0:0:30:E5.wav
320,192,151658,1,0,0:0:0:0:
64,192,151916,1,0,0:0:0:0:
192,192,152173,1,0,0:0:0:30:G5.wav
448,192,152688,1,0,0:0:0:0:
64,192,152946,1,0,0:0:0:30:B5.wav
320,192,153203,1,0,0:0:0:0:
192,192,153461,1,0,0:0:0:0:
448,192,153718,1,0,0:0:0:30:D5.wav
64,192,154233,1,0,0:0:0:0:
192,192,154491,1,0,0:0:0:30:C#5.wav
320,192,154748,1,0,0:0:0:0:
448,192,155006,1,0,0:0:0:0:
64,192,155263,1,0,0:0:0:30:E5.wav
448,192,155778,1,0,0:0:0:0:
192,192,156036,1,0,0:0:0:30:B5.wav
64,192,156808,1,0,0:0:0:0:
320,192,157581,1,2,0:0:0:0:
448,192,157581,1,4,0:0:0:0:
192,192,157839,1,8,0:0:0:0:
64,192,158096,1,0,0:0:0:0:
320,192,158354,1,8,0:0:0:0:
448,192,158611,1,2,0:0:0:0:
192,192,158869,1,2,0:0:0:0:
64,192,159126,1,2,0:0:0:0:
448,192,159384,1,8,0:0:0:0:
192,192,159641,1,0,0:0:0:0:
64,192,159899,1,8,0:0:0:0:
448,192,160156,1,2,0:0:0:0:
320,192,160414,1,2,0:0:0:0:
192,192,160671,1,2,0:0:0:0:
448,192,160929,1,8,0:0:0:0:
64,192,161186,1,0,0:0:0:0:
320,192,161444,1,8,0:0:0:0:
192,192,161701,1,2,0:0:0:0:
448,192,161959,1,2,0:0:0:0:
320,192,162216,1,2,0:0:0:0:
64,192,162474,1,8,0:0:0:0:
320,192,162731,1,0,0:0:0:0:
192,192,162989,1,12,0:0:0:0:
64,192,163246,1,6,0:0:0:0:
448,192,163504,1,6,0:0:0:0:
192,192,163761,1,6,0:0:0:0:
320,192,164019,1,8,0:0:0:0:
64,192,164276,1,0,0:0:0:0:
192,192,164534,1,8,0:0:0:0:
448,192,164791,1,2,0:0:0:0:
320,192,165049,1,2,0:0:0:0:
64,192,165306,1,2,0:0:0:0:
448,192,165564,1,8,0:0:0:0:
192,192,165821,1,0,0:0:0:0:
320,192,166079,1,8,0:0:0:0:
64,192,166336,1,2,0:0:0:0:
448,192,166594,1,2,0:0:0:0:
192,192,166851,1,2,0:0:0:0:
64,192,167109,1,8,0:0:0:0:
320,192,167366,1,0,0:0:0:0:
192,192,167624,1,8,0:0:0:0:
448,192,167881,1,0,0:0:0:0:
64,192,168139,128,8,168396:0:0:0:0:
320,192,168396,1,2,0:0:0:0:
448,192,168654,1,8,0:0:0:0:
192,192,168911,1,2,0:0:0:0:
320,192,169169,1,6,0:0:0:0:
64,192,169426,1,6,0:0:0:0:
192,192,169684,1,8,0:0:0:0:
320,192,169942,1,4,0:0:0:0:
448,192,169942,1,2,0:0:0:0:
192,192,170199,1,0,0:0:0:0:
64,192,170457,1,8,0:0:0:0:
448,192,170714,1,2,0:0:0:0:
192,192,170972,1,0,0:0:0:0:
320,192,171229,1,8,0:0:0:0:
64,192,171487,1,2,0:0:0:0:
448,192,171744,1,0,0:0:0:0:
192,192,172002,1,8,0:0:0:0:
64,192,172259,1,2,0:0:0:0:
448,192,172774,1,8,0:0:0:0:
64,192,173032,1,2,0:0:0:0:
192,192,173032,1,4,0:0:0:0:
320,192,173289,1,0,0:0:0:0:
448,192,173547,1,8,0:0:0:0:
192,192,173804,1,2,0:0:0:0:
320,192,174062,1,0,0:0:0:0:
64,192,174319,1,2,0:0:0:0:
448,192,174577,1,8,0:0:0:0:
192,192,174834,1,8,0:0:0:0:
320,192,175092,1,8,0:0:0:0:
64,192,175349,1,8,0:0:0:0:
448,192,175607,1,8,0:0:0:0:
320,192,175864,1,2,0:0:0:0:
64,192,176122,1,4,0:0:0:0:
192,192,176122,1,2,0:0:0:0:
448,192,176379,1,0,0:0:0:0:
192,192,176637,1,8,0:0:0:0:
320,192,176894,1,2,0:0:0:0:
64,192,177152,1,0,0:0:0:0:
448,192,177409,1,8,0:0:0:0:
192,192,177667,1,2,0:0:0:0:
320,192,177924,1,0,0:0:0:0:
448,192,178182,1,8,0:0:0:0:
64,192,178439,1,2,0:0:0:0:
448,192,178954,1,8,0:0:0:0:
64,192,179212,1,2,0:0:0:0:
192,192,179212,1,4,0:0:0:0:
64,192,179727,1,8,0:0:0:0:
320,192,179984,1,4,0:0:0:0:
448,192,179984,1,2,0:0:0:0:
320,192,180499,1,2,0:0:0:0:
64,192,180757,1,4,0:0:0:0:
192,192,180757,1,0,0:0:0:0:
64,192,181530,1,8,0:0:0:0:
192,192,181787,1,8,0:0:0:0:
320,192,182045,1,8,0:0:0:0:
64,192,182302,1,2,0:0:0:0:
448,192,182302,1,4,0:0:0:0:
320,192,182560,1,8,0:0:0:0:
192,192,182817,1,8,0:0:0:0:
448,192,183075,1,12,0:0:0:0:
64,192,183332,1,8,0:0:0:0:
320,192,183590,1,8,0:0:0:0:
448,192,183847,1,12,0:0:0:0:
192,192,184105,1,8,0:0:0:0:
64,192,184362,1,8,0:0:0:0:
448,192,184620,1,12,0:0:0:0:
192,192,184877,1,2,0:0:0:0:
320,192,185135,1,10,0:0:0:0:
64,192,185392,1,12,0:0:0:0:
64,192,185778,1,12,0:0:0:0:
320,192,186165,1,12,0:0:0:0:
320,192,186551,1,12,0:0:0:0:
448,192,186937,1,8,0:0:0:0:
320,192,187195,1,8,0:0:0:0:
192,192,187452,1,8,0:0:0:0:
64,192,187710,1,8,0:0:0:0:
448,192,187967,1,8,0:0:0:0:
320,192,188225,1,8,0:0:0:0:
64,192,188482,1,12,0:0:0:0:
192,192,188482,1,2,0:0:0:0:
320,192,188740,1,10,0:0:0:0:
448,192,188997,1,10,0:0:0:0:
64,192,189255,1,14,0:0:0:0:
192,192,189512,1,10,0:0:0:0:
320,192,189770,1,10,0:0:0:0:
64,192,190027,1,14,0:0:0:0:
448,192,190285,1,10,0:0:0:0:
192,192,190542,1,10,0:0:0:0:
64,192,190800,1,14,0:0:0:0:
448,192,191057,1,10,0:0:0:0:
320,192,191315,1,10,0:0:0:0:
192,192,191572,128,14,192345:0:0:0:0:
448,192,191830,1,2,0:0:0:0:
64,192,192345,128,6,193117:0:0:0:0:
448,192,192602,1,2,0:0:0:0:
192,192,193117,1,6,0:0:0:0:
320,192,193504,1,12,0:0:0:0:
64,192,193890,1,8,0:0:0:0:
192,192,194148,1,8,0:0:0:0:
320,192,194405,1,4,0:0:0:0:
448,192,194405,1,8,0:0:0:0:
