osu file format v14

[General]
AudioFilename: audio.mp3
AudioLeadIn: 0
PreviewTime: -1
Countdown: 1
SampleSet: None
StackLeniency: 0.7
Mode: 2
LetterboxInBreaks: 0
WidescreenStoryboard: 1

[Editor]
Bookmarks: 12999,23420,43315,63841,73946,94157,104262,114367,124157,144683,154788
DistanceSpacing: 3.1
BeatDivisor: 4
GridSize: 16
TimelineZoom: 3.299999

[Metadata]
Title:Save The World!
TitleUnicode:Save The World!
Artist:Adraen
ArtistUnicode:Adraen
Creator:ThanaR
Version:ar9.5 Demonpowered
Source:
Tags:LapFox Trax
BeatmapID:1269537
BeatmapSetID:515369

[Difficulty]
HPDrainRate:5
CircleSize:4
OverallDifficulty:8
ApproachRate:9.5
SliderMultiplier:1.8
SliderTickRate:1

[Events]
//Background and Video events
0,0,"Adraen - The Beats With Two Backs - cover.jpg",0,0
//Break Periods
//Storyboard Layer 0 (Background)
//Storyboard Layer 1 (Fail)
//Storyboard Layer 2 (Pass)
//Storyboard Layer 3 (Foreground)
//Storyboard Sound Samples

[TimingPoints]
3210,315.789473684211,4,2,2,80,1,0
3367,-100,4,2,1,80,0,0
12999,-100,4,3,2,80,0,0
13315,-100,4,2,1,80,0,0
23420,-83.3333333333333,4,2,1,80,0,1
27367,-83.3333333333333,4,2,1,40,0,1
28473,-83.3333333333333,4,2,1,80,0,1
32420,-83.3333333333333,4,2,1,40,0,1
43631,-133.333333333333,4,2,2,40,0,0
43788,-133.333333333333,4,2,1,40,0,0
63841,-100,4,2,1,40,0,0
94157,-100,4,3,2,40,0,0
94315,-100,4,2,1,40,0,0
104262,-100,4,2,2,70,0,1
104420,-100,4,2,1,70,0,1
114367,-83.3333333333333,4,2,1,70,0,1
117999,-100,4,2,1,70,0,1
124946,-100,4,2,2,70,0,1
125183,-100,4,2,1,70,0,1
144683,-100,4,3,2,70,0,0
144841,-100,4,2,1,70,0,0

[Colours]
Combo1 : 0,255,255
Combo2 : 255,0,0
Combo3 : 255,128,0
Combo4 : 255,255,0
Combo5 : 0,255,0

[HitObjects]
112,192,3210,5,8,2:0:0:0:
272,192,3367,1,0,2:0:0:0:
352,192,3446,1,2,2:0:0:0:
272,192,3525,2,0,L|176:192,2,90,4|0|4,2:0|2:0|2:0,2:0:0:0:
0,192,3999,1,0,2:0:0:0:
320,192,4157,1,4,2:0:0:0:
480,192,4315,5,0,2:0:0:0:
352,192,4473,1,4,2:0:0:0:
192,192,4631,1,0,2:0:0:0:
272,192,4710,1,2,2:0:0:0:
192,192,4788,1,4,2:0:0:0:
448,192,4946,5,0,2:0:0:0:
64,192,5104,2,0,L|160:192,1,90,4|0,2:0|2:0,2:0:0:0:
320,192,5420,1,4,2:0:0:0:
144,192,5578,1,0,2:0:0:0:
256,192,5736,1,4,2:0:0:0:
496,192,5894,5,0,2:0:0:0:
416,192,5973,1,2,2:0:0:0:
496,192,6052,1,4,2:0:0:0:
160,192,6210,2,0,L|256:192,1,90,0|4,2:0|2:0,2:0:0:0:
80,192,6525,2,0,L|192:192,1,90,0|4,2:0|2:0,2:0:0:0:
352,192,6841,2,0,L|256:192,1,90,0|4,2:0|2:0,2:0:0:0:
432,192,7157,5,0,2:0:0:0:
352,192,7236,1,2,2:0:0:0:
432,192,7315,1,4,2:0:0:0:
256,192,7473,2,0,L|144:192,1,90,0|4,2:0|2:0,2:0:0:0:
256,192,7710,2,0,L|320:160,1,45,2|0,2:0|2:0,2:0:0:0:
496,192,7867,2,0,L|496:128,1,45,2|4,2:0|2:0,2:0:0:0:
144,192,8025,2,0,L|112:160,1,45,2|0,2:0|2:0,2:0:0:0:
320,192,8183,2,0,L|352:160,1,45,2|4,2:0|2:0,2:0:0:0:
80,192,8420,5,0,2:0:0:0:
160,192,8499,1,2,2:0:0:0:
80,192,8578,1,2,2:0:0:0:
192,192,8736,2,0,L|288:192,1,90,0|2,2:0|2:0,2:0:0:0:
496,192,9052,2,0,L|400:192,1,90,0|0,2:0|2:0,2:0:0:0:
240,192,9367,1,0,2:0:0:0:
160,192,9446,1,2,2:0:0:0:
240,192,9525,1,4,2:0:0:0:
416,192,9683,6,0,L|464:192,2,45,0|2|4,2:0|2:0|2:0,2:0:0:0:
112,192,9999,2,0,L|16:192,1,90,0|4,2:0|2:0,2:0:0:0:
192,192,10315,2,0,L|96:192,1,90,0|4,2:0|2:0,2:0:0:0:
426,192,10631,2,0,L|320:192,1,90,0|4,2:0|2:0,2:0:0:0:
176,192,10946,1,0,2:0:0:0:
96,192,11025,1,2,2:0:0:0:
176,192,11104,1,4,2:0:0:0:
448,192,11262,5,0,2:0:0:0:
80,192,11420,1,4,2:0:0:0:
384,192,11578,2,0,L|288:192,1,90,0|4,2:0|2:0,2:0:0:0:
16,192,11894,2,0,L|112:192,1,90,0|4,2:0|2:0,2:0:0:0:
384,192,12210,1,0,2:0:0:0:
464,192,12288,1,2,2:0:0:0:
384,192,12367,1,4,2:0:0:0:
192,192,12525,5,0,2:0:0:0:
480,192,12683,1,0,2:0:0:0:
400,192,12762,1,2,2:0:0:0:
480,192,12841,1,0,2:0:0:0:
400,192,12920,1,2,2:0:0:0:
0,192,12999,1,8,3:0:0:0:
96,192,13315,5,0,2:0:0:0:
64,192,13472,1,0,2:0:0:0:
144,192,13551,1,2,2:0:0:0:
224,192,13630,2,0,L|128:192,2,90,4|0|4,2:0|2:0|2:0,2:0:0:0:
0,192,14104,1,0,2:0:0:0:
320,192,14262,1,4,2:0:0:0:
144,192,14420,5,0,2:0:0:0:
304,192,14578,1,4,2:0:0:0:
128,192,14736,1,0,2:0:0:0:
208,192,14815,1,2,2:0:0:0:
128,192,14893,1,4,2:0:0:0:
0,192,15051,5,0,2:0:0:0:
208,192,15209,2,0,L|304:192,1,90,4|0,2:0|2:0,2:0:0:0:
464,192,15525,1,4,2:0:0:0:
128,192,15683,1,0,2:0:0:0:
432,192,15841,1,4,2:0:0:0:
96,192,15999,5,0,2:0:0:0:
176,192,16078,1,2,2:0:0:0:
256,192,16157,1,4,2:0:0:0:
64,192,16315,2,0,L|160:192,1,90,0|4,2:0|2:0,2:0:0:0:
352,192,16630,2,0,L|464:192,1,90,0|4,2:0|2:0,2:0:0:0:
240,192,16946,2,0,L|144:192,1,90,0|4,2:0|2:0,2:0:0:0:
432,192,17262,5,0,2:0:0:0:
352,192,17341,1,2,2:0:0:0:
432,192,17420,1,4,2:0:0:0:
128,192,17578,2,0,L|16:192,1,90,0|4,2:0|2:0,2:0:0:0:
224,192,17815,2,0,L|304:192,1,45,2|0,2:0|2:0,2:0:0:0:
432,192,17973,2,0,L|480:192,1,45,2|4,2:0|2:0,2:0:0:0:
144,192,18131,2,0,L|96:176,1,45,2|0,2:0|2:0,2:0:0:0:
336,192,18288,2,0,L|384:176,1,45,2|4,2:0|2:0,2:0:0:0:
416,192,18525,5,0,2:0:0:0:
496,192,18604,1,2,2:0:0:0:
416,192,18683,1,2,2:0:0:0:
224,192,18841,2,0,L|320:192,1,90,0|2,2:0|2:0,2:0:0:0:
112,192,19157,2,0,L|16:192,1,90,0|0,2:0|2:0,2:0:0:0:
240,192,19472,1,0,2:0:0:0:
160,192,19551,1,2,2:0:0:0:
400,192,19630,1,4,2:0:0:0:
160,192,19788,6,0,L|112:192,2,45,0|2|4,2:0|2:0|2:0,2:0:0:0:
336,192,20104,2,0,L|240:192,1,90,0|4,2:0|2:0,2:0:0:0:
416,192,20420,2,0,L|320:192,1,90,0|4,2:0|2:0,2:0:0:0:
496,192,20736,2,0,L|390:192,1,90,0|4,2:0|2:0,2:0:0:0:
176,192,21051,1,0,2:0:0:0:
96,192,21130,1,2,2:0:0:0:
176,192,21209,1,4,2:0:0:0:
448,192,21367,5,0,2:0:0:0:
192,192,21525,1,4,2:0:0:0:
96,192,21683,2,0,L|0:192,1,90,0|4,2:0|2:0,2:0:0:0:
176,192,21999,2,0,L|272:192,1,90,0|4,2:0|2:0,2:0:0:0:
96,192,22315,1,0,2:0:0:0:
176,192,22393,1,2,2:0:0:0:
96,192,22472,1,4,2:0:0:0:
416,192,22630,5,0,2:0:0:0:
0,192,22788,2,0,L|64:192,1,45,4|2,2:0|2:0,2:0:0:0:
224,192,22946,2,0,L|272:192,1,45,0|2,2:0|2:0,2:0:0:0:
464,192,23104,2,0,L|496:192,5,30,4|2|0|0|0|0,2:0|2:0|2:0|2:0|2:0|2:0,2:0:0:0:
368,192,23420,6,0,L|256:192,1,107.999996704102,8|4,3:0|3:0,0:0:0:0:
48,192,23736,2,0,L|160:192,1,107.999996704102,8|4,0:0|0:0,0:0:0:0:
368,192,24052,2,0,L|256:192,1,107.999996704102,8|4,0:0|0:0,0:0:0:0:
464,192,24367,6,0,L|320:192,1,107.999996704102,8|4,0:0|0:0,0:0:0:0:
192,192,24683,2,0,L|64:192,1,107.999996704102,8|4,0:0|0:0,0:0:0:0:
288,192,24999,2,0,L|160:192,1,107.999996704102,8|4,0:0|0:0,0:0:0:0:
384,192,25315,2,0,L|256:192,1,107.999996704102,8|4,0:0|0:0,0:0:0:0:
384,192,25631,6,0,L|496:192,1,107.999996704102,8|4,0:0|0:0,0:0:0:0:
288,192,25946,2,0,L|432:192,1,107.999996704102,8|4,0:0|0:0,0:0:0:0:
192,192,26262,2,0,L|304:192,1,107.999996704102,8|4,0:0|0:0,0:0:0:0:
96,192,26578,2,0,L|224:192,1,107.999996704102,8|4,0:0|0:0,0:0:0:0:
0,192,26894,6,0,L|128:192,1,107.999996704102,8|4,0:0|0:0,0:0:0:0:
272,192,27210,2,0,L|400:192,1,107.999996704102,8|0,0:0|1:0,0:0:0:0:
480,192,27446,1,8,1:0:0:0:
384,192,27525,1,0,1:0:0:0:
112,192,27683,5,0,1:0:0:0:
16,192,27762,1,8,1:0:0:0:
112,192,27841,1,0,1:0:0:0:
112,192,27920,1,8,1:0:0:0:
240,192,27999,2,0,L|352:192,1,107.999996704102,0|0,0:0|1:0,0:0:0:0:
448,192,28236,5,8,1:0:0:0:
348,192,28315,1,0,1:0:0:0:
256,192,28473,2,0,L|128:192,1,107.999996704102,8|4,0:0|0:0,0:0:0:0:
0,192,28788,2,0,L|128:192,1,107.999996704102,8|4,0:0|0:0,0:0:0:0:
416,192,29104,2,0,L|288:192,1,107.999996704102,8|4,0:0|0:0,0:0:0:0:
496,96,29420,6,0,L|368:96,1,107.999996704102,8|4,0:0|0:0,0:0:0:0:
128,192,29736,2,0,L|256:192,1,107.999996704102,8|4,0:0|0:0,0:0:0:0:
64,80,30052,2,0,L|176:80,1,107.999996704102,8|4,0:0|0:0,0:0:0:0:
416,192,30367,1,8,0:0:0:0:
128,192,30525,1,4,0:0:0:0:
288,192,30683,5,8,0:0:0:0:
128,192,30841,1,4,0:0:0:0:
480,192,30999,2,0,L|368:192,1,107.999996704102,8|4,0:0|0:0,0:0:0:0:
176,192,31315,1,8,0:0:0:0:
368,192,31473,2,0,L|224:192,1,107.999996704102,4|8,0:0|0:0,0:0:0:0:
64,192,31788,5,4,0:0:0:0:
352,192,31946,2,0,L|480:192,1,107.999996704102,8|4,0:0|0:0,0:0:0:0:
112,192,32262,1,8,0:0:0:0:
304,192,32420,1,0,1:0:0:0:
400,192,32499,1,8,1:0:0:0:
304,192,32578,5,0,1:0:0:0:
0,192,32736,1,0,1:0:0:0:
96,192,32815,1,8,1:0:0:0:
0,192,32894,1,0,1:0:0:0:
96,192,32973,1,8,1:0:0:0:
256,192,33052,6,0,L|144:192,1,107.999996704102,8|4,0:0|0:0,0:0:0:0:
48,192,33288,1,8,1:0:0:0:
144,192,33367,1,0,1:0:0:0:
336,192,33525,2,0,L|224:192,1,107.999996704102,8|4,0:0|0:0,0:0:0:0:
416,192,33841,1,8,0:0:0:0:
112,192,33999,6,0,L|48:160,1,53.9999983520508,0|8,1:0|1:0,1:0:0:0:
320,192,34157,2,0,L|384:160,1,53.9999983520508,0|8,1:0|1:0,1:0:0:0:
32,192,34315,2,0,L|112:192,1,53.9999983520508,0|8,1:0|1:0,1:0:0:0:
304,192,34473,1,8,0:0:0:0:
412,192,34631,1,0,1:0:0:0:
512,192,34710,5,8,1:0:0:0:
412,192,34788,1,0,1:0:0:0:
96,192,34946,2,0,L|224:192,1,107.999996704102,4|8,0:0|0:0,0:0:0:0:
304,192,35262,1,0,1:0:0:0:
208,192,35341,1,8,1:0:0:0:
304,192,35420,1,0,1:0:0:0:
0,192,35578,6,0,L|128:192,1,107.999996704102,4|8,0:0|0:0,0:0:0:0:
448,192,35894,1,4,0:0:0:0:
128,192,36052,2,0,L|16:192,1,107.999996704102,8|4,0:0|0:0,0:0:0:0:
416,192,36367,1,8,0:0:0:0:
112,192,36525,2,8,L|48:160,1,53.9999983520508,8|8,0:0|1:0,0:0:0:0:
368,192,36683,6,8,L|432:160,1,53.9999983520508,8|8,0:0|1:0,0:0:0:0:
32,192,36841,2,8,L|112:192,1,53.9999983520508,8|8,0:0|1:0,0:0:0:0:
368,192,36999,1,8,0:0:0:0:
260,192,37157,1,8,0:0:0:0:
160,192,37236,5,8,1:0:0:0:
260,192,37315,1,12,1:0:0:0:
432,192,37473,1,8,0:0:0:0:
336,192,37552,1,8,1:0:0:0:
432,192,37631,1,8,0:0:0:0:
128,192,37788,6,8,L|64:160,1,53.9999983520508,8|8,0:0|1:0,0:0:0:0:
352,192,37946,2,8,L|432:160,1,53.9999983520508,8|8,0:0|1:0,0:0:0:0:
0,192,38104,2,8,L|64:176,1,53.9999983520508,8|8,0:0|1:0,0:0:0:0:
256,192,38262,2,8,L|320:176,1,53.9999983520508,8|8,0:0|1:0,0:0:0:0:
464,192,38420,2,0,L|480:64,1,107.999996704102
224,192,38736,5,4,0:0:0:0:
352,192,38894,1,8,1:0:0:0:
128,192,39052,1,4,0:0:0:0:
64,192,39131,1,8,1:0:0:0:
0,192,39210,1,8,0:0:0:0:
416,192,39288,6,0,L|480:176,1,53.9999983520508,8|4,1:0|0:0,0:0:0:0:
64,192,39446,1,8,0:0:0:0:
336,192,39525,2,0,L|464:144,1,107.999996704102,8|4,1:0|0:0,0:0:0:0:
32,192,39841,1,8,0:0:0:0:
160,192,39999,1,4,0:0:0:0:
416,192,40157,5,8,1:0:0:0:
288,192,40315,1,4,0:0:0:0:
224,192,40394,1,8,1:0:0:0:
304,192,40473,1,8,0:0:0:0:
448,192,40631,1,12,1:0:0:0:
80,192,40788,5,8,0:0:0:0:
208,192,40946,1,12,1:0:0:0:
432,192,41104,1,8,0:0:0:0:
288,192,41262,1,4,0:0:0:0:
496,192,41420,1,12,1:0:0:0:
112,192,41578,6,0,L|48:176,1,53.9999983520508,4|8,0:0|1:0,0:0:0:0:
400,192,41736,2,0,L|464:176,1,53.9999983520508,8|8,0:0|1:0,0:0:0:0:
160,192,41894,2,0,L|96:144,1,53.9999983520508,8|8,0:0|1:0,0:0:0:0:
400,192,42052,2,0,L|480:160,1,53.9999983520508,12|8,1:0|1:0,0:0:0:0:
416,192,42210,2,0,L|464:160,1,53.9999983520508,4|8,0:0|1:0,0:0:0:0:
128,192,42367,1,12,1:0:0:0:
256,192,42525,5,4,0:0:0:0:
320,192,42604,2,0,L|384:192,1,53.9999983520508,8|12,1:0|1:0,0:0:0:0:
416,192,42841,1,4,0:0:0:0:
480,192,42920,1,8,1:0:0:0:
416,192,42999,1,8,0:0:0:0:
480,192,43078,1,8,1:0:0:0:
144,192,43157,5,8,1:0:0:0:
80,192,43236,1,8,0:0:0:0:
16,192,43315,1,8,3:0:0:0:
128,192,43631,2,0,L|224:192,1,67.5000025749208,2|0,0:0|0:0,0:0:0:0:
432,176,43946,2,0,L|336:176,1,67.5000025749208,4|0,0:0|0:0,0:0:0:0:
96,256,44262,2,0,L|64:176,1,67.5000025749208,4|0,0:0|0:0,0:0:0:0:
240,256,44578,2,0,L|336:256,1,67.5000025749208,4|0,0:0|0:0,0:0:0:0:
128,192,44894,6,0,L|208:192,1,67.5000025749208,4|0,0:0|0:0,0:0:0:0:
416,144,45210,2,0,L|336:144,1,67.5000025749208,4|0,0:0|0:0,0:0:0:0:
64,64,45525,2,0,L|144:64,1,67.5000025749208,4|0,0:0|0:0,0:0:0:0:
480,80,45841,1,4,0:0:0:0:
64,96,45999,1,0,0:0:0:0:
416,96,46157,1,4,0:0:0:0:
144,176,46315,2,0,L|224:176,1,67.5000025749208,0|4,0:0|0:0,0:0:0:0:
496,192,46631,5,0,0:0:0:0:
256,192,46788,1,4,0:0:0:0:
0,192,46946,1,0,0:0:0:0:
496,192,47104,1,4,0:0:0:0:
256,192,47262,2,0,L|160:192,1,67.5000025749208,0|4,0:0|0:0,0:0:0:0:
448,192,47578,2,0,L|512:128,1,67.5000025749208,0|4,0:0|0:0,0:0:0:0:
0,192,47894,1,0,0:0:0:0:
496,192,48052,5,4,0:0:0:0:
80,192,48210,2,0,L|176:192,1,67.5000025749208,0|4,0:0|0:0,0:0:0:0:
448,192,48525,1,0,0:0:0:0:
16,192,48683,2,0,L|96:192,1,67.5000025749208,4|0,0:0|0:0,0:0:0:0:
512,192,48999,1,4,0:0:0:0:
256,192,49157,2,0,L|160:192,1,67.5000025749208,0|4,0:0|0:0,0:0:0:0:
0,192,49473,1,0,0:0:0:0:
512,192,49631,2,0,L|416:192,1,67.5000025749208,4|0,0:0|0:0,0:0:0:0:
64,192,49946,5,4,0:0:0:0:
480,192,50104,2,0,L|400:192,1,67.5000025749208,0|4,0:0|0:0,0:0:0:0:
0,192,50420,1,0,0:0:0:0:
256,192,50578,2,0,L|336:192,1,67.5000025749208,4|0,0:0|0:0,0:0:0:0:
16,192,50894,2,0,L|112:192,1,67.5000025749208,4|0,0:0|0:0,0:0:0:0:
384,192,51210,2,0,L|288:192,1,67.5000025749208,4|0,0:0|0:0,0:0:0:0:
48,320,51525,2,0,L|48:224,1,67.5000025749208,4|0,0:0|0:0,0:0:0:0:
512,192,51841,1,4,0:0:0:0:
256,192,51999,5,0,0:0:0:0:
0,192,52157,1,4,0:0:0:0:
256,192,52315,1,0,0:0:0:0:
512,192,52473,1,4,0:0:0:0:
0,192,52631,1,0,0:0:0:0:
512,192,52788,1,4,0:0:0:0:
0,192,52946,1,0,0:0:0:0:
256,192,53104,5,4,0:0:0:0:
512,192,53262,1,0,0:0:0:0:
0,192,53420,1,4,0:0:0:0:
256,192,53578,1,0,0:0:0:0:
512,192,53736,1,4,0:0:0:0:
80,192,53894,2,0,L|0:192,1,67.5000025749208,0|4,0:0|0:0,0:0:0:0:
288,192,54210,2,0,L|208:192,1,67.5000025749208,0|4,0:0|0:0,0:0:0:0:
480,192,54525,2,0,L|400:192,1,67.5000025749208,0|4,0:0|0:0,0:0:0:0:
64,192,54841,6,0,L|64:96,1,67.5000025749208,0|4,0:0|0:0,0:0:0:0:
416,192,55157,2,0,L|320:192,1,67.5000025749208,0|4,0:0|0:0,0:0:0:0:
32,192,55473,1,0,0:0:0:0:
496,192,55631,2,0,L|400:192,1,67.5000025749208,4|0,0:0|0:0,0:0:0:0:
32,192,55946,1,4,0:0:0:0:
480,192,56104,2,0,L|400:192,1,67.5000025749208,0|4,0:0|0:0,0:0:0:0:
0,192,56420,1,0,0:0:0:0:
256,192,56578,2,0,L|336:192,1,67.5000025749208,4|0,0:0|0:0,0:0:0:0:
0,192,56894,5,4,0:0:0:0:
512,192,57052,1,0,0:0:0:0:
0,192,57210,1,4,0:0:0:0:
256,192,57367,1,0,0:0:0:0:
496,192,57525,1,4,0:0:0:0:
0,192,57683,2,0,L|96:192,1,67.5000025749208,0|4,0:0|0:0,0:0:0:0:
480,192,57999,1,0,0:0:0:0:
0,192,58157,6,0,L|96:192,1,67.5000025749208,4|0,0:0|0:0,0:0:0:0:
432,192,58473,1,4,0:0:0:0:
64,192,58631,1,0,0:0:0:0:
496,192,58788,1,4,0:0:0:0:
256,192,58946,1,0,0:0:0:0:
0,192,59104,1,4,0:0:0:0:
512,192,59262,2,0,L|416:192,1,67.5000025749208,0|4,0:0|0:0,0:0:0:0:
224,192,59578,1,0,0:0:0:0:
512,192,59736,1,4,0:0:0:0:
0,192,59894,5,0,0:0:0:0:
512,192,60052,1,4,0:0:0:0:
0,192,60210,1,0,0:0:0:0:
256,192,60367,1,4,0:0:0:0:
512,192,60525,1,0,0:0:0:0:
256,192,60683,1,4,0:0:0:0:
0,192,60841,1,0,0:0:0:0:
256,192,60999,5,4,0:0:0:0:
512,192,61157,1,0,0:0:0:0:
0,192,61315,1,4,0:0:0:0:
512,192,61473,1,0,0:0:0:0:
0,192,61631,1,4,0:0:0:0:
256,192,61788,1,0,0:0:0:0:
512,192,61946,1,4,0:0:0:0:
0,192,62104,5,0,0:0:0:0:
256,192,62262,1,4,0:0:0:0:
512,192,62420,1,0,0:0:0:0:
0,192,62578,1,4,0:0:0:0:
496,192,62736,1,0,0:0:0:0:
256,192,62894,1,4,0:0:0:0:
0,192,63052,1,0,0:0:0:0:
512,192,63210,5,4,0:0:0:0:
256,192,63367,1,0,0:0:0:0:
0,192,63525,1,4,0:0:0:0:
256,192,63683,2,0,L|336:192,1,67.5000025749208,0|8,0:0|3:0,0:0:0:0:
176,192,63999,5,0,0:0:0:0:
96,192,64078,1,2,0:0:0:0:
176,192,64157,1,4,0:0:0:0:
400,192,64315,2,0,L|272:192,1,90,0|4,0:0|0:0,0:0:0:0:
32,192,64631,2,0,L|144:192,1,90,0|4,0:0|0:0,0:0:0:0:
384,192,64946,2,0,L|288:192,1,90,0|4,0:0|0:0,0:0:0:0:
128,192,65262,1,0,0:0:0:0:
208,192,65341,1,2,0:0:0:0:
128,192,65420,5,4,0:0:0:0:
496,192,65578,1,0,0:0:0:0:
208,192,65736,2,0,L|320:192,1,90,4|0,0:0|0:0,0:0:0:0:
0,192,66052,1,4,0:0:0:0:
256,192,66210,1,0,0:0:0:0:
512,192,66367,1,4,0:0:0:0:
368,192,66525,1,0,0:0:0:0:
448,192,66604,1,2,0:0:0:0:
368,192,66683,5,4,0:0:0:0:
256,192,66841,2,0,L|144:192,1,90,0|4,0:0|0:0,0:0:0:0:
496,192,67157,1,0,0:0:0:0:
256,192,67315,2,0,L|128:192,1,90,4|0,0:0|0:0,0:0:0:0:
416,192,67631,1,4,0:0:0:0:
32,192,67788,1,0,0:0:0:0:
112,192,67867,1,2,0:0:0:0:
32,192,67946,1,4,0:0:0:0:
416,192,68104,6,0,L|464:176,1,45,0|8,0:0|0:0,0:0:0:0:
160,192,68262,2,0,L|96:160,1,45,4|8,0:0|0:0,0:0:0:0:
32,144,68420,1,0,0:0:0:0:
128,144,68578,1,4,0:0:0:0:
208,144,68657,1,2,0:0:0:0:
128,144,68736,1,4,0:0:0:0:
384,144,68894,2,0,L|272:144,1,90,4|0,0:0|0:0,0:0:0:0:
368,208,69210,6,0,L|496:208,1,90,4|0,0:0|0:0,0:0:0:0:
496,192,69525,2,0,L|496:144,1,45,4|8,0:0|0:0,0:0:0:0:
64,192,69683,2,0,L|0:192,1,45,0|8,0:0|0:0,0:0:0:0:
288,192,69841,1,4,0:0:0:0:
384,192,69999,1,0,0:0:0:0:
464,192,70078,1,2,0:0:0:0:
384,192,70157,1,4,0:0:0:0:
256,192,70315,5,0,0:0:0:0:
0,192,70473,1,4,0:0:0:0:
288,192,70631,1,0,0:0:0:0:
208,192,70710,1,2,0:0:0:0:
288,192,70788,1,4,0:0:0:0:
512,192,70946,1,0,0:0:0:0:
0,192,71104,1,4,0:0:0:0:
256,192,71262,1,0,0:0:0:0:
512,192,71420,5,4,0:0:0:0:
320,192,71578,2,0,L|208:192,1,90,0|4,0:0|0:0,0:0:0:0:
64,192,71894,1,0,0:0:0:0:
144,192,71973,1,2,0:0:0:0:
64,192,72052,1,4,0:0:0:0:
480,192,72210,1,0,0:0:0:0:
400,192,72288,1,2,0:0:0:0:
480,192,72367,1,4,0:0:0:0:
96,192,72525,6,4,L|192:192,1,90,0|0,0:0|0:0,0:0:0:0:
352,192,72841,1,0,0:0:0:0:
272,192,72920,1,2,0:0:0:0:
352,192,72999,1,4,0:0:0:0:
0,192,73157,2,0,L|48:160,1,45,0|8,1:0|1:0,1:0:0:0:
256,192,73315,2,0,L|304:160,1,45,4|8,1:0|1:0,1:0:0:0:
512,192,73473,6,0,L|480:160,1,45,0|8,1:0|1:0,1:0:0:0:
256,192,73631,2,0,L|192:192,1,45,4|8,1:0|1:0,1:0:0:0:
0,192,73788,2,0,L|48:160,1,45,0|8,1:0|1:0,1:0:0:0:
512,192,73946,1,12,3:0:0:0:
32,192,74104,5,0,0:0:0:0:
256,192,74262,1,4,0:0:0:0:
512,192,74420,1,0,1:0:0:0:
512,192,74499,1,2,1:0:0:0:
368,192,74578,1,4,1:0:0:0:
368,128,74657,1,8,1:0:0:0:
224,128,74736,1,0,1:0:0:0:
112,128,74894,1,4,0:0:0:0:
256,192,75052,5,0,0:0:0:0:
176,192,75131,1,2,0:0:0:0:
256,192,75210,1,4,0:0:0:0:
416,192,75367,1,0,0:0:0:0:
336,192,75525,1,4,0:0:0:0:
64,192,75683,1,0,1:0:0:0:
64,192,75762,1,2,1:0:0:0:
208,192,75841,1,4,1:0:0:0:
208,192,75920,1,8,1:0:0:0:
352,192,75999,5,0,1:0:0:0:
448,192,76157,1,4,0:0:0:0:
256,192,76315,1,0,1:0:0:0:
336,192,76394,1,2,1:0:0:0:
256,192,76473,1,4,1:0:0:0:
32,192,76631,1,0,0:0:0:0:
288,192,76788,1,4,0:0:0:0:
416,192,76946,1,0,1:0:0:0:
448,160,77025,1,2,1:0:0:0:
176,192,77104,5,4,1:0:0:0:
144,160,77183,1,8,1:0:0:0:
480,128,77262,1,0,1:0:0:0:
256,192,77420,1,4,0:0:0:0:
80,192,77578,1,0,0:0:0:0:
0,192,77657,1,2,0:0:0:0:
80,192,77736,1,4,0:0:0:0:
256,192,77894,1,0,0:0:0:0:
400,192,78052,1,4,0:0:0:0:
64,192,78210,5,0,1:0:0:0:
64,192,78288,1,2,1:0:0:0:
208,192,78367,1,4,1:0:0:0:
208,192,78446,1,8,1:0:0:0:
352,192,78525,1,0,1:0:0:0:
128,192,78683,1,4,0:0:0:0:
384,192,78841,1,0,0:0:0:0:
448,192,78920,1,2,0:0:0:0:
384,192,78999,1,4,0:0:0:0:
0,192,79157,5,0,0:0:0:0:
256,192,79315,1,4,0:0:0:0:
416,192,79473,1,0,1:0:0:0:
448,160,79552,1,2,1:0:0:0:
304,176,79631,1,4,1:0:0:0:
304,176,79710,1,8,1:0:0:0:
0,192,79788,1,0,1:0:0:0:
256,192,79946,1,4,0:0:0:0:
368,192,80104,5,0,0:0:0:0:
432,192,80183,1,2,0:0:0:0:
368,192,80262,1,4,0:0:0:0:
256,192,80420,1,0,0:0:0:0:
144,192,80578,1,4,0:0:0:0:
32,192,80736,1,0,1:0:0:0:
32,192,80815,1,2,1:0:0:0:
176,192,80894,1,4,1:0:0:0:
176,192,80973,1,8,1:0:0:0:
320,192,81052,5,0,1:0:0:0:
448,192,81210,1,4,0:0:0:0:
288,192,81367,1,0,0:0:0:0:
368,192,81446,1,2,0:0:0:0:
288,192,81525,1,4,0:0:0:0:
144,192,81683,1,0,0:0:0:0:
272,192,81841,1,4,0:0:0:0:
512,192,81999,5,0,1:0:0:0:
368,192,82078,1,2,1:0:0:0:
224,192,82157,1,4,1:0:0:0:
80,192,82236,1,8,1:0:0:0:
224,192,82314,1,0,1:0:0:0:
512,192,82472,1,4,0:0:0:0:
416,192,82630,1,0,0:0:0:0:
336,192,82710,1,2,0:0:0:0:
416,192,82788,1,4,0:0:0:0:
112,192,82946,6,0,L|224:192,1,90,0|4,0:0|0:0,0:0:0:0:
496,192,83262,1,0,1:0:0:0:
496,192,83341,1,2,1:0:0:0:
208,192,83420,1,4,1:0:0:0:
208,192,83499,1,8,1:0:0:0:
448,192,83577,1,0,1:0:0:0:
352,192,83735,1,4,0:0:0:0:
208,192,83894,1,0,0:0:0:0:
288,192,83972,1,2,0:0:0:0:
208,192,84051,5,4,0:0:0:0:
400,192,84210,2,0,L|304:192,1,90,0|4,0:0|0:0,0:0:0:0:
96,192,84525,1,0,1:0:0:0:
64,160,84604,1,2,1:0:0:0:
208,160,84683,1,4,1:0:0:0:
240,128,84762,1,8,1:0:0:0:
32,128,84840,1,0,1:0:0:0:
256,192,84998,1,4,0:0:0:0:
384,192,85156,5,0,0:0:0:0:
304,192,85235,1,2,0:0:0:0:
384,192,85314,1,4,0:0:0:0:
176,192,85473,2,0,L|64:192,1,90,0|4,0:0|0:0,0:0:0:0:
352,192,85788,1,0,1:0:0:0:
384,160,85867,1,2,1:0:0:0:
224,192,85946,1,4,1:0:0:0:
192,160,86025,1,8,1:0:0:0:
48,160,86103,1,0,1:0:0:0:
336,192,86262,5,4,0:0:0:0:
464,192,86419,1,0,0:0:0:0:
384,192,86498,1,2,0:0:0:0:
464,192,86577,1,4,0:0:0:0:
256,192,86736,2,0,L|352:192,1,90,0|4,0:0|0:0,0:0:0:0:
480,192,87052,1,0,1:0:0:0:
512,176,87131,1,2,1:0:0:0:
160,192,87210,1,4,1:0:0:0:
160,192,87289,5,8,1:0:0:0:
368,160,87367,2,0,L|464:160,1,90,0|4,1:0|2:0,1:0:0:0:
288,192,87683,1,0,0:0:0:0:
256,160,87762,1,2,0:0:0:0:
224,128,87841,1,4,0:0:0:0:
112,192,87999,2,0,L|208:192,1,90,0|4,0:0|0:0,0:0:0:0:
416,192,88315,1,0,1:0:0:0:
416,160,88394,1,2,1:0:0:0:
272,192,88473,1,4,1:0:0:0:
272,192,88552,5,8,1:0:0:0:
496,192,88630,1,0,1:0:0:0:
400,192,88788,1,4,0:0:0:0:
256,192,88946,1,0,0:0:0:0:
208,192,89025,1,2,0:0:0:0:
256,192,89104,1,4,0:0:0:0:
416,192,89262,2,4,L|320:192,1,90
80,192,89578,1,0,1:0:0:0:
80,192,89657,1,2,1:0:0:0:
224,192,89736,5,4,1:0:0:0:
224,192,89815,1,8,1:0:0:0:
368,192,89893,1,0,1:0:0:0:
480,192,90051,1,4,0:0:0:0:
400,192,90209,1,0,0:0:0:0:
320,192,90288,1,2,0:0:0:0:
400,192,90367,1,4,0:0:0:0:
160,192,90525,2,0,L|48:192,1,90
448,192,90841,1,0,1:0:0:0:
448,144,90920,5,2,1:0:0:0:
304,192,90999,1,4,1:0:0:0:
304,144,91078,1,8,1:0:0:0:
160,192,91157,2,0,L|64:192,1,90,0|4,1:0|2:0,1:0:0:0:
384,192,91473,1,0,0:0:0:0:
448,192,91551,1,2,0:0:0:0:
384,192,91630,1,4,0:0:0:0:
272,192,91788,2,0,L|176:192,1,90,0|4,0:0|0:0,0:0:0:0:
0,192,92104,1,0,1:0:0:0:
144,192,92183,5,2,1:0:0:0:
288,192,92262,1,4,1:0:0:0:
432,192,92341,1,8,1:0:0:0:
256,192,92420,2,0,L|160:192,1,90,0|4,1:0|2:0,1:0:0:0:
48,192,92735,1,0,0:0:0:0:
128,192,92814,1,2,0:0:0:0:
48,192,92893,1,4,0:0:0:0:
512,192,93051,1,0,0:0:0:0:
272,192,93209,1,4,0:0:0:0:
256,192,93367,1,0,0:0:0:0:
0,192,93525,2,0,L|96:192,3,90,4|0|4|0,0:0|0:0|0:0|0:0,0:0:0:0:
352,176,94078,1,8,0:0:0:0:
416,176,94157,1,4,3:0:0:0:
176,176,94315,6,0,L|256:176,2,45,0|0|0,0:0|0:0|0:0,0:0:0:0:
256,240,94631,2,0,L|320:240,2,45
176,240,94946,1,0,3:0:0:0:
48,192,95104,2,0,L|112:192,2,45,0|0|0,0:0|0:0|0:0,0:0:0:0:
192,192,95420,2,0,L|256:192,2,45,0|0|0,0:0|0:0|0:0,0:0:0:0:
320,192,95736,1,0,3:0:0:0:
432,192,95894,2,0,L|480:192,2,45,0|0|0,0:0|0:0|0:0,0:0:0:0:
336,192,96210,1,0,3:0:0:0:
192,192,96367,6,0,L|240:192,2,45
64,192,96683,2,0,L|112:192,2,45
464,192,96999,1,0,3:0:0:0:
352,192,97157,2,0,L|400:192,2,45
288,192,97473,1,0,3:0:0:0:
176,192,97631,2,0,L|224:192,2,45
448,336,97946,5,4,1:0:0:0:
416,288,98025,1,8,1:0:0:0:
384,240,98104,1,2,1:0:0:0:
352,192,98183,1,0,1:0:0:0:
320,144,98262,1,4,1:0:0:0:
288,96,98341,1,8,1:0:0:0:
112,304,98420,1,2,1:0:0:0:
144,256,98499,1,0,1:0:0:0:
176,208,98578,5,4,1:0:0:0:
208,160,98657,1,8,1:0:0:0:
240,112,98736,1,2,1:0:0:0:
272,64,98815,1,0,1:0:0:0:
416,320,98894,1,4,1:0:0:0:
384,272,98973,1,8,1:0:0:0:
352,224,99052,1,2,1:0:0:0:
320,176,99131,1,0,1:0:0:0:
176,176,99210,6,0,L|128:176,2,45
48,192,99525,1,0,3:0:0:0:
432,192,99683,2,0,L|368:192,2,45
336,192,99999,1,0,3:0:0:0:
192,192,100157,2,0,L|272:192,2,45
80,192,100473,2,0,L|32:192,2,45
144,192,100788,1,0,3:0:0:0:
192,112,100946,2,0,L|256:112,2,45
240,192,101262,1,0,3:0:0:0:
352,192,101420,2,0,L|400:192,2,45
480,192,101736,2,0,L|432:192,2,45
272,192,102052,5,0,3:0:0:0:
160,288,102210,2,0,L|240:288,2,45
320,288,102525,1,0,3:0:0:0:
368,208,102683,2,0,L|448:208,2,45
96,240,102999,1,4,1:0:0:0:
144,176,103078,1,8,1:0:0:0:
192,112,103157,1,2,1:0:0:0:
240,48,103236,1,0,1:0:0:0:
384,320,103315,5,4,1:0:0:0:
336,256,103394,1,8,1:0:0:0:
288,192,103473,1,2,1:0:0:0:
240,128,103552,1,0,1:0:0:0:
96,128,103631,1,4,1:0:0:0:
144,192,103710,1,8,1:0:0:0:
192,256,103788,1,2,1:0:0:0:
240,320,103867,1,0,1:0:0:0:
384,336,103946,1,4,1:0:0:0:
352,272,104025,5,8,1:0:0:0:
304,208,104104,1,2,1:0:0:0:
256,144,104183,1,0,1:0:0:0:
224,80,104262,1,4,2:0:0:0:
256,192,104420,2,0,L|352:192,1,90,0|4,0:0|0:0,0:0:0:0:
512,192,104736,1,2,1:0:0:0:
512,192,104815,1,8,1:0:0:0:
368,192,104894,5,4,1:0:0:0:
368,192,104973,1,0,1:0:0:0:
224,192,105052,1,2,1:0:0:0:
224,192,105131,1,8,1:0:0:0:
80,192,105210,2,0,L|208:192,1,90,4|0,1:0|2:0,1:0:0:0:
96,192,105446,1,2,0:0:0:0:
176,192,105525,1,4,0:0:0:0:
320,192,105683,6,0,L|416:192,1,90,0|12,0:0|0:0,0:0:0:0:
256,192,105999,1,0,0:0:0:0:
336,192,106078,1,2,0:0:0:0:
256,192,106157,2,0,L|384:192,1,90,4|8,0:0|0:0,0:0:0:0:
496,192,106473,1,4,1:0:0:0:
496,192,106552,1,8,1:0:0:0:
224,208,106631,1,2,1:0:0:0:
224,208,106710,5,0,1:0:0:0:
400,192,106788,1,4,1:0:0:0:
400,192,106867,1,8,1:0:0:0:
64,192,106946,2,0,L|176:192,1,90,2|0,1:0|2:0,1:0:0:0:
384,192,107262,1,2,1:0:0:0:
304,192,107341,1,8,1:0:0:0:
384,192,107420,1,4,1:0:0:0:
160,192,107499,1,0,1:0:0:0:
240,192,107578,2,0,L|352:192,1,90,0|4,1:0|2:0,1:0:0:0:
128,192,107894,5,0,0:0:0:0:
208,192,107973,1,2,0:0:0:0:
128,192,108052,1,4,0:0:0:0:
400,192,108210,1,0,0:0:0:0:
320,192,108288,1,2,0:0:0:0:
400,192,108367,1,4,0:0:0:0:
64,192,108525,1,2,1:0:0:0:
64,192,108604,1,0,1:0:0:0:
304,192,108683,5,4,1:0:0:0:
304,192,108762,1,0,1:0:0:0:
448,192,108841,2,0,L|352:192,1,90,2|4,0:0|0:0,0:0:0:0:
432,192,109078,1,2,0:0:0:0:
352,192,109157,1,0,0:0:0:0:
64,192,109315,2,0,L|160:192,1,90,4|0,0:0|0:0,0:0:0:0:
480,192,109631,2,0,L|384:192,1,90,4|0,0:0|0:0,0:0:0:0:
320,192,109867,1,2,0:0:0:0:
390,192,109946,1,4,0:0:0:0:
176,192,110104,5,0,0:0:0:0:
256,192,110183,1,2,0:0:0:0:
176,192,110262,1,4,0:0:0:0:
336,192,110420,1,0,0:0:0:0:
256,192,110499,1,2,0:0:0:0:
336,192,110578,1,4,0:0:0:0:
496,192,110736,2,0,L|368:192,1,90,0|4,0:0|0:0,0:0:0:0:
112,192,111052,5,0,0:0:0:0:
192,192,111131,1,2,0:0:0:0:
112,192,111210,1,4,0:0:0:0:
304,192,111367,2,0,L|416:192,1,90,0|4,0:0|0:0,0:0:0:0:
320,192,111604,1,2,0:0:0:0:
394,192,111683,1,0,0:0:0:0:
112,192,111841,2,0,L|208:192,2,90,4|0|4,0:0|0:0|0:0,0:0:0:0:
512,192,112315,1,2,1:0:0:0:
432,192,112394,1,8,1:0:0:0:
512,192,112473,5,4,1:0:0:0:
256,192,112552,1,0,1:0:0:0:
0,192,112631,1,2,1:0:0:0:
80,192,112710,1,8,1:0:0:0:
0,192,112788,2,0,L|128:192,1,90
160,192,113025,1,2,0:0:0:0:
90,192,113104,1,4,0:0:0:0:
304,192,113262,5,0,0:0:0:0:
224,192,113341,1,2,0:0:0:0:
304,192,113420,2,0,L|416:192,1,90,4|2,0:0|1:0,0:0:0:0:
256,192,113657,1,8,1:0:0:0:
256,192,113736,1,4,1:0:0:0:
112,192,113815,1,0,1:0:0:0:
112,192,113894,1,2,1:0:0:0:
432,192,113973,1,8,1:0:0:0:
432,192,114052,1,4,1:0:0:0:
96,192,114131,1,0,1:0:0:0:
96,192,114210,1,2,1:0:0:0:
496,192,114367,5,2,3:0:0:0:
352,192,114525,2,0,L|240:192,1,107.999996704102,0|4,0:0|0:0,0:0:0:0:
432,192,114841,2,0,L|304:192,1,107.999996704102,0|4,0:0|0:0,0:0:0:0:
144,192,115157,2,0,L|272:192,1,107.999996704102,0|4,0:0|0:0,0:0:0:0:
432,192,115473,2,0,L|288:192,1,107.999996704102,0|4,0:0|0:0,0:0:0:0:
124,192,115788,6,0,L|0:192,1,107.999996704102,0|4,0:0|0:0,0:0:0:0:
208,192,116104,2,0,L|80:192,1,107.999996704102,0|4,0:0|0:0,0:0:0:0:
288,192,116420,2,0,L|160:192,1,107.999996704102,0|4,0:0|0:0,0:0:0:0:
368,192,116736,2,0,L|256:192,1,107.999996704102,0|4,0:0|0:0,0:0:0:0:
448,192,117052,2,0,L|336:192,1,107.999996704102,0|4,0:0|0:0,0:0:0:0:
112,192,117367,5,2,1:0:0:0:
112,192,117446,1,8,1:0:0:0:
256,192,117525,1,4,1:0:0:0:
256,192,117604,1,0,1:0:0:0:
400,192,117683,1,2,1:0:0:0:
400,192,117762,1,8,1:0:0:0:
256,192,117841,1,4,1:0:0:0:
432,192,117999,5,2,3:0:0:0:
352,192,118078,1,2,0:0:0:0:
432,192,118157,1,4,0:0:0:0:
272,192,118315,1,0,0:0:0:0:
352,192,118394,1,2,0:0:0:0:
272,192,118473,1,4,0:0:0:0:
80,192,118631,1,2,1:0:0:0:
80,192,118710,1,8,1:0:0:0:
432,192,118788,1,4,1:0:0:0:
432,192,118867,5,0,1:0:0:0:
288,192,118946,1,2,1:0:0:0:
288,192,119025,1,8,1:0:0:0:
144,192,119104,1,4,1:0:0:0:
144,192,119183,1,0,1:0:0:0:
496,192,119262,2,0,L|384:192,1,90,2|4,1:0|2:0,1:0:0:0:
160,192,119578,2,0,L|256:192,1,90,0|4,0:0|0:0,0:0:0:0:
400,192,119894,5,2,1:0:0:0:
320,192,119973,1,8,1:0:0:0:
400,192,120052,1,4,1:0:0:0:
320,192,120131,1,0,1:0:0:0:
176,192,120210,1,2,1:0:0:0:
176,192,120288,1,8,1:0:0:0:
32,192,120367,2,0,L|128:192,1,90,4|0,1:0|2:0,1:0:0:0:
48,192,120604,1,2,0:0:0:0:
122,192,120683,1,4,0:0:0:0:
272,192,120841,6,0,L|400:192,1,90,0|4,0:0|0:0,0:0:0:0:
512,192,121157,1,0,0:0:0:0:
432,192,121236,1,2,0:0:0:0:
512,192,121315,1,4,0:0:0:0:
256,192,121473,2,0,L|160:192,1,90,0|4,0:0|0:0,0:0:0:0:
166,192,121710,1,8,1:0:0:0:
304,192,121788,1,2,1:0:0:0:
304,192,121867,1,0,1:0:0:0:
448,192,121946,2,0,L|336:192,1,90,4|0,0:0|0:0,0:0:0:0:
80,192,122262,6,0,L|192:192,1,90,4|2,0:0|0:0,0:0:0:0:
400,192,122499,1,8,1:0:0:0:
256,192,122578,1,4,1:0:0:0:
80,192,122657,1,0,1:0:0:0:
224,192,122736,1,2,1:0:0:0:
368,192,122815,1,8,1:0:0:0:
512,192,122894,2,0,L|384:192,1,90,4|0,0:0|0:0,0:0:0:0:
352,192,123131,1,2,0:0:0:0:
432,192,123210,5,4,0:0:0:0:
160,192,123367,1,0,0:0:0:0:
80,192,123446,1,2,0:0:0:0:
160,192,123525,1,4,0:0:0:0:
320,192,123683,1,2,1:0:0:0:
400,192,123762,1,8,1:0:0:0:
320,192,123841,1,4,1:0:0:0:
176,192,123920,1,0,1:0:0:0:
176,192,123999,6,0,L|48:192,1,90,2|2,1:0|3:0,1:0:0:0:
16,192,124236,1,2,0:0:0:0:
86,192,124315,1,4,0:0:0:0:
416,192,124473,1,4,0:0:0:0:
0,192,124631,2,0,L|112:192,1,90,0|4,0:0|0:0,0:0:0:0:
336,192,124946,1,2,0:0:0:0:
480,192,125025,1,2,0:0:0:0:
336,192,125104,1,0,0:0:0:0:
192,192,125183,5,2,0:0:0:0:
48,192,125262,1,0,0:0:0:0:
128,192,125420,1,4,0:0:0:0:
224,192,125578,1,0,0:0:0:0:
304,192,125657,1,2,0:0:0:0:
224,192,125736,1,4,0:0:0:0:
384,192,125894,2,0,L|480:192,1,90
192,192,126210,5,0,0:0:0:0:
256,192,126288,1,2,0:0:0:0:
112,192,126367,1,4,0:0:0:0:
176,192,126446,1,2,0:0:0:0:
368,192,126525,2,0,L|480:192,1,90,0|4,0:0|0:0,0:0:0:0:
192,192,126841,1,0,0:0:0:0:
112,192,126920,1,2,0:0:0:0:
192,192,126999,1,4,0:0:0:0:
352,192,127157,2,0,L|464:192,1,90,0|4,0:0|0:0,0:0:0:0:
288,192,127473,5,0,0:0:0:0:
368,192,127552,1,2,0:0:0:0:
288,192,127631,1,4,0:0:0:0:
144,192,127710,1,2,0:0:0:0:
144,192,127788,2,0,L|272:192,1,90,0|4,0:0|0:0,0:0:0:0:
400,192,128104,1,0,0:0:0:0:
320,192,128183,1,2,0:0:0:0:
400,192,128262,1,4,0:0:0:0:
112,192,128420,5,0,0:0:0:0:
192,192,128499,1,2,0:0:0:0:
112,192,128578,1,4,0:0:0:0:
400,192,128736,1,0,0:0:0:0:
400,192,128815,1,2,0:0:0:0:
256,192,128894,1,4,0:0:0:0:
256,192,128973,1,2,0:0:0:0:
112,192,129052,1,0,0:0:0:0:
320,192,129210,6,0,L|432:192,1,90,4|0,0:0|0:0,0:0:0:0:
336,192,129446,1,2,0:0:0:0:
416,192,129525,1,4,0:0:0:0:
112,192,129683,2,0,L|224:192,1,90,0|4,0:0|0:0,0:0:0:0:
368,192,129999,1,0,0:0:0:0:
432,192,130078,1,2,0:0:0:0:
272,192,130157,1,4,0:0:0:0:
336,192,130236,1,2,0:0:0:0:
176,192,130315,1,0,0:0:0:0:
240,192,130394,1,2,0:0:0:0:
80,192,130473,6,0,L|192:192,1,90,4|0,0:0|0:0,0:0:0:0:
96,192,130710,1,2,0:0:0:0:
176,192,130788,1,4,0:0:0:0:
336,192,130946,2,0,L|448:192,1,90,0|4,0:0|0:0,0:0:0:0:
112,192,131262,1,0,0:0:0:0:
112,192,131341,1,2,0:0:0:0:
256,192,131420,1,4,0:0:0:0:
256,192,131499,1,2,0:0:0:0:
400,192,131578,2,0,L|304:192,1,90,0|4,0:0|0:0,0:0:0:0:
32,192,131894,5,0,0:0:0:0:
112,192,131973,1,2,0:0:0:0:
32,192,132052,1,4,0:0:0:0:
192,192,132210,2,0,L|288:192,1,90,0|4,0:0|0:0,0:0:0:0:
432,192,132525,1,0,0:0:0:0:
352,192,132604,1,0,0:0:0:0:
432,192,132683,1,0,0:0:0:0:
512,192,132762,1,2,0:0:0:0:
432,192,132841,2,0,L|304:192,1,90,0|4,0:0|0:0,0:0:0:0:
128,192,133157,5,0,0:0:0:0:
208,192,133236,1,0,0:0:0:0:
128,192,133315,1,0,0:0:0:0:
448,192,133473,1,0,0:0:0:0:
368,192,133552,1,0,0:0:0:0:
448,192,133631,1,0,0:0:0:0:
64,192,133788,1,0,0:0:0:0:
0,192,133867,1,0,0:0:0:0:
144,192,133946,5,0,0:0:0:0:
80,192,134025,1,0,0:0:0:0:
224,192,134104,2,0,L|128:192,1,90,0|4,0:0|0:0,0:0:0:0:
16,192,134420,5,0,0:0:0:0:
160,192,134499,1,2,0:0:0:0:
80,192,134578,1,4,0:0:0:0:
240,192,134736,2,0,L|368:192,1,90,0|4,0:0|0:0,0:0:0:0:
80,192,135052,1,0,0:0:0:0:
16,192,135131,1,2,0:0:0:0:
160,192,135210,1,4,0:0:0:0:
96,192,135288,1,2,0:0:0:0:
240,192,135367,6,0,L|352:192,1,90,0|4,0:0|0:0,0:0:0:0:
480,192,135683,1,0,0:0:0:0:
400,192,135762,1,2,0:0:0:0:
480,192,135841,1,4,0:0:0:0:
320,192,135999,2,0,L|432:192,1,90
32,192,136315,1,0,0:0:0:0:
32,192,136394,1,2,0:0:0:0:
176,192,136473,1,4,0:0:0:0:
176,192,136552,1,2,0:0:0:0:
320,208,136631,5,0,0:0:0:0:
48,192,136788,2,0,L|160:192,1,90
64,192,137025,1,2,0:0:0:0:
144,192,137104,1,4,0:0:0:0:
288,192,137262,2,0,L|192:192,1,90
432,192,137578,1,0,0:0:0:0:
496,192,137657,1,2,0:0:0:0:
352,192,137736,1,4,0:0:0:0:
416,192,137815,1,2,0:0:0:0:
272,192,137894,6,0,L|160:192,1,90,0|4,0:0|0:0,0:0:0:0:
336,192,138210,1,0,0:0:0:0:
416,192,138288,1,2,0:0:0:0:
336,192,138367,1,4,0:0:0:0:
112,192,138525,1,0,0:0:0:0:
32,192,138604,1,2,0:0:0:0:
112,192,138683,1,4,0:0:0:0:
448,192,138841,5,0,0:0:0:0:
384,192,138920,1,2,0:0:0:0:
256,192,138999,1,4,0:0:0:0:
320,192,139078,1,2,0:0:0:0:
464,192,139157,2,0,L|336:192,1,90,0|4,0:0|0:0,0:0:0:0:
96,192,139473,1,0,0:0:0:0:
176,192,139552,1,2,0:0:0:0:
96,192,139631,1,4,0:0:0:0:
256,192,139788,6,0,L|368:192,1,90,0|4,0:0|0:0,0:0:0:0:
128,192,140104,1,0,0:0:0:0:
48,192,140183,1,2,0:0:0:0:
128,192,140262,1,4,0:0:0:0:
352,192,140341,1,0,0:0:0:0:
432,192,140420,2,0,L|320:192,1,90,0|4,0:0|0:0,0:0:0:0:
144,192,140736,1,0,0:0:0:0:
64,192,140815,1,2,0:0:0:0:
144,192,140894,5,4,0:0:0:0:
432,192,141052,2,0,L|304:192,1,90,0|4,0:0|0:0,0:0:0:0:
112,192,141367,1,0,0:0:0:0:
48,192,141446,1,2,0:0:0:0:
192,192,141525,1,4,0:0:0:0:
128,192,141604,1,2,0:0:0:0:
272,192,141683,2,0,L|384:192,1,90,0|4,0:0|0:0,0:0:0:0:
512,192,141999,1,0,0:0:0:0:
432,192,142078,1,2,0:0:0:0:
512,192,142157,5,4,0:0:0:0:
192,192,142315,2,0,L|304:192,1,90,0|4,0:0|0:0,0:0:0:0:
416,192,142631,1,0,0:0:0:0:
496,192,142710,1,2,0:0:0:0:
416,192,142788,1,4,0:0:0:0:
496,192,142867,1,2,0:0:0:0:
48,192,142946,2,0,L|144:192,1,90,0|4,0:0|0:0,0:0:0:0:
320,192,143262,1,0,0:0:0:0:
240,192,143341,1,2,0:0:0:0:
320,192,143420,6,0,L|432:192,1,90,4|0,0:0|0:0,0:0:0:0:
410,192,143657,1,2,0:0:0:0:
272,192,143736,1,4,0:0:0:0:
0,192,143894,1,0,0:0:0:0:
0,192,143973,1,2,0:0:0:0:
144,192,144052,1,4,0:0:0:0:
144,192,144131,1,2,0:0:0:0:
288,192,144210,1,0,0:0:0:0:
432,192,144367,5,4,0:0:0:0:
512,192,144446,1,2,0:0:0:0:
432,192,144525,1,0,0:0:0:0:
160,192,144683,2,0,L|224:192,2,45,2|0|0,3:0|0:0|0:0,0:0:0:0:
