osu file format v14

[General]
AudioFilename: audio.mp3
AudioLeadIn: 0
PreviewTime: 50926
Countdown: 0
SampleSet: Normal
StackLeniency: 0.7
Mode: 0
LetterboxInBreaks: 0
WidescreenStoryboard: 1

[Editor]
DistanceSpacing: 2.5
BeatDivisor: 4
GridSize: 8
TimelineZoom: 1.2

[Metadata]
Title:USSEEWA
TitleUnicode:うっせぇわ
Artist:Ado
ArtistUnicode:Ado
Creator:Ryuusei Aika
Version:GlazeE's Hard
Source:
Tags:アド syudou japanese rock jrock j-rock pop jpop j-pop female vocal nuvolina coloured glazee coloured_glazee amateurre head dada hinamommy kimikamymommy a_blue ts8zs
BeatmapID:2743889
BeatmapSetID:1322727

[Difficulty]
HPDrainRate:5
CircleSize:4
OverallDifficulty:7
ApproachRate:8
SliderMultiplier:1.4
SliderTickRate:1

[Events]
//Background and Video events
0,0,"hahayanderegirl.jpg",0,0
Video,0,"video.m4v"
//Break Periods
2,74827,84663
2,143591,152829
2,156874,158821
//Storyboard Layer 0 (Background)
//Storyboard Layer 1 (Fail)
//Storyboard Layer 2 (Pass)
//Storyboard Layer 3 (Foreground)
//Storyboard Layer 4 (Overlay)
//Storyboard Sound Samples

[TimingPoints]
470,337.078651685393,4,1,0,70,1,0
16649,-100,4,1,0,50,0,0
26930,-100,4,1,0,60,0,0
38222,-100,4,1,0,55,0,0
43616,-100,4,1,0,60,0,0
46312,-100,4,1,0,65,0,0
47998,-100,4,1,0,60,0,0
49009,-166.666666666667,4,1,0,60,0,0
49683,-125,4,1,0,60,0,0
50357,-100,4,1,0,60,0,0
51031,-100,4,1,0,80,0,0
51705,-83.3333333333333,4,1,0,80,0,0
62829,-100,4,1,0,80,0,0
67885,-83.3333333333333,4,1,0,80,0,0
74627,-83.3333333333333,4,1,0,70,0,0
85413,-100,4,1,0,55,0,0
95694,-100,4,1,0,65,0,0
106986,-100,4,1,0,55,0,0
112380,-100,4,1,0,60,0,0
115076,-100,4,1,0,65,0,0
116425,-100,4,1,0,60,0,0
119121,-100,4,1,0,65,0,0
119682,-100,4,1,0,80,0,0
120470,-83.3333333333333,4,1,0,80,0,0
131256,-100,4,1,0,80,0,0
136649,-83.3333333333333,4,1,0,80,0,0
143391,-83.3333333333333,4,1,0,70,0,0
154177,-125,4,1,0,60,0,0
159571,-100,4,1,0,75,0,0
163616,-100,4,1,0,100,0,0
164964,-83.3333333333333,4,1,0,90,0,1
174739,-83.3333333333333,4,1,0,100,0,1
175581,-83.3333333333333,4,1,0,90,0,1
175750,-100,4,1,0,90,0,1
178447,-100,4,1,0,100,0,1
181144,-83.3333333333333,4,1,0,90,0,1
185189,-83.3333333333333,4,1,0,70,0,0
185694,-100,4,1,0,70,0,0
188559,-100,4,1,0,100,0,0
189233,-100,4,1,0,70,0,0

[Colours]
Combo1 : 128,0,64
Combo2 : 0,0,230
Combo3 : 69,69,69
Combo4 : 159,0,0

[HitObjects]
75,324,470,6,0,B|114:347|184:324|193:268,1,140,4|4,3:2|3:2,1:0:0:0:
316,326,1818,6,0,B|370:310|391:241|353:193,1,140,4|4,3:2|3:2,1:0:0:0:
466,105,3166,38,0,B|459:59|394:35|352:60,1,140,4|4,3:2|3:2,1:0:0:0:
100,154,4514,5,0,1:0:0:0:
93,69,4683,1,0,1:0:0:0:
181,67,4852,1,8,1:3:0:0:
188,151,5020,1,0,1:0:0:0:
100,154,5189,2,0,B|95:196|110:246,1,70,8|0,1:3|1:0,1:0:0:0:
176,275,5526,2,0,B|223:278|263:265,1,70,0|0,1:3|1:0,1:0:0:0:
320,218,5863,38,2,B|343:174|423:174|448:222,1,140,2|10,1:0|1:3,1:0:0:0:
487,289,6368,1,0,1:0:0:0:
487,289,6537,2,0,L|418:314,1,70,2|0,1:0|1:0,1:0:0:0:
337,341,6874,2,0,B|295:345|264:322,1,70,10|0,1:3|1:0,1:0:0:0:
209,265,7211,6,0,L|62:301,1,140,2|8,1:0|1:3,1:0:0:0:
130,200,7717,1,0,1:0:0:0:
130,200,7885,2,0,B|45:219|4:136,1,140,0|8,1:0|1:3,1:0:0:0:
94,115,8391,1,0,1:0:0:0:
180,85,8559,38,0,B|217:63|267:62,1,70,0|0,1:0|1:0,1:0:0:0:
240,151,8896,2,0,B|284:138|328:143,1,70,8|0,1:3|1:0,1:0:0:0:
288,231,9234,2,0,B|246:247|206:239,1,70,0|0,1:0|1:0,1:0:0:0:
255,324,9571,2,0,B|219:331|174:319,1,70,8|0,1:3|1:0,1:0:0:0:
108,275,9908,6,0,L|84:132,1,140,0|8,1:0|1:3,1:0:0:0:
69,52,10413,1,0,1:0:0:0:
159,78,10582,2,0,B|157:115|174:156,1,70,0|0,1:0|1:0,1:0:0:0:
255,175,10919,2,0,B|257:138|240:97,1,70,8|0,1:3|1:0,1:0:0:0:
366,128,11256,38,0,B|453:141|493:65,2,140,4|8|0,1:0|1:3|1:0,1:0:0:0:
385,217,12099,1,0,1:0:0:0:
385,217,12267,2,0,L|403:294,1,70,8|0,1:3|1:0,1:0:0:0:
297,196,12604,2,0,L|175:270,1,140,0|8,1:0|1:3,1:0:0:0:
152,181,13110,1,0,1:0:0:0:
83,246,13278,2,0,B|43:223|37:147|84:118,1,140,0|8,1:0|1:3,1:0:0:0:
147,71,13784,1,0,1:0:0:0:
230,107,13953,6,0,B|273:104|306:83,1,70,0|0,1:0|1:0,1:0:0:0:
375,40,14290,2,0,B|390:79|382:137,1,70,8|0,1:3|1:0,1:0:0:0:
364,197,14627,2,0,L|439:212,2,70,0|0|8,1:0|1:0|1:3,1:0:0:0:
275,177,15132,1,0,1:0:0:0:
188,154,15301,38,0,B|146:139|100:152,1,70,0|0,1:0|1:0,1:0:0:0:
142,265,15638,2,0,B|132:311|149:351,1,70,4|0,1:0|1:0,1:0:0:0:
260,300,15975,1,0,1:0:0:0:
344,276,16144,1,8,1:0:0:0:
417,325,16312,2,0,L|489:311,1,70,8|8,1:0|1:0,1:0:0:0:
499,205,16649,6,0,B|474:157|401:146|361:189,1,140,4|8,1:2|1:3,1:0:0:0:
377,175,17323,2,0,B|389:137|377:94,2,70,0|0|8,1:0|1:0|1:3,1:0:0:0:
323,228,17829,1,0,1:0:0:0:
288,158,17998,2,0,B|213:177|161:111,1,140,8|8,1:0|1:0,1:0:0:0:
163,114,18503,1,0,1:0:0:0:
177,39,18672,2,0,B|252:20|304:86,1,140,8|8,1:0|1:3,1:0:0:0:
437,240,19346,38,0,L|490:98,1,140,0|8,1:0|1:3,1:0:0:0:
404,112,19852,1,0,1:0:0:0:
404,112,20020,2,0,L|378:181,1,70,0|0,1:0|1:0,1:0:0:0:
341,244,20357,2,0,B|308:258|265:249,1,70,8|0,1:3|1:0,1:0:0:0:
202,225,20694,1,8,1:0:0:0:
271,61,21031,1,8,1:0:0:0:
271,61,21368,2,0,B|311:48|347:48,1,70,8|2,1:0|1:3,1:0:0:0:
189,38,21705,2,0,B|149:51|113:51,1,70,10|0,1:3|1:0,1:0:0:0:
194,129,22043,6,0,L|151:267,1,140,0|8,1:0|1:3,1:0:0:0:
73,237,22548,1,0,1:0:0:0:
73,237,22717,2,0,L|84:320,1,70,0|0,1:0|1:0,1:0:0:0:
145,351,23054,1,8,1:3:0:0:
212,314,23222,1,0,1:0:0:0:
281,277,23391,2,0,B|365:264|415:317,1,140,8|8,1:0|1:0,1:0:0:0:
274,184,24065,2,0,L|328:49,1,140,8|8,1:0|1:3,1:0:0:0:
396,112,24571,37,0,1:0:0:0:
396,112,24739,2,0,B|440:99|476:98,1,70,0|0,1:0|1:0,1:0:0:0:
442,186,25076,2,0,B|398:199|362:200,1,70,8|0,1:3|1:0,1:0:0:0:
312,250,25413,2,0,B|248:192|157:226,1,140,0|8,1:0|1:3,1:0:0:0:
117,268,25919,5,0,1:0:0:0:
117,268,26087,2,0,L|33:260,1,70,0|0,1:0|1:0,1:0:0:0:
12,182,26425,2,0,L|81:188,1,70,8|8,1:0|1:0,1:0:0:0:
222,55,26930,37,8,1:0:0:0:
238,130,27099,1,8,1:0:0:0:
299,77,27267,1,8,1:0:0:0:
299,77,27436,2,0,B|340:78|386:57,1,70,12|8,1:0|1:0,1:0:0:0:
349,153,27773,2,0,B|395:168|435:158,1,70,8|8,1:3|1:0,1:0:0:0:
389,245,28110,2,2,B|427:267|473:268,2,70,2|0|10,1:0|1:0|1:3,1:0:0:0:
313,225,28616,1,0,1:0:0:0:
233,219,28784,6,0,L|158:243,1,70,8|8,1:0|1:0,1:0:0:0:
243,134,29121,2,0,L|168:158,1,70,8|8,1:3|1:0,1:0:0:0:
258,48,29458,2,2,L|102:95,1,140,2|10,1:0|1:3,1:0:0:0:
123,88,29964,1,8,1:0:0:0:
41,107,30132,38,0,B|58:73|46:29,2,70,8|0|8,1:0|1:0|1:0,1:0:0:0:
39,186,30638,2,0,B|0:252|42:330,1,140,8|8,1:0|1:0,1:0:0:0:
112,346,31144,1,8,1:3:0:0:
105,266,31312,1,8,1:0:0:0:
187,267,31481,6,0,B|230:274|265:266,1,70,8|8,1:0|1:0,1:0:0:0:
261,188,31818,2,0,B|251:149|258:109,2,70,8|8|8,1:3|1:0|1:0,1:0:0:0:
337,213,32323,1,12,1:2:0:0:
335,293,32492,2,0,L|422:297,1,70,12|2,1:2|1:3,1:0:0:0:
482,299,32829,37,2,1:3:0:0:
482,299,32998,2,0,L|470:219,1,70,0|8,1:0|1:3,1:0:0:0:
457,152,33335,1,0,1:0:0:0:
457,152,33503,2,0,B|476:73|417:23,1,140,0|8,1:0|1:3,1:0:0:0:
352,63,34009,1,0,1:0:0:0:
281,97,34177,2,0,B|198:97|157:12,2,140,0|8|0,1:0|1:3|1:0,1:0:0:0:
339,152,35020,2,0,B|315:174|275:179,1,70,0|8,1:0|1:3,1:0:0:0:
54,150,35526,6,0,L|79:315,1,140,0|8,1:0|1:3,1:0:0:0:
271,354,36200,2,2,L|246:189,1,140,0|8,1:0|1:3,1:0:0:0:
218,36,36874,1,2,1:0:0:0:
296,43,37043,1,0,1:0:0:0:
290,119,37211,1,4,1:2:0:0:
214,112,37380,1,0,1:0:0:0:
135,104,37548,37,0,1:0:0:0:
301,213,37885,1,14,1:2:0:0:
146,311,38222,6,0,B|121:319|95:304|95:304|101:341|76:368,2,105,8|8|8,3:3|3:3|3:3,3:3:0:0:
241,338,38896,2,0,B|313:310|313:310|327:323|352:327,2,105,8|8|8,3:3|3:3|3:3,3:3:0:0:
217,246,39571,2,0,B|200:190|200:190|193:184|193:184|203:141,2,105,8|8|8,3:3|3:3|3:3,3:3:0:0:
296,193,40245,2,0,P|335:152|318:74,1,140,10|2,3:3|3:3,1:0:0:0:
147,59,40919,38,0,B|195:40|195:40|183:51|264:20,2,105,0|8|8,3:3|3:3|3:3,3:3:0:0:
47,125,41593,2,0,P|71:77|48:29,2,105,8|8|8,3:3|3:3|3:3,3:3:0:0:
144,146,42267,2,0,B|125:205|125:205|81:241,2,105,8|8|8,3:3|3:3|3:3,3:3:0:0:
224,213,42941,2,0,L|181:272,1,70,2|2,3:3|3:3,1:0:0:0:
307,176,43278,2,0,L|313:261,1,70,8|2,3:3|3:3,1:0:0:0:
331,90,43616,6,0,L|450:104,1,105,6|0,1:0|1:0,1:0:0:0:
467,105,43953,2,0,L|404:51,1,70,0|0,1:0|1:0,1:0:0:0:
401,180,44290,2,0,L|460:298,1,105,2|0,1:0|1:0,1:0:0:0:
465,299,44627,2,0,L|472:213,1,70,0|0,1:0|1:0,1:0:0:0:
370,310,44964,2,0,L|267:352,1,105,6|0,1:0|1:0,1:0:0:0:
281,321,45301,2,0,L|307:240,1,70,0|8,1:0|1:0,1:0:0:0:
251,160,45638,2,0,L|229:226,1,70,8|2,1:0|1:3,1:0:0:0:
334,145,45975,2,0,L|368:208,1,70,10|0,1:3|1:0,1:0:0:0:
277,78,46312,38,0,B|236:37|168:43,1,105,6|0,1:0|1:0,1:0:0:0:
155,45,46649,1,8,1:3:0:0:
87,84,46818,1,0,1:0:0:0:
17,124,46986,2,0,B|58:165|126:159,1,105,6|0,1:0|1:0,1:0:0:0:
139,157,47323,1,8,1:3:0:0:
206,121,47492,1,0,1:0:0:0:
277,78,47661,5,8,1:3:0:0:
482,165,47998,1,8,1:3:0:0:
364,344,48335,1,8,1:3:0:0:
166,251,48672,1,8,1:3:0:0:
324,209,49009,38,0,L|339:109,1,83.9999999999998,8|8,1:3|1:3,1:0:0:0:
277,279,49683,6,0,L|391:296,1,112,8|8,1:3|1:3,1:0:0:0:
210,224,50357,38,0,L|183:368,1,140,8|8,1:3|1:3,1:0:0:0:
255,151,51031,6,2,L|13:110,1,245,0|2,2:0|2:0,1:0:0:0:
13,110,51705,38,2,L|95:85,1,84,6|0,1:0|1:0,1:0:0:0:
209,52,52043,2,0,L|290:26,1,84,10|0,1:3|1:0,1:0:0:0:
194,133,52380,6,0,L|172:232,1,84,2|0,1:0|1:0,1:0:0:0:
154,303,52717,2,0,L|132:402,1,84,10|0,1:3|1:0,1:0:0:0:
234,280,53054,38,0,L|315:254,1,84,2|0,1:0|1:0,1:0:0:0:
429,221,53391,2,0,L|510:195,1,84,10|0,1:3|1:0,1:0:0:0:
350,167,53728,6,0,L|425:16,1,168,2|8,1:0|1:3,1:0:0:0:
480,83,54234,1,0,1:0:0:0:
322,42,54402,38,0,B|283:67|225:52,1,84,0|0,1:0|1:0,1:0:0:0:
179,151,54739,2,0,B|218:126|276:141,1,84,8|0,1:3|1:0,1:0:0:0:
346,206,55076,2,0,B|280:278|179:229,1,168,0|8,1:0|1:3,1:0:0:0:
114,193,55582,1,0,1:0:0:0:
107,328,55750,2,2,B|198:373|276:316,2,168,2|2|2,1:0|1:0|1:0,1:0:0:0:
27,272,56593,1,4,1:0:0:0:
27,272,56762,2,0,L|42:176,1,84,4|0,1:3|1:0,1:0:0:0:
81,41,57099,6,2,B|103:80|95:127,1,84,2|0,1:0|1:0,1:0:0:0:
189,81,57436,2,2,B|201:123|186:168,1,84,8|0,1:3|1:0,1:0:0:0:
322,37,57773,38,2,B|361:59|408:51,1,84,2|0,1:0|1:0,1:0:0:0:
362,145,58110,2,2,B|404:157|449:142,1,84,10|0,1:3|1:0,1:0:0:0:
281,225,58447,6,2,B|259:264|267:311,1,84,2|0,1:0|1:0,1:0:0:0:
173,265,58784,2,2,B|161:307|176:352,1,84,8|0,1:3|1:0,1:0:0:0:
73,349,59121,2,2,B|110:256|40:186,1,168,2|8,1:0|1:3,1:0:0:0:
131,163,59627,37,0,1:0:0:0:
131,163,59711,1,0,1:0:0:0:
131,163,59795,2,0,L|223:184,1,84,0|0,1:0|1:0,1:0:0:0:
281,115,60132,2,0,L|306:205,1,84,8|0,1:3|1:0,1:0:0:0:
335,279,60470,1,0,1:0:0:0:
388,208,60638,1,0,1:0:0:0:
423,290,60807,1,4,1:2:0:0:
335,279,60975,1,0,1:0:0:0:
245,258,61144,6,0,B|202:263|183:254|137:258,1,84,0|0,1:0|1:0,1:0:0:0:
200,167,61481,2,2,B|156:175|143:165|83:176,1,84,2|2,1:3|1:0,1:0:0:0:
142,87,61818,2,2,B|102:100|89:92|41:108,1,84,0|0,1:0|1:0,1:0:0:0:
59,102,62071,1,0,1:0:0:0:
59,102,62155,2,0,B|30:147|21:186,1,84,4|0,1:2|1:0,1:0:0:0:
50,259,62492,37,4,1:0:0:0:
229,201,62829,2,0,B|290:204|313:272|275:329,1,140,8|0,1:3|1:0,1:0:0:0:
212,351,63335,1,2,1:2:0:0:
212,351,63503,2,0,B|183:303|173:275,1,70,8|2,1:3|1:2,1:0:0:0:
145,211,63840,6,0,B|126:156|177:99|231:112,1,140,0|8,1:0|1:3,1:0:0:0:
295,144,64346,1,2,1:2:0:0:
295,144,64514,2,0,B|333:155|376:150,1,70,0|2,1:0|1:2,1:0:0:0:
427,77,64852,2,0,B|389:66|346:71,1,70,8|2,1:3|1:2,1:0:0:0:
432,220,65189,38,2,L|287:236,1,140,2|8,1:0|1:3,1:0:0:0:
204,249,65694,2,2,B|141:297|53:262,1,140,0|0,1:0|1:0,1:0:0:0:
21,195,66200,2,0,L|39:128,1,70,0|2,1:0|1:0,1:0:0:0:
127,179,66537,6,2,B|169:173|197:137,1,70,2|0,1:0|1:0,1:0:0:0:
240,75,66874,2,0,L|313:40,1,70,10|0,1:3|1:0,1:0:0:0:
389,70,67211,2,0,B|438:69|476:95,1,70,10|8,1:0|1:0,1:0:0:0:
494,185,67548,37,8,1:0:0:0:
494,185,67632,1,0,1:0:0:0:
494,185,67717,1,0,1:0:0:0:
494,185,67801,1,0,1:0:0:0:
494,185,67885,2,2,L|486:273,1,84,2|0,1:0|1:0,1:0:0:0:
452,348,68222,2,2,B|417:372|362:360,1,84,10|0,1:3|1:0,1:0:0:0:
356,211,68559,6,2,L|348:123,1,84,2|0,1:0|1:0,1:0:0:0:
314,48,68896,2,2,B|279:24|224:36,1,84,10|0,1:3|1:0,1:0:0:0:
220,189,69234,38,2,L|212:277,1,84,6|0,1:0|1:0,1:0:0:0:
178,352,69571,2,2,B|143:376|88:364,1,84,10|0,1:3|1:0,1:0:0:0:
39,223,69908,6,2,B|1:125|82:76,1,168,2|10,1:0|1:3,1:0:0:0:
172,101,70413,1,0,1:0:0:0:
242,40,70582,2,0,B|288:23|332:30,1,84,4|0,1:0|1:0,1:0:0:0:
395,88,70919,2,0,B|415:132|402:180,1,84,8|0,1:3|1:0,1:0:0:0:
348,242,71256,2,0,B|308:261|250:253,1,84,4|0,1:2|1:0,1:0:0:0:
188,212,71593,37,8,1:3:0:0:
188,212,71677,1,0,1:0:0:0:
188,212,71762,1,2,1:0:0:0:
188,212,71846,1,0,1:0:0:0:
188,212,71930,1,6,1:0:0:0:
386,355,72436,2,0,B|402:313|386:267,1,84,2|6,1:0|1:0,1:0:0:0:
121,232,73110,2,0,B|68:257|71:351|122:371,2,168,0|0|0,1:0|1:0|1:0,1:0:0:0:
214,249,73953,2,2,L|395:201,1,168,14|8,1:0|1:3,1:0:0:0:
256,64,74627,1,4,1:0:0:0:
193,233,85413,6,0,B|252:176|339:206,1,140,4|8,1:0|1:3,1:0:0:0:
397,229,85919,1,0,1:0:0:0:
397,229,86087,2,0,B|444:220|465:174,1,70,0|0,1:0|1:0,1:0:0:0:
416,127,86425,2,0,B|441:92|430:42,1,70,8|0,1:3|1:0,1:0:0:0:
355,76,86762,1,8,1:0:0:0:
206,36,87099,1,8,1:0:0:0:
129,168,87436,2,0,B|86:176|41:151,2,70,8|2|8,1:0|3:0|1:3,1:0:0:0:
208,139,87941,37,2,1:3:0:0:
208,139,88110,2,0,B|241:176|225:248|172:266,1,140,0|8,1:0|1:3,1:0:0:0:
276,277,88616,1,0,1:0:0:0:
276,277,88784,2,0,L|319:350,1,70,0|0,1:0|1:0,1:0:0:0:
384,314,89121,1,8,1:3:0:0:
458,297,89290,1,0,1:0:0:0:
489,224,89458,2,0,B|433:166|345:195,1,140,8|8,1:0|1:0,1:0:0:0:
228,113,90132,2,0,B|279:113|307:94,1,70,8|2,1:0|1:3,1:0:0:0:
162,66,90470,2,0,B|144:103|151:155,1,70,10|4,1:3|1:2,1:0:0:0:
202,193,90807,6,0,B|226:267|187:341,1,140,0|8,1:0|1:3,1:0:0:0:
121,352,91312,1,0,1:0:0:0:
121,352,91481,2,0,B|87:328|42:326,1,70,0|0,1:0|1:0,1:0:0:0:
14,259,91818,2,0,B|56:247|102:256,1,70,8|0,1:3|1:0,1:0:0:0:
123,185,92155,1,8,1:0:0:0:
261,101,92492,2,0,B|258:44|192:9|132:48,1,140,8|8,1:0|1:0,1:0:0:0:
188,115,92998,1,2,1:3:0:0:
188,115,93166,2,0,B|192:155|231:173,1,70,10|0,1:3|1:3,1:0:0:0:
305,166,93503,38,0,L|385:143,1,70,0|0,1:0|1:0,1:0:0:0:
269,239,93840,2,0,L|288:316,1,70,8|0,1:3|1:0,1:0:0:0:
188,242,94177,2,0,L|51:291,1,140,0|0,1:0|1:3,1:0:0:0:
56,289,94683,1,0,1:0:0:0:
11,230,94852,2,0,B|5:186|32:154,1,70,0|0,1:0|1:0,1:0:0:0:
107,131,95189,2,2,B|113:175|86:207,1,70,10|2,2:0|2:0,2:0:0:0:
284,241,95694,5,0,1:0:0:0:
362,257,95863,1,0,1:3:0:0:
337,181,96031,1,0,1:0:0:0:
311,106,96200,38,0,B|344:85|387:83,1,70,0|0,1:0|1:0,1:0:0:0:
229,110,96537,2,0,B|232:65|263:33,1,70,8|0,1:3|1:0,1:0:0:0:
144,106,96874,2,2,B|110:127|64:120,2,70,2|0|8,1:0|1:0|1:3,1:0:0:0:
130,198,97380,5,0,1:0:0:0:
130,198,97548,2,0,B|69:200|44:224,1,70,0|0,1:0|1:0,1:0:0:0:
195,248,97885,2,0,B|237:246|271:223,1,70,8|0,1:3|1:0,1:0:0:0:
336,194,98222,2,2,B|286:256|309:332,1,140,2|8,1:0|1:3,1:0:0:0:
385,307,98728,1,0,1:0:0:0:
462,283,98896,38,0,B|489:241|487:195,1,70,8|0,1:3|1:0,1:0:0:0:
460,142,99234,1,8,1:3:0:0:
384,160,99402,2,0,B|384:106|361:80,1,70,8|0,1:3|1:0,1:0:0:0:
297,121,99739,2,0,B|281:79|249:62,1,70,8|8,1:0|1:0,1:0:0:0:
182,85,100076,1,8,1:0:0:0:
204,161,100245,6,0,L|211:239,1,70,0|0,1:0|1:0,1:0:0:0:
292,269,100582,2,0,L|285:191,2,70,8|0|0,1:3|1:0|1:0,1:0:0:0:
256,341,101087,1,4,1:2:0:0:
188,302,101256,2,0,B|152:300|121:327,1,70,4|2,1:2|1:3,1:0:0:0:
60,271,101593,38,0,B|16:244|11:174|57:142,1,140,0|8,1:0|1:3,1:0:0:0:
123,168,102099,1,0,1:0:0:0:
196,139,102267,2,0,B|208:101|197:52,1,70,0|0,1:0|1:0,1:0:0:0:
255,199,102604,2,0,B|243:237|254:286,1,70,8|0,1:3|1:0,1:0:0:0:
332,162,102941,2,0,B|364:205|433:212|465:171,2,140,0|8|0,1:0|1:3|1:0,1:0:0:0:
299,91,103784,1,0,1:0:0:0:
229,127,103953,2,0,B|199:110|157:113,1,70,8|0,1:3|1:0,1:0:0:0:
259,207,104290,6,0,L|301:346,1,140,0|8,1:0|1:3,1:0:0:0:
103,229,104964,1,4,2:3:0:0:
146,360,105301,1,0,1:0:0:0:
189,105,105638,2,0,B|150:100|111:125,1,70,4|2,2:3|2:0,1:0:0:0:
171,182,105975,1,4,1:0:0:0:
248,163,106144,1,0,1:0:0:0:
321,140,106312,2,0,L|356:72,1,70,0|0,1:0|1:0,1:0:0:0:
371,225,106649,2,0,L|406:157,1,70,8|0,1:3|1:0,1:0:0:0:
285,238,106986,38,0,L|285:289,2,46.6666666666667,12|0|0,3:3|3:3|3:3,3:0:0:0:
213,261,107323,2,0,L|213:316,2,46.6666666666667,0|0|2,3:3|3:3|3:0,3:0:0:0:
139,235,107661,2,0,L|139:290,2,46.6666666666667,2|0|8,3:3|3:3|3:3,3:0:0:0:
66,266,107998,2,0,L|66:325,2,46.6666666666667,0|0|0,3:3|3:3|3:3,3:0:0:0:
33,177,108335,2,0,L|33:123,2,46.6666666666667,8|0|0,3:3|3:3|3:3,3:0:0:0:
108,152,108672,2,0,L|108:88,2,46.6666666666667,0|0|0,3:3|3:3|3:3,3:0:0:0:
181,170,109009,2,0,L|324:170,1,140,12|2,3:3|3:3,3:3:0:0:
466,115,109683,6,0,B|492:136|467:154,2,46.6666666666667,8|8|8,3:3|3:3|3:3,3:3:0:0:
456,230,110020,2,0,B|435:256|417:231,2,46.6666666666667,0|0|0,3:3|3:3|3:3,3:3:0:0:
339,206,110357,2,0,B|313:185|338:167,2,46.6666666666667,2|0|8,3:3|3:3|3:3,3:3:0:0:
352,85,110694,2,0,B|373:59|391:84,2,46.6666666666667,0|0|0,3:3|3:3|3:3,3:3:0:0:
273,85,111031,2,0,B|237:50|216:110|187:74,2,93.3333333333333,2|8|8,3:3|3:3|3:3,3:3:0:0:
248,172,111705,2,0,B|195:223|164:135|122:188,1,140,6|0,3:3|3:0,3:3:0:0:
107,346,112380,38,0,B|156:369|220:347,1,105,4|0,1:0|2:0,1:0:0:0:
224,333,112717,2,0,L|284:370,1,70,0|0,1:0|1:0,1:0:0:0:
360,321,113054,2,0,B|317:279|332:219,1,105,0|0,1:0|2:0,1:0:0:0:
341,205,113391,2,0,L|391:148,1,70,8|0,1:3|1:0,1:0:0:0:
307,114,113728,2,0,B|247:107|211:148,1,105,0|0,1:0|2:0,1:0:0:0:
200,164,114065,2,0,L|206:248,1,70,8|0,1:3|1:0,1:0:0:0:
116,252,114402,2,0,B|132:169|98:104,1,140,2|8,1:3|1:3,1:0:0:0:
44,62,114908,1,2,1:3:0:0:
144,31,115076,6,0,B|193:66|250:52,1,105,4|0,1:0|2:0,1:0:0:0:
263,40,115413,1,8,1:3:0:0:
279,132,115582,1,0,1:0:0:0:
361,88,115750,2,0,B|432:82|467:147,1,105,4|0,1:0|2:0,1:0:0:0:
465,146,116087,1,0,1:0:0:0:
402,208,116256,1,0,1:0:0:0:
468,272,116425,38,0,B|477:307|474:351,1,70,4|0,1:0|1:0,1:0:0:0:
340,349,116762,2,0,B|331:314|334:270,1,70,4|0,1:0|1:0,1:0:0:0:
198,286,117099,2,0,B|207:321|204:365,1,70,4|0,1:0|1:0,1:0:0:0:
70,363,117436,2,0,B|61:328|64:284,1,70,4|0,1:0|1:0,1:0:0:0:
121,181,117773,6,0,L|59:181,3,46.6666666666667,2|2|2|10,1:3|1:3|1:3|1:3,1:0:0:0:
234,74,118447,2,0,L|296:74,3,46.6666666666667,2|2|2|10,1:3|1:3|1:3|1:3,1:0:0:0:
389,179,119121,2,0,L|343:179,2,46.6666666666667,2|2|2,1:3|1:3|1:3,1:3:0:0:
369,252,119458,2,0,L|415:252,2,46.6666666666667,10|2|2,1:3|1:3|1:0,1:3:0:0:
146,351,120470,38,2,B|124:308|124:308|146:266,1,84,6|0,1:0|1:0,1:0:0:0:
292,303,120807,2,2,B|249:325|249:325|207:303,1,84,8|0,1:3|1:0,1:0:0:0:
293,140,121144,6,2,B|309:185|292:246,1,84,2|0,1:0|1:0,1:0:0:0:
150,85,121481,2,2,B|195:69|256:86,1,84,8|0,1:3|1:0,1:0:0:0:
72,193,121818,38,2,L|72:104,1,84,2|0,1:0|1:0,1:0:0:0:
141,277,122155,2,2,L|38:277,1,84,8|0,1:3|1:0,1:0:0:0:
260,239,122492,6,2,L|427:239,1,168,2|8,1:0|1:3,1:0:0:0:
498,298,122998,1,0,1:0:0:0:
499,151,123166,2,0,B|418:112|326:154,1,168,0|8,1:0|1:3,1:0:0:0:
262,198,123672,1,0,1:0:0:0:
182,166,123840,2,0,B|136:184|86:165,1,84,0|0,1:0|1:0,1:0:0:0:
135,76,124177,37,10,1:3:0:0:
221,68,124346,1,0,1:0:0:0:
307,60,124514,2,2,B|402:91|477:32,2,168,0|0|0,1:0|1:0|1:0,1:0:0:0:
275,139,125357,1,0,1:0:0:0:
358,164,125526,2,0,B|385:209|366:263,1,84,4|0,1:0|1:0,1:0:0:0:
322,359,125863,6,2,L|238:385,1,84,6|0,1:0|1:0,1:0:0:0:
183,233,126200,2,2,L|91:234,1,84,10|0,1:3|1:0,1:0:0:0:
256,299,126537,2,2,L|156:316,1,84,2|0,1:0|1:0,1:0:0:0:
256,85,126874,2,2,L|156:68,1,84,10|0,1:3|1:0,1:0:0:0:
183,151,127211,2,2,L|91:150,1,84,2|0,1:0|1:0,1:0:0:0:
322,25,127548,2,2,L|238:-1,1,84,10|0,1:3|1:0,1:0:0:0:
304,192,127885,2,2,L|473:192,1,168,2|8,1:0|1:3,1:0:0:0:
478,281,128391,1,0,1:0:0:0:
408,345,128559,38,0,B|417:299|384:262,1,84,0|0,1:0|1:0,1:0:0:0:
317,330,128896,2,0,B|291:286|235:278,1,84,8|0,1:3|1:0,1:0:0:0:
162,270,129234,2,0,L|85:306,2,84,0|0|4,1:0|1:0|1:0,1:0:0:0:
213,194,129739,5,0,1:0:0:0:
213,194,129823,1,0,1:0:0:0:
213,194,129908,2,0,B|234:148|220:90,1,84,0|0,1:0|1:0,1:0:0:0:
312,152,130245,1,10,1:3:0:0:
374,84,130413,1,2,1:0:0:0:
452,134,130582,2,2,B|430:185|444:232,1,84,6|0,1:0|1:0,1:0:0:0:
393,292,130919,2,0,B|357:269|313:282,1,84,8|0,1:3|1:0,1:0:0:0:
236,240,131256,38,0,L|94:297,1,140,4|8,1:0|1:3,1:0:0:0:
52,225,131762,1,0,1:0:0:0:
52,225,131930,2,0,L|13:299,1,70,0|0,1:0|1:0,1:0:0:0:
71,135,132267,2,0,L|-28:163,1,70,8|0,1:3|1:0,1:0:0:0:
139,186,132604,6,0,B|153:138|226:123|265:162,1,140,0|8,1:0|1:3,1:0:0:0:
333,207,133110,1,0,1:0:0:0:
333,207,133278,2,0,B|308:240|254:249,1,70,0|0,1:0|1:0,1:0:0:0:
360,118,133616,2,0,B|399:136|416:170,1,70,8|0,1:3|1:0,1:0:0:0:
296,54,133953,38,0,B|226:19|141:50,1,140,0|8,1:0|1:3,1:0:0:0:
77,69,134458,2,0,L|11:40,1,70,0|0,1:0|1:0,1:0:0:0:
145,126,134795,2,0,L|209:154,1,70,0|8,1:0|1:3,1:0:0:0:
63,155,135132,5,0,1:0:0:0:
63,155,135301,2,0,L|77:224,1,70,0|0,1:0|1:0,1:0:0:0:
107,304,135638,1,4,1:2:0:0:
179,252,135807,1,0,1:0:0:0:
233,319,135975,2,2,B|273:333|306:319,1,70,0|0,1:0|1:0,1:0:0:0:
378,266,136312,37,2,1:0:0:0:
378,266,136396,1,2,2:3:0:0:
378,266,136481,1,0,1:0:0:0:
378,266,136565,1,2,2:3:0:0:
378,266,136649,2,2,L|462:307,1,84,6|0,1:0|1:0,1:0:0:0:
388,173,136986,2,8,L|458:126,1,84,10|2,1:3|1:0,1:0:0:0:
296,143,137323,2,2,L|272:63,1,84,2|0,1:0|1:0,1:0:0:0:
236,213,137661,2,2,L|156:182,1,84,8|2,1:3|1:0,1:0:0:0:
285,298,137998,6,2,L|236:366,1,84,2|0,1:0|1:0,1:0:0:0:
134,356,138335,2,2,B|159:315|150:272,1,83.9999974365235,10|0,1:3|1:0,1:0:0:0:
61,239,138672,2,2,L|96:74,1,168,2|8,1:0|1:3,1:0:0:0:
183,33,139177,1,0,1:0:0:0:
262,92,139346,2,0,B|300:59|349:61,2,84,0|0|8,1:0|1:0|1:3,1:0:0:0:
183,145,139852,1,0,1:0:0:0:
234,261,140020,2,0,B|265:225|260:176,1,84,0|0,1:0|1:0,1:0:0:0:
147,238,140357,37,8,1:3:0:0:
147,238,140441,1,0,1:0:0:0:
147,238,140526,1,0,1:0:0:0:
147,238,140610,1,0,1:0:0:0:
147,238,140694,1,2,1:0:0:0:
279,333,141031,2,0,B|325:346|310:350|358:366,2,84,8|0|2,1:3|1:0|1:0,1:0:0:0:
411,210,141705,1,8,1:3:0:0:
411,210,141790,1,0,2:0:0:0:
411,210,141874,2,2,B|456:205|475:167|475:167|458:110|495:68,2,168,0|0|0,1:0|1:0|1:0,1:0:0:0:
357,130,142717,6,2,L|307:148,3,42,2|0|0|0,1:0|1:0|1:0|1:0,1:0:0:0:
296,118,143054,2,0,L|246:136,3,42,8|0|0|0,1:3|1:0|1:0|1:0,1:0:0:0:
235,106,143391,1,4,1:0:0:0:
329,245,154177,38,0,L|357:121,1,112,4|8,2:0|2:3,2:0:0:0:
242,236,154852,2,0,B|242:186|225:175|226:119,1,112,8|8,2:3|2:3,2:0:0:0:
158,265,155526,2,0,B|139:239|135:212|135:212|132:230|109:158,1,112,8|8,2:3|2:3,2:3:0:0:
113,171,156200,1,8,2:3:0:0:
400,152,159571,6,0,B|376:201|393:254|393:254|364:305,1,140,0|8,1:0|1:3,1:0:0:0:
172,200,160245,1,0,1:0:0:0:
172,200,160582,1,8,1:3:0:0:
292,31,160919,38,0,B|298:54|292:78|292:78|314:170,1,140,2|8,1:3|1:3,1:0:0:0:
83,84,161593,2,0,B|123:68|136:75|144:70|153:79|170:77|178:90|192:87|214:127,1,140,0|10,1:3|1:3,1:0:0:0:
236,197,162099,1,0,1:3:0:0:
236,197,162267,2,0,B|246:239|235:230|245:267,1,70,0|0,1:0|1:0,1:0:0:0:
325,231,162604,2,0,B|322:254|336:266|336:266|326:283|329:309,1,70,0|0,1:3|1:3,1:0:0:0:
174,351,162941,2,0,B|173:331|163:316|163:316|155:297|170:273,2,70,0|0|2,1:3|1:3|1:3,1:0:0:0:
252,344,163447,1,0,1:3:0:0:
325,378,163616,5,4,1:0:0:0:
497,242,163953,1,2,2:0:0:0:
311,118,164290,1,2,2:0:0:0:
3,227,164964,6,2,B|29:223|29:223|38:236|54:230|54:230|119:227,1,84,2|0,1:0|1:0,1:0:0:0:
112,143,165301,2,2,B|138:146|138:146|147:133|163:139|163:139|228:143,1,84,10|0,1:3|1:0,1:0:0:0:
194,256,165638,2,2,B|222:254|222:254|238:248|247:261|247:261|273:258,1,84,2|0,1:0|1:0,1:0:0:0:
286,95,165975,2,2,B|312:98|312:98|321:85|337:91|337:91|402:95,1,84,10|0,1:3|1:0,1:0:0:0:
384,298,166312,2,2,B|410:294|410:294|419:307|435:301|435:301|500:298,1,84,2|0,1:0|1:0,1:0:0:0:
433,180,166649,2,0,B|452:185|452:185|474:170|499:168|499:168|539:180,1,84,10|0,1:3|1:0,1:0:0:0:
293,172,166986,2,0,B|324:155|324:155|324:100|353:55|353:55|332:28,1,168,2|8,1:0|1:3,1:0:0:0:
242,72,167492,5,0,1:0:0:0:
242,72,167576,1,0,1:0:0:0:
242,72,167661,2,0,B|194:40|194:40|179:43|162:36,1,84,0|0,1:0|1:0,1:0:0:0:
89,116,167998,2,0,B|117:113|138:137|138:137|170:117,1,84,8|0,1:3|1:0,1:0:0:0:
228,185,168335,1,0,1:0:0:0:
160,240,168503,1,0,1:0:0:0:
229,299,168672,2,0,B|257:287|257:287|290:307|290:307|317:305,1,84,8|0,1:3|1:0,1:0:0:0:
109,311,169009,38,2,B|81:303|72:275|72:275|44:316|46:354|46:354|23:375|-1:354,2,168,0|0|0,1:0|1:0|1:0,1:0:0:0:
188,359,169852,1,0,1:0:0:0:
209,270,170020,2,0,B|173:234|182:215|146:208,1,84,8|0,1:3|1:0,1:0:0:0:
205,125,170357,5,2,1:0:0:0:
280,168,170526,1,0,1:0:0:0:
317,88,170694,2,2,B|326:63|350:53|350:53|372:64|375:104,1,84,8|0,1:3|1:0,1:0:0:0:
444,152,171031,2,2,B|449:212|391:180,1,84,2|0,1:0|1:0,1:0:0:0:
358,268,171368,37,8,1:3:0:0:
270,249,171537,1,0,1:0:0:0:
237,332,171705,2,2,B|201:307|214:342|138:342,1,84,2|0,1:0|1:0,1:0:0:0:
122,245,172043,2,2,B|106:272|82:277|80:310|80:310|58:329,1,84,8|0,1:3|1:0,1:0:0:0:
78,156,172380,6,2,B|103:158|117:129|117:129|166:110|231:188,1,168,2|8,1:0|1:3,1:0:0:0:
301,130,172885,1,0,1:0:0:0:
301,130,172970,1,0,1:0:0:0:
301,130,173054,2,0,B|296:97|281:70|281:70|286:51|286:51|279:36,1,84,0|0,1:0|1:0,1:0:0:0:
387,103,173391,2,0,B|417:93|417:93|448:47|470:77,1,84,8|0,1:3|1:0,1:0:0:0:
443,184,173728,1,0,1:0:0:0:
356,194,173896,1,0,1:0:0:0:
390,274,174065,1,8,1:3:0:0:
303,270,174234,1,0,1:0:0:0:
220,230,174402,38,0,B|211:273|211:273|227:288|205:322,1,84,0|0,1:0|1:0,1:0:0:0:
211,138,174739,2,2,B|228:145|228:145|267:147|322:124,1,84,10|2,1:3|1:0,1:0:0:0:
113,191,175076,2,2,B|120:163|116:143|116:143|120:121|137:106,1,84,2|0,1:0|1:0,1:0:0:0:
129,86,175329,1,0,1:0:0:0:
129,86,175413,2,0,B|92:87|92:87|62:98|41:88|41:88|23:96,1,84,8|0,1:3|1:0,1:0:0:0:
20,191,175750,6,0,B|41:227|9:254|33:334,1,140,4|8,1:0|1:3,1:0:0:0:
120,294,176256,1,0,1:0:0:0:
120,294,176425,2,0,B|132:331|124:372,1,70,0|0,1:0|1:0,1:0:0:0:
213,316,176762,2,0,B|204:272|209:230,1,70,8|0,1:3|1:0,1:0:0:0:
333,314,177099,38,0,B|344:236|310:170,1,140,0|8,1:0|1:3,1:0:0:0:
266,103,177604,2,0,B|345:93|423:111,1,140,0|0,1:0|1:0,1:0:0:0:
464,168,178110,1,8,1:3:0:0:
431,245,178278,1,0,1:0:0:0:
322,223,178447,6,2,B|264:285|179:222,1,140,2|10,1:0|1:3,1:0:0:0:
120,118,178953,2,2,B|147:155|124:198,1,70,2|0,1:0|1:0,1:0:0:0:
62,246,179290,2,2,B|35:209|58:166,1,70,2|0,1:0|1:0,1:0:0:0:
134,294,179627,1,2,1:0:0:0:
196,233,179795,38,2,B|214:202|233:204|254:157,1,70,2|0,1:0|1:0,1:0:0:0:
310,99,180132,2,0,B|328:68|347:70|368:23,1,70,6|0,1:0|1:0,1:0:0:0:
398,171,180470,2,0,B|407:192|464:202|470:232,1,70,2|0,1:0|1:0,1:0:0:0:
343,260,180807,5,8,1:3:0:0:
343,260,180891,1,8,1:3:0:0:
343,260,180975,1,0,1:0:0:0:
343,260,181059,1,8,1:3:0:0:
343,260,181144,2,0,B|364:312|364:312|356:336|363:366,1,84,6|0,1:0|1:0,1:0:0:0:
240,289,181481,2,2,B|235:313|235:313|222:328|222:328|209:350|212:373,1,84,8|0,1:3|1:0,1:0:0:0:
157,234,181818,37,2,1:0:0:0:
73,218,181986,1,0,1:0:0:0:
88,136,182155,1,8,1:3:0:0:
170,152,182323,1,0,1:0:0:0:
252,168,182492,6,2,B|289:174|295:136|295:136|331:128|338:163,1,84,4|0,1:0|1:0,1:0:0:0:
234,65,182829,2,2,B|229:34|197:26|197:26|174:53|147:35,1,84,10|0,1:3|1:0,1:0:0:0:
341,46,183166,2,2,B|401:19|434:78|434:78|397:106|409:154,1,168,2|8,1:0|1:3,1:0:0:0:
491,152,183672,1,0,1:0:0:0:
404,217,183840,38,2,B|411:231|435:246|435:246|426:268|426:268|457:294,1,84,6|2,1:0|1:0,1:0:0:0:
345,290,184177,1,10,1:3:0:0:
317,202,184346,1,2,1:0:0:0:
249,264,184514,2,2,B|232:244|232:244|195:262|195:262|156:243,1,84,6|2,1:0|1:0,1:0:0:0:
193,176,184852,5,2,1:0:0:0:
193,176,184936,1,0,1:0:0:0:
193,176,185020,1,2,1:0:0:0:
193,176,185104,1,2,1:3:0:0:
193,176,185189,1,6,1:0:0:0:
390,86,185694,2,0,B|422:61|461:36,1,70,2|2,1:0|1:0,1:0:0:0:
344,250,186368,2,2,B|345:289|316:314|316:314|358:343|331:352|382:373,2,140,0|0|0,1:0|1:0|1:0,1:0:0:0:
301,173,187211,2,2,B|341:158|358:179|398:161,2,70,2|0|2,1:0|1:0|1:0,1:0:0:0:
245,108,187717,2,2,B|227:75|191:67|191:67|191:7|142:45,2,140,0|0|0,1:0|1:0|1:0,1:0:0:0:
203,174,188559,38,2,B|204:210|239:226|239:226|197:228|162:244|162:244|125:284|125:284|108:308|53:310,1,280,2|4,1:0|1:0,1:0:0:0:
