osu file format v14

[General]
AudioFilename: audio130.mp3
AudioLeadIn: 0
PreviewTime: 50932
Countdown: 0
SampleSet: Drum
StackLeniency: 0.7
Mode: 3
LetterboxInBreaks: 0
SpecialStyle: 0
WidescreenStoryboard: 1

[Editor]
Bookmarks: 622,11811,24398,34188,43978,50972,62161
DistanceSpacing: 0.5
BeatDivisor: 4
GridSize: 32
TimelineZoom: 2.599999

[Metadata]
Title:Show
TitleUnicode:唱
Artist:Ado
ArtistUnicode:Ado
Creator:Kabuki
Version:Cut Ver. [1.3x Rate]
Source:
Tags:tohru mitsuhashi shou tophamhat-kyo fake type. アド [-e_s_i_a-] [-esia-] e_s_i_a esia maruko -maruko- iredi gaston_2199 jpop pop j-pop japanese rock jrock j-rock vocal giga teddyloid
BeatmapID:4535066
BeatmapSetID:2152390

[Difficulty]
HPDrainRate:8
CircleSize:4
OverallDifficulty:8
ApproachRate:5
SliderMultiplier:1.1
SliderTickRate:1

[Events]
//Background and Video events
0,0,"1920x1080.jpeg",0,0
//Break Periods
//Storyboard Layer 0 (Background)
//Storyboard Layer 1 (Fail)
//Storyboard Layer 2 (Pass)
//Storyboard Layer 3 (Foreground)
//Storyboard Layer 4 (Overlay)
//Storyboard Sound Samples

[TimingPoints]
622,349.65034965035,4,3,0,100,1,0
622,-100,4,3,0,100,0,0
50972,-100,4,3,0,100,0,1
62161,-100,4,3,0,100,0,0

[HitObjects]
320,192,228,5,0,0:0:0:0:
64,192,272,1,0,0:0:0:0:
192,192,316,1,0,0:0:0:0:
320,192,360,1,0,0:0:0:0:
448,192,403,1,0,0:0:0:0:
64,192,447,1,0,0:0:0:0:
192,192,491,1,0,0:0:0:0:
448,192,535,1,0,0:0:0:0:
320,192,578,1,0,0:0:0:0:
192,192,622,1,0,0:0:0:0:
448,192,622,1,0,0:0:0:0:
64,192,622,128,0,972:0:0:0:0:
448,192,972,128,0,1322:0:0:0:0:
192,192,1322,1,0,0:0:0:0:
192,192,1496,128,0,1845:0:0:0:0:
448,192,1845,1,0,0:0:0:0:
320,192,2021,1,0,0:0:0:0:
192,192,2195,1,0,0:0:0:0:
64,192,2370,1,0,0:0:0:0:
320,192,2545,1,0,0:0:0:0:
64,192,2720,128,0,3069:0:0:0:0:
448,192,3245,1,0,0:0:0:0:
192,192,3245,1,0,0:0:0:0:
64,192,3419,1,0,0:0:0:0:
448,192,3419,1,0,0:0:0:0:
320,192,3419,1,0,0:0:0:0:
192,192,3507,1,0,0:0:0:0:
320,192,3594,1,0,0:0:0:0:
448,192,3682,1,0,0:0:0:0:
64,192,3768,1,0,0:0:0:0:
192,192,3768,1,0,0:0:0:0:
320,192,3768,1,0,0:0:0:0:
320,192,3944,1,0,0:0:0:0:
64,192,3944,1,0,0:0:0:0:
64,192,4118,1,0,0:0:0:0:
192,192,4118,1,0,0:0:0:0:
448,192,4118,1,0,0:0:0:0:
320,192,4206,1,0,0:0:0:0:
192,192,4293,1,0,0:0:0:0:
64,192,4293,1,0,0:0:0:0:
448,192,4293,1,0,0:0:0:0:
320,192,4381,1,0,0:0:0:0:
192,192,4468,1,0,0:0:0:0:
448,192,4468,1,0,0:0:0:0:
64,192,4555,1,0,0:0:0:0:
192,192,4643,1,0,0:0:0:0:
320,192,4643,1,0,0:0:0:0:
448,192,4643,1,0,0:0:0:0:
64,192,4730,1,0,0:0:0:0:
320,192,4818,1,0,0:0:0:0:
448,192,4818,1,0,0:0:0:0:
320,192,4992,1,0,0:0:0:0:
64,192,4992,1,0,0:0:0:0:
64,192,5168,1,0,0:0:0:0:
192,192,5168,1,0,0:0:0:0:
448,192,5168,1,0,0:0:0:0:
320,192,5168,1,0,0:0:0:0:
192,192,5342,1,0,0:0:0:0:
64,192,5342,1,0,0:0:0:0:
320,192,5517,1,0,0:0:0:0:
448,192,5517,1,0,0:0:0:0:
192,192,5517,1,0,0:0:0:0:
64,192,5517,1,0,0:0:0:0:
448,192,5692,1,0,0:0:0:0:
320,192,5692,1,0,0:0:0:0:
192,192,5692,1,0,0:0:0:0:
448,192,5867,1,0,0:0:0:0:
192,192,5867,1,0,0:0:0:0:
64,192,5867,1,0,0:0:0:0:
320,192,5867,1,0,0:0:0:0:
448,192,6042,1,0,0:0:0:0:
320,192,6129,1,0,0:0:0:0:
64,192,6216,1,0,0:0:0:0:
192,192,6216,1,0,0:0:0:0:
320,192,6304,1,0,0:0:0:0:
448,192,6392,1,0,0:0:0:0:
64,192,6478,1,0,0:0:0:0:
320,192,6566,1,0,0:0:0:0:
192,192,6566,1,0,0:0:0:0:
448,192,6653,1,0,0:0:0:0:
64,192,6741,1,0,0:0:0:0:
192,192,6828,1,0,0:0:0:0:
320,192,6915,1,0,0:0:0:0:
448,192,6915,1,0,0:0:0:0:
192,192,7003,1,0,0:0:0:0:
64,192,7091,1,0,0:0:0:0:
448,192,7091,1,0,0:0:0:0:
320,192,7178,1,0,0:0:0:0:
448,192,7265,1,0,0:0:0:0:
320,192,7353,1,0,0:0:0:0:
192,192,7440,1,0,0:0:0:0:
64,192,7528,1,0,0:0:0:0:
320,192,7615,1,0,0:0:0:0:
448,192,7615,1,0,0:0:0:0:
192,192,7615,1,0,0:0:0:0:
448,192,7702,1,0,0:0:0:0:
64,192,7790,1,0,0:0:0:0:
192,192,7790,1,0,0:0:0:0:
64,192,7877,1,0,0:0:0:0:
320,192,7965,1,0,0:0:0:0:
448,192,7965,1,0,0:0:0:0:
192,192,7965,1,0,0:0:0:0:
320,192,8052,1,0,0:0:0:0:
192,192,8139,5,0,0:0:0:0:
64,192,8139,1,0,0:0:0:0:
64,192,8227,1,0,0:0:0:0:
448,192,8315,1,0,0:0:0:0:
320,192,8315,1,0,0:0:0:0:
192,192,8315,1,0,0:0:0:0:
64,192,8372,1,0,0:0:0:0:
320,192,8431,1,0,0:0:0:0:
192,192,8489,1,0,0:0:0:0:
448,192,8548,1,0,0:0:0:0:
64,192,8605,1,0,0:0:0:0:
320,192,8664,1,0,0:0:0:0:
192,192,8664,1,0,0:0:0:0:
448,192,8664,1,0,0:0:0:0:
320,192,8752,1,0,0:0:0:0:
448,192,8752,1,0,0:0:0:0:
64,192,8838,1,0,0:0:0:0:
192,192,8838,1,0,0:0:0:0:
448,192,8926,1,0,0:0:0:0:
320,192,8926,1,0,0:0:0:0:
64,192,9014,5,0,0:0:0:0:
192,192,9014,1,0,0:0:0:0:
320,192,9057,1,0,0:0:0:0:
448,192,9057,1,0,0:0:0:0:
192,192,9101,1,0,0:0:0:0:
64,192,9101,1,0,0:0:0:0:
320,192,9145,1,0,0:0:0:0:
448,192,9145,1,0,0:0:0:0:
192,192,9188,1,0,0:0:0:0:
64,192,9188,1,0,0:0:0:0:
320,192,9232,1,0,0:0:0:0:
448,192,9232,1,0,0:0:0:0:
64,192,9276,5,0,0:0:0:0:
192,192,9276,1,0,0:0:0:0:
320,192,9319,1,0,0:0:0:0:
448,192,9319,1,0,0:0:0:0:
64,192,9363,1,0,0:0:0:0:
192,192,9363,1,0,0:0:0:0:
320,192,9407,1,0,0:0:0:0:
448,192,9407,1,0,0:0:0:0:
192,192,9451,1,0,0:0:0:0:
64,192,9451,1,0,0:0:0:0:
448,192,9495,1,0,0:0:0:0:
320,192,9495,1,0,0:0:0:0:
64,192,9538,5,0,0:0:0:0:
192,192,9538,1,0,0:0:0:0:
448,192,9582,1,0,0:0:0:0:
320,192,9582,1,0,0:0:0:0:
192,192,9625,1,0,0:0:0:0:
64,192,9625,1,0,0:0:0:0:
448,192,9669,1,0,0:0:0:0:
320,192,9669,1,0,0:0:0:0:
64,192,9713,1,0,0:0:0:0:
192,192,9713,1,0,0:0:0:0:
320,192,9757,1,0,0:0:0:0:
448,192,9757,1,0,0:0:0:0:
64,192,9800,5,0,0:0:0:0:
192,192,9800,1,0,0:0:0:0:
320,192,9844,1,0,0:0:0:0:
448,192,9844,1,0,0:0:0:0:
64,192,9888,1,0,0:0:0:0:
192,192,9888,1,0,0:0:0:0:
320,192,9932,1,0,0:0:0:0:
448,192,9932,1,0,0:0:0:0:
192,192,9975,1,0,0:0:0:0:
64,192,9975,1,0,0:0:0:0:
448,192,10018,1,0,0:0:0:0:
320,192,10018,1,0,0:0:0:0:
64,192,10062,5,0,0:0:0:0:
192,192,10062,1,0,0:0:0:0:
448,192,10106,1,0,0:0:0:0:
320,192,10106,1,0,0:0:0:0:
192,192,10150,1,0,0:0:0:0:
64,192,10150,1,0,0:0:0:0:
448,192,10194,1,0,0:0:0:0:
320,192,10194,1,0,0:0:0:0:
64,192,10238,1,0,0:0:0:0:
192,192,10238,1,0,0:0:0:0:
320,192,10281,1,0,0:0:0:0:
448,192,10281,1,0,0:0:0:0:
192,192,10325,1,0,0:0:0:0:
64,192,10325,1,0,0:0:0:0:
320,192,10368,1,0,0:0:0:0:
448,192,10368,1,0,0:0:0:0:
64,192,10412,128,0,11374:0:0:0:0:
192,192,10412,1,0,0:0:0:0:
320,192,10675,1,0,0:0:0:0:
448,192,10762,128,0,11374:0:0:0:0:
320,192,11024,1,0,0:0:0:0:
192,192,11112,128,0,11723:0:0:0:0:
320,192,11374,1,0,0:0:0:0:
320,192,11461,128,0,11723:0:0:0:0:
448,192,11461,128,0,11723:0:0:0:0:
64,192,11461,128,0,11723:0:0:0:0:
448,192,11811,1,0,0:0:0:0:
320,192,11811,1,0,0:0:0:0:
192,192,11811,1,0,0:0:0:0:
64,192,11811,1,0,0:0:0:0:
448,192,11898,1,0,0:0:0:0:
192,192,11985,1,0,0:0:0:0:
320,192,12073,1,0,0:0:0:0:
192,192,12161,1,0,0:0:0:0:
64,192,12161,1,0,0:0:0:0:
448,192,12161,1,0,0:0:0:0:
64,192,12248,1,0,0:0:0:0:
320,192,12335,1,0,0:0:0:0:
192,192,12422,1,0,0:0:0:0:
320,192,12510,1,0,0:0:0:0:
64,192,12510,1,0,0:0:0:0:
448,192,12510,1,0,0:0:0:0:
192,192,12598,1,0,0:0:0:0:
64,192,12685,1,0,0:0:0:0:
320,192,12685,1,0,0:0:0:0:
448,192,12772,1,0,0:0:0:0:
192,192,12860,1,0,0:0:0:0:
64,192,12860,1,0,0:0:0:0:
320,192,12860,1,0,0:0:0:0:
64,192,13035,1,0,0:0:0:0:
320,192,13035,1,0,0:0:0:0:
448,192,13209,1,0,0:0:0:0:
320,192,13209,1,0,0:0:0:0:
192,192,13209,1,0,0:0:0:0:
64,192,13209,1,0,0:0:0:0:
192,192,13297,1,0,0:0:0:0:
448,192,13384,1,0,0:0:0:0:
320,192,13472,1,0,0:0:0:0:
64,192,13559,1,0,0:0:0:0:
192,192,13559,1,0,0:0:0:0:
448,192,13559,1,0,0:0:0:0:
320,192,13646,1,0,0:0:0:0:
192,192,13734,1,0,0:0:0:0:
448,192,13734,1,0,0:0:0:0:
64,192,13822,1,0,0:0:0:0:
192,192,13908,1,0,0:0:0:0:
320,192,13908,1,0,0:0:0:0:
448,192,13908,1,0,0:0:0:0:
448,192,13996,1,0,0:0:0:0:
192,192,14084,1,0,0:0:0:0:
64,192,14171,1,0,0:0:0:0:
448,192,14258,1,0,0:0:0:0:
320,192,14258,1,0,0:0:0:0:
192,192,14258,1,0,0:0:0:0:
64,192,14433,1,0,0:0:0:0:
448,192,14433,1,0,0:0:0:0:
320,192,14608,1,0,0:0:0:0:
448,192,14608,1,0,0:0:0:0:
64,192,14608,1,0,0:0:0:0:
192,192,14608,1,0,0:0:0:0:
64,192,14695,1,0,0:0:0:0:
320,192,14783,1,0,0:0:0:0:
192,192,14870,1,0,0:0:0:0:
64,192,14958,1,0,0:0:0:0:
448,192,14958,1,0,0:0:0:0:
320,192,14958,1,0,0:0:0:0:
448,192,15045,1,0,0:0:0:0:
192,192,15132,1,0,0:0:0:0:
320,192,15220,1,0,0:0:0:0:
64,192,15307,1,0,0:0:0:0:
448,192,15307,1,0,0:0:0:0:
192,192,15307,1,0,0:0:0:0:
320,192,15395,1,0,0:0:0:0:
192,192,15482,1,0,0:0:0:0:
448,192,15482,1,0,0:0:0:0:
64,192,15569,1,0,0:0:0:0:
192,192,15657,1,0,0:0:0:0:
448,192,15657,1,0,0:0:0:0:
320,192,15657,1,0,0:0:0:0:
320,192,15832,1,0,0:0:0:0:
64,192,15832,1,0,0:0:0:0:
320,192,16007,1,0,0:0:0:0:
192,192,16007,1,0,0:0:0:0:
64,192,16007,1,0,0:0:0:0:
448,192,16007,1,0,0:0:0:0:
64,192,16182,1,0,0:0:0:0:
320,192,16182,1,0,0:0:0:0:
448,192,16182,1,0,0:0:0:0:
192,192,16268,1,0,0:0:0:0:
64,192,16356,1,0,0:0:0:0:
320,192,16356,1,0,0:0:0:0:
448,192,16356,1,0,0:0:0:0:
192,192,16444,1,0,0:0:0:0:
64,192,16531,1,0,0:0:0:0:
320,192,16531,1,0,0:0:0:0:
448,192,16531,1,0,0:0:0:0:
64,192,16706,1,0,0:0:0:0:
320,192,16706,1,0,0:0:0:0:
448,192,16706,1,0,0:0:0:0:
320,192,16793,1,0,0:0:0:0:
192,192,16881,1,0,0:0:0:0:
64,192,16881,1,0,0:0:0:0:
448,192,16881,1,0,0:0:0:0:
64,192,16968,1,0,0:0:0:0:
320,192,17055,1,0,0:0:0:0:
448,192,17055,1,0,0:0:0:0:
192,192,17055,1,0,0:0:0:0:
64,192,17055,1,0,0:0:0:0:
320,192,17230,1,0,0:0:0:0:
192,192,17230,1,0,0:0:0:0:
64,192,17405,1,0,0:0:0:0:
192,192,17405,1,0,0:0:0:0:
320,192,17405,1,0,0:0:0:0:
448,192,17405,1,0,0:0:0:0:
192,192,17492,1,0,0:0:0:0:
320,192,17492,1,0,0:0:0:0:
448,192,17492,1,0,0:0:0:0:
320,192,17580,1,0,0:0:0:0:
64,192,17580,1,0,0:0:0:0:
64,192,17668,1,0,0:0:0:0:
192,192,17668,1,0,0:0:0:0:
192,192,17755,1,0,0:0:0:0:
64,192,17755,1,0,0:0:0:0:
320,192,17755,1,0,0:0:0:0:
448,192,17755,1,0,0:0:0:0:
192,192,17842,1,0,0:0:0:0:
448,192,17842,1,0,0:0:0:0:
64,192,17842,1,0,0:0:0:0:
320,192,17930,1,0,0:0:0:0:
192,192,17930,1,0,0:0:0:0:
64,192,18017,1,0,0:0:0:0:
320,192,18017,1,0,0:0:0:0:
64,192,18105,1,0,0:0:0:0:
192,192,18105,1,0,0:0:0:0:
320,192,18105,1,0,0:0:0:0:
448,192,18105,1,0,0:0:0:0:
192,192,18192,1,0,0:0:0:0:
320,192,18192,1,0,0:0:0:0:
448,192,18192,1,0,0:0:0:0:
64,192,18279,1,0,0:0:0:0:
448,192,18279,1,0,0:0:0:0:
192,192,18367,1,0,0:0:0:0:
64,192,18367,1,0,0:0:0:0:
192,192,18454,1,0,0:0:0:0:
320,192,18454,1,0,0:0:0:0:
448,192,18454,1,0,0:0:0:0:
64,192,18454,1,0,0:0:0:0:
320,192,18542,1,0,0:0:0:0:
448,192,18542,1,0,0:0:0:0:
64,192,18542,1,0,0:0:0:0:
192,192,18629,1,0,0:0:0:0:
448,192,18629,1,0,0:0:0:0:
320,192,18716,1,0,0:0:0:0:
192,192,18716,1,0,0:0:0:0:
192,192,18804,1,0,0:0:0:0:
320,192,18804,1,0,0:0:0:0:
448,192,18804,1,0,0:0:0:0:
64,192,18804,1,0,0:0:0:0:
64,192,18892,1,0,0:0:0:0:
192,192,18892,1,0,0:0:0:0:
448,192,18978,1,0,0:0:0:0:
64,192,18978,1,0,0:0:0:0:
320,192,19066,1,0,0:0:0:0:
192,192,19066,1,0,0:0:0:0:
64,192,19153,1,0,0:0:0:0:
320,192,19153,1,0,0:0:0:0:
448,192,19153,1,0,0:0:0:0:
192,192,19241,1,0,0:0:0:0:
64,192,19241,1,0,0:0:0:0:
448,192,19328,1,0,0:0:0:0:
192,192,19328,1,0,0:0:0:0:
64,192,19415,1,0,0:0:0:0:
320,192,19415,1,0,0:0:0:0:
192,192,19503,1,0,0:0:0:0:
320,192,19503,1,0,0:0:0:0:
448,192,19503,1,0,0:0:0:0:
64,192,19591,1,0,0:0:0:0:
192,192,19591,1,0,0:0:0:0:
448,192,19678,1,0,0:0:0:0:
64,192,19678,1,0,0:0:0:0:
320,192,19765,1,0,0:0:0:0:
448,192,19765,1,0,0:0:0:0:
64,192,19853,1,0,0:0:0:0:
320,192,19853,1,0,0:0:0:0:
192,192,19853,1,0,0:0:0:0:
64,192,19940,1,0,0:0:0:0:
448,192,19940,1,0,0:0:0:0:
64,192,20028,1,0,0:0:0:0:
192,192,20028,1,0,0:0:0:0:
320,192,20028,1,0,0:0:0:0:
320,192,20115,1,0,0:0:0:0:
192,192,20115,1,0,0:0:0:0:
192,192,20202,1,0,0:0:0:0:
64,192,20202,1,0,0:0:0:0:
320,192,20202,1,0,0:0:0:0:
448,192,20202,1,0,0:0:0:0:
192,192,20290,1,0,0:0:0:0:
64,192,20290,1,0,0:0:0:0:
448,192,20290,1,0,0:0:0:0:
320,192,20377,1,0,0:0:0:0:
448,192,20377,1,0,0:0:0:0:
64,192,20465,1,0,0:0:0:0:
320,192,20465,1,0,0:0:0:0:
192,192,20552,1,0,0:0:0:0:
64,192,20552,1,0,0:0:0:0:
320,192,20552,1,0,0:0:0:0:
448,192,20552,1,0,0:0:0:0:
192,192,20639,1,0,0:0:0:0:
320,192,20639,1,0,0:0:0:0:
448,192,20639,1,0,0:0:0:0:
64,192,20727,1,0,0:0:0:0:
192,192,20727,1,0,0:0:0:0:
448,192,20815,1,0,0:0:0:0:
64,192,20815,1,0,0:0:0:0:
448,192,20902,1,0,0:0:0:0:
320,192,20902,1,0,0:0:0:0:
192,192,20902,1,0,0:0:0:0:
64,192,20902,1,0,0:0:0:0:
320,192,20989,1,0,0:0:0:0:
192,192,20989,1,0,0:0:0:0:
64,192,20989,1,0,0:0:0:0:
192,192,21076,1,0,0:0:0:0:
448,192,21076,1,0,0:0:0:0:
320,192,21164,1,0,0:0:0:0:
192,192,21164,1,0,0:0:0:0:
64,192,21252,1,0,0:0:0:0:
192,192,21252,1,0,0:0:0:0:
320,192,21252,1,0,0:0:0:0:
448,192,21252,1,0,0:0:0:0:
448,192,21338,1,0,0:0:0:0:
320,192,21338,1,0,0:0:0:0:
64,192,21338,1,0,0:0:0:0:
192,192,21426,1,0,0:0:0:0:
64,192,21426,1,0,0:0:0:0:
192,192,21514,1,0,0:0:0:0:
448,192,21514,1,0,0:0:0:0:
64,192,21601,1,0,0:0:0:0:
192,192,21601,1,0,0:0:0:0:
448,192,21601,1,0,0:0:0:0:
320,192,21601,1,0,0:0:0:0:
192,192,21688,1,0,0:0:0:0:
320,192,21688,1,0,0:0:0:0:
64,192,21776,1,0,0:0:0:0:
320,192,21776,1,0,0:0:0:0:
448,192,21776,1,0,0:0:0:0:
192,192,21863,1,0,0:0:0:0:
320,192,21863,1,0,0:0:0:0:
64,192,21951,1,0,0:0:0:0:
192,192,21951,1,0,0:0:0:0:
320,192,21951,1,0,0:0:0:0:
448,192,21951,1,0,0:0:0:0:
192,192,22038,1,0,0:0:0:0:
64,192,22038,1,0,0:0:0:0:
64,192,22125,1,0,0:0:0:0:
320,192,22125,1,0,0:0:0:0:
448,192,22125,1,0,0:0:0:0:
192,192,22213,1,0,0:0:0:0:
320,192,22213,1,0,0:0:0:0:
64,192,22300,1,0,0:0:0:0:
320,192,22300,1,0,0:0:0:0:
448,192,22300,1,0,0:0:0:0:
192,192,22388,1,0,0:0:0:0:
448,192,22388,1,0,0:0:0:0:
192,192,22475,1,0,0:0:0:0:
320,192,22475,1,0,0:0:0:0:
64,192,22562,1,0,0:0:0:0:
320,192,22562,1,0,0:0:0:0:
192,192,22650,1,0,0:0:0:0:
320,192,22650,1,0,0:0:0:0:
448,192,22650,1,0,0:0:0:0:
64,192,22650,1,0,0:0:0:0:
192,192,22825,1,0,0:0:0:0:
448,192,22825,1,0,0:0:0:0:
64,192,22999,1,0,0:0:0:0:
320,192,22999,1,0,0:0:0:0:
448,192,22999,1,0,0:0:0:0:
192,192,22999,1,0,0:0:0:0:
192,192,23087,1,0,0:0:0:0:
320,192,23087,1,0,0:0:0:0:
64,192,23087,1,0,0:0:0:0:
192,192,23175,1,0,0:0:0:0:
448,192,23175,1,0,0:0:0:0:
320,192,23262,1,0,0:0:0:0:
192,192,23262,1,0,0:0:0:0:
64,192,23349,1,0,0:0:0:0:
192,192,23349,1,0,0:0:0:0:
320,192,23349,1,0,0:0:0:0:
448,192,23349,1,0,0:0:0:0:
64,192,23437,1,0,0:0:0:0:
192,192,23437,1,0,0:0:0:0:
448,192,23437,1,0,0:0:0:0:
320,192,23524,1,0,0:0:0:0:
448,192,23524,1,0,0:0:0:0:
64,192,23612,1,0,0:0:0:0:
320,192,23612,1,0,0:0:0:0:
192,192,23699,1,0,0:0:0:0:
448,192,23699,1,0,0:0:0:0:
320,192,23699,1,0,0:0:0:0:
64,192,23699,1,0,0:0:0:0:
192,192,23786,1,0,0:0:0:0:
64,192,23786,1,0,0:0:0:0:
448,192,23786,1,0,0:0:0:0:
192,192,23874,1,0,0:0:0:0:
320,192,23874,1,0,0:0:0:0:
64,192,23961,1,0,0:0:0:0:
320,192,23961,1,0,0:0:0:0:
64,192,24048,1,0,0:0:0:0:
192,192,24048,1,0,0:0:0:0:
320,192,24048,1,0,0:0:0:0:
448,192,24048,1,0,0:0:0:0:
192,192,24136,1,0,0:0:0:0:
320,192,24136,1,0,0:0:0:0:
448,192,24136,1,0,0:0:0:0:
64,192,24223,1,0,0:0:0:0:
192,192,24223,1,0,0:0:0:0:
320,192,24311,1,0,0:0:0:0:
64,192,24311,1,0,0:0:0:0:
448,192,24398,1,0,0:0:0:0:
320,192,24398,1,0,0:0:0:0:
192,192,24398,1,0,0:0:0:0:
64,192,24398,1,0,0:0:0:0:
448,192,24485,1,0,0:0:0:0:
320,192,24485,1,0,0:0:0:0:
448,192,24573,1,0,0:0:0:0:
320,192,24573,1,0,0:0:0:0:
192,192,24573,1,0,0:0:0:0:
64,192,24573,1,0,0:0:0:0:
64,192,24661,1,0,0:0:0:0:
192,192,24661,1,0,0:0:0:0:
448,192,24748,1,0,0:0:0:0:
320,192,24748,1,0,0:0:0:0:
192,192,24748,1,0,0:0:0:0:
64,192,24748,1,0,0:0:0:0:
448,192,24835,1,0,0:0:0:0:
64,192,24835,1,0,0:0:0:0:
448,192,24922,1,0,0:0:0:0:
192,192,24922,1,0,0:0:0:0:
64,192,24922,1,0,0:0:0:0:
320,192,24922,1,0,0:0:0:0:
192,192,25010,1,0,0:0:0:0:
320,192,25010,1,0,0:0:0:0:
64,192,25098,1,0,0:0:0:0:
192,192,25098,1,0,0:0:0:0:
320,192,25098,1,0,0:0:0:0:
448,192,25098,1,0,0:0:0:0:
64,192,25185,1,0,0:0:0:0:
448,192,25185,1,0,0:0:0:0:
64,192,25272,1,0,0:0:0:0:
192,192,25272,1,0,0:0:0:0:
448,192,25360,1,0,0:0:0:0:
192,192,25360,1,0,0:0:0:0:
448,192,25447,1,0,0:0:0:0:
320,192,25447,1,0,0:0:0:0:
64,192,25447,1,0,0:0:0:0:
192,192,25447,1,0,0:0:0:0:
320,192,25535,1,0,0:0:0:0:
192,192,25622,1,0,0:0:0:0:
448,192,25622,1,0,0:0:0:0:
64,192,25709,1,0,0:0:0:0:
320,192,25709,1,0,0:0:0:0:
64,192,25797,1,0,0:0:0:0:
192,192,25797,1,0,0:0:0:0:
448,192,25797,1,0,0:0:0:0:
320,192,25797,1,0,0:0:0:0:
64,192,25884,1,0,0:0:0:0:
448,192,25884,1,0,0:0:0:0:
192,192,25972,1,0,0:0:0:0:
320,192,25972,1,0,0:0:0:0:
64,192,26059,1,0,0:0:0:0:
448,192,26059,1,0,0:0:0:0:
448,192,26146,1,0,0:0:0:0:
192,192,26146,1,0,0:0:0:0:
64,192,26146,1,0,0:0:0:0:
320,192,26146,1,0,0:0:0:0:
192,192,26234,1,0,0:0:0:0:
64,192,26322,1,0,0:0:0:0:
320,192,26322,1,0,0:0:0:0:
192,192,26408,1,0,0:0:0:0:
448,192,26408,1,0,0:0:0:0:
448,192,26496,1,0,0:0:0:0:
192,192,26496,1,0,0:0:0:0:
64,192,26496,1,0,0:0:0:0:
320,192,26496,1,0,0:0:0:0:
192,192,26584,1,0,0:0:0:0:
320,192,26584,1,0,0:0:0:0:
64,192,26671,1,0,0:0:0:0:
448,192,26671,1,0,0:0:0:0:
192,192,26758,1,0,0:0:0:0:
320,192,26758,1,0,0:0:0:0:
448,192,26845,1,0,0:0:0:0:
320,192,26845,1,0,0:0:0:0:
192,192,26845,1,0,0:0:0:0:
64,192,26845,1,0,0:0:0:0:
448,192,26933,1,0,0:0:0:0:
64,192,26933,1,0,0:0:0:0:
320,192,27021,1,0,0:0:0:0:
448,192,27021,1,0,0:0:0:0:
64,192,27108,1,0,0:0:0:0:
320,192,27108,1,0,0:0:0:0:
448,192,27195,1,0,0:0:0:0:
320,192,27195,1,0,0:0:0:0:
192,192,27195,1,0,0:0:0:0:
64,192,27195,1,0,0:0:0:0:
64,192,27370,1,0,0:0:0:0:
448,192,27370,1,0,0:0:0:0:
320,192,27370,1,0,0:0:0:0:
192,192,27458,1,0,0:0:0:0:
448,192,27545,1,0,0:0:0:0:
320,192,27545,1,0,0:0:0:0:
192,192,27632,1,0,0:0:0:0:
64,192,27720,1,0,0:0:0:0:
320,192,27720,1,0,0:0:0:0:
448,192,27807,1,0,0:0:0:0:
192,192,27895,1,0,0:0:0:0:
320,192,27895,1,0,0:0:0:0:
64,192,27982,1,0,0:0:0:0:
448,192,28069,1,0,0:0:0:0:
320,192,28069,1,0,0:0:0:0:
192,192,28157,1,0,0:0:0:0:
64,192,28245,1,0,0:0:0:0:
320,192,28245,1,0,0:0:0:0:
448,192,28245,1,0,0:0:0:0:
64,192,28419,1,0,0:0:0:0:
320,192,28419,1,0,0:0:0:0:
448,192,28419,1,0,0:0:0:0:
64,192,28594,1,0,0:0:0:0:
192,192,28594,1,0,0:0:0:0:
448,192,28594,1,0,0:0:0:0:
320,192,28594,1,0,0:0:0:0:
192,192,28682,1,0,0:0:0:0:
64,192,28682,1,0,0:0:0:0:
64,192,28768,1,0,0:0:0:0:
192,192,28768,1,0,0:0:0:0:
320,192,28768,1,0,0:0:0:0:
448,192,28768,1,0,0:0:0:0:
448,192,28856,1,0,0:0:0:0:
320,192,28856,1,0,0:0:0:0:
64,192,28944,1,0,0:0:0:0:
192,192,28944,1,0,0:0:0:0:
320,192,28944,1,0,0:0:0:0:
448,192,28944,1,0,0:0:0:0:
64,192,29031,1,0,0:0:0:0:
192,192,29031,1,0,0:0:0:0:
320,192,29118,1,0,0:0:0:0:
448,192,29118,1,0,0:0:0:0:
192,192,29118,1,0,0:0:0:0:
64,192,29118,1,0,0:0:0:0:
448,192,29206,1,0,0:0:0:0:
320,192,29206,1,0,0:0:0:0:
64,192,29293,1,0,0:0:0:0:
192,192,29293,1,0,0:0:0:0:
320,192,29293,1,0,0:0:0:0:
448,192,29293,1,0,0:0:0:0:
192,192,29468,1,0,0:0:0:0:
320,192,29468,1,0,0:0:0:0:
64,192,29555,1,0,0:0:0:0:
448,192,29555,1,0,0:0:0:0:
448,192,29643,1,0,0:0:0:0:
192,192,29643,1,0,0:0:0:0:
320,192,29643,1,0,0:0:0:0:
64,192,29643,1,0,0:0:0:0:
320,192,29818,1,0,0:0:0:0:
448,192,29818,1,0,0:0:0:0:
64,192,29818,1,0,0:0:0:0:
320,192,29992,1,0,0:0:0:0:
192,192,29992,1,0,0:0:0:0:
64,192,29992,1,0,0:0:0:0:
448,192,29992,1,0,0:0:0:0:
192,192,30080,1,0,0:0:0:0:
320,192,30080,1,0,0:0:0:0:
64,192,30168,1,0,0:0:0:0:
192,192,30168,1,0,0:0:0:0:
320,192,30168,1,0,0:0:0:0:
448,192,30168,1,0,0:0:0:0:
64,192,30255,1,0,0:0:0:0:
448,192,30255,1,0,0:0:0:0:
448,192,30342,1,0,0:0:0:0:
320,192,30342,1,0,0:0:0:0:
64,192,30342,1,0,0:0:0:0:
192,192,30342,1,0,0:0:0:0:
320,192,30430,1,0,0:0:0:0:
192,192,30430,1,0,0:0:0:0:
64,192,30517,1,0,0:0:0:0:
192,192,30517,1,0,0:0:0:0:
320,192,30517,1,0,0:0:0:0:
448,192,30517,1,0,0:0:0:0:
64,192,30605,1,0,0:0:0:0:
448,192,30605,1,0,0:0:0:0:
448,192,30692,1,0,0:0:0:0:
320,192,30692,1,0,0:0:0:0:
192,192,30692,1,0,0:0:0:0:
64,192,30692,1,0,0:0:0:0:
192,192,30867,1,0,0:0:0:0:
320,192,30867,1,0,0:0:0:0:
448,192,30954,1,0,0:0:0:0:
64,192,30954,1,0,0:0:0:0:
64,192,31042,1,0,0:0:0:0:
192,192,31042,1,0,0:0:0:0:
448,192,31042,1,0,0:0:0:0:
320,192,31042,1,0,0:0:0:0:
448,192,31216,1,0,0:0:0:0:
320,192,31216,1,0,0:0:0:0:
64,192,31216,1,0,0:0:0:0:
64,192,31392,1,0,0:0:0:0:
192,192,31392,1,0,0:0:0:0:
320,192,31392,1,0,0:0:0:0:
448,192,31392,1,0,0:0:0:0:
192,192,31478,1,0,0:0:0:0:
320,192,31478,1,0,0:0:0:0:
64,192,31566,1,0,0:0:0:0:
320,192,31566,1,0,0:0:0:0:
192,192,31653,1,0,0:0:0:0:
64,192,31653,1,0,0:0:0:0:
320,192,31741,1,0,0:0:0:0:
192,192,31741,1,0,0:0:0:0:
64,192,31741,1,0,0:0:0:0:
448,192,31741,1,0,0:0:0:0:
320,192,31828,1,0,0:0:0:0:
448,192,31828,1,0,0:0:0:0:
64,192,31915,1,0,0:0:0:0:
448,192,31915,1,0,0:0:0:0:
192,192,32003,1,0,0:0:0:0:
320,192,32003,1,0,0:0:0:0:
64,192,32091,1,0,0:0:0:0:
192,192,32091,1,0,0:0:0:0:
320,192,32091,1,0,0:0:0:0:
448,192,32091,1,0,0:0:0:0:
64,192,32178,1,0,0:0:0:0:
320,192,32178,1,0,0:0:0:0:
192,192,32265,1,0,0:0:0:0:
320,192,32265,1,0,0:0:0:0:
64,192,32353,1,0,0:0:0:0:
448,192,32353,1,0,0:0:0:0:
192,192,32440,1,0,0:0:0:0:
320,192,32440,1,0,0:0:0:0:
448,192,32440,1,0,0:0:0:0:
64,192,32440,1,0,0:0:0:0:
192,192,32528,1,0,0:0:0:0:
320,192,32528,1,0,0:0:0:0:
64,192,32615,1,0,0:0:0:0:
448,192,32615,1,0,0:0:0:0:
192,192,32702,1,0,0:0:0:0:
64,192,32702,1,0,0:0:0:0:
448,192,32790,1,0,0:0:0:0:
320,192,32790,1,0,0:0:0:0:
64,192,32790,1,0,0:0:0:0:
192,192,32790,1,0,0:0:0:0:
320,192,32877,1,0,0:0:0:0:
448,192,32877,1,0,0:0:0:0:
192,192,32965,1,0,0:0:0:0:
320,192,32965,1,0,0:0:0:0:
64,192,33052,1,0,0:0:0:0:
448,192,33052,1,0,0:0:0:0:
320,192,33139,1,0,0:0:0:0:
448,192,33139,1,0,0:0:0:0:
192,192,33139,1,0,0:0:0:0:
64,192,33139,1,0,0:0:0:0:
192,192,33227,1,0,0:0:0:0:
320,192,33227,1,0,0:0:0:0:
64,192,33315,1,0,0:0:0:0:
320,192,33315,1,0,0:0:0:0:
192,192,33402,1,0,0:0:0:0:
448,192,33402,1,0,0:0:0:0:
64,192,33489,1,0,0:0:0:0:
192,192,33489,1,0,0:0:0:0:
320,192,33489,1,0,0:0:0:0:
448,192,33489,1,0,0:0:0:0:
64,192,33576,1,0,0:0:0:0:
192,192,33576,1,0,0:0:0:0:
320,192,33664,1,0,0:0:0:0:
192,192,33664,1,0,0:0:0:0:
64,192,33752,1,0,0:0:0:0:
448,192,33752,1,0,0:0:0:0:
64,192,33838,128,0,34014:0:0:0:0:
448,192,33838,128,0,34014:0:0:0:0:
448,192,34188,1,0,0:0:0:0:
320,192,34188,1,0,0:0:0:0:
64,192,34188,1,0,0:0:0:0:
192,192,34188,1,0,0:0:0:0:
64,192,34276,1,0,0:0:0:0:
320,192,34276,1,0,0:0:0:0:
192,192,34363,1,0,0:0:0:0:
320,192,34363,1,0,0:0:0:0:
64,192,34451,1,0,0:0:0:0:
192,192,34451,1,0,0:0:0:0:
320,192,34451,1,0,0:0:0:0:
448,192,34451,1,0,0:0:0:0:
192,192,34538,1,0,0:0:0:0:
448,192,34538,1,0,0:0:0:0:
192,192,34625,1,0,0:0:0:0:
320,192,34625,1,0,0:0:0:0:
64,192,34713,1,0,0:0:0:0:
192,192,34713,1,0,0:0:0:0:
320,192,34713,1,0,0:0:0:0:
448,192,34713,1,0,0:0:0:0:
64,192,34800,1,0,0:0:0:0:
320,192,34800,1,0,0:0:0:0:
64,192,34888,1,0,0:0:0:0:
192,192,34888,1,0,0:0:0:0:
448,192,34975,1,0,0:0:0:0:
320,192,34975,1,0,0:0:0:0:
64,192,34975,1,0,0:0:0:0:
192,192,34975,1,0,0:0:0:0:
320,192,35062,1,0,0:0:0:0:
448,192,35062,1,0,0:0:0:0:
64,192,35150,1,0,0:0:0:0:
320,192,35150,1,0,0:0:0:0:
64,192,35238,1,0,0:0:0:0:
192,192,35238,1,0,0:0:0:0:
448,192,35238,1,0,0:0:0:0:
320,192,35238,1,0,0:0:0:0:
192,192,35325,1,0,0:0:0:0:
448,192,35325,1,0,0:0:0:0:
192,192,35412,1,0,0:0:0:0:
320,192,35412,1,0,0:0:0:0:
64,192,35412,1,0,0:0:0:0:
448,192,35412,1,0,0:0:0:0:
448,192,35499,1,0,0:0:0:0:
64,192,35499,1,0,0:0:0:0:
64,192,35587,1,0,0:0:0:0:
448,192,35587,1,0,0:0:0:0:
192,192,35587,1,0,0:0:0:0:
320,192,35587,1,0,0:0:0:0:
192,192,35675,1,0,0:0:0:0:
320,192,35675,1,0,0:0:0:0:
64,192,35762,1,0,0:0:0:0:
192,192,35762,1,0,0:0:0:0:
320,192,35762,1,0,0:0:0:0:
448,192,35762,1,0,0:0:0:0:
320,192,35849,1,0,0:0:0:0:
64,192,35849,1,0,0:0:0:0:
192,192,35937,1,0,0:0:0:0:
64,192,35937,1,0,0:0:0:0:
64,192,36024,1,0,0:0:0:0:
192,192,36024,1,0,0:0:0:0:
320,192,36024,1,0,0:0:0:0:
448,192,36024,1,0,0:0:0:0:
448,192,36112,1,0,0:0:0:0:
192,192,36112,1,0,0:0:0:0:
320,192,36199,1,0,0:0:0:0:
448,192,36199,1,0,0:0:0:0:
64,192,36286,1,0,0:0:0:0:
192,192,36286,1,0,0:0:0:0:
448,192,36286,1,0,0:0:0:0:
320,192,36286,1,0,0:0:0:0:
192,192,36374,1,0,0:0:0:0:
320,192,36374,1,0,0:0:0:0:
64,192,36461,1,0,0:0:0:0:
448,192,36461,1,0,0:0:0:0:
448,192,36548,1,0,0:0:0:0:
320,192,36548,1,0,0:0:0:0:
64,192,36548,1,0,0:0:0:0:
192,192,36548,1,0,0:0:0:0:
192,192,36636,1,0,0:0:0:0:
320,192,36636,1,0,0:0:0:0:
64,192,36723,1,0,0:0:0:0:
320,192,36723,1,0,0:0:0:0:
448,192,36723,1,0,0:0:0:0:
192,192,36723,1,0,0:0:0:0:
64,192,36811,1,0,0:0:0:0:
448,192,36811,1,0,0:0:0:0:
192,192,36898,1,0,0:0:0:0:
320,192,36898,1,0,0:0:0:0:
64,192,36898,1,0,0:0:0:0:
448,192,36898,1,0,0:0:0:0:
192,192,36985,1,0,0:0:0:0:
320,192,36985,1,0,0:0:0:0:
64,192,36985,1,0,0:0:0:0:
448,192,36985,1,0,0:0:0:0:
64,192,37073,1,0,0:0:0:0:
192,192,37073,1,0,0:0:0:0:
448,192,37161,1,0,0:0:0:0:
192,192,37161,1,0,0:0:0:0:
64,192,37161,1,0,0:0:0:0:
320,192,37161,1,0,0:0:0:0:
448,192,37248,1,0,0:0:0:0:
320,192,37248,1,0,0:0:0:0:
320,192,37335,1,0,0:0:0:0:
448,192,37335,1,0,0:0:0:0:
192,192,37335,1,0,0:0:0:0:
64,192,37335,1,0,0:0:0:0:
192,192,37422,1,0,0:0:0:0:
320,192,37422,1,0,0:0:0:0:
64,192,37510,1,0,0:0:0:0:
192,192,37510,1,0,0:0:0:0:
320,192,37510,1,0,0:0:0:0:
448,192,37510,1,0,0:0:0:0:
64,192,37598,1,0,0:0:0:0:
448,192,37598,1,0,0:0:0:0:
448,192,37685,1,0,0:0:0:0:
192,192,37685,1,0,0:0:0:0:
64,192,37685,1,0,0:0:0:0:
320,192,37685,1,0,0:0:0:0:
192,192,37772,1,0,0:0:0:0:
448,192,37772,1,0,0:0:0:0:
448,192,37860,1,0,0:0:0:0:
64,192,37860,1,0,0:0:0:0:
192,192,37860,1,0,0:0:0:0:
320,192,37860,1,0,0:0:0:0:
320,192,37947,1,0,0:0:0:0:
192,192,37947,1,0,0:0:0:0:
64,192,38035,1,0,0:0:0:0:
192,192,38035,1,0,0:0:0:0:
320,192,38035,1,0,0:0:0:0:
448,192,38035,1,0,0:0:0:0:
64,192,38122,1,0,0:0:0:0:
192,192,38122,1,0,0:0:0:0:
64,192,38209,1,0,0:0:0:0:
192,192,38209,1,0,0:0:0:0:
320,192,38209,1,0,0:0:0:0:
448,192,38209,1,0,0:0:0:0:
448,192,38297,1,0,0:0:0:0:
320,192,38297,1,0,0:0:0:0:
64,192,38384,1,0,0:0:0:0:
192,192,38384,1,0,0:0:0:0:
320,192,38384,1,0,0:0:0:0:
448,192,38384,1,0,0:0:0:0:
192,192,38472,1,0,0:0:0:0:
448,192,38559,1,0,0:0:0:0:
192,192,38559,1,0,0:0:0:0:
64,192,38559,1,0,0:0:0:0:
320,192,38559,1,0,0:0:0:0:
448,192,38646,1,0,0:0:0:0:
64,192,38734,1,0,0:0:0:0:
192,192,38734,1,0,0:0:0:0:
320,192,38734,1,0,0:0:0:0:
448,192,38734,1,0,0:0:0:0:
64,192,38822,1,0,0:0:0:0:
448,192,38908,1,0,0:0:0:0:
320,192,38908,1,0,0:0:0:0:
64,192,38908,1,0,0:0:0:0:
192,192,38908,1,0,0:0:0:0:
192,192,39084,1,0,0:0:0:0:
320,192,39084,1,0,0:0:0:0:
64,192,39084,128,0,39345:0:0:0:0:
448,192,39084,128,0,39345:0:0:0:0:
320,192,39345,1,0,0:0:0:0:
64,192,39433,1,0,0:0:0:0:
192,192,39477,1,0,0:0:0:0:
448,192,39521,1,0,0:0:0:0:
320,192,39565,1,0,0:0:0:0:
64,192,39608,1,0,0:0:0:0:
448,192,39652,1,0,0:0:0:0:
320,192,39695,1,0,0:0:0:0:
192,192,39739,1,0,0:0:0:0:
64,192,39783,1,0,0:0:0:0:
320,192,39783,1,0,0:0:0:0:
448,192,39783,1,0,0:0:0:0:
192,192,40132,1,0,0:0:0:0:
64,192,40132,1,0,0:0:0:0:
192,192,40307,1,0,0:0:0:0:
64,192,40307,1,0,0:0:0:0:
64,192,40482,1,0,0:0:0:0:
192,192,40482,1,0,0:0:0:0:
448,192,40832,1,0,0:0:0:0:
64,192,40832,1,0,0:0:0:0:
64,192,41007,1,0,0:0:0:0:
448,192,41007,1,0,0:0:0:0:
448,192,41182,1,0,0:0:0:0:
64,192,41182,1,0,0:0:0:0:
192,192,41531,1,0,0:0:0:0:
320,192,41531,1,0,0:0:0:0:
192,192,41706,1,0,0:0:0:0:
320,192,41706,1,0,0:0:0:0:
192,192,41881,1,0,0:0:0:0:
320,192,41881,1,0,0:0:0:0:
448,192,41881,1,0,0:0:0:0:
64,192,41881,1,0,0:0:0:0:
192,192,42055,1,0,0:0:0:0:
320,192,42055,1,0,0:0:0:0:
64,192,42230,1,0,0:0:0:0:
192,192,42230,1,0,0:0:0:0:
448,192,42230,1,0,0:0:0:0:
64,192,42580,1,0,0:0:0:0:
192,192,42580,1,0,0:0:0:0:
448,192,42580,1,0,0:0:0:0:
320,192,42580,1,0,0:0:0:0:
320,192,42930,1,0,0:0:0:0:
448,192,42930,1,0,0:0:0:0:
448,192,43105,1,0,0:0:0:0:
320,192,43105,1,0,0:0:0:0:
320,192,43279,1,0,0:0:0:0:
448,192,43279,1,0,0:0:0:0:
64,192,43629,1,0,0:0:0:0:
320,192,43629,1,0,0:0:0:0:
64,192,43804,1,0,0:0:0:0:
320,192,43804,1,0,0:0:0:0:
64,192,43978,1,0,0:0:0:0:
320,192,43978,1,0,0:0:0:0:
192,192,44328,1,0,0:0:0:0:
448,192,44328,1,0,0:0:0:0:
192,192,44503,1,0,0:0:0:0:
448,192,44503,1,0,0:0:0:0:
192,192,44678,1,0,0:0:0:0:
448,192,44678,1,0,0:0:0:0:
320,192,44678,1,0,0:0:0:0:
64,192,44678,1,0,0:0:0:0:
192,192,44853,1,0,0:0:0:0:
448,192,44853,1,0,0:0:0:0:
320,192,45028,1,0,0:0:0:0:
448,192,45028,1,0,0:0:0:0:
64,192,45028,1,0,0:0:0:0:
192,192,45202,1,0,0:0:0:0:
192,192,45290,1,0,0:0:0:0:
320,192,45377,1,0,0:0:0:0:
448,192,45377,1,0,0:0:0:0:
64,192,45377,1,0,0:0:0:0:
192,192,45465,1,0,0:0:0:0:
320,192,45552,1,0,0:0:0:0:
64,192,45639,1,0,0:0:0:0:
192,192,45727,1,0,0:0:0:0:
320,192,45727,1,0,0:0:0:0:
448,192,45727,1,0,0:0:0:0:
64,192,45815,1,0,0:0:0:0:
192,192,45902,1,0,0:0:0:0:
320,192,45989,1,0,0:0:0:0:
64,192,46076,1,0,0:0:0:0:
192,192,46076,1,0,0:0:0:0:
448,192,46076,1,0,0:0:0:0:
320,192,46164,1,0,0:0:0:0:
448,192,46252,1,0,0:0:0:0:
64,192,46338,1,0,0:0:0:0:
320,192,46426,1,0,0:0:0:0:
448,192,46426,1,0,0:0:0:0:
192,192,46426,1,0,0:0:0:0:
64,192,46514,1,0,0:0:0:0:
320,192,46601,1,0,0:0:0:0:
448,192,46688,1,0,0:0:0:0:
64,192,46776,1,0,0:0:0:0:
192,192,46776,1,0,0:0:0:0:
320,192,46776,1,0,0:0:0:0:
448,192,46863,1,0,0:0:0:0:
192,192,46951,1,0,0:0:0:0:
64,192,47038,1,0,0:0:0:0:
448,192,47125,1,0,0:0:0:0:
320,192,47125,1,0,0:0:0:0:
192,192,47125,1,0,0:0:0:0:
64,192,47213,1,0,0:0:0:0:
192,192,47300,1,0,0:0:0:0:
320,192,47388,1,0,0:0:0:0:
64,192,47475,1,0,0:0:0:0:
192,192,47475,1,0,0:0:0:0:
448,192,47475,1,0,0:0:0:0:
320,192,47562,1,0,0:0:0:0:
448,192,47650,1,0,0:0:0:0:
64,192,47738,1,0,0:0:0:0:
192,192,47825,1,0,0:0:0:0:
320,192,47825,1,0,0:0:0:0:
448,192,47825,1,0,0:0:0:0:
64,192,47912,1,0,0:0:0:0:
320,192,47999,1,0,0:0:0:0:
448,192,48087,1,0,0:0:0:0:
192,192,48175,1,0,0:0:0:0:
64,192,48175,1,0,0:0:0:0:
320,192,48175,1,0,0:0:0:0:
448,192,48262,1,0,0:0:0:0:
320,192,48349,1,0,0:0:0:0:
64,192,48349,1,0,0:0:0:0:
192,192,48437,1,0,0:0:0:0:
448,192,48524,1,0,0:0:0:0:
320,192,48524,1,0,0:0:0:0:
64,192,48524,1,0,0:0:0:0:
192,192,48612,1,0,0:0:0:0:
64,192,48699,5,0,0:0:0:0:
448,192,48699,1,0,0:0:0:0:
320,192,48786,1,0,0:0:0:0:
64,192,48874,5,0,0:0:0:0:
192,192,48874,1,0,0:0:0:0:
448,192,48874,1,0,0:0:0:0:
320,192,48961,1,0,0:0:0:0:
448,192,49048,1,0,0:0:0:0:
64,192,49048,1,0,0:0:0:0:
192,192,49136,1,0,0:0:0:0:
320,192,49223,1,0,0:0:0:0:
448,192,49223,1,0,0:0:0:0:
64,192,49223,1,0,0:0:0:0:
192,192,49311,1,0,0:0:0:0:
448,192,49398,1,0,0:0:0:0:
320,192,49398,1,0,0:0:0:0:
64,192,49485,1,0,0:0:0:0:
192,192,49573,5,0,0:0:0:0:
320,192,49573,1,0,0:0:0:0:
448,192,49573,1,0,0:0:0:0:
320,192,49661,1,0,0:0:0:0:
192,192,49748,1,0,0:0:0:0:
64,192,49748,1,0,0:0:0:0:
448,192,49748,1,0,0:0:0:0:
64,192,49835,1,0,0:0:0:0:
320,192,49922,1,0,0:0:0:0:
448,192,49922,1,0,0:0:0:0:
192,192,49922,1,0,0:0:0:0:
448,192,50010,1,0,0:0:0:0:
320,192,50098,1,0,0:0:0:0:
64,192,50098,1,0,0:0:0:0:
192,192,50098,1,0,0:0:0:0:
320,192,50185,1,0,0:0:0:0:
192,192,50272,1,0,0:0:0:0:
64,192,50272,1,0,0:0:0:0:
448,192,50272,1,0,0:0:0:0:
64,192,50360,1,0,0:0:0:0:
192,192,50447,1,0,0:0:0:0:
448,192,50447,1,0,0:0:0:0:
320,192,50447,1,0,0:0:0:0:
192,192,50535,1,0,0:0:0:0:
448,192,50535,1,0,0:0:0:0:
192,192,50622,1,0,0:0:0:0:
320,192,50622,1,0,0:0:0:0:
64,192,50622,1,0,0:0:0:0:
320,192,50709,1,0,0:0:0:0:
448,192,50709,1,0,0:0:0:0:
192,192,50797,1,0,0:0:0:0:
64,192,50797,1,0,0:0:0:0:
448,192,50797,1,0,0:0:0:0:
192,192,50884,1,0,0:0:0:0:
320,192,50884,1,0,0:0:0:0:
64,192,50972,1,0,0:0:0:0:
192,192,50972,1,0,0:0:0:0:
448,192,50972,1,0,0:0:0:0:
320,192,50972,1,0,0:0:0:0:
64,192,51059,1,0,0:0:0:0:
448,192,51059,1,0,0:0:0:0:
448,192,51146,1,0,0:0:0:0:
320,192,51146,1,0,0:0:0:0:
192,192,51146,1,0,0:0:0:0:
64,192,51234,1,0,0:0:0:0:
192,192,51234,1,0,0:0:0:0:
448,192,51322,1,0,0:0:0:0:
192,192,51322,1,0,0:0:0:0:
64,192,51322,1,0,0:0:0:0:
320,192,51322,1,0,0:0:0:0:
448,192,51408,1,0,0:0:0:0:
320,192,51408,1,0,0:0:0:0:
192,192,51496,1,0,0:0:0:0:
64,192,51496,1,0,0:0:0:0:
448,192,51496,1,0,0:0:0:0:
64,192,51584,1,0,0:0:0:0:
320,192,51584,1,0,0:0:0:0:
448,192,51671,1,0,0:0:0:0:
320,192,51671,1,0,0:0:0:0:
192,192,51671,1,0,0:0:0:0:
64,192,51671,1,0,0:0:0:0:
192,192,51758,1,0,0:0:0:0:
320,192,51758,1,0,0:0:0:0:
448,192,51845,1,0,0:0:0:0:
320,192,51845,1,0,0:0:0:0:
64,192,51845,1,0,0:0:0:0:
192,192,51933,1,0,0:0:0:0:
64,192,51933,1,0,0:0:0:0:
64,192,52021,1,0,0:0:0:0:
320,192,52021,1,0,0:0:0:0:
448,192,52021,1,0,0:0:0:0:
192,192,52021,1,0,0:0:0:0:
448,192,52108,1,0,0:0:0:0:
192,192,52108,1,0,0:0:0:0:
320,192,52195,1,0,0:0:0:0:
448,192,52195,1,0,0:0:0:0:
64,192,52195,1,0,0:0:0:0:
192,192,52283,1,0,0:0:0:0:
320,192,52283,1,0,0:0:0:0:
448,192,52370,1,0,0:0:0:0:
320,192,52370,1,0,0:0:0:0:
192,192,52370,1,0,0:0:0:0:
64,192,52370,1,0,0:0:0:0:
64,192,52458,1,0,0:0:0:0:
192,192,52458,1,0,0:0:0:0:
448,192,52458,1,0,0:0:0:0:
320,192,52545,1,0,0:0:0:0:
448,192,52545,1,0,0:0:0:0:
192,192,52545,1,0,0:0:0:0:
448,192,52632,1,0,0:0:0:0:
64,192,52632,1,0,0:0:0:0:
320,192,52632,1,0,0:0:0:0:
320,192,52720,1,0,0:0:0:0:
64,192,52720,1,0,0:0:0:0:
192,192,52720,1,0,0:0:0:0:
448,192,52720,1,0,0:0:0:0:
192,192,52807,1,0,0:0:0:0:
64,192,52807,1,0,0:0:0:0:
448,192,52807,1,0,0:0:0:0:
320,192,52895,1,0,0:0:0:0:
448,192,52895,1,0,0:0:0:0:
192,192,52895,1,0,0:0:0:0:
64,192,52982,1,0,0:0:0:0:
320,192,52982,1,0,0:0:0:0:
192,192,52982,1,0,0:0:0:0:
64,192,53069,1,0,0:0:0:0:
192,192,53069,1,0,0:0:0:0:
320,192,53069,1,0,0:0:0:0:
448,192,53069,1,0,0:0:0:0:
192,192,53157,1,0,0:0:0:0:
448,192,53157,1,0,0:0:0:0:
192,192,53245,1,0,0:0:0:0:
64,192,53245,1,0,0:0:0:0:
320,192,53245,1,0,0:0:0:0:
64,192,53332,1,0,0:0:0:0:
448,192,53332,1,0,0:0:0:0:
448,192,53419,1,0,0:0:0:0:
192,192,53419,1,0,0:0:0:0:
64,192,53419,1,0,0:0:0:0:
320,192,53419,1,0,0:0:0:0:
320,192,53507,1,0,0:0:0:0:
448,192,53507,1,0,0:0:0:0:
192,192,53594,1,0,0:0:0:0:
64,192,53594,1,0,0:0:0:0:
320,192,53594,1,0,0:0:0:0:
64,192,53682,1,0,0:0:0:0:
448,192,53682,1,0,0:0:0:0:
448,192,53768,1,0,0:0:0:0:
192,192,53768,1,0,0:0:0:0:
64,192,53768,1,0,0:0:0:0:
320,192,53768,1,0,0:0:0:0:
192,192,53856,1,0,0:0:0:0:
320,192,53856,1,0,0:0:0:0:
64,192,53944,1,0,0:0:0:0:
192,192,53944,1,0,0:0:0:0:
448,192,53944,1,0,0:0:0:0:
320,192,54031,1,0,0:0:0:0:
448,192,54031,1,0,0:0:0:0:
448,192,54118,1,0,0:0:0:0:
64,192,54118,1,0,0:0:0:0:
192,192,54118,1,0,0:0:0:0:
320,192,54118,1,0,0:0:0:0:
192,192,54206,1,0,0:0:0:0:
448,192,54206,1,0,0:0:0:0:
64,192,54293,1,0,0:0:0:0:
192,192,54293,1,0,0:0:0:0:
320,192,54293,1,0,0:0:0:0:
64,192,54381,1,0,0:0:0:0:
448,192,54381,1,0,0:0:0:0:
448,192,54468,1,0,0:0:0:0:
192,192,54468,1,0,0:0:0:0:
64,192,54468,1,0,0:0:0:0:
320,192,54468,1,0,0:0:0:0:
64,192,54555,1,0,0:0:0:0:
192,192,54555,1,0,0:0:0:0:
320,192,54643,1,0,0:0:0:0:
448,192,54643,1,0,0:0:0:0:
192,192,54643,1,0,0:0:0:0:
64,192,54730,1,0,0:0:0:0:
320,192,54730,1,0,0:0:0:0:
448,192,54818,1,0,0:0:0:0:
320,192,54818,1,0,0:0:0:0:
192,192,54818,1,0,0:0:0:0:
64,192,54818,1,0,0:0:0:0:
192,192,54905,1,0,0:0:0:0:
320,192,54905,1,0,0:0:0:0:
64,192,54992,1,0,0:0:0:0:
192,192,54992,1,0,0:0:0:0:
448,192,54992,1,0,0:0:0:0:
320,192,55080,1,0,0:0:0:0:
64,192,55080,1,0,0:0:0:0:
448,192,55168,1,0,0:0:0:0:
192,192,55168,1,0,0:0:0:0:
64,192,55168,1,0,0:0:0:0:
320,192,55168,1,0,0:0:0:0:
64,192,55255,1,0,0:0:0:0:
448,192,55255,1,0,0:0:0:0:
320,192,55342,1,0,0:0:0:0:
192,192,55342,1,0,0:0:0:0:
192,192,55430,1,0,0:0:0:0:
64,192,55430,1,0,0:0:0:0:
64,192,55517,1,0,0:0:0:0:
448,192,55517,1,0,0:0:0:0:
320,192,55517,1,0,0:0:0:0:
192,192,55692,1,0,0:0:0:0:
320,192,55692,1,0,0:0:0:0:
448,192,55867,1,0,0:0:0:0:
320,192,55867,1,0,0:0:0:0:
192,192,55867,1,0,0:0:0:0:
64,192,55867,1,0,0:0:0:0:
192,192,55954,1,0,0:0:0:0:
320,192,55954,1,0,0:0:0:0:
64,192,56042,1,0,0:0:0:0:
448,192,56042,1,0,0:0:0:0:
448,192,56129,1,0,0:0:0:0:
320,192,56129,1,0,0:0:0:0:
320,192,56216,1,0,0:0:0:0:
192,192,56216,1,0,0:0:0:0:
64,192,56216,1,0,0:0:0:0:
192,192,56392,1,0,0:0:0:0:
64,192,56392,1,0,0:0:0:0:
64,192,56566,1,0,0:0:0:0:
192,192,56566,1,0,0:0:0:0:
448,192,56566,1,0,0:0:0:0:
320,192,56566,1,0,0:0:0:0:
64,192,56653,1,0,0:0:0:0:
448,192,56653,1,0,0:0:0:0:
320,192,56741,1,0,0:0:0:0:
192,192,56741,1,0,0:0:0:0:
64,192,56741,1,0,0:0:0:0:
320,192,56828,1,0,0:0:0:0:
448,192,56828,1,0,0:0:0:0:
448,192,56915,1,0,0:0:0:0:
192,192,56915,1,0,0:0:0:0:
64,192,56915,1,0,0:0:0:0:
320,192,56915,1,0,0:0:0:0:
192,192,57003,1,0,0:0:0:0:
64,192,57003,1,0,0:0:0:0:
64,192,57091,1,0,0:0:0:0:
448,192,57091,1,0,0:0:0:0:
320,192,57091,1,0,0:0:0:0:
192,192,57178,1,0,0:0:0:0:
448,192,57178,1,0,0:0:0:0:
320,192,57265,1,0,0:0:0:0:
448,192,57265,1,0,0:0:0:0:
64,192,57265,1,0,0:0:0:0:
192,192,57265,1,0,0:0:0:0:
192,192,57353,1,0,0:0:0:0:
320,192,57353,1,0,0:0:0:0:
448,192,57440,1,0,0:0:0:0:
192,192,57440,1,0,0:0:0:0:
64,192,57440,1,0,0:0:0:0:
448,192,57528,1,0,0:0:0:0:
320,192,57528,1,0,0:0:0:0:
64,192,57615,1,0,0:0:0:0:
320,192,57615,1,0,0:0:0:0:
448,192,57615,1,0,0:0:0:0:
192,192,57615,1,0,0:0:0:0:
320,192,57702,1,0,0:0:0:0:
64,192,57702,1,0,0:0:0:0:
448,192,57790,1,0,0:0:0:0:
64,192,57790,1,0,0:0:0:0:
192,192,57790,1,0,0:0:0:0:
192,192,57877,1,0,0:0:0:0:
320,192,57877,1,0,0:0:0:0:
320,192,57965,1,0,0:0:0:0:
448,192,57965,1,0,0:0:0:0:
64,192,57965,1,0,0:0:0:0:
192,192,57965,1,0,0:0:0:0:
64,192,58052,1,0,0:0:0:0:
320,192,58052,1,0,0:0:0:0:
448,192,58052,1,0,0:0:0:0:
320,192,58139,1,0,0:0:0:0:
64,192,58139,1,0,0:0:0:0:
192,192,58139,1,0,0:0:0:0:
448,192,58227,1,0,0:0:0:0:
64,192,58227,1,0,0:0:0:0:
192,192,58227,1,0,0:0:0:0:
320,192,58315,1,0,0:0:0:0:
64,192,58315,1,0,0:0:0:0:
192,192,58315,1,0,0:0:0:0:
448,192,58315,1,0,0:0:0:0:
64,192,58402,1,0,0:0:0:0:
448,192,58402,1,0,0:0:0:0:
320,192,58402,1,0,0:0:0:0:
320,192,58489,1,0,0:0:0:0:
64,192,58489,1,0,0:0:0:0:
192,192,58489,1,0,0:0:0:0:
192,192,58576,1,0,0:0:0:0:
448,192,58576,1,0,0:0:0:0:
320,192,58576,1,0,0:0:0:0:
192,192,58664,1,0,0:0:0:0:
64,192,58664,1,0,0:0:0:0:
448,192,58664,1,0,0:0:0:0:
320,192,58664,1,0,0:0:0:0:
64,192,58752,1,0,0:0:0:0:
320,192,58752,1,0,0:0:0:0:
192,192,58838,1,0,0:0:0:0:
448,192,58838,1,0,0:0:0:0:
320,192,58838,1,0,0:0:0:0:
64,192,58926,1,0,0:0:0:0:
448,192,58926,1,0,0:0:0:0:
448,192,59014,1,0,0:0:0:0:
192,192,59014,1,0,0:0:0:0:
64,192,59014,1,0,0:0:0:0:
320,192,59014,1,0,0:0:0:0:
64,192,59101,1,0,0:0:0:0:
192,192,59101,1,0,0:0:0:0:
192,192,59188,1,0,0:0:0:0:
448,192,59188,1,0,0:0:0:0:
320,192,59188,1,0,0:0:0:0:
64,192,59276,1,0,0:0:0:0:
448,192,59276,1,0,0:0:0:0:
448,192,59363,1,0,0:0:0:0:
192,192,59363,1,0,0:0:0:0:
64,192,59363,1,0,0:0:0:0:
320,192,59363,1,0,0:0:0:0:
192,192,59451,1,0,0:0:0:0:
320,192,59451,1,0,0:0:0:0:
64,192,59538,1,0,0:0:0:0:
320,192,59538,1,0,0:0:0:0:
448,192,59538,1,0,0:0:0:0:
64,192,59625,1,0,0:0:0:0:
192,192,59625,1,0,0:0:0:0:
320,192,59713,1,0,0:0:0:0:
192,192,59713,1,0,0:0:0:0:
64,192,59713,1,0,0:0:0:0:
448,192,59713,1,0,0:0:0:0:
64,192,59800,1,0,0:0:0:0:
320,192,59800,1,0,0:0:0:0:
192,192,59888,1,0,0:0:0:0:
320,192,59888,1,0,0:0:0:0:
448,192,59888,1,0,0:0:0:0:
64,192,59975,1,0,0:0:0:0:
448,192,59975,1,0,0:0:0:0:
448,192,60062,1,0,0:0:0:0:
192,192,60062,1,0,0:0:0:0:
64,192,60062,1,0,0:0:0:0:
320,192,60062,1,0,0:0:0:0:
320,192,60150,1,0,0:0:0:0:
448,192,60150,1,0,0:0:0:0:
320,192,60238,1,0,0:0:0:0:
64,192,60238,1,0,0:0:0:0:
192,192,60238,1,0,0:0:0:0:
192,192,60325,1,0,0:0:0:0:
448,192,60325,1,0,0:0:0:0:
320,192,60412,1,0,0:0:0:0:
448,192,60412,1,0,0:0:0:0:
64,192,60412,1,0,0:0:0:0:
192,192,60412,1,0,0:0:0:0:
192,192,60499,1,0,0:0:0:0:
320,192,60499,1,0,0:0:0:0:
64,192,60587,1,0,0:0:0:0:
320,192,60587,1,0,0:0:0:0:
448,192,60587,1,0,0:0:0:0:
448,192,60675,1,0,0:0:0:0:
192,192,60675,1,0,0:0:0:0:
448,192,60762,1,0,0:0:0:0:
192,192,60762,1,0,0:0:0:0:
64,192,60762,1,0,0:0:0:0:
320,192,60762,1,0,0:0:0:0:
64,192,60849,1,0,0:0:0:0:
448,192,60849,1,0,0:0:0:0:
320,192,60937,1,0,0:0:0:0:
192,192,60937,1,0,0:0:0:0:
448,192,61024,1,0,0:0:0:0:
320,192,61024,1,0,0:0:0:0:
192,192,61112,1,0,0:0:0:0:
64,192,61112,1,0,0:0:0:0:
448,192,61112,1,0,0:0:0:0:
192,192,61286,1,0,0:0:0:0:
320,192,61286,1,0,0:0:0:0:
320,192,61461,1,0,0:0:0:0:
448,192,61461,1,0,0:0:0:0:
64,192,61461,1,0,0:0:0:0:
192,192,61461,1,0,0:0:0:0:
192,192,61548,1,0,0:0:0:0:
320,192,61548,1,0,0:0:0:0:
64,192,61636,1,0,0:0:0:0:
448,192,61636,1,0,0:0:0:0:
192,192,61723,1,0,0:0:0:0:
64,192,61723,1,0,0:0:0:0:
448,192,61811,1,0,0:0:0:0:
320,192,61811,1,0,0:0:0:0:
192,192,61811,1,0,0:0:0:0:
448,192,61985,1,0,0:0:0:0:
320,192,61985,1,0,0:0:0:0:
192,192,62161,1,0,0:0:0:0:
64,192,62161,1,0,0:0:0:0:
448,192,62161,1,0,0:0:0:0:
320,192,62161,1,0,0:0:0:0:
64,192,62335,1,0,0:0:0:0:
192,192,62335,1,0,0:0:0:0:
320,192,62422,1,0,0:0:0:0:
448,192,62422,1,0,0:0:0:0:
320,192,62510,1,0,0:0:0:0:
448,192,62510,1,0,0:0:0:0:
192,192,62510,1,0,0:0:0:0:
64,192,62685,1,0,0:0:0:0:
448,192,62685,1,0,0:0:0:0:
320,192,62860,1,0,0:0:0:0:
192,192,62860,1,0,0:0:0:0:
448,192,62860,1,0,0:0:0:0:
64,192,62947,1,0,0:0:0:0:
192,192,62947,1,0,0:0:0:0:
448,192,63035,1,0,0:0:0:0:
64,192,63035,1,0,0:0:0:0:
320,192,63035,1,0,0:0:0:0:
448,192,63122,1,0,0:0:0:0:
192,192,63122,1,0,0:0:0:0:
192,192,63209,1,0,0:0:0:0:
320,192,63209,1,0,0:0:0:0:
64,192,63209,1,0,0:0:0:0:
448,192,63384,1,0,0:0:0:0:
64,192,63384,1,0,0:0:0:0:
320,192,63559,1,0,0:0:0:0:
192,192,63559,1,0,0:0:0:0:
64,192,63646,1,0,0:0:0:0:
192,192,63646,1,0,0:0:0:0:
448,192,63734,1,0,0:0:0:0:
320,192,63734,1,0,0:0:0:0:
64,192,63734,1,0,0:0:0:0:
192,192,63908,1,0,0:0:0:0:
320,192,63908,1,0,0:0:0:0:
64,192,64084,1,0,0:0:0:0:
448,192,64084,1,0,0:0:0:0:
64,192,64258,128,0,64521:0:0:0:0:
448,192,64258,128,0,64521:0:0:0:0:
448,192,64608,1,0,0:0:0:0:
64,192,64608,1,0,0:0:0:0:
320,192,64608,1,0,0:0:0:0:
192,192,64695,1,0,0:0:0:0:
320,192,64783,1,0,0:0:0:0:
64,192,64870,1,0,0:0:0:0:
192,192,64958,1,0,0:0:0:0:
448,192,64958,1,0,0:0:0:0:
320,192,64958,1,0,0:0:0:0:
64,192,65045,1,0,0:0:0:0:
320,192,65132,1,0,0:0:0:0:
448,192,65132,1,0,0:0:0:0:
64,192,65220,1,0,0:0:0:0:
192,192,65220,1,0,0:0:0:0:
320,192,65307,1,0,0:0:0:0:
448,192,65307,1,0,0:0:0:0:
64,192,65307,1,0,0:0:0:0:
192,192,65482,1,0,0:0:0:0:
320,192,65482,1,0,0:0:0:0:
64,192,65657,1,0,0:0:0:0:
448,192,65657,1,0,0:0:0:0:
320,192,65657,1,0,0:0:0:0:
192,192,65745,1,0,0:0:0:0:
320,192,65745,1,0,0:0:0:0:
192,192,65832,1,0,0:0:0:0:
448,192,65832,1,0,0:0:0:0:
64,192,65832,1,0,0:0:0:0:
320,192,65919,1,0,0:0:0:0:
64,192,65919,1,0,0:0:0:0:
448,192,66007,1,0,0:0:0:0:
192,192,66007,1,0,0:0:0:0:
320,192,66007,1,0,0:0:0:0:
320,192,66182,1,0,0:0:0:0:
192,192,66182,1,0,0:0:0:0:
64,192,66356,1,0,0:0:0:0:
192,192,66356,1,0,0:0:0:0:
320,192,66444,1,0,0:0:0:0:
448,192,66444,1,0,0:0:0:0:
448,192,66531,1,0,0:0:0:0:
192,192,66531,1,0,0:0:0:0:
64,192,66531,1,0,0:0:0:0:
192,192,66706,1,0,0:0:0:0:
320,192,66706,1,0,0:0:0:0:
64,192,66881,1,0,0:0:0:0:
448,192,66881,1,0,0:0:0:0:
64,192,67055,128,0,67318:0:0:0:0:
448,192,67055,128,0,67318:0:0:0:0:
448,192,67405,1,0,0:0:0:0:
64,192,67405,1,0,0:0:0:0:
320,192,67405,1,0,0:0:0:0:
192,192,67449,1,0,0:0:0:0:
448,192,67492,1,0,0:0:0:0:
320,192,67536,1,0,0:0:0:0:
64,192,67580,1,0,0:0:0:0:
192,192,67624,1,0,0:0:0:0:
448,192,67668,1,0,0:0:0:0:
320,192,67711,1,0,0:0:0:0:
64,192,67755,1,0,0:0:0:0:
192,192,67755,1,0,0:0:0:0:
448,192,67755,1,0,0:0:0:0:
192,192,67930,1,0,0:0:0:0:
320,192,67930,1,0,0:0:0:0:
64,192,68017,1,0,0:0:0:0:
320,192,68017,1,0,0:0:0:0:
192,192,68105,1,0,0:0:0:0:
64,192,68105,1,0,0:0:0:0:
448,192,68105,1,0,0:0:0:0:
64,192,68279,1,0,0:0:0:0:
448,192,68279,1,0,0:0:0:0:
192,192,68454,1,0,0:0:0:0:
320,192,68454,1,0,0:0:0:0:
448,192,68454,1,0,0:0:0:0:
64,192,68542,1,0,0:0:0:0:
192,192,68542,1,0,0:0:0:0:
320,192,68629,1,0,0:0:0:0:
448,192,68629,1,0,0:0:0:0:
64,192,68629,1,0,0:0:0:0:
192,192,68716,1,0,0:0:0:0:
320,192,68716,1,0,0:0:0:0:
64,192,68804,1,0,0:0:0:0:
192,192,68804,1,0,0:0:0:0:
448,192,68804,1,0,0:0:0:0:
64,192,68978,1,0,0:0:0:0:
448,192,68978,1,0,0:0:0:0:
192,192,69153,1,0,0:0:0:0:
448,192,69153,1,0,0:0:0:0:
320,192,69241,1,0,0:0:0:0:
192,192,69241,1,0,0:0:0:0:
64,192,69328,1,0,0:0:0:0:
320,192,69328,1,0,0:0:0:0:
448,192,69503,1,0,0:0:0:0:
64,192,69503,1,0,0:0:0:0:
192,192,69678,1,0,0:0:0:0:
320,192,69678,1,0,0:0:0:0:
192,192,69853,128,0,70115:0:0:0:0:
320,192,69853,128,0,70115:0:0:0:0:
64,192,70202,1,0,0:0:0:0:
192,192,70202,1,0,0:0:0:0:
448,192,70202,1,0,0:0:0:0:
320,192,70290,1,0,0:0:0:0:
192,192,70377,1,0,0:0:0:0:
448,192,70465,1,0,0:0:0:0:
320,192,70552,1,0,0:0:0:0:
64,192,70552,1,0,0:0:0:0:
192,192,70552,1,0,0:0:0:0:
448,192,70639,1,0,0:0:0:0:
192,192,70727,1,0,0:0:0:0:
64,192,70727,1,0,0:0:0:0:
448,192,70815,1,0,0:0:0:0:
320,192,70815,1,0,0:0:0:0:
192,192,70902,1,0,0:0:0:0:
64,192,70902,1,0,0:0:0:0:
448,192,70902,1,0,0:0:0:0:
320,192,71076,1,0,0:0:0:0:
192,192,71076,1,0,0:0:0:0:
448,192,71252,1,0,0:0:0:0:
64,192,71252,1,0,0:0:0:0:
192,192,71252,1,0,0:0:0:0:
320,192,71338,1,0,0:0:0:0:
192,192,71338,1,0,0:0:0:0:
320,192,71426,1,0,0:0:0:0:
64,192,71426,1,0,0:0:0:0:
448,192,71426,1,0,0:0:0:0:
192,192,71514,1,0,0:0:0:0:
448,192,71514,1,0,0:0:0:0:
64,192,71601,1,0,0:0:0:0:
320,192,71601,1,0,0:0:0:0:
192,192,71601,1,0,0:0:0:0:
192,192,71776,1,0,0:0:0:0:
320,192,71776,1,0,0:0:0:0:
448,192,71951,1,0,0:0:0:0:
320,192,71951,1,0,0:0:0:0:
192,192,72038,1,0,0:0:0:0:
64,192,72038,1,0,0:0:0:0:
64,192,72125,1,0,0:0:0:0:
320,192,72125,1,0,0:0:0:0:
448,192,72125,1,0,0:0:0:0:
320,192,72300,1,0,0:0:0:0:
192,192,72300,1,0,0:0:0:0:
448,192,72475,1,0,0:0:0:0:
64,192,72475,1,0,0:0:0:0:
448,192,72650,128,0,72912:0:0:0:0:
64,192,72650,128,0,72912:0:0:0:0:
64,192,72999,1,0,0:0:0:0:
192,192,72999,1,0,0:0:0:0:
320,192,72999,1,0,0:0:0:0:
448,192,72999,1,0,0:0:0:0:
