osu file format v14

[General]
AudioFilename: audio110.mp3
AudioLeadIn: 0
PreviewTime: 60192
Countdown: 0
SampleSet: Drum
StackLeniency: 0.7
Mode: 3
LetterboxInBreaks: 0
SpecialStyle: 0
WidescreenStoryboard: 1

[Editor]
Bookmarks: 728,13951,28827,40397,51967,60232,73455
DistanceSpacing: 0.5
BeatDivisor: 4
GridSize: 32
TimelineZoom: 2.599999

[Metadata]
Title:Show
TitleUnicode:唱
Artist:Ado
ArtistUnicode:Ado
Creator:Kabuki
Version:Cut Ver. [1.1x Rate]
Source:
Tags:tohru mitsuhashi shou tophamhat-kyo fake type. アド [-e_s_i_a-] [-esia-] e_s_i_a esia maruko -maruko- iredi gaston_2199 jpop pop j-pop japanese rock jrock j-rock vocal giga teddyloid
BeatmapID:4535064
BeatmapSetID:2152390

[Difficulty]
HPDrainRate:8
CircleSize:4
OverallDifficulty:8
ApproachRate:5
SliderMultiplier:1.1
SliderTickRate:1

[Events]
//Background and Video events
0,0,"1920x1080.jpeg",0,0
//Break Periods
//Storyboard Layer 0 (Background)
//Storyboard Layer 1 (Fail)
//Storyboard Layer 2 (Pass)
//Storyboard Layer 3 (Foreground)
//Storyboard Layer 4 (Overlay)
//Storyboard Sound Samples

[TimingPoints]
728,413.223140495868,4,3,0,100,1,0
728,-100,4,3,0,100,0,0
60232,-100,4,3,0,100,0,1
73455,-100,4,3,0,100,0,0

[HitObjects]
320,192,263,5,0,0:0:0:0:
64,192,315,1,0,0:0:0:0:
192,192,366,1,0,0:0:0:0:
320,192,418,1,0,0:0:0:0:
448,192,469,1,0,0:0:0:0:
64,192,521,1,0,0:0:0:0:
192,192,573,1,0,0:0:0:0:
448,192,625,1,0,0:0:0:0:
320,192,676,1,0,0:0:0:0:
192,192,728,1,0,0:0:0:0:
448,192,728,1,0,0:0:0:0:
64,192,728,128,0,1141:0:0:0:0:
448,192,1141,128,0,1555:0:0:0:0:
192,192,1555,1,0,0:0:0:0:
192,192,1761,128,0,2174:0:0:0:0:
448,192,2174,1,0,0:0:0:0:
320,192,2381,1,0,0:0:0:0:
192,192,2587,1,0,0:0:0:0:
64,192,2794,1,0,0:0:0:0:
320,192,3001,1,0,0:0:0:0:
64,192,3207,128,0,3620:0:0:0:0:
448,192,3827,1,0,0:0:0:0:
192,192,3827,1,0,0:0:0:0:
64,192,4034,1,0,0:0:0:0:
448,192,4034,1,0,0:0:0:0:
320,192,4034,1,0,0:0:0:0:
192,192,4137,1,0,0:0:0:0:
320,192,4240,1,0,0:0:0:0:
448,192,4344,1,0,0:0:0:0:
64,192,4446,1,0,0:0:0:0:
192,192,4446,1,0,0:0:0:0:
320,192,4446,1,0,0:0:0:0:
320,192,4654,1,0,0:0:0:0:
64,192,4654,1,0,0:0:0:0:
64,192,4860,1,0,0:0:0:0:
192,192,4860,1,0,0:0:0:0:
448,192,4860,1,0,0:0:0:0:
320,192,4964,1,0,0:0:0:0:
192,192,5066,1,0,0:0:0:0:
64,192,5066,1,0,0:0:0:0:
448,192,5066,1,0,0:0:0:0:
320,192,5170,1,0,0:0:0:0:
192,192,5274,1,0,0:0:0:0:
448,192,5274,1,0,0:0:0:0:
64,192,5376,1,0,0:0:0:0:
192,192,5480,1,0,0:0:0:0:
320,192,5480,1,0,0:0:0:0:
448,192,5480,1,0,0:0:0:0:
64,192,5583,1,0,0:0:0:0:
320,192,5686,1,0,0:0:0:0:
448,192,5686,1,0,0:0:0:0:
320,192,5893,1,0,0:0:0:0:
64,192,5893,1,0,0:0:0:0:
64,192,6100,1,0,0:0:0:0:
192,192,6100,1,0,0:0:0:0:
448,192,6100,1,0,0:0:0:0:
320,192,6100,1,0,0:0:0:0:
192,192,6306,1,0,0:0:0:0:
64,192,6306,1,0,0:0:0:0:
320,192,6513,1,0,0:0:0:0:
448,192,6513,1,0,0:0:0:0:
192,192,6513,1,0,0:0:0:0:
64,192,6513,1,0,0:0:0:0:
448,192,6719,1,0,0:0:0:0:
320,192,6719,1,0,0:0:0:0:
192,192,6719,1,0,0:0:0:0:
448,192,6926,1,0,0:0:0:0:
192,192,6926,1,0,0:0:0:0:
64,192,6926,1,0,0:0:0:0:
320,192,6926,1,0,0:0:0:0:
448,192,7133,1,0,0:0:0:0:
320,192,7236,1,0,0:0:0:0:
64,192,7339,1,0,0:0:0:0:
192,192,7339,1,0,0:0:0:0:
320,192,7443,1,0,0:0:0:0:
448,192,7546,1,0,0:0:0:0:
64,192,7649,1,0,0:0:0:0:
320,192,7753,1,0,0:0:0:0:
192,192,7753,1,0,0:0:0:0:
448,192,7855,1,0,0:0:0:0:
64,192,7959,1,0,0:0:0:0:
192,192,8063,1,0,0:0:0:0:
320,192,8165,1,0,0:0:0:0:
448,192,8165,1,0,0:0:0:0:
192,192,8269,1,0,0:0:0:0:
64,192,8373,1,0,0:0:0:0:
448,192,8373,1,0,0:0:0:0:
320,192,8475,1,0,0:0:0:0:
448,192,8579,1,0,0:0:0:0:
320,192,8683,1,0,0:0:0:0:
192,192,8785,1,0,0:0:0:0:
64,192,8889,1,0,0:0:0:0:
320,192,8992,1,0,0:0:0:0:
448,192,8992,1,0,0:0:0:0:
192,192,8992,1,0,0:0:0:0:
448,192,9095,1,0,0:0:0:0:
64,192,9199,1,0,0:0:0:0:
192,192,9199,1,0,0:0:0:0:
64,192,9302,1,0,0:0:0:0:
320,192,9405,1,0,0:0:0:0:
448,192,9405,1,0,0:0:0:0:
192,192,9405,1,0,0:0:0:0:
320,192,9509,1,0,0:0:0:0:
192,192,9612,5,0,0:0:0:0:
64,192,9612,1,0,0:0:0:0:
64,192,9715,1,0,0:0:0:0:
448,192,9819,1,0,0:0:0:0:
320,192,9819,1,0,0:0:0:0:
192,192,9819,1,0,0:0:0:0:
64,192,9887,1,0,0:0:0:0:
320,192,9956,1,0,0:0:0:0:
192,192,10025,1,0,0:0:0:0:
448,192,10095,1,0,0:0:0:0:
64,192,10163,1,0,0:0:0:0:
320,192,10232,1,0,0:0:0:0:
192,192,10232,1,0,0:0:0:0:
448,192,10232,1,0,0:0:0:0:
320,192,10335,1,0,0:0:0:0:
448,192,10335,1,0,0:0:0:0:
64,192,10438,1,0,0:0:0:0:
192,192,10438,1,0,0:0:0:0:
448,192,10542,1,0,0:0:0:0:
320,192,10542,1,0,0:0:0:0:
64,192,10645,5,0,0:0:0:0:
192,192,10645,1,0,0:0:0:0:
320,192,10696,1,0,0:0:0:0:
448,192,10696,1,0,0:0:0:0:
192,192,10748,1,0,0:0:0:0:
64,192,10748,1,0,0:0:0:0:
320,192,10800,1,0,0:0:0:0:
448,192,10800,1,0,0:0:0:0:
192,192,10852,1,0,0:0:0:0:
64,192,10852,1,0,0:0:0:0:
320,192,10904,1,0,0:0:0:0:
448,192,10904,1,0,0:0:0:0:
64,192,10955,5,0,0:0:0:0:
192,192,10955,1,0,0:0:0:0:
320,192,11006,1,0,0:0:0:0:
448,192,11006,1,0,0:0:0:0:
64,192,11058,1,0,0:0:0:0:
192,192,11058,1,0,0:0:0:0:
320,192,11110,1,0,0:0:0:0:
448,192,11110,1,0,0:0:0:0:
192,192,11162,1,0,0:0:0:0:
64,192,11162,1,0,0:0:0:0:
448,192,11214,1,0,0:0:0:0:
320,192,11214,1,0,0:0:0:0:
64,192,11265,5,0,0:0:0:0:
192,192,11265,1,0,0:0:0:0:
448,192,11316,1,0,0:0:0:0:
320,192,11316,1,0,0:0:0:0:
192,192,11368,1,0,0:0:0:0:
64,192,11368,1,0,0:0:0:0:
448,192,11420,1,0,0:0:0:0:
320,192,11420,1,0,0:0:0:0:
64,192,11472,1,0,0:0:0:0:
192,192,11472,1,0,0:0:0:0:
320,192,11524,1,0,0:0:0:0:
448,192,11524,1,0,0:0:0:0:
64,192,11575,5,0,0:0:0:0:
192,192,11575,1,0,0:0:0:0:
320,192,11626,1,0,0:0:0:0:
448,192,11626,1,0,0:0:0:0:
64,192,11678,1,0,0:0:0:0:
192,192,11678,1,0,0:0:0:0:
320,192,11730,1,0,0:0:0:0:
448,192,11730,1,0,0:0:0:0:
192,192,11782,1,0,0:0:0:0:
64,192,11782,1,0,0:0:0:0:
448,192,11833,1,0,0:0:0:0:
320,192,11833,1,0,0:0:0:0:
64,192,11885,5,0,0:0:0:0:
192,192,11885,1,0,0:0:0:0:
448,192,11936,1,0,0:0:0:0:
320,192,11936,1,0,0:0:0:0:
192,192,11988,1,0,0:0:0:0:
64,192,11988,1,0,0:0:0:0:
448,192,12040,1,0,0:0:0:0:
320,192,12040,1,0,0:0:0:0:
64,192,12092,1,0,0:0:0:0:
192,192,12092,1,0,0:0:0:0:
320,192,12143,1,0,0:0:0:0:
448,192,12143,1,0,0:0:0:0:
192,192,12195,1,0,0:0:0:0:
64,192,12195,1,0,0:0:0:0:
320,192,12246,1,0,0:0:0:0:
448,192,12246,1,0,0:0:0:0:
64,192,12298,128,0,13435:0:0:0:0:
192,192,12298,1,0,0:0:0:0:
320,192,12608,1,0,0:0:0:0:
448,192,12711,128,0,13435:0:0:0:0:
320,192,13021,1,0,0:0:0:0:
192,192,13125,128,0,13847:0:0:0:0:
320,192,13435,1,0,0:0:0:0:
320,192,13537,128,0,13847:0:0:0:0:
448,192,13537,128,0,13847:0:0:0:0:
64,192,13537,128,0,13847:0:0:0:0:
448,192,13951,1,0,0:0:0:0:
320,192,13951,1,0,0:0:0:0:
192,192,13951,1,0,0:0:0:0:
64,192,13951,1,0,0:0:0:0:
448,192,14055,1,0,0:0:0:0:
192,192,14157,1,0,0:0:0:0:
320,192,14261,1,0,0:0:0:0:
192,192,14365,1,0,0:0:0:0:
64,192,14365,1,0,0:0:0:0:
448,192,14365,1,0,0:0:0:0:
64,192,14467,1,0,0:0:0:0:
320,192,14571,1,0,0:0:0:0:
192,192,14674,1,0,0:0:0:0:
320,192,14777,1,0,0:0:0:0:
64,192,14777,1,0,0:0:0:0:
448,192,14777,1,0,0:0:0:0:
192,192,14881,1,0,0:0:0:0:
64,192,14984,1,0,0:0:0:0:
320,192,14984,1,0,0:0:0:0:
448,192,15087,1,0,0:0:0:0:
192,192,15191,1,0,0:0:0:0:
64,192,15191,1,0,0:0:0:0:
320,192,15191,1,0,0:0:0:0:
64,192,15397,1,0,0:0:0:0:
320,192,15397,1,0,0:0:0:0:
448,192,15604,1,0,0:0:0:0:
320,192,15604,1,0,0:0:0:0:
192,192,15604,1,0,0:0:0:0:
64,192,15604,1,0,0:0:0:0:
192,192,15707,1,0,0:0:0:0:
448,192,15810,1,0,0:0:0:0:
320,192,15914,1,0,0:0:0:0:
64,192,16017,1,0,0:0:0:0:
192,192,16017,1,0,0:0:0:0:
448,192,16017,1,0,0:0:0:0:
320,192,16120,1,0,0:0:0:0:
192,192,16224,1,0,0:0:0:0:
448,192,16224,1,0,0:0:0:0:
64,192,16327,1,0,0:0:0:0:
192,192,16430,1,0,0:0:0:0:
320,192,16430,1,0,0:0:0:0:
448,192,16430,1,0,0:0:0:0:
448,192,16534,1,0,0:0:0:0:
192,192,16637,1,0,0:0:0:0:
64,192,16740,1,0,0:0:0:0:
448,192,16844,1,0,0:0:0:0:
320,192,16844,1,0,0:0:0:0:
192,192,16844,1,0,0:0:0:0:
64,192,17050,1,0,0:0:0:0:
448,192,17050,1,0,0:0:0:0:
320,192,17256,1,0,0:0:0:0:
448,192,17256,1,0,0:0:0:0:
64,192,17256,1,0,0:0:0:0:
192,192,17256,1,0,0:0:0:0:
64,192,17360,1,0,0:0:0:0:
320,192,17464,1,0,0:0:0:0:
192,192,17566,1,0,0:0:0:0:
64,192,17670,1,0,0:0:0:0:
448,192,17670,1,0,0:0:0:0:
320,192,17670,1,0,0:0:0:0:
448,192,17774,1,0,0:0:0:0:
192,192,17876,1,0,0:0:0:0:
320,192,17980,1,0,0:0:0:0:
64,192,18083,1,0,0:0:0:0:
448,192,18083,1,0,0:0:0:0:
192,192,18083,1,0,0:0:0:0:
320,192,18186,1,0,0:0:0:0:
192,192,18290,1,0,0:0:0:0:
448,192,18290,1,0,0:0:0:0:
64,192,18393,1,0,0:0:0:0:
192,192,18496,1,0,0:0:0:0:
448,192,18496,1,0,0:0:0:0:
320,192,18496,1,0,0:0:0:0:
320,192,18703,1,0,0:0:0:0:
64,192,18703,1,0,0:0:0:0:
320,192,18910,1,0,0:0:0:0:
192,192,18910,1,0,0:0:0:0:
64,192,18910,1,0,0:0:0:0:
448,192,18910,1,0,0:0:0:0:
64,192,19116,1,0,0:0:0:0:
320,192,19116,1,0,0:0:0:0:
448,192,19116,1,0,0:0:0:0:
192,192,19219,1,0,0:0:0:0:
64,192,19323,1,0,0:0:0:0:
320,192,19323,1,0,0:0:0:0:
448,192,19323,1,0,0:0:0:0:
192,192,19426,1,0,0:0:0:0:
64,192,19529,1,0,0:0:0:0:
320,192,19529,1,0,0:0:0:0:
448,192,19529,1,0,0:0:0:0:
64,192,19736,1,0,0:0:0:0:
320,192,19736,1,0,0:0:0:0:
448,192,19736,1,0,0:0:0:0:
320,192,19839,1,0,0:0:0:0:
192,192,19943,1,0,0:0:0:0:
64,192,19943,1,0,0:0:0:0:
448,192,19943,1,0,0:0:0:0:
64,192,20046,1,0,0:0:0:0:
320,192,20149,1,0,0:0:0:0:
448,192,20149,1,0,0:0:0:0:
192,192,20149,1,0,0:0:0:0:
64,192,20149,1,0,0:0:0:0:
320,192,20355,1,0,0:0:0:0:
192,192,20355,1,0,0:0:0:0:
64,192,20563,1,0,0:0:0:0:
192,192,20563,1,0,0:0:0:0:
320,192,20563,1,0,0:0:0:0:
448,192,20563,1,0,0:0:0:0:
192,192,20665,1,0,0:0:0:0:
320,192,20665,1,0,0:0:0:0:
448,192,20665,1,0,0:0:0:0:
320,192,20769,1,0,0:0:0:0:
64,192,20769,1,0,0:0:0:0:
64,192,20873,1,0,0:0:0:0:
192,192,20873,1,0,0:0:0:0:
192,192,20975,1,0,0:0:0:0:
64,192,20975,1,0,0:0:0:0:
320,192,20975,1,0,0:0:0:0:
448,192,20975,1,0,0:0:0:0:
192,192,21079,1,0,0:0:0:0:
448,192,21079,1,0,0:0:0:0:
64,192,21079,1,0,0:0:0:0:
320,192,21183,1,0,0:0:0:0:
192,192,21183,1,0,0:0:0:0:
64,192,21285,1,0,0:0:0:0:
320,192,21285,1,0,0:0:0:0:
64,192,21389,1,0,0:0:0:0:
192,192,21389,1,0,0:0:0:0:
320,192,21389,1,0,0:0:0:0:
448,192,21389,1,0,0:0:0:0:
192,192,21492,1,0,0:0:0:0:
320,192,21492,1,0,0:0:0:0:
448,192,21492,1,0,0:0:0:0:
64,192,21595,1,0,0:0:0:0:
448,192,21595,1,0,0:0:0:0:
192,192,21699,1,0,0:0:0:0:
64,192,21699,1,0,0:0:0:0:
192,192,21802,1,0,0:0:0:0:
320,192,21802,1,0,0:0:0:0:
448,192,21802,1,0,0:0:0:0:
64,192,21802,1,0,0:0:0:0:
320,192,21905,1,0,0:0:0:0:
448,192,21905,1,0,0:0:0:0:
64,192,21905,1,0,0:0:0:0:
192,192,22009,1,0,0:0:0:0:
448,192,22009,1,0,0:0:0:0:
320,192,22112,1,0,0:0:0:0:
192,192,22112,1,0,0:0:0:0:
192,192,22215,1,0,0:0:0:0:
320,192,22215,1,0,0:0:0:0:
448,192,22215,1,0,0:0:0:0:
64,192,22215,1,0,0:0:0:0:
64,192,22319,1,0,0:0:0:0:
192,192,22319,1,0,0:0:0:0:
448,192,22422,1,0,0:0:0:0:
64,192,22422,1,0,0:0:0:0:
320,192,22525,1,0,0:0:0:0:
192,192,22525,1,0,0:0:0:0:
64,192,22628,1,0,0:0:0:0:
320,192,22628,1,0,0:0:0:0:
448,192,22628,1,0,0:0:0:0:
192,192,22732,1,0,0:0:0:0:
64,192,22732,1,0,0:0:0:0:
448,192,22835,1,0,0:0:0:0:
192,192,22835,1,0,0:0:0:0:
64,192,22938,1,0,0:0:0:0:
320,192,22938,1,0,0:0:0:0:
192,192,23042,1,0,0:0:0:0:
320,192,23042,1,0,0:0:0:0:
448,192,23042,1,0,0:0:0:0:
64,192,23145,1,0,0:0:0:0:
192,192,23145,1,0,0:0:0:0:
448,192,23248,1,0,0:0:0:0:
64,192,23248,1,0,0:0:0:0:
320,192,23352,1,0,0:0:0:0:
448,192,23352,1,0,0:0:0:0:
64,192,23455,1,0,0:0:0:0:
320,192,23455,1,0,0:0:0:0:
192,192,23455,1,0,0:0:0:0:
64,192,23558,1,0,0:0:0:0:
448,192,23558,1,0,0:0:0:0:
64,192,23662,1,0,0:0:0:0:
192,192,23662,1,0,0:0:0:0:
320,192,23662,1,0,0:0:0:0:
320,192,23765,1,0,0:0:0:0:
192,192,23765,1,0,0:0:0:0:
192,192,23868,1,0,0:0:0:0:
64,192,23868,1,0,0:0:0:0:
320,192,23868,1,0,0:0:0:0:
448,192,23868,1,0,0:0:0:0:
192,192,23972,1,0,0:0:0:0:
64,192,23972,1,0,0:0:0:0:
448,192,23972,1,0,0:0:0:0:
320,192,24075,1,0,0:0:0:0:
448,192,24075,1,0,0:0:0:0:
64,192,24178,1,0,0:0:0:0:
320,192,24178,1,0,0:0:0:0:
192,192,24282,1,0,0:0:0:0:
64,192,24282,1,0,0:0:0:0:
320,192,24282,1,0,0:0:0:0:
448,192,24282,1,0,0:0:0:0:
192,192,24385,1,0,0:0:0:0:
320,192,24385,1,0,0:0:0:0:
448,192,24385,1,0,0:0:0:0:
64,192,24488,1,0,0:0:0:0:
192,192,24488,1,0,0:0:0:0:
448,192,24592,1,0,0:0:0:0:
64,192,24592,1,0,0:0:0:0:
448,192,24695,1,0,0:0:0:0:
320,192,24695,1,0,0:0:0:0:
192,192,24695,1,0,0:0:0:0:
64,192,24695,1,0,0:0:0:0:
320,192,24798,1,0,0:0:0:0:
192,192,24798,1,0,0:0:0:0:
64,192,24798,1,0,0:0:0:0:
192,192,24901,1,0,0:0:0:0:
448,192,24901,1,0,0:0:0:0:
320,192,25005,1,0,0:0:0:0:
192,192,25005,1,0,0:0:0:0:
64,192,25108,1,0,0:0:0:0:
192,192,25108,1,0,0:0:0:0:
320,192,25108,1,0,0:0:0:0:
448,192,25108,1,0,0:0:0:0:
448,192,25211,1,0,0:0:0:0:
320,192,25211,1,0,0:0:0:0:
64,192,25211,1,0,0:0:0:0:
192,192,25315,1,0,0:0:0:0:
64,192,25315,1,0,0:0:0:0:
192,192,25418,1,0,0:0:0:0:
448,192,25418,1,0,0:0:0:0:
64,192,25521,1,0,0:0:0:0:
192,192,25521,1,0,0:0:0:0:
448,192,25521,1,0,0:0:0:0:
320,192,25521,1,0,0:0:0:0:
192,192,25625,1,0,0:0:0:0:
320,192,25625,1,0,0:0:0:0:
64,192,25728,1,0,0:0:0:0:
320,192,25728,1,0,0:0:0:0:
448,192,25728,1,0,0:0:0:0:
192,192,25831,1,0,0:0:0:0:
320,192,25831,1,0,0:0:0:0:
64,192,25935,1,0,0:0:0:0:
192,192,25935,1,0,0:0:0:0:
320,192,25935,1,0,0:0:0:0:
448,192,25935,1,0,0:0:0:0:
192,192,26037,1,0,0:0:0:0:
64,192,26037,1,0,0:0:0:0:
64,192,26141,1,0,0:0:0:0:
320,192,26141,1,0,0:0:0:0:
448,192,26141,1,0,0:0:0:0:
192,192,26245,1,0,0:0:0:0:
320,192,26245,1,0,0:0:0:0:
64,192,26347,1,0,0:0:0:0:
320,192,26347,1,0,0:0:0:0:
448,192,26347,1,0,0:0:0:0:
192,192,26451,1,0,0:0:0:0:
448,192,26451,1,0,0:0:0:0:
192,192,26555,1,0,0:0:0:0:
320,192,26555,1,0,0:0:0:0:
64,192,26657,1,0,0:0:0:0:
320,192,26657,1,0,0:0:0:0:
192,192,26761,1,0,0:0:0:0:
320,192,26761,1,0,0:0:0:0:
448,192,26761,1,0,0:0:0:0:
64,192,26761,1,0,0:0:0:0:
192,192,26967,1,0,0:0:0:0:
448,192,26967,1,0,0:0:0:0:
64,192,27174,1,0,0:0:0:0:
320,192,27174,1,0,0:0:0:0:
448,192,27174,1,0,0:0:0:0:
192,192,27174,1,0,0:0:0:0:
192,192,27277,1,0,0:0:0:0:
320,192,27277,1,0,0:0:0:0:
64,192,27277,1,0,0:0:0:0:
192,192,27381,1,0,0:0:0:0:
448,192,27381,1,0,0:0:0:0:
320,192,27484,1,0,0:0:0:0:
192,192,27484,1,0,0:0:0:0:
64,192,27587,1,0,0:0:0:0:
192,192,27587,1,0,0:0:0:0:
320,192,27587,1,0,0:0:0:0:
448,192,27587,1,0,0:0:0:0:
64,192,27691,1,0,0:0:0:0:
192,192,27691,1,0,0:0:0:0:
448,192,27691,1,0,0:0:0:0:
320,192,27794,1,0,0:0:0:0:
448,192,27794,1,0,0:0:0:0:
64,192,27897,1,0,0:0:0:0:
320,192,27897,1,0,0:0:0:0:
192,192,28001,1,0,0:0:0:0:
448,192,28001,1,0,0:0:0:0:
320,192,28001,1,0,0:0:0:0:
64,192,28001,1,0,0:0:0:0:
192,192,28104,1,0,0:0:0:0:
64,192,28104,1,0,0:0:0:0:
448,192,28104,1,0,0:0:0:0:
192,192,28207,1,0,0:0:0:0:
320,192,28207,1,0,0:0:0:0:
64,192,28310,1,0,0:0:0:0:
320,192,28310,1,0,0:0:0:0:
64,192,28414,1,0,0:0:0:0:
192,192,28414,1,0,0:0:0:0:
320,192,28414,1,0,0:0:0:0:
448,192,28414,1,0,0:0:0:0:
192,192,28517,1,0,0:0:0:0:
320,192,28517,1,0,0:0:0:0:
448,192,28517,1,0,0:0:0:0:
64,192,28620,1,0,0:0:0:0:
192,192,28620,1,0,0:0:0:0:
320,192,28724,1,0,0:0:0:0:
64,192,28724,1,0,0:0:0:0:
448,192,28827,1,0,0:0:0:0:
320,192,28827,1,0,0:0:0:0:
192,192,28827,1,0,0:0:0:0:
64,192,28827,1,0,0:0:0:0:
448,192,28930,1,0,0:0:0:0:
320,192,28930,1,0,0:0:0:0:
448,192,29034,1,0,0:0:0:0:
320,192,29034,1,0,0:0:0:0:
192,192,29034,1,0,0:0:0:0:
64,192,29034,1,0,0:0:0:0:
64,192,29137,1,0,0:0:0:0:
192,192,29137,1,0,0:0:0:0:
448,192,29240,1,0,0:0:0:0:
320,192,29240,1,0,0:0:0:0:
192,192,29240,1,0,0:0:0:0:
64,192,29240,1,0,0:0:0:0:
448,192,29344,1,0,0:0:0:0:
64,192,29344,1,0,0:0:0:0:
448,192,29446,1,0,0:0:0:0:
192,192,29446,1,0,0:0:0:0:
64,192,29446,1,0,0:0:0:0:
320,192,29446,1,0,0:0:0:0:
192,192,29550,1,0,0:0:0:0:
320,192,29550,1,0,0:0:0:0:
64,192,29654,1,0,0:0:0:0:
192,192,29654,1,0,0:0:0:0:
320,192,29654,1,0,0:0:0:0:
448,192,29654,1,0,0:0:0:0:
64,192,29756,1,0,0:0:0:0:
448,192,29756,1,0,0:0:0:0:
64,192,29860,1,0,0:0:0:0:
192,192,29860,1,0,0:0:0:0:
448,192,29964,1,0,0:0:0:0:
192,192,29964,1,0,0:0:0:0:
448,192,30066,1,0,0:0:0:0:
320,192,30066,1,0,0:0:0:0:
64,192,30066,1,0,0:0:0:0:
192,192,30066,1,0,0:0:0:0:
320,192,30170,1,0,0:0:0:0:
192,192,30274,1,0,0:0:0:0:
448,192,30274,1,0,0:0:0:0:
64,192,30376,1,0,0:0:0:0:
320,192,30376,1,0,0:0:0:0:
64,192,30480,1,0,0:0:0:0:
192,192,30480,1,0,0:0:0:0:
448,192,30480,1,0,0:0:0:0:
320,192,30480,1,0,0:0:0:0:
64,192,30583,1,0,0:0:0:0:
448,192,30583,1,0,0:0:0:0:
192,192,30686,1,0,0:0:0:0:
320,192,30686,1,0,0:0:0:0:
64,192,30790,1,0,0:0:0:0:
448,192,30790,1,0,0:0:0:0:
448,192,30893,1,0,0:0:0:0:
192,192,30893,1,0,0:0:0:0:
64,192,30893,1,0,0:0:0:0:
320,192,30893,1,0,0:0:0:0:
192,192,30996,1,0,0:0:0:0:
64,192,31100,1,0,0:0:0:0:
320,192,31100,1,0,0:0:0:0:
192,192,31203,1,0,0:0:0:0:
448,192,31203,1,0,0:0:0:0:
448,192,31306,1,0,0:0:0:0:
192,192,31306,1,0,0:0:0:0:
64,192,31306,1,0,0:0:0:0:
320,192,31306,1,0,0:0:0:0:
192,192,31410,1,0,0:0:0:0:
320,192,31410,1,0,0:0:0:0:
64,192,31513,1,0,0:0:0:0:
448,192,31513,1,0,0:0:0:0:
192,192,31616,1,0,0:0:0:0:
320,192,31616,1,0,0:0:0:0:
448,192,31719,1,0,0:0:0:0:
320,192,31719,1,0,0:0:0:0:
192,192,31719,1,0,0:0:0:0:
64,192,31719,1,0,0:0:0:0:
448,192,31823,1,0,0:0:0:0:
64,192,31823,1,0,0:0:0:0:
320,192,31926,1,0,0:0:0:0:
448,192,31926,1,0,0:0:0:0:
64,192,32029,1,0,0:0:0:0:
320,192,32029,1,0,0:0:0:0:
448,192,32133,1,0,0:0:0:0:
320,192,32133,1,0,0:0:0:0:
192,192,32133,1,0,0:0:0:0:
64,192,32133,1,0,0:0:0:0:
64,192,32339,1,0,0:0:0:0:
448,192,32339,1,0,0:0:0:0:
320,192,32339,1,0,0:0:0:0:
192,192,32443,1,0,0:0:0:0:
448,192,32546,1,0,0:0:0:0:
320,192,32546,1,0,0:0:0:0:
192,192,32649,1,0,0:0:0:0:
64,192,32753,1,0,0:0:0:0:
320,192,32753,1,0,0:0:0:0:
448,192,32855,1,0,0:0:0:0:
192,192,32959,1,0,0:0:0:0:
320,192,32959,1,0,0:0:0:0:
64,192,33063,1,0,0:0:0:0:
448,192,33165,1,0,0:0:0:0:
320,192,33165,1,0,0:0:0:0:
192,192,33269,1,0,0:0:0:0:
64,192,33373,1,0,0:0:0:0:
320,192,33373,1,0,0:0:0:0:
448,192,33373,1,0,0:0:0:0:
64,192,33579,1,0,0:0:0:0:
320,192,33579,1,0,0:0:0:0:
448,192,33579,1,0,0:0:0:0:
64,192,33785,1,0,0:0:0:0:
192,192,33785,1,0,0:0:0:0:
448,192,33785,1,0,0:0:0:0:
320,192,33785,1,0,0:0:0:0:
192,192,33889,1,0,0:0:0:0:
64,192,33889,1,0,0:0:0:0:
64,192,33992,1,0,0:0:0:0:
192,192,33992,1,0,0:0:0:0:
320,192,33992,1,0,0:0:0:0:
448,192,33992,1,0,0:0:0:0:
448,192,34095,1,0,0:0:0:0:
320,192,34095,1,0,0:0:0:0:
64,192,34199,1,0,0:0:0:0:
192,192,34199,1,0,0:0:0:0:
320,192,34199,1,0,0:0:0:0:
448,192,34199,1,0,0:0:0:0:
64,192,34302,1,0,0:0:0:0:
192,192,34302,1,0,0:0:0:0:
320,192,34405,1,0,0:0:0:0:
448,192,34405,1,0,0:0:0:0:
192,192,34405,1,0,0:0:0:0:
64,192,34405,1,0,0:0:0:0:
448,192,34509,1,0,0:0:0:0:
320,192,34509,1,0,0:0:0:0:
64,192,34612,1,0,0:0:0:0:
192,192,34612,1,0,0:0:0:0:
320,192,34612,1,0,0:0:0:0:
448,192,34612,1,0,0:0:0:0:
192,192,34819,1,0,0:0:0:0:
320,192,34819,1,0,0:0:0:0:
64,192,34922,1,0,0:0:0:0:
448,192,34922,1,0,0:0:0:0:
448,192,35025,1,0,0:0:0:0:
192,192,35025,1,0,0:0:0:0:
320,192,35025,1,0,0:0:0:0:
64,192,35025,1,0,0:0:0:0:
320,192,35232,1,0,0:0:0:0:
448,192,35232,1,0,0:0:0:0:
64,192,35232,1,0,0:0:0:0:
320,192,35438,1,0,0:0:0:0:
192,192,35438,1,0,0:0:0:0:
64,192,35438,1,0,0:0:0:0:
448,192,35438,1,0,0:0:0:0:
192,192,35542,1,0,0:0:0:0:
320,192,35542,1,0,0:0:0:0:
64,192,35645,1,0,0:0:0:0:
192,192,35645,1,0,0:0:0:0:
320,192,35645,1,0,0:0:0:0:
448,192,35645,1,0,0:0:0:0:
64,192,35748,1,0,0:0:0:0:
448,192,35748,1,0,0:0:0:0:
448,192,35852,1,0,0:0:0:0:
320,192,35852,1,0,0:0:0:0:
64,192,35852,1,0,0:0:0:0:
192,192,35852,1,0,0:0:0:0:
320,192,35955,1,0,0:0:0:0:
192,192,35955,1,0,0:0:0:0:
64,192,36058,1,0,0:0:0:0:
192,192,36058,1,0,0:0:0:0:
320,192,36058,1,0,0:0:0:0:
448,192,36058,1,0,0:0:0:0:
64,192,36162,1,0,0:0:0:0:
448,192,36162,1,0,0:0:0:0:
448,192,36265,1,0,0:0:0:0:
320,192,36265,1,0,0:0:0:0:
192,192,36265,1,0,0:0:0:0:
64,192,36265,1,0,0:0:0:0:
192,192,36472,1,0,0:0:0:0:
320,192,36472,1,0,0:0:0:0:
448,192,36575,1,0,0:0:0:0:
64,192,36575,1,0,0:0:0:0:
64,192,36678,1,0,0:0:0:0:
192,192,36678,1,0,0:0:0:0:
448,192,36678,1,0,0:0:0:0:
320,192,36678,1,0,0:0:0:0:
448,192,36885,1,0,0:0:0:0:
320,192,36885,1,0,0:0:0:0:
64,192,36885,1,0,0:0:0:0:
64,192,37092,1,0,0:0:0:0:
192,192,37092,1,0,0:0:0:0:
320,192,37092,1,0,0:0:0:0:
448,192,37092,1,0,0:0:0:0:
192,192,37195,1,0,0:0:0:0:
320,192,37195,1,0,0:0:0:0:
64,192,37298,1,0,0:0:0:0:
320,192,37298,1,0,0:0:0:0:
192,192,37401,1,0,0:0:0:0:
64,192,37401,1,0,0:0:0:0:
320,192,37505,1,0,0:0:0:0:
192,192,37505,1,0,0:0:0:0:
64,192,37505,1,0,0:0:0:0:
448,192,37505,1,0,0:0:0:0:
320,192,37608,1,0,0:0:0:0:
448,192,37608,1,0,0:0:0:0:
64,192,37711,1,0,0:0:0:0:
448,192,37711,1,0,0:0:0:0:
192,192,37815,1,0,0:0:0:0:
320,192,37815,1,0,0:0:0:0:
64,192,37918,1,0,0:0:0:0:
192,192,37918,1,0,0:0:0:0:
320,192,37918,1,0,0:0:0:0:
448,192,37918,1,0,0:0:0:0:
64,192,38021,1,0,0:0:0:0:
320,192,38021,1,0,0:0:0:0:
192,192,38125,1,0,0:0:0:0:
320,192,38125,1,0,0:0:0:0:
64,192,38228,1,0,0:0:0:0:
448,192,38228,1,0,0:0:0:0:
192,192,38331,1,0,0:0:0:0:
320,192,38331,1,0,0:0:0:0:
448,192,38331,1,0,0:0:0:0:
64,192,38331,1,0,0:0:0:0:
192,192,38435,1,0,0:0:0:0:
320,192,38435,1,0,0:0:0:0:
64,192,38537,1,0,0:0:0:0:
448,192,38537,1,0,0:0:0:0:
192,192,38641,1,0,0:0:0:0:
64,192,38641,1,0,0:0:0:0:
448,192,38745,1,0,0:0:0:0:
320,192,38745,1,0,0:0:0:0:
64,192,38745,1,0,0:0:0:0:
192,192,38745,1,0,0:0:0:0:
320,192,38847,1,0,0:0:0:0:
448,192,38847,1,0,0:0:0:0:
192,192,38951,1,0,0:0:0:0:
320,192,38951,1,0,0:0:0:0:
64,192,39055,1,0,0:0:0:0:
448,192,39055,1,0,0:0:0:0:
320,192,39157,1,0,0:0:0:0:
448,192,39157,1,0,0:0:0:0:
192,192,39157,1,0,0:0:0:0:
64,192,39157,1,0,0:0:0:0:
192,192,39261,1,0,0:0:0:0:
320,192,39261,1,0,0:0:0:0:
64,192,39365,1,0,0:0:0:0:
320,192,39365,1,0,0:0:0:0:
192,192,39467,1,0,0:0:0:0:
448,192,39467,1,0,0:0:0:0:
64,192,39571,1,0,0:0:0:0:
192,192,39571,1,0,0:0:0:0:
320,192,39571,1,0,0:0:0:0:
448,192,39571,1,0,0:0:0:0:
64,192,39674,1,0,0:0:0:0:
192,192,39674,1,0,0:0:0:0:
320,192,39777,1,0,0:0:0:0:
192,192,39777,1,0,0:0:0:0:
64,192,39881,1,0,0:0:0:0:
448,192,39881,1,0,0:0:0:0:
64,192,39984,128,0,40191:0:0:0:0:
448,192,39984,128,0,40191:0:0:0:0:
448,192,40397,1,0,0:0:0:0:
320,192,40397,1,0,0:0:0:0:
64,192,40397,1,0,0:0:0:0:
192,192,40397,1,0,0:0:0:0:
64,192,40501,1,0,0:0:0:0:
320,192,40501,1,0,0:0:0:0:
192,192,40604,1,0,0:0:0:0:
320,192,40604,1,0,0:0:0:0:
64,192,40707,1,0,0:0:0:0:
192,192,40707,1,0,0:0:0:0:
320,192,40707,1,0,0:0:0:0:
448,192,40707,1,0,0:0:0:0:
192,192,40810,1,0,0:0:0:0:
448,192,40810,1,0,0:0:0:0:
192,192,40914,1,0,0:0:0:0:
320,192,40914,1,0,0:0:0:0:
64,192,41017,1,0,0:0:0:0:
192,192,41017,1,0,0:0:0:0:
320,192,41017,1,0,0:0:0:0:
448,192,41017,1,0,0:0:0:0:
64,192,41120,1,0,0:0:0:0:
320,192,41120,1,0,0:0:0:0:
64,192,41224,1,0,0:0:0:0:
192,192,41224,1,0,0:0:0:0:
448,192,41327,1,0,0:0:0:0:
320,192,41327,1,0,0:0:0:0:
64,192,41327,1,0,0:0:0:0:
192,192,41327,1,0,0:0:0:0:
320,192,41430,1,0,0:0:0:0:
448,192,41430,1,0,0:0:0:0:
64,192,41534,1,0,0:0:0:0:
320,192,41534,1,0,0:0:0:0:
64,192,41637,1,0,0:0:0:0:
192,192,41637,1,0,0:0:0:0:
448,192,41637,1,0,0:0:0:0:
320,192,41637,1,0,0:0:0:0:
192,192,41740,1,0,0:0:0:0:
448,192,41740,1,0,0:0:0:0:
192,192,41844,1,0,0:0:0:0:
320,192,41844,1,0,0:0:0:0:
64,192,41844,1,0,0:0:0:0:
448,192,41844,1,0,0:0:0:0:
448,192,41946,1,0,0:0:0:0:
64,192,41946,1,0,0:0:0:0:
64,192,42050,1,0,0:0:0:0:
448,192,42050,1,0,0:0:0:0:
192,192,42050,1,0,0:0:0:0:
320,192,42050,1,0,0:0:0:0:
192,192,42154,1,0,0:0:0:0:
320,192,42154,1,0,0:0:0:0:
64,192,42256,1,0,0:0:0:0:
192,192,42256,1,0,0:0:0:0:
320,192,42256,1,0,0:0:0:0:
448,192,42256,1,0,0:0:0:0:
320,192,42360,1,0,0:0:0:0:
64,192,42360,1,0,0:0:0:0:
192,192,42464,1,0,0:0:0:0:
64,192,42464,1,0,0:0:0:0:
64,192,42566,1,0,0:0:0:0:
192,192,42566,1,0,0:0:0:0:
320,192,42566,1,0,0:0:0:0:
448,192,42566,1,0,0:0:0:0:
448,192,42670,1,0,0:0:0:0:
192,192,42670,1,0,0:0:0:0:
320,192,42774,1,0,0:0:0:0:
448,192,42774,1,0,0:0:0:0:
64,192,42876,1,0,0:0:0:0:
192,192,42876,1,0,0:0:0:0:
448,192,42876,1,0,0:0:0:0:
320,192,42876,1,0,0:0:0:0:
192,192,42980,1,0,0:0:0:0:
320,192,42980,1,0,0:0:0:0:
64,192,43083,1,0,0:0:0:0:
448,192,43083,1,0,0:0:0:0:
448,192,43186,1,0,0:0:0:0:
320,192,43186,1,0,0:0:0:0:
64,192,43186,1,0,0:0:0:0:
192,192,43186,1,0,0:0:0:0:
192,192,43290,1,0,0:0:0:0:
320,192,43290,1,0,0:0:0:0:
64,192,43393,1,0,0:0:0:0:
320,192,43393,1,0,0:0:0:0:
448,192,43393,1,0,0:0:0:0:
192,192,43393,1,0,0:0:0:0:
64,192,43496,1,0,0:0:0:0:
448,192,43496,1,0,0:0:0:0:
192,192,43600,1,0,0:0:0:0:
320,192,43600,1,0,0:0:0:0:
64,192,43600,1,0,0:0:0:0:
448,192,43600,1,0,0:0:0:0:
192,192,43703,1,0,0:0:0:0:
320,192,43703,1,0,0:0:0:0:
64,192,43703,1,0,0:0:0:0:
448,192,43703,1,0,0:0:0:0:
64,192,43806,1,0,0:0:0:0:
192,192,43806,1,0,0:0:0:0:
448,192,43910,1,0,0:0:0:0:
192,192,43910,1,0,0:0:0:0:
64,192,43910,1,0,0:0:0:0:
320,192,43910,1,0,0:0:0:0:
448,192,44013,1,0,0:0:0:0:
320,192,44013,1,0,0:0:0:0:
320,192,44116,1,0,0:0:0:0:
448,192,44116,1,0,0:0:0:0:
192,192,44116,1,0,0:0:0:0:
64,192,44116,1,0,0:0:0:0:
192,192,44219,1,0,0:0:0:0:
320,192,44219,1,0,0:0:0:0:
64,192,44323,1,0,0:0:0:0:
192,192,44323,1,0,0:0:0:0:
320,192,44323,1,0,0:0:0:0:
448,192,44323,1,0,0:0:0:0:
64,192,44426,1,0,0:0:0:0:
448,192,44426,1,0,0:0:0:0:
448,192,44529,1,0,0:0:0:0:
192,192,44529,1,0,0:0:0:0:
64,192,44529,1,0,0:0:0:0:
320,192,44529,1,0,0:0:0:0:
192,192,44633,1,0,0:0:0:0:
448,192,44633,1,0,0:0:0:0:
448,192,44736,1,0,0:0:0:0:
64,192,44736,1,0,0:0:0:0:
192,192,44736,1,0,0:0:0:0:
320,192,44736,1,0,0:0:0:0:
320,192,44839,1,0,0:0:0:0:
192,192,44839,1,0,0:0:0:0:
64,192,44943,1,0,0:0:0:0:
192,192,44943,1,0,0:0:0:0:
320,192,44943,1,0,0:0:0:0:
448,192,44943,1,0,0:0:0:0:
64,192,45046,1,0,0:0:0:0:
192,192,45046,1,0,0:0:0:0:
64,192,45149,1,0,0:0:0:0:
192,192,45149,1,0,0:0:0:0:
320,192,45149,1,0,0:0:0:0:
448,192,45149,1,0,0:0:0:0:
448,192,45253,1,0,0:0:0:0:
320,192,45253,1,0,0:0:0:0:
64,192,45355,1,0,0:0:0:0:
192,192,45355,1,0,0:0:0:0:
320,192,45355,1,0,0:0:0:0:
448,192,45355,1,0,0:0:0:0:
192,192,45459,1,0,0:0:0:0:
448,192,45563,1,0,0:0:0:0:
192,192,45563,1,0,0:0:0:0:
64,192,45563,1,0,0:0:0:0:
320,192,45563,1,0,0:0:0:0:
448,192,45665,1,0,0:0:0:0:
64,192,45769,1,0,0:0:0:0:
192,192,45769,1,0,0:0:0:0:
320,192,45769,1,0,0:0:0:0:
448,192,45769,1,0,0:0:0:0:
64,192,45873,1,0,0:0:0:0:
448,192,45975,1,0,0:0:0:0:
320,192,45975,1,0,0:0:0:0:
64,192,45975,1,0,0:0:0:0:
192,192,45975,1,0,0:0:0:0:
192,192,46183,1,0,0:0:0:0:
320,192,46183,1,0,0:0:0:0:
64,192,46183,128,0,46492:0:0:0:0:
448,192,46183,128,0,46492:0:0:0:0:
320,192,46492,1,0,0:0:0:0:
64,192,46595,1,0,0:0:0:0:
192,192,46647,1,0,0:0:0:0:
448,192,46699,1,0,0:0:0:0:
320,192,46751,1,0,0:0:0:0:
64,192,46802,1,0,0:0:0:0:
448,192,46854,1,0,0:0:0:0:
320,192,46905,1,0,0:0:0:0:
192,192,46957,1,0,0:0:0:0:
64,192,47009,1,0,0:0:0:0:
320,192,47009,1,0,0:0:0:0:
448,192,47009,1,0,0:0:0:0:
192,192,47422,1,0,0:0:0:0:
64,192,47422,1,0,0:0:0:0:
192,192,47628,1,0,0:0:0:0:
64,192,47628,1,0,0:0:0:0:
64,192,47835,1,0,0:0:0:0:
192,192,47835,1,0,0:0:0:0:
448,192,48248,1,0,0:0:0:0:
64,192,48248,1,0,0:0:0:0:
64,192,48455,1,0,0:0:0:0:
448,192,48455,1,0,0:0:0:0:
448,192,48662,1,0,0:0:0:0:
64,192,48662,1,0,0:0:0:0:
192,192,49075,1,0,0:0:0:0:
320,192,49075,1,0,0:0:0:0:
192,192,49282,1,0,0:0:0:0:
320,192,49282,1,0,0:0:0:0:
192,192,49488,1,0,0:0:0:0:
320,192,49488,1,0,0:0:0:0:
448,192,49488,1,0,0:0:0:0:
64,192,49488,1,0,0:0:0:0:
192,192,49695,1,0,0:0:0:0:
320,192,49695,1,0,0:0:0:0:
64,192,49901,1,0,0:0:0:0:
192,192,49901,1,0,0:0:0:0:
448,192,49901,1,0,0:0:0:0:
64,192,50315,1,0,0:0:0:0:
192,192,50315,1,0,0:0:0:0:
448,192,50315,1,0,0:0:0:0:
320,192,50315,1,0,0:0:0:0:
320,192,50728,1,0,0:0:0:0:
448,192,50728,1,0,0:0:0:0:
448,192,50935,1,0,0:0:0:0:
320,192,50935,1,0,0:0:0:0:
320,192,51141,1,0,0:0:0:0:
448,192,51141,1,0,0:0:0:0:
64,192,51555,1,0,0:0:0:0:
320,192,51555,1,0,0:0:0:0:
64,192,51761,1,0,0:0:0:0:
320,192,51761,1,0,0:0:0:0:
64,192,51967,1,0,0:0:0:0:
320,192,51967,1,0,0:0:0:0:
192,192,52381,1,0,0:0:0:0:
448,192,52381,1,0,0:0:0:0:
192,192,52587,1,0,0:0:0:0:
448,192,52587,1,0,0:0:0:0:
192,192,52794,1,0,0:0:0:0:
448,192,52794,1,0,0:0:0:0:
320,192,52794,1,0,0:0:0:0:
64,192,52794,1,0,0:0:0:0:
192,192,53001,1,0,0:0:0:0:
448,192,53001,1,0,0:0:0:0:
320,192,53207,1,0,0:0:0:0:
448,192,53207,1,0,0:0:0:0:
64,192,53207,1,0,0:0:0:0:
192,192,53414,1,0,0:0:0:0:
192,192,53517,1,0,0:0:0:0:
320,192,53620,1,0,0:0:0:0:
448,192,53620,1,0,0:0:0:0:
64,192,53620,1,0,0:0:0:0:
192,192,53724,1,0,0:0:0:0:
320,192,53827,1,0,0:0:0:0:
64,192,53930,1,0,0:0:0:0:
192,192,54034,1,0,0:0:0:0:
320,192,54034,1,0,0:0:0:0:
448,192,54034,1,0,0:0:0:0:
64,192,54137,1,0,0:0:0:0:
192,192,54240,1,0,0:0:0:0:
320,192,54344,1,0,0:0:0:0:
64,192,54446,1,0,0:0:0:0:
192,192,54446,1,0,0:0:0:0:
448,192,54446,1,0,0:0:0:0:
320,192,54550,1,0,0:0:0:0:
448,192,54654,1,0,0:0:0:0:
64,192,54756,1,0,0:0:0:0:
320,192,54860,1,0,0:0:0:0:
448,192,54860,1,0,0:0:0:0:
192,192,54860,1,0,0:0:0:0:
64,192,54964,1,0,0:0:0:0:
320,192,55066,1,0,0:0:0:0:
448,192,55170,1,0,0:0:0:0:
64,192,55274,1,0,0:0:0:0:
192,192,55274,1,0,0:0:0:0:
320,192,55274,1,0,0:0:0:0:
448,192,55376,1,0,0:0:0:0:
192,192,55480,1,0,0:0:0:0:
64,192,55583,1,0,0:0:0:0:
448,192,55686,1,0,0:0:0:0:
320,192,55686,1,0,0:0:0:0:
192,192,55686,1,0,0:0:0:0:
64,192,55790,1,0,0:0:0:0:
192,192,55893,1,0,0:0:0:0:
320,192,55996,1,0,0:0:0:0:
64,192,56100,1,0,0:0:0:0:
192,192,56100,1,0,0:0:0:0:
448,192,56100,1,0,0:0:0:0:
320,192,56203,1,0,0:0:0:0:
448,192,56306,1,0,0:0:0:0:
64,192,56410,1,0,0:0:0:0:
192,192,56513,1,0,0:0:0:0:
320,192,56513,1,0,0:0:0:0:
448,192,56513,1,0,0:0:0:0:
64,192,56616,1,0,0:0:0:0:
320,192,56719,1,0,0:0:0:0:
448,192,56823,1,0,0:0:0:0:
192,192,56926,1,0,0:0:0:0:
64,192,56926,1,0,0:0:0:0:
320,192,56926,1,0,0:0:0:0:
448,192,57029,1,0,0:0:0:0:
320,192,57133,1,0,0:0:0:0:
64,192,57133,1,0,0:0:0:0:
192,192,57236,1,0,0:0:0:0:
448,192,57339,1,0,0:0:0:0:
320,192,57339,1,0,0:0:0:0:
64,192,57339,1,0,0:0:0:0:
192,192,57443,1,0,0:0:0:0:
64,192,57546,5,0,0:0:0:0:
448,192,57546,1,0,0:0:0:0:
320,192,57649,1,0,0:0:0:0:
64,192,57753,5,0,0:0:0:0:
192,192,57753,1,0,0:0:0:0:
448,192,57753,1,0,0:0:0:0:
320,192,57855,1,0,0:0:0:0:
448,192,57959,1,0,0:0:0:0:
64,192,57959,1,0,0:0:0:0:
192,192,58063,1,0,0:0:0:0:
320,192,58165,1,0,0:0:0:0:
448,192,58165,1,0,0:0:0:0:
64,192,58165,1,0,0:0:0:0:
192,192,58269,1,0,0:0:0:0:
448,192,58373,1,0,0:0:0:0:
320,192,58373,1,0,0:0:0:0:
64,192,58475,1,0,0:0:0:0:
192,192,58579,5,0,0:0:0:0:
320,192,58579,1,0,0:0:0:0:
448,192,58579,1,0,0:0:0:0:
320,192,58683,1,0,0:0:0:0:
192,192,58785,1,0,0:0:0:0:
64,192,58785,1,0,0:0:0:0:
448,192,58785,1,0,0:0:0:0:
64,192,58889,1,0,0:0:0:0:
320,192,58992,1,0,0:0:0:0:
448,192,58992,1,0,0:0:0:0:
192,192,58992,1,0,0:0:0:0:
448,192,59095,1,0,0:0:0:0:
320,192,59199,1,0,0:0:0:0:
64,192,59199,1,0,0:0:0:0:
192,192,59199,1,0,0:0:0:0:
320,192,59302,1,0,0:0:0:0:
192,192,59405,1,0,0:0:0:0:
64,192,59405,1,0,0:0:0:0:
448,192,59405,1,0,0:0:0:0:
64,192,59509,1,0,0:0:0:0:
192,192,59612,1,0,0:0:0:0:
448,192,59612,1,0,0:0:0:0:
320,192,59612,1,0,0:0:0:0:
192,192,59715,1,0,0:0:0:0:
448,192,59715,1,0,0:0:0:0:
192,192,59819,1,0,0:0:0:0:
320,192,59819,1,0,0:0:0:0:
64,192,59819,1,0,0:0:0:0:
320,192,59922,1,0,0:0:0:0:
448,192,59922,1,0,0:0:0:0:
192,192,60025,1,0,0:0:0:0:
64,192,60025,1,0,0:0:0:0:
448,192,60025,1,0,0:0:0:0:
192,192,60128,1,0,0:0:0:0:
320,192,60128,1,0,0:0:0:0:
64,192,60232,1,0,0:0:0:0:
192,192,60232,1,0,0:0:0:0:
448,192,60232,1,0,0:0:0:0:
320,192,60232,1,0,0:0:0:0:
64,192,60335,1,0,0:0:0:0:
448,192,60335,1,0,0:0:0:0:
448,192,60438,1,0,0:0:0:0:
320,192,60438,1,0,0:0:0:0:
192,192,60438,1,0,0:0:0:0:
64,192,60542,1,0,0:0:0:0:
192,192,60542,1,0,0:0:0:0:
448,192,60645,1,0,0:0:0:0:
192,192,60645,1,0,0:0:0:0:
64,192,60645,1,0,0:0:0:0:
320,192,60645,1,0,0:0:0:0:
448,192,60748,1,0,0:0:0:0:
320,192,60748,1,0,0:0:0:0:
192,192,60852,1,0,0:0:0:0:
64,192,60852,1,0,0:0:0:0:
448,192,60852,1,0,0:0:0:0:
64,192,60955,1,0,0:0:0:0:
320,192,60955,1,0,0:0:0:0:
448,192,61058,1,0,0:0:0:0:
320,192,61058,1,0,0:0:0:0:
192,192,61058,1,0,0:0:0:0:
64,192,61058,1,0,0:0:0:0:
192,192,61162,1,0,0:0:0:0:
320,192,61162,1,0,0:0:0:0:
448,192,61265,1,0,0:0:0:0:
320,192,61265,1,0,0:0:0:0:
64,192,61265,1,0,0:0:0:0:
192,192,61368,1,0,0:0:0:0:
64,192,61368,1,0,0:0:0:0:
64,192,61472,1,0,0:0:0:0:
320,192,61472,1,0,0:0:0:0:
448,192,61472,1,0,0:0:0:0:
192,192,61472,1,0,0:0:0:0:
448,192,61575,1,0,0:0:0:0:
192,192,61575,1,0,0:0:0:0:
320,192,61678,1,0,0:0:0:0:
448,192,61678,1,0,0:0:0:0:
64,192,61678,1,0,0:0:0:0:
192,192,61782,1,0,0:0:0:0:
320,192,61782,1,0,0:0:0:0:
448,192,61885,1,0,0:0:0:0:
320,192,61885,1,0,0:0:0:0:
192,192,61885,1,0,0:0:0:0:
64,192,61885,1,0,0:0:0:0:
64,192,61988,1,0,0:0:0:0:
192,192,61988,1,0,0:0:0:0:
448,192,61988,1,0,0:0:0:0:
320,192,62092,1,0,0:0:0:0:
448,192,62092,1,0,0:0:0:0:
192,192,62092,1,0,0:0:0:0:
448,192,62195,1,0,0:0:0:0:
64,192,62195,1,0,0:0:0:0:
320,192,62195,1,0,0:0:0:0:
320,192,62298,1,0,0:0:0:0:
64,192,62298,1,0,0:0:0:0:
192,192,62298,1,0,0:0:0:0:
448,192,62298,1,0,0:0:0:0:
192,192,62401,1,0,0:0:0:0:
64,192,62401,1,0,0:0:0:0:
448,192,62401,1,0,0:0:0:0:
320,192,62505,1,0,0:0:0:0:
448,192,62505,1,0,0:0:0:0:
192,192,62505,1,0,0:0:0:0:
64,192,62608,1,0,0:0:0:0:
320,192,62608,1,0,0:0:0:0:
192,192,62608,1,0,0:0:0:0:
64,192,62711,1,0,0:0:0:0:
192,192,62711,1,0,0:0:0:0:
320,192,62711,1,0,0:0:0:0:
448,192,62711,1,0,0:0:0:0:
192,192,62815,1,0,0:0:0:0:
448,192,62815,1,0,0:0:0:0:
192,192,62918,1,0,0:0:0:0:
64,192,62918,1,0,0:0:0:0:
320,192,62918,1,0,0:0:0:0:
64,192,63021,1,0,0:0:0:0:
448,192,63021,1,0,0:0:0:0:
448,192,63125,1,0,0:0:0:0:
192,192,63125,1,0,0:0:0:0:
64,192,63125,1,0,0:0:0:0:
320,192,63125,1,0,0:0:0:0:
320,192,63228,1,0,0:0:0:0:
448,192,63228,1,0,0:0:0:0:
192,192,63331,1,0,0:0:0:0:
64,192,63331,1,0,0:0:0:0:
320,192,63331,1,0,0:0:0:0:
64,192,63435,1,0,0:0:0:0:
448,192,63435,1,0,0:0:0:0:
448,192,63537,1,0,0:0:0:0:
192,192,63537,1,0,0:0:0:0:
64,192,63537,1,0,0:0:0:0:
320,192,63537,1,0,0:0:0:0:
192,192,63641,1,0,0:0:0:0:
320,192,63641,1,0,0:0:0:0:
64,192,63745,1,0,0:0:0:0:
192,192,63745,1,0,0:0:0:0:
448,192,63745,1,0,0:0:0:0:
320,192,63847,1,0,0:0:0:0:
448,192,63847,1,0,0:0:0:0:
448,192,63951,1,0,0:0:0:0:
64,192,63951,1,0,0:0:0:0:
192,192,63951,1,0,0:0:0:0:
320,192,63951,1,0,0:0:0:0:
192,192,64055,1,0,0:0:0:0:
448,192,64055,1,0,0:0:0:0:
64,192,64157,1,0,0:0:0:0:
192,192,64157,1,0,0:0:0:0:
320,192,64157,1,0,0:0:0:0:
64,192,64261,1,0,0:0:0:0:
448,192,64261,1,0,0:0:0:0:
448,192,64365,1,0,0:0:0:0:
192,192,64365,1,0,0:0:0:0:
64,192,64365,1,0,0:0:0:0:
320,192,64365,1,0,0:0:0:0:
64,192,64467,1,0,0:0:0:0:
192,192,64467,1,0,0:0:0:0:
320,192,64571,1,0,0:0:0:0:
448,192,64571,1,0,0:0:0:0:
192,192,64571,1,0,0:0:0:0:
64,192,64674,1,0,0:0:0:0:
320,192,64674,1,0,0:0:0:0:
448,192,64777,1,0,0:0:0:0:
320,192,64777,1,0,0:0:0:0:
192,192,64777,1,0,0:0:0:0:
64,192,64777,1,0,0:0:0:0:
192,192,64881,1,0,0:0:0:0:
320,192,64881,1,0,0:0:0:0:
64,192,64984,1,0,0:0:0:0:
192,192,64984,1,0,0:0:0:0:
448,192,64984,1,0,0:0:0:0:
320,192,65087,1,0,0:0:0:0:
64,192,65087,1,0,0:0:0:0:
448,192,65191,1,0,0:0:0:0:
192,192,65191,1,0,0:0:0:0:
64,192,65191,1,0,0:0:0:0:
320,192,65191,1,0,0:0:0:0:
64,192,65294,1,0,0:0:0:0:
448,192,65294,1,0,0:0:0:0:
320,192,65397,1,0,0:0:0:0:
192,192,65397,1,0,0:0:0:0:
192,192,65501,1,0,0:0:0:0:
64,192,65501,1,0,0:0:0:0:
64,192,65604,1,0,0:0:0:0:
448,192,65604,1,0,0:0:0:0:
320,192,65604,1,0,0:0:0:0:
192,192,65810,1,0,0:0:0:0:
320,192,65810,1,0,0:0:0:0:
448,192,66017,1,0,0:0:0:0:
320,192,66017,1,0,0:0:0:0:
192,192,66017,1,0,0:0:0:0:
64,192,66017,1,0,0:0:0:0:
192,192,66120,1,0,0:0:0:0:
320,192,66120,1,0,0:0:0:0:
64,192,66224,1,0,0:0:0:0:
448,192,66224,1,0,0:0:0:0:
448,192,66327,1,0,0:0:0:0:
320,192,66327,1,0,0:0:0:0:
320,192,66430,1,0,0:0:0:0:
192,192,66430,1,0,0:0:0:0:
64,192,66430,1,0,0:0:0:0:
192,192,66637,1,0,0:0:0:0:
64,192,66637,1,0,0:0:0:0:
64,192,66844,1,0,0:0:0:0:
192,192,66844,1,0,0:0:0:0:
448,192,66844,1,0,0:0:0:0:
320,192,66844,1,0,0:0:0:0:
64,192,66946,1,0,0:0:0:0:
448,192,66946,1,0,0:0:0:0:
320,192,67050,1,0,0:0:0:0:
192,192,67050,1,0,0:0:0:0:
64,192,67050,1,0,0:0:0:0:
320,192,67154,1,0,0:0:0:0:
448,192,67154,1,0,0:0:0:0:
448,192,67256,1,0,0:0:0:0:
192,192,67256,1,0,0:0:0:0:
64,192,67256,1,0,0:0:0:0:
320,192,67256,1,0,0:0:0:0:
192,192,67360,1,0,0:0:0:0:
64,192,67360,1,0,0:0:0:0:
64,192,67464,1,0,0:0:0:0:
448,192,67464,1,0,0:0:0:0:
320,192,67464,1,0,0:0:0:0:
192,192,67566,1,0,0:0:0:0:
448,192,67566,1,0,0:0:0:0:
320,192,67670,1,0,0:0:0:0:
448,192,67670,1,0,0:0:0:0:
64,192,67670,1,0,0:0:0:0:
192,192,67670,1,0,0:0:0:0:
192,192,67774,1,0,0:0:0:0:
320,192,67774,1,0,0:0:0:0:
448,192,67876,1,0,0:0:0:0:
192,192,67876,1,0,0:0:0:0:
64,192,67876,1,0,0:0:0:0:
448,192,67980,1,0,0:0:0:0:
320,192,67980,1,0,0:0:0:0:
64,192,68083,1,0,0:0:0:0:
320,192,68083,1,0,0:0:0:0:
448,192,68083,1,0,0:0:0:0:
192,192,68083,1,0,0:0:0:0:
320,192,68186,1,0,0:0:0:0:
64,192,68186,1,0,0:0:0:0:
448,192,68290,1,0,0:0:0:0:
64,192,68290,1,0,0:0:0:0:
192,192,68290,1,0,0:0:0:0:
192,192,68393,1,0,0:0:0:0:
320,192,68393,1,0,0:0:0:0:
320,192,68496,1,0,0:0:0:0:
448,192,68496,1,0,0:0:0:0:
64,192,68496,1,0,0:0:0:0:
192,192,68496,1,0,0:0:0:0:
64,192,68600,1,0,0:0:0:0:
320,192,68600,1,0,0:0:0:0:
448,192,68600,1,0,0:0:0:0:
320,192,68703,1,0,0:0:0:0:
64,192,68703,1,0,0:0:0:0:
192,192,68703,1,0,0:0:0:0:
448,192,68806,1,0,0:0:0:0:
64,192,68806,1,0,0:0:0:0:
192,192,68806,1,0,0:0:0:0:
320,192,68910,1,0,0:0:0:0:
64,192,68910,1,0,0:0:0:0:
192,192,68910,1,0,0:0:0:0:
448,192,68910,1,0,0:0:0:0:
64,192,69013,1,0,0:0:0:0:
448,192,69013,1,0,0:0:0:0:
320,192,69013,1,0,0:0:0:0:
320,192,69116,1,0,0:0:0:0:
64,192,69116,1,0,0:0:0:0:
192,192,69116,1,0,0:0:0:0:
192,192,69219,1,0,0:0:0:0:
448,192,69219,1,0,0:0:0:0:
320,192,69219,1,0,0:0:0:0:
192,192,69323,1,0,0:0:0:0:
64,192,69323,1,0,0:0:0:0:
448,192,69323,1,0,0:0:0:0:
320,192,69323,1,0,0:0:0:0:
64,192,69426,1,0,0:0:0:0:
320,192,69426,1,0,0:0:0:0:
192,192,69529,1,0,0:0:0:0:
448,192,69529,1,0,0:0:0:0:
320,192,69529,1,0,0:0:0:0:
64,192,69633,1,0,0:0:0:0:
448,192,69633,1,0,0:0:0:0:
448,192,69736,1,0,0:0:0:0:
192,192,69736,1,0,0:0:0:0:
64,192,69736,1,0,0:0:0:0:
320,192,69736,1,0,0:0:0:0:
64,192,69839,1,0,0:0:0:0:
192,192,69839,1,0,0:0:0:0:
192,192,69943,1,0,0:0:0:0:
448,192,69943,1,0,0:0:0:0:
320,192,69943,1,0,0:0:0:0:
64,192,70046,1,0,0:0:0:0:
448,192,70046,1,0,0:0:0:0:
448,192,70149,1,0,0:0:0:0:
192,192,70149,1,0,0:0:0:0:
64,192,70149,1,0,0:0:0:0:
320,192,70149,1,0,0:0:0:0:
192,192,70253,1,0,0:0:0:0:
320,192,70253,1,0,0:0:0:0:
64,192,70355,1,0,0:0:0:0:
320,192,70355,1,0,0:0:0:0:
448,192,70355,1,0,0:0:0:0:
64,192,70459,1,0,0:0:0:0:
192,192,70459,1,0,0:0:0:0:
320,192,70563,1,0,0:0:0:0:
192,192,70563,1,0,0:0:0:0:
64,192,70563,1,0,0:0:0:0:
448,192,70563,1,0,0:0:0:0:
64,192,70665,1,0,0:0:0:0:
320,192,70665,1,0,0:0:0:0:
192,192,70769,1,0,0:0:0:0:
320,192,70769,1,0,0:0:0:0:
448,192,70769,1,0,0:0:0:0:
64,192,70873,1,0,0:0:0:0:
448,192,70873,1,0,0:0:0:0:
448,192,70975,1,0,0:0:0:0:
192,192,70975,1,0,0:0:0:0:
64,192,70975,1,0,0:0:0:0:
320,192,70975,1,0,0:0:0:0:
320,192,71079,1,0,0:0:0:0:
448,192,71079,1,0,0:0:0:0:
320,192,71183,1,0,0:0:0:0:
64,192,71183,1,0,0:0:0:0:
192,192,71183,1,0,0:0:0:0:
192,192,71285,1,0,0:0:0:0:
448,192,71285,1,0,0:0:0:0:
320,192,71389,1,0,0:0:0:0:
448,192,71389,1,0,0:0:0:0:
64,192,71389,1,0,0:0:0:0:
192,192,71389,1,0,0:0:0:0:
192,192,71492,1,0,0:0:0:0:
320,192,71492,1,0,0:0:0:0:
64,192,71595,1,0,0:0:0:0:
320,192,71595,1,0,0:0:0:0:
448,192,71595,1,0,0:0:0:0:
448,192,71699,1,0,0:0:0:0:
192,192,71699,1,0,0:0:0:0:
448,192,71802,1,0,0:0:0:0:
192,192,71802,1,0,0:0:0:0:
64,192,71802,1,0,0:0:0:0:
320,192,71802,1,0,0:0:0:0:
64,192,71905,1,0,0:0:0:0:
448,192,71905,1,0,0:0:0:0:
320,192,72009,1,0,0:0:0:0:
192,192,72009,1,0,0:0:0:0:
448,192,72112,1,0,0:0:0:0:
320,192,72112,1,0,0:0:0:0:
192,192,72215,1,0,0:0:0:0:
64,192,72215,1,0,0:0:0:0:
448,192,72215,1,0,0:0:0:0:
192,192,72422,1,0,0:0:0:0:
320,192,72422,1,0,0:0:0:0:
320,192,72628,1,0,0:0:0:0:
448,192,72628,1,0,0:0:0:0:
64,192,72628,1,0,0:0:0:0:
192,192,72628,1,0,0:0:0:0:
192,192,72732,1,0,0:0:0:0:
320,192,72732,1,0,0:0:0:0:
64,192,72835,1,0,0:0:0:0:
448,192,72835,1,0,0:0:0:0:
192,192,72938,1,0,0:0:0:0:
64,192,72938,1,0,0:0:0:0:
448,192,73042,1,0,0:0:0:0:
320,192,73042,1,0,0:0:0:0:
192,192,73042,1,0,0:0:0:0:
448,192,73248,1,0,0:0:0:0:
320,192,73248,1,0,0:0:0:0:
192,192,73455,1,0,0:0:0:0:
64,192,73455,1,0,0:0:0:0:
448,192,73455,1,0,0:0:0:0:
320,192,73455,1,0,0:0:0:0:
64,192,73662,1,0,0:0:0:0:
192,192,73662,1,0,0:0:0:0:
320,192,73765,1,0,0:0:0:0:
448,192,73765,1,0,0:0:0:0:
320,192,73868,1,0,0:0:0:0:
448,192,73868,1,0,0:0:0:0:
192,192,73868,1,0,0:0:0:0:
64,192,74075,1,0,0:0:0:0:
448,192,74075,1,0,0:0:0:0:
320,192,74282,1,0,0:0:0:0:
192,192,74282,1,0,0:0:0:0:
448,192,74282,1,0,0:0:0:0:
64,192,74385,1,0,0:0:0:0:
192,192,74385,1,0,0:0:0:0:
448,192,74488,1,0,0:0:0:0:
64,192,74488,1,0,0:0:0:0:
320,192,74488,1,0,0:0:0:0:
448,192,74592,1,0,0:0:0:0:
192,192,74592,1,0,0:0:0:0:
192,192,74695,1,0,0:0:0:0:
320,192,74695,1,0,0:0:0:0:
64,192,74695,1,0,0:0:0:0:
448,192,74901,1,0,0:0:0:0:
64,192,74901,1,0,0:0:0:0:
320,192,75108,1,0,0:0:0:0:
192,192,75108,1,0,0:0:0:0:
64,192,75211,1,0,0:0:0:0:
192,192,75211,1,0,0:0:0:0:
448,192,75315,1,0,0:0:0:0:
320,192,75315,1,0,0:0:0:0:
64,192,75315,1,0,0:0:0:0:
192,192,75521,1,0,0:0:0:0:
320,192,75521,1,0,0:0:0:0:
64,192,75728,1,0,0:0:0:0:
448,192,75728,1,0,0:0:0:0:
64,192,75935,128,0,76245:0:0:0:0:
448,192,75935,128,0,76245:0:0:0:0:
448,192,76347,1,0,0:0:0:0:
64,192,76347,1,0,0:0:0:0:
320,192,76347,1,0,0:0:0:0:
192,192,76451,1,0,0:0:0:0:
320,192,76555,1,0,0:0:0:0:
64,192,76657,1,0,0:0:0:0:
192,192,76761,1,0,0:0:0:0:
448,192,76761,1,0,0:0:0:0:
320,192,76761,1,0,0:0:0:0:
64,192,76865,1,0,0:0:0:0:
320,192,76967,1,0,0:0:0:0:
448,192,76967,1,0,0:0:0:0:
64,192,77071,1,0,0:0:0:0:
192,192,77071,1,0,0:0:0:0:
320,192,77174,1,0,0:0:0:0:
448,192,77174,1,0,0:0:0:0:
64,192,77174,1,0,0:0:0:0:
192,192,77381,1,0,0:0:0:0:
320,192,77381,1,0,0:0:0:0:
64,192,77587,1,0,0:0:0:0:
448,192,77587,1,0,0:0:0:0:
320,192,77587,1,0,0:0:0:0:
192,192,77691,1,0,0:0:0:0:
320,192,77691,1,0,0:0:0:0:
192,192,77794,1,0,0:0:0:0:
448,192,77794,1,0,0:0:0:0:
64,192,77794,1,0,0:0:0:0:
320,192,77897,1,0,0:0:0:0:
64,192,77897,1,0,0:0:0:0:
448,192,78001,1,0,0:0:0:0:
192,192,78001,1,0,0:0:0:0:
320,192,78001,1,0,0:0:0:0:
320,192,78207,1,0,0:0:0:0:
192,192,78207,1,0,0:0:0:0:
64,192,78414,1,0,0:0:0:0:
192,192,78414,1,0,0:0:0:0:
320,192,78517,1,0,0:0:0:0:
448,192,78517,1,0,0:0:0:0:
448,192,78620,1,0,0:0:0:0:
192,192,78620,1,0,0:0:0:0:
64,192,78620,1,0,0:0:0:0:
192,192,78827,1,0,0:0:0:0:
320,192,78827,1,0,0:0:0:0:
64,192,79034,1,0,0:0:0:0:
448,192,79034,1,0,0:0:0:0:
64,192,79240,128,0,79550:0:0:0:0:
448,192,79240,128,0,79550:0:0:0:0:
448,192,79654,1,0,0:0:0:0:
64,192,79654,1,0,0:0:0:0:
320,192,79654,1,0,0:0:0:0:
192,192,79705,1,0,0:0:0:0:
448,192,79756,1,0,0:0:0:0:
320,192,79808,1,0,0:0:0:0:
64,192,79860,1,0,0:0:0:0:
192,192,79912,1,0,0:0:0:0:
448,192,79964,1,0,0:0:0:0:
320,192,80015,1,0,0:0:0:0:
64,192,80066,1,0,0:0:0:0:
192,192,80066,1,0,0:0:0:0:
448,192,80066,1,0,0:0:0:0:
192,192,80274,1,0,0:0:0:0:
320,192,80274,1,0,0:0:0:0:
64,192,80376,1,0,0:0:0:0:
320,192,80376,1,0,0:0:0:0:
192,192,80480,1,0,0:0:0:0:
64,192,80480,1,0,0:0:0:0:
448,192,80480,1,0,0:0:0:0:
64,192,80686,1,0,0:0:0:0:
448,192,80686,1,0,0:0:0:0:
192,192,80893,1,0,0:0:0:0:
320,192,80893,1,0,0:0:0:0:
448,192,80893,1,0,0:0:0:0:
64,192,80996,1,0,0:0:0:0:
192,192,80996,1,0,0:0:0:0:
320,192,81100,1,0,0:0:0:0:
448,192,81100,1,0,0:0:0:0:
64,192,81100,1,0,0:0:0:0:
192,192,81203,1,0,0:0:0:0:
320,192,81203,1,0,0:0:0:0:
64,192,81306,1,0,0:0:0:0:
192,192,81306,1,0,0:0:0:0:
448,192,81306,1,0,0:0:0:0:
64,192,81513,1,0,0:0:0:0:
448,192,81513,1,0,0:0:0:0:
192,192,81719,1,0,0:0:0:0:
448,192,81719,1,0,0:0:0:0:
320,192,81823,1,0,0:0:0:0:
192,192,81823,1,0,0:0:0:0:
64,192,81926,1,0,0:0:0:0:
320,192,81926,1,0,0:0:0:0:
448,192,82133,1,0,0:0:0:0:
64,192,82133,1,0,0:0:0:0:
192,192,82339,1,0,0:0:0:0:
320,192,82339,1,0,0:0:0:0:
192,192,82546,128,0,82855:0:0:0:0:
320,192,82546,128,0,82855:0:0:0:0:
64,192,82959,1,0,0:0:0:0:
192,192,82959,1,0,0:0:0:0:
448,192,82959,1,0,0:0:0:0:
320,192,83063,1,0,0:0:0:0:
192,192,83165,1,0,0:0:0:0:
448,192,83269,1,0,0:0:0:0:
320,192,83373,1,0,0:0:0:0:
64,192,83373,1,0,0:0:0:0:
192,192,83373,1,0,0:0:0:0:
448,192,83475,1,0,0:0:0:0:
192,192,83579,1,0,0:0:0:0:
64,192,83579,1,0,0:0:0:0:
448,192,83683,1,0,0:0:0:0:
320,192,83683,1,0,0:0:0:0:
192,192,83785,1,0,0:0:0:0:
64,192,83785,1,0,0:0:0:0:
448,192,83785,1,0,0:0:0:0:
320,192,83992,1,0,0:0:0:0:
192,192,83992,1,0,0:0:0:0:
448,192,84199,1,0,0:0:0:0:
64,192,84199,1,0,0:0:0:0:
192,192,84199,1,0,0:0:0:0:
320,192,84302,1,0,0:0:0:0:
192,192,84302,1,0,0:0:0:0:
320,192,84405,1,0,0:0:0:0:
64,192,84405,1,0,0:0:0:0:
448,192,84405,1,0,0:0:0:0:
192,192,84509,1,0,0:0:0:0:
448,192,84509,1,0,0:0:0:0:
64,192,84612,1,0,0:0:0:0:
320,192,84612,1,0,0:0:0:0:
192,192,84612,1,0,0:0:0:0:
192,192,84819,1,0,0:0:0:0:
320,192,84819,1,0,0:0:0:0:
448,192,85025,1,0,0:0:0:0:
320,192,85025,1,0,0:0:0:0:
192,192,85128,1,0,0:0:0:0:
64,192,85128,1,0,0:0:0:0:
64,192,85232,1,0,0:0:0:0:
320,192,85232,1,0,0:0:0:0:
448,192,85232,1,0,0:0:0:0:
320,192,85438,1,0,0:0:0:0:
192,192,85438,1,0,0:0:0:0:
448,192,85645,1,0,0:0:0:0:
64,192,85645,1,0,0:0:0:0:
448,192,85852,128,0,86162:0:0:0:0:
64,192,85852,128,0,86162:0:0:0:0:
64,192,86265,1,0,0:0:0:0:
192,192,86265,1,0,0:0:0:0:
320,192,86265,1,0,0:0:0:0:
448,192,86265,1,0,0:0:0:0:
