osu file format v14

[General]
AudioFilename: vocal4.mp3
AudioLeadIn: 0
PreviewTime: 72702
Countdown: 0
SampleSet: Soft
StackLeniency: 0.3
Mode: 0
LetterboxInBreaks: 0
WidescreenStoryboard: 1

[Editor]
DistanceSpacing: 1.15
BeatDivisor: 4
GridSize: 8
TimelineZoom: 4.399998

[Metadata]
Title:Odo
TitleUnicode:踊
Artist:Ado
ArtistUnicode:Ado
Creator:Heilia
Version:Dance
Source:
Tags:pdc2021 pending cup pdc vocal japanese pop electronic rap jp jpop giga teddyloid deco*27 dailycare morinaga flake wanpachi ponbot moph
BeatmapID:3128396
BeatmapSetID:1529362

[Difficulty]
HPDrainRate:6
CircleSize:4
OverallDifficulty:9
ApproachRate:9.4
SliderMultiplier:2
SliderTickRate:1

[Events]
//Background and Video events
0,0,"ddsdasdasdas.jpg",0,0
//Break Periods
2,202546,204804
//Storyboard Layer 0 (Background)
//Storyboard Layer 1 (Fail)
//Storyboard Layer 2 (Pass)
//Storyboard Layer 3 (Foreground)
//Storyboard Layer 4 (Overlay)
//Storyboard Sound Samples

[TimingPoints]
1921,468.75,4,2,1,75,1,0
1921,-200,4,2,1,75,0,0
2389,-133.333333333333,4,2,1,75,0,0
9421,-133.333333333333,4,2,1,75,0,0
9450,-133.333333333333,4,2,1,75,0,0
11296,-111.111111111111,4,2,1,75,0,0
11999,-95.2380952380952,4,2,1,75,0,0
12233,-133.333333333333,4,2,1,75,0,0
13171,-111.111111111111,4,2,1,75,0,0
16921,-133.333333333333,4,2,1,75,0,0
17389,-153.846153846154,4,2,1,75,0,0
17858,-181.818181818182,4,2,1,75,0,0
18327,-222.222222222222,4,2,1,75,0,0
19030,-100,4,2,1,75,0,0
20671,-125,4,2,1,75,0,0
21139,-76.9230769230769,4,2,1,75,0,0
22546,-125,4,2,1,75,0,0
23014,-76.9230769230769,4,2,1,75,0,0
23952,-50,4,2,1,75,0,0
24421,-76.9230769230769,4,2,1,75,0,0
24596,-76.9230769230769,4,2,1,5,0,0
24655,-76.9230769230769,4,2,1,75,0,0
25065,-76.9230769230769,4,2,1,5,0,0
25124,-76.9230769230769,4,2,1,75,0,0
26061,-62.5,4,2,1,75,0,0
26237,-62.5,4,2,1,5,0,0
26296,-76.9230769230769,4,2,1,75,0,0
26471,-76.9230769230769,4,2,1,5,0,0
26530,-76.9230769230769,4,2,1,75,0,0
26940,-76.9230769230769,4,2,1,5,0,0
26999,-76.9230769230769,4,2,1,75,0,0
30983,-125,4,2,1,75,0,0
31452,-62.5,4,2,1,75,0,0
34030,-133.333333333333,4,2,1,75,0,0
35671,-66.6666666666667,4,2,1,75,0,0
46921,-133.333333333333,4,2,1,75,0,0
48796,-66.6666666666667,4,2,1,75,0,0
50671,-200,4,2,1,75,0,0
51139,-100,4,2,1,75,0,0
52546,-66.6666666666667,4,2,1,75,0,0
52780,-200,4,2,1,75,0,0
53014,-66.6666666666667,4,2,1,75,0,0
53249,-200,4,2,1,75,0,0
53483,-66.6666666666667,4,2,1,75,0,0
55592,-100,4,2,1,75,0,0
59108,-133.333333333333,4,2,1,75,0,0
60046,-111.111111111111,4,2,1,75,0,0
60983,-100,4,2,1,75,0,0
61921,-66.6666666666667,4,2,1,75,0,0
65671,-66.6666666666667,4,2,1,50,0,0
66139,-66.6666666666667,4,2,1,55,0,0
66608,-66.6666666666667,4,2,1,60,0,0
67077,-66.6666666666667,4,2,1,65,0,0
67546,-66.6666666666667,4,2,1,70,0,0
68014,-66.6666666666667,4,2,1,75,0,0
68483,-66.6666666666667,4,2,1,80,0,0
68952,-66.6666666666667,4,2,1,85,0,0
69421,-200,4,2,1,75,0,0
69889,-100,4,2,1,75,0,0
70358,-66.6666666666667,4,2,1,75,0,0
70827,-50,4,2,1,75,0,0
71764,-66.6666666666667,4,2,1,75,0,0
72702,-125,4,2,1,75,0,0
72936,-37.037037037037,4,2,1,75,0,0
73171,-37.037037037037,4,2,2,100,0,0
73288,-37.037037037037,4,2,1,90,0,0
74108,-43.4782608695652,4,2,1,90,0,0
75046,-200,4,2,1,90,0,0
75514,-43.4782608695652,4,2,1,90,0,0
75983,-33.3333333333333,4,2,1,90,0,0
76335,-50,4,1,2,100,0,0
76686,-50,4,2,1,90,0,0
77624,-43.4782608695652,4,2,1,90,0,0
79967,-50,4,2,1,90,0,0
80436,-37.037037037037,4,2,1,90,0,0
80671,-37.037037037037,4,2,2,90,0,0
80788,-37.037037037037,4,2,1,90,0,0
81374,-43.4782608695652,4,2,1,90,0,0
82546,-133.333333333333,4,2,1,90,0,0
83014,-43.4782608695652,4,2,1,90,0,0
83483,-33.3333333333333,4,2,1,90,0,0
83835,-50,4,1,2,100,0,0
84303,-50,4,2,1,90,0,0
85124,-43.4782608695652,4,2,1,90,0,0
88171,-200,4,2,6,90,0,0
88639,-43.4782608695652,4,2,6,90,0,0
89108,-37.037037037037,4,2,6,90,0,0
89577,-43.4782608695652,4,2,6,90,0,0
90046,-37.037037037037,4,2,6,90,0,0
90514,-43.4782608695652,4,2,6,90,0,0
90983,-37.037037037037,4,2,6,90,0,0
91452,-43.4782608695652,4,2,6,90,0,0
91921,-50,4,2,6,90,0,0
95671,-43.4782608695652,4,2,6,90,0,0
96608,-50,4,2,6,90,0,0
96842,-43.4782608695652,4,2,6,90,0,0
97546,-50,4,2,6,90,0,0
98014,-43.4782608695652,4,2,6,90,0,0
98483,-50,4,2,6,90,0,0
98717,-43.4782608695652,4,2,6,90,0,0
99655,-50,4,2,6,90,0,0
100592,-43.4782608695652,4,2,6,90,0,0
101530,-50,4,2,6,90,0,0
102467,-43.4782608695652,4,2,6,90,0,0
103171,-43.4782608695652,4,2,1,75,0,0
105046,-62.5,4,2,1,75,0,0
105749,-200,4,2,1,75,0,0
106452,-62.5,4,2,1,75,0,0
107624,-200,4,2,1,75,0,0
107858,-62.5,4,2,1,75,0,0
109499,-200,4,2,1,75,0,0
110202,-62.5,4,2,1,75,0,0
110436,-200,4,2,1,75,0,0
111139,-62.5,4,2,1,75,0,0
120046,-100,4,2,1,75,0,0
120749,-100,4,2,1,60,0,0
121921,-133.333333333333,4,2,1,60,0,0
122389,-83.3333333333333,4,2,1,60,0,0
126139,-80,4,2,1,60,0,0
126842,-66.6666666666667,4,2,1,60,0,0
127546,-100,4,2,1,60,0,0
129538,-200,4,2,1,60,0,0
130006,-142.857142857143,4,2,1,60,0,0
130475,-111.111111111111,4,2,1,60,0,0
130944,-90.9090909090909,4,2,1,60,0,0
135046,-90.9090909090909,4,2,1,60,0,0
135983,-90.9090909090909,4,2,1,70,0,0
136921,-90.9090909090909,4,2,1,80,0,0
137858,-90.9090909090909,4,2,1,90,0,0
142311,-33.3333333333333,4,2,6,90,0,0
142546,-50,4,2,6,90,0,0
143014,-30.3030303030303,4,2,6,90,0,0
143249,-50,4,2,6,90,0,0
144421,-133.333333333333,4,2,6,90,0,0
144889,-30.3030303030303,4,2,6,90,0,0
145124,-133.333333333333,4,2,6,90,0,0
146061,-66.6666666666667,4,2,6,90,0,0
146530,-50,4,2,6,90,0,0
150046,-43.4782608695652,4,2,6,90,0,0
150749,-50,4,2,6,90,0,0
151217,-43.4782608695652,4,2,6,90,0,0
151921,-133.333333333333,4,2,6,90,0,0
152389,-30.3030303030303,4,2,6,90,0,0
152624,-133.333333333333,4,2,6,90,0,0
153092,-43.4782608695652,4,2,6,90,0,0
154030,-50,4,2,6,90,0,0
154967,-43.4782608695652,4,2,6,90,0,0
155905,-50,4,2,6,90,0,0
157233,-133.333333333333,4,2,6,90,0,0
157546,-66.6666666666667,4,2,1,75,0,0
165046,-200,4,2,1,75,0,0
165514,-125,4,2,1,75,0,0
165983,-90.9090909090909,4,2,1,75,0,0
166452,-71.4285714285714,4,2,1,75,0,0
166921,-200,4,2,1,75,0,0
167389,-125,4,2,1,75,0,0
167858,-90.9090909090909,4,2,1,75,0,0
168327,-71.4285714285714,4,2,1,75,0,0
171608,-62.5,4,2,1,75,0,0
172546,-55.5555555555556,4,2,1,100,0,1
172663,-55.5555555555556,4,2,1,75,0,1
173717,-55.5555555555556,4,2,1,75,0,0
174421,-50,4,2,1,75,0,1
174889,-53.1914893617021,4,2,1,75,0,1
175358,-40.4858299595142,4,2,1,75,0,1
175827,-31.25,4,2,1,75,0,1
175944,-31.25,4,2,1,75,0,1
176296,-31.25,4,2,1,90,0,0
176999,-43.4782608695652,4,2,1,90,0,0
177526,-43.4782608695652,4,2,1,5,0,0
177585,-43.4782608695652,4,2,1,90,0,0
179342,-50,4,2,1,90,0,0
179811,-37.037037037037,4,2,1,90,0,0
180046,-37.037037037037,4,2,2,100,0,0
180163,-37.037037037037,4,2,1,90,0,0
180749,-43.4782608695652,4,2,1,90,0,0
181921,-133.333333333333,4,2,1,90,0,0
182389,-43.4782608695652,4,2,1,90,0,0
182858,-33.3333333333333,4,2,1,90,0,0
183210,-43.4782608695652,4,1,2,100,0,0
183678,-43.4782608695652,4,2,1,90,0,0
187546,-37.037037037037,4,2,2,100,0,0
187663,-37.037037037037,4,2,1,90,0,0
188483,-43.4782608695652,4,2,1,90,0,0
189421,-37.037037037037,4,2,1,90,0,0
189889,-43.4782608695652,4,2,1,90,0,0
190358,-33.3333333333333,4,2,1,90,0,0
190710,-43.4782608695652,4,1,2,100,0,0
191178,-43.4782608695652,4,2,1,90,0,0
194108,-37.037037037037,4,2,1,90,0,0
195046,-37.037037037037,4,2,2,100,0,0
195163,-43.4782608695652,4,2,1,90,0,0
195749,-37.037037037037,4,2,1,90,0,0
196335,-43.4782608695652,4,2,1,90,0,0
196686,-43.4782608695652,4,2,1,90,0,0
196921,-133.333333333333,4,2,1,90,0,0
197389,-43.4782608695652,4,2,1,90,0,0
197858,-33.3333333333333,4,2,1,90,0,0
198210,-43.4782608695652,4,1,2,100,0,0
198678,-43.4782608695652,4,2,1,90,0,0
201608,-100,4,2,1,90,0,0
205827,-151.515151515152,4,2,1,75,0,0

[Colours]
Combo1 : 204,204,204
Combo2 : 128,255,255
Combo3 : 198,59,98
Combo4 : 254,157,69
Combo5 : 255,255,128
Combo6 : 245,226,222
Combo7 : 0,255,128
Combo8 : 202,149,255

[HitObjects]
133,384,1921,70,0,P|143:346|155:321,1,50,4|0,0:0|0:0,0:0:0:0:
95,206,2389,38,0,B|110:240|149:253|149:253|107:251|79:280,1,150.000005722046,2|0,0:1|0:0,0:0:0:0:
1,305,3092,2,0,P|75:312|155:340,1,150.000005722046,2|0,0:1|0:0,0:0:0:0:
208,283,3796,70,0,P|250:270|273:252,1,56.2500021457673,4|0,0:2|0:0,0:0:0:0:
259,263,4030,1,0,0:0:0:0:
287,344,4264,38,0,P|329:357|352:375,1,56.2500021457673,4|0,0:2|0:0,0:0:0:0:
338,363,4499,1,0,3:0:0:0:
419,312,4733,69,0,0:0:0:0:
465,89,4967,38,2,L|433:86,2,18.7500007152558,2|2|2,3:1|0:0|0:0,0:0:0:0:
488,166,5202,2,0,L|381:154,1,75.0000028610231,2|0,0:0|3:1,0:0:0:0:
142,2,5671,70,0,P|192:16|186:67,1,112.500004291535,4|0,1:0|0:0,0:0:0:0:
280,100,6139,38,0,B|241:98|206:129|254:147|204:187|165:180,1,150.000005722046,2|0,0:1|0:0,0:0:0:0:
232,247,6842,2,0,P|174:231|80:212,1,150.000005722046,2|0,0:1|0:0,0:0:0:0:
471,362,7546,69,2,0:0:0:0:
413,308,7780,1,2,0:0:0:0:
451,237,8014,1,2,0:0:0:0:
484,63,8249,37,2,0:0:0:0:
482,73,8366,1,2,0:0:0:0:
480,83,8483,1,2,3:1:0:0:
233,57,8717,70,0,P|298:37|330:35,1,75.0000028610231,2|0,3:1|0:0,0:0:0:0:
316,109,9069,1,0,0:0:0:0:
306,112,9186,2,0,P|286:115|266:123,1,37.5000014305115,2|0,3:1|0:0,0:0:0:0:
4,225,9421,37,2,1:1:0:0:
66,60,9655,1,2,0:2:0:0:
173,195,9890,1,2,0:2:0:0:
76,175,10124,1,2,0:2:0:0:
76,175,10241,1,0,0:0:0:0:
76,175,10358,70,0,L|91:112,1,37.5000014305115,2|0,1:1|0:0,0:0:0:0:
160,384,10592,1,2,0:2:0:0:
335,195,10828,1,2,0:2:0:0:
173,254,11061,1,2,0:2:0:0:
173,254,11178,1,0,0:0:0:0:
173,254,11296,38,0,L|181:310,1,44.999998626709,2|0,1:1|0:0,0:0:0:0:
258,0,11529,1,2,0:2:0:0:
435,207,11764,1,2,0:2:0:0:
285,155,11999,70,0,L|292:103,1,52.4999983978272,2|0,0:0|0:0,0:0:0:0:
284,165,12233,38,0,B|248:171|197:130|246:112|210:80|170:82,1,150.000005722046,4|0,1:1|0:0,0:0:0:0:
15,182,12936,1,0,0:0:0:0:
197,384,13171,70,0,P|206:340|220:297,1,89.9999972534181,4|0,0:1|0:0,0:0:0:0:
45,254,13639,2,0,P|29:180|-4:69,1,179.999994506836,2|0,0:1|0:0,0:0:0:0:
206,0,14342,2,0,P|276:-13|331:72,1,179.999994506836,2|0,1:0|0:0,0:0:0:0:
378,328,15046,37,2,0:1:0:0:
419,63,15280,1,0,0:0:0:0:
378,328,15514,2,0,L|396:215,1,89.9999972534181,2|0,0:1|0:0,0:0:0:0:
285,288,15983,69,2,0:0:0:0:
310,93,16217,1,2,0:0:0:0:
287,268,16451,1,2,0:0:0:0:
307,117,16685,1,2,0:0:0:0:
210,213,16921,38,0,P|202:168|192:132,1,75.0000028610231,2|0,0:0|0:0,0:0:0:0:
202,211,17389,2,0,P|195:172|186:142,1,64.9999970245363,2|0,0:0|0:0,0:0:0:0:
194,208,17858,2,0,P|188:178|181:154,1,55.0000016784668,2|0,0:0|0:0,0:0:0:0:
186,207,18327,2,0,P|181:182|175:162,1,44.999998626709,2|0,0:0|0:0,0:0:0:0:
171,192,18796,53,4,0:2:0:0:
267,61,19030,70,0,L|315:66,1,25,2|0,0:0|0:0,0:0:0:0:
398,75,19264,6,2,L|373:72,8,25,0|0|0|0|0|0|0|0|0,0:0|0:0|0:0|0:0|0:0|0:0|0:0|0:0|0:0,0:0:0:0:
84,219,19967,53,8,0:0:0:0:
70,233,20046,1,8,0:0:0:0:
65,253,20124,1,8,0:0:0:0:
70,272,20202,1,8,0:0:0:0:
150,261,20436,102,4,P|173:254|199:250,1,50,4|4,0:1|0:0,0:0:0:0:
415,366,20671,102,0,P|343:347|320:345,1,80,6|0,3:1|0:0,0:0:0:0:
405,239,21022,1,0,0:0:0:0:
330,271,21139,102,0,P|404:283|474:309,1,129.999994049073,2|0,3:1|0:0,0:0:0:0:
512,133,21491,1,0,0:0:0:0:
493,133,21608,6,0,P|492:172|513:198,1,64.9999970245363,2|0,3:1|0:0,0:0:0:0:
512,46,21842,1,0,0:0:0:0:
505,55,21960,1,2,0:1:0:0:
425,47,22077,2,0,P|355:54|316:-23,1,129.999994049073,2|0,3:3|0:0,0:0:0:0:
148,0,22428,1,0,0:0:0:0:
136,17,22546,102,0,P|157:72|167:114,1,80,2|0,3:1|0:0,0:0:0:0:
299,205,22897,1,0,0:0:0:0:
223,240,23014,6,0,P|190:277|218:336,1,97.4999955368044,2|0,3:1|0:0,0:0:0:0:
212,331,23249,2,0,P|246:316|282:306,1,64.9999970245363,2|0,3:1|0:0,0:0:0:0:
238,112,23483,102,0,P|166:134|97:163,1,129.999994049073,2|0,3:1|0:0,0:0:0:0:
141,21,23835,1,2,1:0:0:0:
59,96,23952,6,0,P|152:56|249:32,1,200,4|2,3:1|0:0,0:0:0:0:
453,358,24421,102,0,P|469:324|417:284,1,97.4999955368044,2|0,3:1|0:0,0:0:0:0:
428,291,24655,2,0,P|382:304|354:316,1,64.9999970245363
304,62,24889,6,0,P|288:96|340:136,1,97.4999955368044,2|0,3:1|0:0,0:0:0:0:
329,129,25123,2,0,P|375:116|403:104,1,64.9999970245363
379,227,25358,102,0,P|388:211|366:224,1,64.9999970245363,2|0,3:1|0:0,0:0:0:0:
212,384,25592,5,2,0:0:0:0:
264,325,25710,1,2,3:3:0:0:
230,255,25827,1,0,0:0:0:0:
223,251,26061,102,0,P|138:271|75:286,1,120,2|0,3:1|0:0,0:0:0:0:
96,276,26296,6,0,P|81:232|116:201,1,97.4999955368044,2|0,3:1|0:0,0:0:0:0:
119,194,26530,2,0,P|72:182|42:178,1,64.9999970245363
203,0,26764,102,0,P|233:21|208:82,1,97.4999955368044,2|0,3:1|0:0,0:0:0:0:
223,74,26999,5,2,0:0:0:0:
195,147,27115,1,2,0:0:0:0:
252,201,27233,1,2,3:1:0:0:
256,209,27467,101,2,3:3:0:0:
284,282,27584,1,2,1:0:0:0:
227,336,27702,1,2,0:0:0:0:
219,340,27936,5,2,3:1:0:0:
181,270,28054,1,2,0:0:0:0:
103,279,28171,1,4,3:1:0:0:
363,57,28405,101,0,0:0:0:0:
291,381,28639,1,2,3:1:0:0:
179,154,28874,1,0,0:0:0:0:
412,202,29108,6,0,P|451:201|477:222,1,64.9999970245363,2|0,3:1|0:0,0:0:0:0:
323,218,29342,1,0,0:0:0:0:
332,211,29460,1,2,1:0:0:0:
329,133,29577,2,0,P|336:63|259:24,1,129.999994049073,2|0,3:3|3:1,0:0:0:0:
123,98,29928,1,0,0:0:0:0:
179,154,30046,102,0,P|200:209|217:296,1,129.999994049073,2|0,3:1|0:0,0:0:0:0:
384,255,30397,1,0,0:0:0:0:
308,290,30514,6,0,P|275:327|303:386,1,97.4999955368044,2|0,3:1|0:0,0:0:0:0:
294,384,30749,2,0,P|260:369|224:359,1,64.9999970245363,2|0,3:1|0:0,0:0:0:0:
147,234,30983,102,0,P|103:247|60:269,1,80,2|0,3:1|0:0,0:0:0:0:
67,130,31335,1,2,3:3:0:0:
24,199,31452,6,0,P|107:166|147:157,1,120,2|0,0:1|0:0,0:0:0:0:
143,151,31686,102,0,B|228:173|228:173|181:144|167:90,1,160,2|6,0:0|3:1,0:0:0:0:
512,231,32155,6,0,P|500:202|457:189,1,80,2|0,0:0|0:0,0:0:0:0:
490,324,32389,2,0,P|429:337|341:388,1,160,2|0,3:1|0:0,0:0:0:0:
329,283,32741,1,0,0:0:0:0:
349,289,32858,2,0,P|396:264|430:257,1,80,2|0,3:1|0:0,0:0:0:0:
512,127,33092,101,2,0:0:0:0:
455,73,33210,1,2,3:3:0:0:
483,0,33327,1,2,0:0:0:0:
479,8,33561,6,0,L|375:31,1,80,2|0,3:1|0:0,0:0:0:0:
242,69,33796,101,2,3:1:0:0:
188,12,33914,1,2,3:1:0:0:
117,49,34030,6,0,L|146:95,1,37.5000014305115,2|0,3:1|0:0,0:0:0:0:
447,143,34264,102,0,L|394:144,1,37.5000014305115,2|0,3:1|0:0,0:0:0:0:
201,382,34499,6,0,L|226:334,1,37.5000014305115,2|0,1:1|0:0,0:0:0:0:
186,231,34733,5,2,3:1:0:0:
271,261,34850,1,2,0:0:0:0:
197,141,34967,21,2,3:0:0:0:
195,231,35084,1,2,0:0:0:0:
284,122,35202,85,2,3:0:0:0:
200,149,35319,1,2,0:0:0:0:
331,201,35436,21,2,3:0:0:0:
279,127,35553,1,2,0:0:0:0:
398,121,35671,54,0,P|356:125|295:34,1,150.000005722046,6|0,3:1|0:0,0:0:0:0:
148,0,36022,1,0,0:0:0:0:
137,88,36139,2,0,P|170:72|207:65,1,75.0000028610231,2|0,3:1|0:0,0:0:0:0:
4,208,36374,5,2,0:0:0:0:
0,193,36432,101,2,0:0:0:0:
12,182,36491,5,2,0:0:0:0:
89,175,36608,102,0,P|137:166|187:175,1,75.0000028610231,2|0,3:1|0:0,0:0:0:0:
73,248,36842,2,0,P|132:268|163:295,1,75.0000028610231,4|2,2:0|3:3,0:0:0:0:
389,261,37077,5,2,0:0:0:0:
211,235,37194,1,2,0:0:0:0:
354,343,37311,1,2,3:1:0:0:
315,223,37428,1,2,0:0:0:0:
350,371,37546,102,0,P|387:347|431:344,1,75.0000028610231,2|0,3:1|0:0,0:0:0:0:
512,152,37780,1,0,0:0:0:0:
441,205,37897,1,0,0:0:0:0:
488,280,38014,2,0,P|444:252|400:241,1,75.0000028610231,2|0,3:1|0:0,0:0:0:0:
354,170,38249,5,2,0:0:0:0:
369,166,38307,101,2,0:3:0:0:
380,178,38366,5,2,0:0:0:0:
347,247,38483,102,0,P|293:264|275:307,1,75.0000028610231,2|0,3:1|0:0,0:0:0:0:
205,332,38717,2,0,P|273:361|289:382,1,75.0000028610231,4|2,0:0|3:3,0:0:0:0:
223,113,38952,1,2,0:0:0:0:
225,120,39069,1,0,0:0:0:0:
278,179,39186,2,0,P|236:201|200:195,1,75.0000028610231,0|0,3:0|0:0,0:0:0:0:
254,17,39421,6,0,P|305:35|311:71,1,75.0000028610231,2|0,3:1|0:0,0:0:0:0:
484,99,39655,1,0,0:0:0:0:
413,152,39772,1,0,0:0:0:0:
460,227,39889,2,0,P|416:199|372:188,1,75.0000028610231,2|0,3:1|0:0,0:0:0:0:
336,374,40124,101,2,0:0:0:0:
344,360,40183,5,2,0:0:0:0:
360,361,40241,101,2,0:0:0:0:
456,378,40358,6,0,P|380:326|403:260,1,150.000005722046,2|0,3:1|0:0,0:0:0:0:
269,181,40710,1,0,0:0:0:0:
332,128,40827,2,0,P|309:170|256:183,1,75.0000028610231,2|0,3:1|0:0,0:0:0:0:
58,97,41061,101,2,0:0:0:0:
43,93,41119,5,2,0:0:0:0:
32,105,41178,101,2,0:0:0:0:
0,205,41296,6,0,P|66:176|135:165,1,75.0000028610231,4|0,3:1|0:0,0:0:0:0:
219,236,41530,1,0,0:0:0:0:
166,307,41647,1,0,0:0:0:0:
91,260,41764,2,0,P|119:304|130:348,1,75.0000028610231,2|0,3:1|0:0,0:0:0:0:
206,150,41999,2,0,P|160:169|141:238,1,75.0000028610231,2|0,3:3|0:0,0:0:0:0:
278,338,42233,102,0,P|327:346|372:362,1,75.0000028610231,4|0,3:2|0:0,0:0:0:0:
335,208,42467,5,2,3:1:0:0:
358,66,42585,1,2,3:1:0:0:
332,229,42702,1,2,1:0:0:0:
336,236,42936,102,0,P|365:258|390:286,1,75.0000028610231,2|0,3:1|0:0,0:0:0:0:
195,341,43171,5,6,3:1:0:0:
191,326,43229,101,2,0:0:0:0:
203,315,43288,5,2,0:0:0:0:
278,338,43405,102,0,P|339:349|389:263,1,150.000005722046,2|0,1:0|3:1,0:0:0:0:
465,205,43756,1,0,0:0:0:0:
512,280,43873,2,0,P|481:253|429:234,1,75.0000028610231,2|0,1:0|0:0,0:0:0:0:
408,83,44109,6,0,P|343:86|288:23,1,150.000005722046,4|0,3:1|0:0,0:0:0:0:
215,252,44460,1,2,3:3:0:0:
227,177,44577,2,0,P|266:156|323:154,1,75.0000028610231,0|0,1:0|0:0,0:0:0:0:
157,336,44811,101,2,3:1:0:0:
161,321,44869,5,2,0:0:0:0:
149,310,44928,101,2,0:0:0:0:
77,346,45046,6,0,P|24:370|1:392,1,75.0000028610231,2|0,3:1|0:0,0:0:0:0:
101,251,45280,2,0,P|39:258|1:187,1,150.000005722046,4|0,0:0|3:1,0:0:0:0:
188,81,45631,1,0,0:0:0:0:
119,27,45749,2,0,P|95:63|108:100,1,75.0000028610231,2|0,3:1|0:0,0:0:0:0:
251,221,45983,102,0,P|289:204|354:200,1,75.0000028610231,2|0,3:1|0:0,0:0:0:0:
242,302,46217,2,0,P|290:315|333:347,1,75.0000028610231,2|0,0:0|3:1,0:0:0:0:
473,261,46452,5,2,0:0:0:0:
462,249,46511,101,2,0:0:0:0:
447,253,46569,5,2,0:0:0:0:
447,332,46686,101,2,3:1:0:0:
400,185,46803,1,2,1:0:0:0:
476,108,46921,6,0,P|462:55|446:-3,1,112.500004291535,4|0,3:1|0:0,0:0:0:0:
446,0,47389,101,0,0:0:0:0:
300,69,47624,2,0,P|278:83|280:133,1,75.0000028610231,2|0,0:0|0:0,0:0:0:0:
288,135,47917,5,0,0:0:0:0:
289,145,47975,102,0,P|234:156|202:168,1,75.0000028610231,2|0,0:0|0:0,0:0:0:0:
202,312,48796,6,0,P|215:264|247:221,1,75.0000028610231,4|0,3:1|0:0,0:0:0:0:
0,156,49030,1,2,3:1:0:0:
53,85,49147,1,2,0:0:0:0:
128,132,49264,2,0,P|145:164|153:201,1,75.0000028610231,2|0,1:0|0:0,0:0:0:0:
83,281,49499,102,0,P|198:246|288:239,1,150.000005722046,2|4,3:1|3:2,0:0:0:0:
512,342,49967,1,2,3:1:0:0:
436,384,50085,1,2,3:1:0:0:
383,316,50202,1,2,3:1:0:0:
402,199,50436,37,2,0:0:0:0:
399,185,50495,37,2,0:0:0:0:
397,171,50553,69,2,0:0:0:0:
395,157,50612,37,2,0:0:0:0:
393,143,50671,54,0,P|355:153|330:165,1,50,4|0,0:0|0:0,0:0:0:0:
153,69,51139,38,0,B|201:54|226:5|226:5|215:60|249:102,1,200,2|0,1:0|0:0,0:0:0:0:
169,176,51725,1,2,0:0:0:0:
280,194,51842,2,0,P|218:170|145:158,1,100,2|0,1:0|0:0,0:0:0:0:
22,369,52311,69,2,0:0:0:0:
37,373,52428,1,2,0:0:0:0:
47,362,52546,2,0,P|34:337|24:265,1,75.0000028610231,4|0,0:2|0:0,0:0:0:0:
105,257,52780,38,0,L|97:286,1,25
236,243,53014,70,0,P|249:218|259:146,1,75.0000028610231,4|0,0:2|0:0,0:0:0:0:
178,138,53249,38,0,L|186:167,1,25,0|0,3:0|0:0,0:0:0:0:
133,73,53483,70,0,P|166:52|203:59,1,75.0000028610231
315,60,53717,38,0,B|294:94|294:94|331:98,1,75.0000028610231,0|0,3:0|0:0,0:0:0:0:
395,57,53952,70,0,P|418:81|408:126,1,75.0000028610231,2|0,0:0|0:0,0:0:0:0:
307,212,54186,2,0,P|362:189|408:177,1,75.0000028610231,0|0,1:0|0:0,0:0:0:0:
418,366,54421,37,6,1:0:0:0:
363,310,54538,1,2,0:0:0:0:
297,348,54655,1,2,0:0:0:0:
512,367,54889,70,0,P|384:335|198:309,1,300.000011444092,4|0,1:2|0:0,0:0:0:0:
293,238,55475,2,2,P|325:231|340:219,1,37.5000014305115,0|0,0:0|0:0,0:0:0:0:
334,221,55592,38,0,P|405:230|409:310,1,150,4|0,0:2|0:0,0:0:0:0:
34,324,56296,69,2,0:0:0:0:
128,45,56530,1,2,0:0:0:0:
322,265,56764,1,2,0:0:0:0:
164,203,56999,37,2,0:0:0:0:
164,203,57116,1,2,0:0:0:0:
164,203,57233,1,2,1:1:0:0:
138,294,57467,70,0,P|191:277|241:268,1,100,2|0,1:0|0:0,0:0:0:0:
170,114,57936,2,0,P|193:120|217:131,1,50,2|0,1:0|0:0,0:0:0:0:
508,225,58171,37,4,1:2:0:0:
446,60,58405,1,2,0:2:0:0:
339,195,58640,1,2,0:2:0:0:
436,175,58874,1,2,0:2:0:0:
436,175,58991,1,0,0:0:0:0:
436,175,59108,70,0,L|421:112,1,37.5000014305115,4|0,0:2|0:0,0:0:0:0:
352,384,59342,1,2,0:2:0:0:
177,195,59578,1,2,0:2:0:0:
339,254,59811,1,2,1:0:0:0:
339,254,59928,1,0,0:0:0:0:
339,254,60046,38,0,L|331:310,1,44.999998626709,4|0,0:2|0:0,0:0:0:0:
254,0,60279,1,2,0:2:0:0:
77,207,60514,1,2,0:2:0:0:
242,157,60749,70,0,L|236:108,1,44.999998626709,2|0,0:0|0:0,0:0:0:0:
238,163,60983,38,0,P|252:238|262:337,1,150,4|0,0:2|0:0,0:0:0:0:
331,274,61452,2,0,P|345:227|412:229,1,100,2|2,1:0|0:0,0:0:0:0:
458,255,61803,1,2,0:0:0:0:
442,275,61921,70,0,P|343:245|215:225,1,225.000008583069,4|0,1:0|0:0,0:0:0:0:
131,265,62389,38,0,P|162:274|184:315,1,75.0000028610231,2|0,0:0|0:0,0:0:0:0:
252,147,62624,2,0,P|203:188|145:169,1,112.500004291535,2|0,1:0|0:0,0:0:0:0:
158,180,62858,1,4,1:0:0:0:
62,37,63092,69,2,0:0:0:0:
326,192,63327,1,2,0:0:0:0:
97,367,63561,1,2,0:0:0:0:
199,86,63796,1,2,0:0:0:0:
196,75,63913,1,2,0:0:0:0:
193,64,64030,1,2,0:0:0:0:
442,32,64264,38,0,P|393:84|420:163,1,150.000005722046,2|2,0:0|0:0,0:0:0:0:
461,215,64616,1,2,0:0:0:0:
473,205,64733,69,2,0:0:0:0:
193,64,64967,1,2,0:0:0:0:
459,287,65202,1,2,0:0:0:0:
142,384,65436,1,2,0:0:0:0:
339,260,65671,5,6,1:0:0:0:
348,253,65788,1,2,0:0:0:0:
343,244,65905,1,2,0:0:0:0:
185,108,66139,37,2,1:0:0:0:
174,117,66256,1,2,0:0:0:0:
177,132,66373,1,2,0:0:0:0:
337,275,66608,69,2,1:0:0:0:
354,260,66725,1,2,0:0:0:0:
350,236,66842,1,2,0:0:0:0:
191,86,67077,37,2,1:0:0:0:
163,111,67194,1,2,0:0:0:0:
170,148,67311,1,2,0:0:0:0:
333,309,67546,69,2,1:0:0:0:
378,268,67663,1,2,0:0:0:0:
366,208,67780,1,2,0:0:0:0:
209,48,68014,37,2,1:0:0:0:
146,103,68131,1,2,0:0:0:0:
163,186,68248,1,2,0:0:0:0:
317,341,68483,69,2,1:0:0:0:
395,271,68600,1,2,0:0:0:0:
373,166,68717,1,2,0:0:0:0:
217,16,68952,37,2,1:0:0:0:
124,97,69069,1,2,0:0:0:0:
150,221,69186,1,2,0:0:0:0:
222,65,69421,70,0,L|197:67,1,25,2|0,1:0|0:0,0:0:0:0:
295,58,69655,2,0,L|319:55,1,25,2|0,0:0|0:0,0:0:0:0:
208,142,69889,38,0,L|157:136,1,50,2|0,1:0|0:0,0:0:0:0:
313,152,70123,2,0,L|363:157,1,50,2|0,0:0|0:0,0:0:0:0:
170,259,70358,70,0,L|94:267,1,75.0000028610231,2|0,1:0|0:0,0:0:0:0:
353,242,70592,2,0,L|428:233,1,75.0000028610231,2|0,0:0|0:0,0:0:0:0:
99,349,70827,38,0,L|-1:335,1,100,2|0,1:0|0:0,0:0:0:0:
413,372,71061,2,0,L|512:384,1,100,2|0,0:0|0:0,0:0:0:0:
99,349,71296,5,2,0:0:0:0:
88,258,71452,5,2,0:0:0:0:
77,167,71608,5,2,0:0:0:0:
66,76,71764,5,2,0:0:0:0:
70,82,71999,38,0,L|113:86,2,37.5000014305115,2|0|0,1:0|0:0|0:0,0:0:0:0:
166,143,72233,85,2,0:0:0:0:
176,138,72292,37,2,0:0:0:0:
184,130,72350,69,2,0:0:0:0:
191,121,72409,37,2,0:0:0:0:
196,107,72468,69,2,0:0:0:0:
198,100,72526,37,2,0:0:0:0:
198,89,72585,69,2,0:0:0:0:
196,78,72643,37,2,0:0:0:0:
190,71,72702,70,0,P|222:87|259:98,1,40,2|0,1:0|0:0,0:0:0:0:
365,63,72936,38,0,B|291:88|280:176|329:216|379:183|380:152,1,202.500000772476,2|0,1:0|0:0,0:0:0:0:
377,159,73171,6,0,P|279:188|215:222,1,135.000000514984,4|0,3:2|0:0,0:0:0:0:
22,224,73405,101,6,1:0:0:0:
135,165,73522,1,2,0:0:0:0:
204,271,73639,1,10,1:0:0:0:
195,280,73874,5,2,3:0:0:0:
338,384,73991,1,2,0:0:0:0:
431,221,74108,2,0,B|369:247|369:247|397:230|404:206,1,115.000002193451,6|0,3:1|0:0,0:0:0:0:
427,307,74342,101,2,0:0:0:0:
512,363,74460,2,0,P|436:328|384:316,1,115.000002193451,4|8,0:0|0:1,0:0:0:0:
156,326,74694,5,2,0:0:0:0:
151,345,74753,101,2,0:0:0:0:
162,360,74811,6,0,P|272:328|279:266,1,172.500003290176,6|0,0:0|0:0,0:0:0:0:
274,275,75046,102,0,L|244:280,1,25,4|0,3:1|0:0,0:0:0:0:
20,38,75280,5,6,1:0:0:0:
99,129,75397,1,2,0:0:0:0:
4,199,75514,2,0,P|50:183|123:167,1,115.000002193451,14|0,1:0|0:0,0:0:0:0:
211,62,75749,102,0,B|211:31|238:9|238:9|202:2|165:31|166:80,1,172.500003290176,4|0,3:0|0:0,0:0:0:0:
165,86,75983,6,0,B|235:145|237:278|140:326|37:283|71:187|116:167,1,375.000014305115,6|0,3:1|0:0,0:0:0:0:
100,166,76335,102,0,P|72:208|104:277,1,100,2|8,1:0|1:0,0:0:0:0:
160,307,76569,1,2,0:0:0:0:
50,379,76686,2,0,P|130:341|190:329,1,100,4|2,0:0|0:0,0:0:0:0:
241,365,76862,1,2,0:0:0:0:
244,354,76921,5,2,3:1:0:0:
436,331,77077,1,2,1:0:0:0:
321,177,77233,1,2,1:0:0:0:
327,278,77389,101,10,1:0:0:0:
323,284,77624,6,0,P|249:262|184:254,1,115.000002193451,4|0,3:2|0:0,3:0:0:0:
60,69,77858,102,0,B|121:42|201:95|192:173|192:173|143:182|128:229,1,287.500005483627,6|0,3:1|0:0,0:0:0:0:
76,277,78210,2,0,B|67:314|109:336|109:336|98:318|102:296,1,115.000002193451,4|8,0:0|1:0,0:0:0:0:
281,166,78444,1,2,0:0:0:0:
211,256,78561,2,0,P|179:194|216:160,1,115.000002193451,2|0,1:0|0:0,0:0:0:0:
220,46,78796,5,2,3:1:0:0:
346,120,78913,1,2,0:0:0:0:
393,18,79030,101,2,0:0:0:0:
376,0,79088,5,2,0:0:0:0:
355,7,79147,101,2,0:0:0:0:
436,139,79264,6,0,P|365:147|266:192,1,172.500003290176,14|0,1:1|0:0,0:0:0:0:
276,196,79499,102,0,P|318:216|351:215,1,57.5000010967255,2|0,3:1|0:0,0:0:0:0:
211,256,79616,2,0,P|214:302|231:331,1,57.5000010967255,2|0,1:0|0:0,0:0:0:0:
296,291,79733,5,2,3:0:0:0:
296,291,79850,1,2,0:0:0:0:
120,269,79967,102,0,P|147:279|218:246,1,100,2|0,1:0|0:0,0:0:0:0:
191,114,80202,2,0,P|143:103|100:127,1,100,10|2,1:1|0:0,0:0:0:0:
156,189,80378,1,2,0:0:0:0:
163,195,80436,6,0,P|176:113|216:-11,1,202.500000772476,4|2,0:0|0:0,0:0:0:0:
219,0,80671,102,0,P|289:15|265:81,1,135.000000514984,4|0,3:2|0:0,0:0:0:0:
298,165,80905,5,6,1:0:0:0:
191,114,81022,1,2,0:0:0:0:
275,283,81139,101,10,1:1:0:0:
327,157,81256,1,2,0:0:0:0:
340,355,81374,6,0,P|284:316|147:326,1,172.500003290176,4|0,3:1|0:0,0:0:0:0:
109,317,81608,102,0,B|75:336|79:375|79:375|98:345|127:339,1,115.000002193451,6|0,3:1|0:0,0:0:0:0:
275,283,81842,5,2,0:0:0:0:
155,238,81960,2,0,P|228:268|267:298,1,115.000002193451,4|8,0:0|1:1,0:0:0:0:
451,121,82194,101,2,0:0:0:0:
440,103,82253,5,2,0:0:0:0:
421,102,82311,102,0,P|357:197|391:249,1,172.500003290176,4|0,0:0|0:0,0:0:0:0:
378,245,82546,6,0,L|340:236,1,37.5,4|0,3:1|0:0,0:0:0:0:
321,64,82780,101,2,1:0:0:0:
213,128,82897,1,2,0:0:0:0:
173,19,83014,2,0,P|220:71|166:121,1,115.000002193451,10|0,1:1|0:0,0:0:0:0:
0,139,83249,6,0,B|-26:173|-8:200|-8:200|27:143|83:139,1,172.500003290176,4|0,3:1|0:0,0:0:0:0:
84,139,83483,102,0,B|181:136|265:211|148:254|270:353|365:335,1,375.000014305115,6|0,3:1|0:0,0:0:0:0:
362,326,83835,6,0,P|307:322|266:296,1,100,2|8,1:0|0:1,0:0:0:0:
201,146,84069,1,2,1:0:0:0:
324,188,84186,2,0,B|309:212|316:235|316:235|299:218|269:219,1,100,2|0,1:0|0:0,0:0:0:0:
0,267,84421,101,6,3:1:0:0:
76,288,84538,1,2,0:0:0:0:
107,384,84655,5,2,0:0:0:0:
184,364,84772,1,2,0:0:0:0:
289,307,84889,101,10,1:1:0:0:
294,313,84948,5,2,0:0:0:0:
296,319,85006,101,2,0:0:0:0:
258,384,85124,6,0,P|320:355|385:371,1,115.000002193451,4|0,3:1|0:0,0:0:0:0:
461,120,85358,102,0,P|466:222|337:247,1,230.000004386902,6|0,3:1|0:0,0:0:0:0:
210,260,85710,5,2,0:0:0:0:
213,271,85769,101,2,0:0:0:0:
216,281,85827,6,0,P|348:308|484:350,1,230.000004386902,12|0,0:1|0:0,0:0:0:0:
122,266,86296,101,14,0:0:0:0:
390,116,87233,69,2,0:0:0:0:
388,121,87292,37,2,0:0:0:0:
441,52,87467,69,2,0:0:0:0:
420,36,87545,1,2,0:0:0:0:
394,30,87624,1,2,0:0:0:0:
370,38,87702,1,2,0:0:0:0:
473,127,87936,22,0,P|376:90|269:91,1,172.500003290176,4|0,0:0|0:0,0:0:0:0:
308,94,88171,102,0,P|283:102|268:114,1,37.5,4|0,0:1|0:0,0:0:0:0:
42,355,88639,22,0,B|22:342|22:342|18:285,1,76.6666681289673,2|0,3:0|0:0,0:0:0:0:
71,227,88796,86,0,B|92:216|92:216|143:241,1,76.6666681289673,2|0,3:0|0:0,0:0:0:0:
169,320,88952,22,0,B|167:343|167:343|120:375,1,76.6666681289673,2|0,3:0|0:0,0:0:0:0:
95,301,89108,86,2,B|131:312|131:312|146:375|146:375|222:399,2,135.000000514984,2|2|2,3:0|0:0|0:0,0:0:0:0:
197,155,89577,22,0,B|217:142|217:142|221:85,1,76.6666681289673,2|0,3:0|0:0,0:0:0:0:
234,78,89734,86,0,B|232:54|232:54|113:-1,1,153.333336257935,2|0,3:0|0:0,0:0:0:0:
0,153,90046,22,2,B|31:143|31:143|46:80|46:80|82:69,2,135.000000514984,6|2|2,0:0|0:0|0:0,0:0:0:0:
42,355,90514,86,0,B|22:342|22:342|18:285,1,76.6666681289673,2|0,3:0|0:0,0:0:0:0:
71,227,90671,22,0,B|92:216|92:216|143:241,1,76.6666681289673,2|0,3:0|0:0,0:0:0:0:
169,320,90827,86,0,B|167:343|167:343|120:375,1,76.6666681289673,2|0,3:0|0:0,0:0:0:0:
95,301,90983,22,2,B|131:312|131:312|146:375|146:375|222:399,2,135.000000514984,2|2|0,3:0|0:0|0:0,0:0:0:0:
197,154,91452,86,0,B|217:141|217:141|221:84,1,76.6666681289673,2|0,3:0|0:0,0:0:0:0:
234,78,91608,22,0,B|232:54|232:54|113:-1,1,153.333336257935,2|0,3:0|0:0,0:0:0:0:
326,375,91921,53,2,1:0:0:0:
330,371,91979,69,2,0:0:0:0:
334,367,92038,37,2,0:0:0:0:
338,363,92096,69,2,0:0:0:0:
342,359,92155,38,0,L|313:236,1,100,2|2,3:0|3:0,0:0:0:0:
461,190,92389,69,2,1:0:0:0:
465,186,92447,37,2,0:0:0:0:
469,182,92506,69,2,0:0:0:0:
473,178,92564,37,2,0:0:0:0:
477,174,92624,70,0,L|448:51,1,100,2|2,3:0|3:0,0:0:0:0:
342,359,92858,38,0,L|309:221,1,100,2|0,3:1|0:0,0:0:0:0:
477,174,93092,2,0,L|445:36,1,100,2|0,1:0|0:0,0:0:0:0:
355,29,93327,70,0,L|331:126,1,100,2|0,1:0|0:0,0:0:0:0:
498,271,93561,2,0,L|475:369,1,100,2|0,1:0|0:0,0:0:0:0:
326,375,93796,37,2,1:0:0:0:
330,371,93854,69,2,0:0:0:0:
334,367,93913,37,2,0:0:0:0:
338,363,93971,69,2,0:0:0:0:
342,359,94030,38,0,L|313:236,1,100,2|2,3:0|3:0,0:0:0:0:
465,247,94264,69,2,1:0:0:0:
419,104,94381,1,2,0:3:0:0:
512,151,94499,1,0,0:0:0:0:
369,200,94616,1,2,0:3:0:0:
342,359,94733,38,0,L|309:221,1,100,2|0,3:1|0:0,0:0:0:0:
477,174,94967,2,0,L|445:36,1,100,2|0,1:0|0:0,0:0:0:0:
291,147,95202,69,6,1:1:0:0:
292,152,95260,37,2,1:1:0:0:
293,157,95319,69,2,1:1:0:0:
352,64,95436,37,2,1:0:0:0:
318,261,95553,1,2,1:0:0:0:
441,283,95671,6,0,L|213:316,1,230.000004386902,6|0,1:0|0:0,0:0:0:0:
42,355,96139,6,0,B|22:342|22:342|18:285,1,76.6666681289673,2|0,1:3|0:0,0:0:0:0:
71,227,96296,22,0,B|92:216|92:216|143:241,1,76.6666681289673,2|0,1:3|0:0,0:0:0:0:
169,320,96452,86,0,B|167:343|167:343|120:375,1,76.6666681289673,2|0,1:3|0:0,0:0:0:0:
94,302,96608,22,0,B|131:312|131:312|146:375|146:375|222:399,1,133.333333333333,2|0,1:3|0:0,0:0:0:0:
441,283,96842,70,0,L|213:316,1,230.000004386902,2|0,1:1|0:0,0:0:0:0:
499,192,97194,70,0,L|271:225,1,230.000004386902,2|0,1:1|0:0,0:0:0:0:
2,154,97546,54,2,B|31:143|31:143|46:80|46:80|82:69,2,133.333333333333,6|2|2,1:1|0:0|0:0,0:0:0:0:
42,355,98014,22,0,B|22:342|22:342|18:285,1,76.6666681289673,2|0,1:3|0:0,0:0:0:0:
71,227,98171,86,0,B|92:216|92:216|143:241,1,76.6666681289673,2|0,1:3|0:0,0:0:0:0:
169,320,98327,22,0,B|167:343|167:343|120:375,1,76.6666681289673,2|0,1:3|0:0,0:0:0:0:
98,306,98483,86,0,B|130:315|130:315|143:372|143:372|212:394,1,133.333333333333,2|0,1:3|0:0,0:0:0:0:
441,283,98717,102,0,L|213:316,1,230.000004386902,2|0,1:1|0:0,0:0:0:0:
499,192,99069,70,0,L|271:225,1,230.000004386902,2|0,1:1|0:0,0:0:0:0:
326,375,99421,21,2,1:0:0:0:
330,371,99479,69,2,0:0:0:0:
334,367,99538,37,2,0:0:0:0:
338,363,99596,69,2,0:0:0:0:
342,359,99655,38,0,L|313:236,1,100,2|2,3:0|3:0,0:0:0:0:
461,190,99889,69,2,1:0:0:0:
465,186,99947,37,2,0:0:0:0:
469,182,100006,69,2,0:0:0:0:
473,178,100064,37,2,0:0:0:0:
477,174,100124,70,0,L|448:51,1,100,2|2,3:0|3:0,0:0:0:0:
342,359,100358,38,0,L|309:221,1,100,2|0,3:1|0:0,0:0:0:0:
19,294,100592,6,0,L|247:327,1,230.000004386902,2|0,1:1|0:0,0:0:0:0:
0,201,100944,70,0,L|228:234,1,230.000004386902,2|0,1:1|0:0,0:0:0:0:
326,375,101296,21,2,1:0:0:0:
330,371,101354,69,2,0:0:0:0:
334,367,101413,37,2,0:0:0:0:
338,363,101471,69,2,0:0:0:0:
342,359,101530,38,0,L|313:236,1,100,2|2,3:0|3:0,0:0:0:0:
465,247,101764,69,2,1:0:0:0:
419,104,101881,1,2,0:3:0:0:
512,151,101999,1,0,0:0:0:0:
369,200,102116,1,2,0:3:0:0:
334,367,102233,38,0,L|301:229,1,100,2|0,1:3|0:0,0:0:0:0:
19,294,102467,6,0,L|247:327,1,230.000004386902,2|0,1:1|0:0,0:0:0:0:
0,201,102819,70,0,L|228:234,1,230.000004386902,2|0,1:1|0:0,0:0:0:0:
507,81,103874,69,2,0:0:0:0:
502,73,103991,1,2,0:0:0:0:
498,66,104108,1,2,0:0:0:0:
431,29,104226,1,2,0:0:0:0:
371,69,104343,1,2,0:0:0:0:
373,141,104460,1,2,0:0:0:0:
440,176,104577,53,2,1:0:0:0:
357,268,104694,53,2,1:0:0:0:
236,241,104811,53,2,1:0:0:0:
198,124,104928,53,2,1:0:0:0:
276,27,105046,53,6,3:1:0:0:
280,43,105397,69,2,0:0:0:0:
359,49,105514,2,0,P|379:12|436:10,1,80,2|0,3:1|0:0,0:0:0:0:
284,59,105749,102,0,L|280:90,1,25,2|0,1:0|0:0,0:0:0:0:
212,134,105983,5,2,3:1:0:0:
208,150,106217,101,2,0:0:0:0:
129,156,106335,1,2,0:0:0:0:
129,156,106452,2,0,P|109:119|52:117,1,80,2|0,3:1|0:1,0:1:0:0:
204,166,106686,5,2,1:0:0:0:
278,202,106921,101,2,3:1:0:0:
282,218,107272,5,2,0:0:0:0:
361,224,107389,2,0,P|381:187|438:185,1,80,2|0,3:1|0:0,0:0:0:0:
286,234,107624,102,0,L|282:265,1,25,2|0,1:0|0:0,0:0:0:0:
117,294,107858,5,2,3:1:0:0:
260,384,108092,1,2,0:0:0:0:
226,352,108210,1,2,0:0:0:0:
184,373,108327,1,2,3:2:0:0:
347,316,108561,1,2,0:0:0:0:
400,142,108796,101,6,3:1:0:0:
385,144,109147,5,2,0:0:0:0:
342,77,109264,2,0,P|373:57|418:75,1,80,2|0,3:1|0:0,0:0:0:0:
370,146,109499,102,0,L|339:150,1,25,2|0,1:0|0:0,0:0:0:0:
278,246,109733,5,2,3:1:0:0:
263,244,109967,101,2,0:0:0:0:
220,311,110085,1,2,0:0:0:0:
220,311,110202,2,0,P|251:330|296:313,1,80,2|0,3:1|0:0,0:0:0:0:
248,242,110436,6,0,L|217:238,1,25,2|0,1:0|0:0,0:0:0:0:
169,149,110671,101,2,3:1:0:0:
154,151,111022,5,2,0:0:0:0:
108,85,111139,2,0,P|139:65|184:83,1,80,2|0,3:1|0:0,0:0:0:0:
144,152,111374,102,0,B|184:146|215:108|162:99|206:49|247:49,1,160,2|2,1:0|3:1,0:0:0:0:
439,183,111842,5,8,0:0:0:0:
480,250,111960,1,8,0:0:0:0:
419,300,112077,102,0,P|319:268|268:260,1,80,2|0,3:1|0:0,0:0:0:0:
317,204,112311,2,0,P|199:231|166:245,1,120,4|0,2:0|0:0,0:0:0:0:
172,161,112546,6,0,B|137:134|139:92|139:92|123:132|81:146,1,160,6|0,3:1|0:0,0:0:0:0:
82,145,112897,1,2,0:0:0:0:
30,207,113014,102,0,B|24:250|-13:269|-13:269|29:263|63:292,1,160,2|0,3:1|0:0,0:0:0:0:
61,291,113366,1,2,0:0:0:0:
143,300,113483,6,0,B|183:283|218:306|218:306|191:272|200:228,1,160,2|0,3:1|0:0,0:0:0:0:
199,229,113835,1,2,0:1:0:0:
165,157,113952,102,0,P|104:157|77:123,1,80,2|0,1:2|0:0,0:0:0:0:
37,213,114186,6,0,P|67:265|51:306,1,80,2|0,3:2|0:0,0:0:0:0:
143,300,114421,102,0,B|136:335|160:372|191:379|191:379|165:349|181:316,1,160,2|0,3:1|0:0,0:0:0:0:
177,324,114772,1,2,0:0:0:0:
257,329,114889,6,0,B|283:352|327:350|349:326|349:326|310:334|289:304,1,160,2|0,3:1|3:3,0:0:0:0:
295,311,115241,1,2,0:0:0:0:
341,252,115358,102,0,B|374:240|394:201|385:170|385:170|372:208|335:211,1,160,2|0,3:1|0:0,0:0:0:0:
345,209,115710,1,2,3:1:0:0:
315,143,115827,6,0,P|308:100|266:64,1,80,2|0,3:1|0:0,0:0:0:0:
185,204,116061,102,0,P|225:219|277:201,1,80,2|0,3:1|0:0,0:0:0:0:
230,135,116296,6,0,P|226:77|247:15,1,120,6|0,3:1|0:0,0:0:0:0:
245,19,116530,102,0,P|186:23|113:-6,1,120,2|0,0:0|0:0,0:0:0:0:
129,5,116764,6,0,P|133:64|104:137,1,120,2|0,3:1|0:0,0:0:0:0:
114,121,116998,102,0,P|173:117|246:146,1,120,2|0,0:0|0:0,0:0:0:0:
304,171,117233,6,0,P|363:175|436:146,1,120,2|0,3:1|0:0,0:0:0:0:
420,156,117467,102,0,P|416:215|445:288,1,120,2|0,0:0|0:0,0:0:0:0:
434,272,117702,6,0,P|375:268|302:296,1,120,2|0,1:0|0:0,0:0:0:0:
318,287,117936,102,0,P|322:228|293:155,1,120,2|0,1:0|0:0,0:0:0:0:
304,90,118171,6,0,P|262:95|238:134,1,80,2|0,3:1|0:0,0:0:0:0:
279,384,118405,1,2,0:0:0:0:
286,381,118522,1,2,0:0:0:0:
293,378,118639,2,0,P|288:313|205:288,1,160,2|0,3:1|3:1,0:0:0:0:
167,153,118991,1,2,0:0:0:0:
229,200,119108,102,0,P|295:172|347:165,1,80,2|0,3:1|0:0,0:0:0:0:
424,289,119342,1,2,0:0:0:0:
356,314,119460,1,2,0:0:0:0:
316,253,119577,1,2,1:0:0:0:
437,173,119811,1,2,1:0:0:0:
375,95,120046,54,0,P|405:192|424:293,1,200,6|0,1:0|0:0,0:0:0:0:
490,362,120749,21,2,0:0:0:0:
493,349,120807,85,2,0:0:0:0:
495,337,120866,21,2,0:0:0:0:
497,325,120925,85,2,0:0:0:0:
499,313,120983,21,2,1:0:0:0:
507,231,121139,1,2,1:0:0:0:
460,167,121296,1,2,1:0:0:0:
382,153,121452,1,2,1:0:0:0:
315,194,121608,1,2,1:0:0:0:
293,272,121764,1,2,1:0:0:0:
331,341,121921,86,0,P|288:319|227:311,1,75.0000028610231,2|0,1:0|0:0,0:0:0:0:
116,345,122389,22,0,P|165:318|156:262,1,119.999996337891,4|2,1:0|0:0,0:0:0:0:
143,266,122682,85,2,0:0:0:0:
131,268,122741,21,2,0:0:0:0:
119,270,122800,85,2,0:0:0:0:
108,272,122858,21,2,1:0:0:0:
31,253,123014,85,2,1:0:0:0:
8,179,123170,1,2,1:0:0:0:
65,123,123327,1,2,1:0:0:0:
393,330,123639,21,2,1:0:0:0:
396,310,123717,1,2,1:0:0:0:
399,290,123796,1,2,1:0:0:0:
340,144,124030,86,0,P|365:146|382:106,1,59.9999981689454,4|0,0:0|0:0,0:0:0:0:
458,105,124264,22,0,B|455:84|440:68|440:68|488:73|485:131,1,119.999996337891,6|2,1:0|0:0,0:0:0:0:
483,135,124557,85,2,0:0:0:0:
481,147,124616,21,2,0:0:0:0:
479,159,124675,85,2,0:0:0:0:
477,171,124733,21,2,1:0:0:0:
424,227,124889,85,2,1:0:0:0:
350,220,125046,1,2,1:0:0:0:
276,212,125202,22,0,B|230:122|230:122|253:162|298:177,1,179.999994506836,0|0,1:0|0:0,0:0:0:0:
351,139,125671,85,2,1:0:0:0:
174,376,125905,1,2,1:0:0:0:
169,356,125983,1,2,1:0:0:0:
164,336,126061,1,2,1:0:0:0:
159,316,126139,22,0,P|168:267|275:254,1,125,2|0,1:0|0:0,0:0:0:0:
379,308,126491,1,2,0:0:0:0:
319,363,126608,86,0,P|266:346|242:343,1,62.5,2|0,1:0|0:0,0:0:0:0:
326,383,126842,2,0,P|373:332|442:346,1,112.500004291535,4|0,0:0|0:0,0:0:0:0:
463,274,127077,21,2,1:0:0:0:
476,271,127135,85,2,1:0:0:0:
488,269,127194,21,2,1:0:0:0:
500,267,127253,85,2,1:0:0:0:
512,265,127311,21,2,1:0:0:0:
68,59,127546,86,0,B|96:80|103:122|103:122|124:86|163:80,1,150,6|0,1:0|0:0,0:0:0:0:
47,217,128014,2,0,P|127:197|191:191,1,100,2|2,1:0|0:0,0:0:0:0:
147,206,128307,21,2,0:0:0:0:
149,218,128366,85,2,0:0:0:0:
151,230,128425,21,2,0:0:0:0:
154,243,128483,85,2,1:0:0:0:
288,335,128717,1,0,1:0:0:0:
416,235,128952,1,0,1:0:0:0:
361,81,129186,1,0,1:0:0:0:
176,93,129421,21,2,0:0:0:0:
188,91,129480,85,2,0:0:0:0:
201,88,129538,22,0,L|195:49,1,25,2|2,0:0|1:0,0:0:0:0:
341,182,129889,85,6,0:0:0:0:
323,179,129948,21,2,0:0:0:0:
305,174,130006,86,0,L|314:115,1,34.9999989318848,2|2,0:0|1:0,0:0:0:0:
156,272,130358,21,2,0:0:0:0:
181,267,130417,85,2,0:0:0:0:
206,260,130475,22,0,L|197:196,1,44.999998626709,2|2,0:0|1:0,0:0:0:0:
361,376,130827,85,2,0:0:0:0:
326,369,130886,21,2,0:0:0:0:
291,359,130944,86,0,L|303:287,1,55.0000016784668,2|2,0:0|1:0,0:0:0:0:
398,190,131296,22,0,B|309:183|234:249|338:287|230:375|146:359,1,330.000010070801,6|2,1:0|0:0,0:0:0:0:
147,346,132057,85,2,0:0:0:0:
145,334,132116,21,2,0:0:0:0:
143,322,132175,85,2,0:0:0:0:
141,310,132233,21,2,0:0:0:0:
284,261,132467,1,2,0:0:0:0:
83,246,132702,2,0,B|233:202|233:202|204:223|207:260,1,220.000006713867,0|0,1:0|0:0,0:0:0:0:
368,339,133405,85,2,0:0:0:0:
473,299,133639,2,0,B|468:276|486:263|486:263|445:270|444:321,1,110.000003356934,4|0,1:0|0:0,0:0:0:0:
232,189,134108,22,0,P|220:148|212:123,1,55.0000016784668,2|0,1:0|0:0,0:0:0:0:
467,52,134342,86,0,P|479:11|487:-14,1,55.0000016784668,2|0,1:0|0:0,0:0:0:0:
395,164,134577,21,2,1:0:0:0:
382,161,134635,85,2,1:0:0:0:
370,159,134694,21,2,1:0:0:0:
358,157,134753,85,2,1:0:0:0:
346,155,134811,21,4,1:0:0:0:
164,33,135046,37,2,1:0:0:0:
176,71,135163,1,2,0:0:0:0:
134,65,135280,1,2,0:0:0:0:
181,47,135397,1,2,0:0:0:0:
138,39,135514,1,2,1:0:0:0:
153,81,135632,1,2,0:0:0:0:
158,57,135749,85,4,0:0:0:0:
365,92,135983,21,2,1:0:0:0:
342,158,136100,1,2,0:0:0:0:
413,144,136217,1,2,0:0:0:0:
332,117,136334,1,2,0:0:0:0:
403,104,136451,1,2,1:0:0:0:
379,172,136569,1,2,0:0:0:0:
372,131,136686,85,4,0:0:0:0:
149,213,136921,21,2,1:0:0:0:
177,298,137038,1,2,0:0:0:0:
85,279,137155,1,2,0:0:0:0:
189,245,137272,1,2,0:0:0:0:
95,227,137389,1,2,1:0:0:0:
129,317,137507,1,2,0:0:0:0:
137,263,137624,85,4,0:0:0:0:
358,234,137858,21,2,1:0:0:0:
314,351,137975,1,2,0:0:0:0:
442,325,138092,1,2,0:0:0:0:
299,276,138209,1,2,0:0:0:0:
428,254,138326,1,2,1:0:0:0:
381,375,138444,1,2,0:0:0:0:
369,304,138561,85,4,0:0:0:0:
0,0,138796,21,2,1:0:0:0:
20,219,138913,1,2,0:0:0:0:
72,51,139030,1,2,0:0:0:0:
93,179,139147,1,2,0:0:0:0:
154,85,139264,1,2,1:0:0:0:
176,169,139381,1,2,0:0:0:0:
235,111,139499,1,6,2:0:0:0:
256,192,139616,86,0,L|259:176,4,13.7500004196167,0|0|0|0|6,0:0|0:0|0:0|0:0|1:0,0:0:0:0:
277,273,139850,21,2,0:0:0:0:
336,215,139968,1,2,0:0:0:0:
358,299,140085,1,2,0:0:0:0:
419,205,140202,1,2,1:0:0:0:
440,333,140319,1,2,0:0:0:0:
492,165,140436,1,2,1:0:0:0:
512,384,140553,1,2,0:0:0:0:
287,279,142077,54,0,L|323:282,1,27.5000008392334
273,275,142311,70,0,B|234:255|185:271|166:345|213:375|213:375|191:340|221:292,1,225.000008583069,6|0,1:0|0:0,0:0:0:0:
205,328,142546,70,0,L|155:334,1,50,2|0,3:3|0:0,0:0:0:0:
106,341,142663,22,0,L|155:334,1,50,2|0,3:0|0:0,0:0:0:0:
149,285,142780,86,0,L|155:334,1,50,2|0,3:0|0:0,0:0:0:0:
162,384,142897,22,0,L|155:334,1,50,2|0,3:0|0:0,0:0:0:0:
43,307,143014,86,0,B|48:291|48:291|120:273|120:273|120:279|120:279|171:273|171:273|169:268|169:268|248:265|248:265|257:278,1,247.500002360344,6|0,1:0|0:0,0:0:0:0:
205,328,143249,22,0,L|155:334,1,50,2|0,3:0|0:0,0:0:0:0:
106,341,143366,86,0,L|155:334,1,50,2|0,3:0|0:0,0:0:0:0:
149,285,143483,22,0,L|155:334,1,50,2|0,3:0|0:0,0:0:0:0:
162,384,143600,86,0,L|155:334,1,50,2|0,3:0|0:0,0:0:0:0:
205,328,143952,22,0,L|155:334,1,50,2|0,3:0|0:0,0:0:0:0:
106,341,144069,86,0,L|155:334,1,50,2|0,3:0|0:0,0:0:0:0:
149,285,144186,22,0,L|155:334,1,50,2|0,3:0|0:0,0:0:0:0:
162,384,144303,86,0,L|155:334,1,50,2|0,3:0|0:0,0:0:0:0:
367,320,144421,22,0,L|370:296,1,18.7500007152558,2|0,3:0|0:0,0:0:0:0:
367,320,144538,86,0,L|391:323,1,18.7500007152558,2|0,3:0|0:0,0:0:0:0:
367,320,144655,22,0,L|343:317,1,18.7500007152558,2|0,3:0|0:0,0:0:0:0:
367,320,144772,86,0,L|364:338,1,18.7500007152558,2|0,3:0|0:0,0:0:0:0:
256,322,144889,22,0,B|261:336|261:336|333:356|333:356|333:350|333:350|385:357|385:357|382:362|382:362|461:366|461:366|469:354,1,247.500002360344,6|0,1:0|0:0,0:0:0:0:
367,320,145124,86,0,L|370:296,1,18.7500007152558,2|0,3:0|0:0,0:0:0:0:
367,320,145241,22,0,L|391:323,1,18.7500007152558,2|0,3:0|0:0,0:0:0:0:
367,320,145358,86,0,L|343:317,1,18.7500007152558,2|0,3:0|0:0,0:0:0:0:
367,320,145475,22,0,L|364:338,1,18.7500007152558,2|0,3:0|0:0,0:0:0:0:
367,320,145827,6,0,L|370:296,1,18.7500007152558,2|0,3:0|0:0,0:0:0:0:
367,320,145944,38,0,L|364:344,1,18.7500007152558,2|0,3:0|0:0,0:0:0:0:
175,180,146061,70,2,B|186:195|186:195|170:204,3,37.5000014305115,6|2|2|2,0:0|0:0|0:0|0:0,0:0:0:0:
100,169,146296,37,2,1:0:0:0:
103,156,146354,69,2,0:0:0:0:
105,144,146413,37,2,0:0:0:0:
107,132,146472,69,2,0:0:0:0:
109,120,146530,38,0,L|90:-1,1,100,2|2,0:3|3:0,0:0:0:0:
251,162,146764,69,2,1:0:0:0:
254,149,146822,37,2,0:0:0:0:
256,137,146881,69,2,0:0:0:0:
258,125,146940,37,2,0:0:0:0:
260,113,146998,70,0,L|241:-8,1,100,2|2,0:3|3:0,0:0:0:0:
400,104,147233,38,0,L|385:-5,1,100,2|0,1:0|1:0,1:0:0:0:
507,214,147467,69,2,1:0:0:0:
341,197,147585,1,0,0:0:0:0:
175,180,147702,1,2,1:0:0:0:
250,95,147936,38,0,L|242:36,1,50,2|0,1:3|0:0,0:0:0:0:
259,86,148053,2,0,L|251:27,1,50,2|0,0:3|0:0,0:0:0:0:
100,169,148171,69,2,1:0:0:0:
103,156,148229,37,2,0:0:0:0:
105,144,148288,69,2,0:0:0:0:
107,132,148347,37,2,0:0:0:0:
109,120,148405,70,0,L|90:-1,1,100,2|2,0:3|3:0,0:0:0:0:
310,152,148639,37,2,1:0:0:0:
204,173,148756,1,0,0:0:0:0:
183,71,148874,1,2,0:3:0:0:
289,48,148991,1,2,0:3:0:0:
400,104,149108,70,0,L|385:-5,1,100,2|0,1:0|0:0,0:0:0:0:
397,206,149342,37,2,0:0:0:0:
495,175,149460,69,2,0:0:0:0:
492,162,149518,37,2,0:0:0:0:
490,150,149577,69,6,1:0:0:0:
296,227,150046,54,0,L|307:147,1,57.5000010967255,6|0,1:3|0:0,0:0:0:0:
306,161,150163,2,0,L|317:81,1,57.5000010967255,2|0,1:3|0:0,0:0:0:0:
355,35,150280,69,2,0:0:0:0:
342,32,150338,37,2,0:0:0:0:
330,30,150397,69,2,0:0:0:0:
318,28,150456,37,2,0:0:0:0:
306,27,150514,69,2,0:0:0:0:
205,328,150749,54,0,L|155:334,1,50,2|0,3:0|0:0,0:0:0:0:
106,341,150866,22,0,L|155:334,1,50,2|0,3:0|0:0,0:0:0:0:
149,285,150983,86,0,L|155:334,1,50,2|0,3:0|0:0,0:0:0:0:
162,384,151100,22,0,L|155:334,1,50,2|0,3:0|0:0,0:0:0:0:
296,227,151217,70,0,L|329:-1,1,230.000004386902,2|0,1:0|0:0,0:0:0:0:
377,227,151569,70,0,L|410:-1,1,230.000004386902,2|0,1:0|0:0,0:0:0:0:
367,320,151921,54,0,L|370:296,1,18.7500007152558,4|0,0:0|0:0,0:0:0:0:
367,320,152038,22,0,L|391:323,1,18.7500007152558,2|0,3:0|0:0,0:0:0:0:
367,320,152155,86,0,L|343:317,1,18.7500007152558,2|0,3:0|0:0,0:0:0:0:
367,320,152272,22,0,L|364:338,1,18.7500007152558,2|0,3:0|0:0,0:0:0:0:
256,322,152389,86,0,B|261:336|261:336|333:356|333:356|333:350|333:350|385:357|385:357|382:362|382:362|461:366|461:366|469:354,1,247.500002360344,2|0,1:0|0:0,0:0:0:0:
367,320,152624,22,0,L|370:296,1,18.7500007152558,2|0,3:0|0:0,0:0:0:0:
367,320,152741,86,0,L|391:323,1,18.7500007152558,2|0,3:0|0:0,0:0:0:0:
367,320,152858,22,0,L|343:317,1,18.7500007152558,2|0,3:0|0:0,0:0:0:0:
367,320,152975,86,0,L|364:338,1,18.7500007152558,2|0,3:0|0:0,0:0:0:0:
296,227,153092,102,0,L|329:-1,1,230.000004386902,2|0,1:0|0:0,0:0:0:0:
377,227,153444,70,0,L|389:146,1,57.5000010967255,2|2,1:0|0:0,0:0:0:0:
387,159,153561,2,0,L|399:78,2,57.5000010967255,2|2|0,1:0|0:0|0:0,0:0:0:0:
100,169,153796,21,2,1:0:0:0:
103,156,153854,69,2,0:0:0:0:
105,144,153913,37,2,0:0:0:0:
107,132,153972,69,2,0:0:0:0:
109,120,154030,38,0,L|90:-1,1,100,2|2,0:3|3:0,0:0:0:0:
251,162,154264,69,2,1:0:0:0:
254,149,154322,37,2,0:0:0:0:
256,137,154381,69,2,0:0:0:0:
258,125,154440,37,2,0:0:0:0:
260,113,154498,70,0,L|241:-8,1,100,2|2,0:3|3:0,0:0:0:0:
400,104,154733,38,0,L|385:-5,1,100,2|0,1:0|1:0,1:0:0:0:
196,157,154967,6,0,L|229:385,1,230.000004386902,2|0,1:0|0:0,0:0:0:0:
109,144,155319,70,0,L|142:372,1,230.000004386902,2|0,1:0|0:0,0:0:0:0:
100,169,155671,101,2,1:0:0:0:
103,156,155729,37,2,0:0:0:0:
105,144,155788,69,2,0:0:0:0:
107,132,155847,37,2,0:0:0:0:
109,120,155905,70,0,L|90:-1,1,100,2|2,0:3|3:0,0:0:0:0:
310,152,156139,37,2,1:0:0:0:
204,173,156256,1,0,0:0:0:0:
183,71,156374,1,2,0:3:0:0:
289,48,156491,1,2,0:3:0:0:
400,104,156608,70,0,L|385:-5,1,100,2|0,3:1|0:0,0:0:0:0:
397,206,156842,37,2,0:0:0:0:
495,175,156960,69,2,0:0:0:0:
492,162,157018,37,2,0:0:0:0:
490,150,157077,69,6,1:0:0:0:
40,336,157311,6,2,L|15:330,2,25.0000009536744,0|0|0,0:0|0:0|0:0,0:0:0:0:
52,341,157546,5,2,0:1:0:0:
51,328,157663,1,2,0:0:0:0:
132,345,157897,1,2,0:0:0:0:
131,332,158014,1,2,0:1:0:0:
130,319,158131,1,2,0:0:0:0:
129,306,158249,1,2,0:0:0:0:
430,235,158483,5,2,0:1:0:0:
431,222,158600,1,2,0:0:0:0:
466,305,158835,1,2,0:0:0:0:
476,312,158952,1,2,0:1:0:0:
387,299,159186,1,2,0:0:0:0:
77,97,159421,101,2,0:1:0:0:
65,98,159538,1,2,0:0:0:0:
156,88,159772,1,2,0:0:0:0:
168,86,159889,1,2,0:1:0:0:
180,84,160006,1,2,0:0:0:0:
192,82,160124,1,2,0:0:0:0:
353,74,160358,5,2,0:1:0:0:
340,73,160475,1,2,0:0:0:0:
423,38,160710,1,2,0:0:0:0:
430,28,160827,1,2,0:1:0:0:
417,117,161061,1,2,0:0:0:0:
372,347,161296,101,2,0:1:0:0:
385,348,161413,1,2,0:0:0:0:
360,264,161647,1,2,0:0:0:0:
373,265,161764,1,2,0:1:0:0:
386,266,161881,1,2,0:0:0:0:
399,267,161999,1,2,0:0:0:0:
137,188,162233,5,2,0:1:0:0:
139,200,162350,1,2,0:0:0:0:
100,281,162585,1,2,0:0:0:0:
109,273,162702,1,2,0:1:0:0:
223,272,162936,1,2,0:0:0:0:
211,268,163053,1,2,0:0:0:0:
199,264,163171,1,2,0:1:0:0:
187,260,163288,1,2,0:0:0:0:
25,199,163522,1,2,0:0:0:0:
37,203,163639,1,2,0:1:0:0:
49,207,163757,1,2,0:1:0:0:
61,211,163874,1,2,0:0:0:0:
220,190,164108,1,2,0:1:0:0:
164,333,164342,1,2,0:0:0:0:
164,333,164577,1,2,0:1:0:0:
164,333,164811,1,2,0:0:0:0:
502,333,165046,102,0,P|477:322|459:324,1,25,2|0,3:1|0:0,0:0:0:0:
376,380,165280,2,0,P|392:357|408:350,1,25,2|0,3:0|0:0,0:0:0:0:
512,201,165514,6,0,P|485:212|474:227,1,40,2|0,3:1|0:0,0:0:0:0:
369,374,165749,2,0,P|364:347|374:322,1,40,2|0,3:0|0:0,0:0:0:0:
451,74,165983,102,0,P|432:113|434:131,1,55.0000016784668,2|0,3:1|0:0,0:0:0:0:
361,376,166217,2,0,P|338:359|330:315,1,55.0000016784668,2|0,3:0|0:0,0:0:0:0:
304,49,166452,6,0,P|321:95|335:106,1,69.9999978637696,2|0,3:1|0:0,0:0:0:0:
352,383,166686,2,0,P|325:387|282:361,1,69.9999978637696,2|0,0:0|0:0,0:0:0:0:
10,333,166921,102,0,P|35:322|53:324,1,25,2|0,3:1|0:0,0:0:0:0:
136,380,167155,2,0,P|119:357|103:350,1,25,2|0,3:0|0:0,0:0:0:0:
0,201,167389,6,0,P|26:212|37:227,1,40,2|0,3:1|0:0,0:0:0:0:
143,374,167624,2,0,P|147:347|138:322,1,40,2|0,3:0|0:0,0:0:0:0:
61,74,167858,102,0,P|79:113|77:131,1,55.0000016784668,2|0,3:1|0:0,0:0:0:0:
151,376,168092,2,0,P|173:359|182:315,1,55.0000016784668,2|0,3:0|0:0,0:0:0:0:
208,49,168327,6,0,P|190:95|176:106,1,69.9999978637696,2|0,3:1|0:0,0:0:0:0:
160,383,168561,2,0,P|186:387|229:361,1,69.9999978637696,2|0,3:0|0:0,0:0:0:0:
478,1,168796,101,2,3:1:0:0:
511,70,168913,1,2,0:0:0:0:
476,138,169030,1,2,0:0:0:0:
504,209,169147,1,2,0:0:0:0:
440,252,169264,1,2,3:1:0:0:
433,328,169381,1,2,0:0:0:0:
355,326,169499,1,2,0:0:0:0:
303,382,169616,1,2,0:0:0:0:
256,320,169733,85,4,3:1:0:0:
209,382,169850,21,2,0:0:0:0:
157,326,169967,1,2,0:0:0:0:
79,328,170085,1,2,0:0:0:0:
72,252,170202,1,2,3:1:0:0:
8,209,170319,1,2,3:0:0:0:
36,138,170436,1,2,0:0:0:0:
1,70,170553,1,2,0:0:0:0:
34,1,170671,5,2,3:1:0:0:
273,50,170788,1,2,0:1:0:0:
206,12,171022,101,2,0:1:0:0:
115,33,171139,1,2,3:1:0:0:
171,99,171374,5,2,0:1:0:0:
175,112,171491,1,2,0:1:0:0:
36,272,171608,6,0,P|15:252|2:224,1,40,2|0,3:1|0:0,0:0:0:0:
135,202,171725,2,0,P|121:175|117:145,1,40,2|0,3:1|0:0,0:0:0:0:
254,164,171842,2,0,P|249:134|256:104,1,40,2|0,3:1|0:0,0:0:0:0:
375,175,171960,2,0,P|380:146|398:121,1,40,2|0,3:1|0:0,0:0:0:0:
490,222,172077,2,0,P|503:197|529:179,1,40,2|0,3:1|0:0,0:0:0:0:
208,319,172546,38,0,B|207:365|278:435|359:362|357:256|239:201|157:239|157:239|67:165|89:17|215:-37|319:7|354:86|354:86|329:57|290:47|256:57,1,899.999972534181,4|0,3:1|3:1,0:0:0:0:
292,53,174421,38,0,B|282:47|328:55|355:87|355:87|316:3|213:-18|134:33|118:103,1,350,6|0,3:1|0:0,0:0:0:0:
131,70,174890,70,0,P|111:133|122:191,1,93.9999985656739,8|0,3:0|0:0,0:0:0:0:
112,160,175124,38,0,P|133:213|159:240,1,93.9999985656739,2|0,3:1|0:0,0:0:0:0:
158,239,175358,70,0,B|138:243|229:193|361:200|391:406|273:422|199:376|209:302,1,370.500014274788,2|0,3:1|0:0,0:0:0:0:
68,304,175827,6,0,B|170:331|334:214|175:169|337:58|452:83,1,480,6|2,1:0|0:0,0:0:0:0:
483,164,176237,1,2,0:0:0:0:
477,154,176296,101,2,3:1:0:0:
285,181,176452,1,2,1:0:0:0:
357,3,176608,1,2,1:0:0:0:
376,103,176764,5,10,1:1:0:0:
379,109,176999,102,0,B|392:118|395:132|395:132|371:232,1,115.000002193451,4|0,3:1|0:0,0:0:0:0:
493,335,177233,6,0,B|463:355|463:355|362:292|248:313|248:313|212:264,1,287.500005483627,6|0,3:1|0:0,0:0:0:0:
141,199,177585,2,0,B|163:223|164:252|164:252|176:228|206:217,1,115.000002193451,2|8,1:0|0:1,0:0:0:0:
83,258,177819,1,0,0:0:0:0:
209,312,177936,2,0,P|152:293|97:282,1,115.000002193451,2|0,1:0|0:0,0:0:0:0:
198,139,178171,101,2,3:1:0:0:
319,265,178288,1,2,0:0:0:0:
402,169,178405,5,2,0:0:0:0:
385,151,178463,101,2,0:0:0:0:
364,158,178522,5,2,0:0:0:0:
481,126,178639,102,0,P|407:125|308:80,1,172.500003290176,12|0,0:1|0:0,0:0:0:0:
321,71,178874,6,0,P|305:46|299:18,1,57.5000010967255,2|0,3:1|0:0,0:0:0:0:
227,147,178991,2,0,P|199:140|174:125,1,57.5000010967255,2|0,1:0|0:0,0:0:0:0:
235,75,179108,101,2,3:1:0:0:
235,75,179225,1,2,0:0:0:0:
127,202,179342,6,0,P|124:251|155:289,1,100,2|0,1:0|0:0,0:0:0:0:
286,246,179577,2,0,P|287:196|256:158,1,100,10|2,1:1|0:0,0:0:0:0:
212,225,179753,1,2,0:0:0:0:
205,231,179811,102,0,P|291:255|408:316,1,202.500000772476,4|0,0:0|0:0,0:0:0:0:
391,314,180046,6,0,P|452:309|456:247,1,135.000000514984,4|0,3:2|0:0,0:0:0:0:
323,29,180280,101,6,1:0:0:0:
367,133,180397,1,2,0:0:0:0:
205,52,180514,5,10,1:1:0:0:
331,0,180631,1,2,0:0:0:0:
123,0,180749,102,0,P|175:49|165:186,1,172.500003290176,4|0,3:1|0:0,0:0:0:0:
179,163,180983,6,0,B|173:186|139:202|139:202|173:199|196:217,1,115.000002193451,6|0,3:1|0:0,0:0:0:0:
249,276,181217,101,2,0:0:0:0:
369,231,181335,2,0,P|296:261|257:291,1,115.000002193451,4|8,0:0|0:1,0:0:0:0:
19,227,181569,5,2,0:0:0:0:
1,238,181628,101,2,0:0:0:0:
0,257,181686,6,0,P|95:321|147:287,1,172.500003290176,4|0,0:0|0:0,0:0:0:0:
128,293,181921,102,0,L|166:284,1,37.5,4|0,3:1|0:0,0:0:0:0:
512,157,182155,5,6,1:0:0:0:
399,222,182272,1,2,0:0:0:0:
344,114,182389,2,0,B|339:90|328:75|328:75|377:84|372:135,1,115.000002193451,10|0,1:1|0:0,0:0:0:0:
409,332,182624,102,0,P|389:366|382:291,1,172.500003290176,4|0,3:1|0:0,0:0:0:0:
338,287,182858,6,0,B|349:272|377:259|377:259|349:166|222:136|152:211|152:211|185:234|186:266,1,375.000014305115,6|0,3:1|0:0,0:0:0:0:
175,272,183210,102,0,P|141:222|67:190,1,115.000002193451,2|8,0:0|0:1,0:0:0:0:
272,80,183444,1,2,0:0:0:0:
194,0,183561,2,0,P|153:41|165:94,1,115.000002193451,2|0,0:0|0:0,0:0:0:0:
512,267,183796,5,6,3:1:0:0:
436,288,183913,1,2,0:0:0:0:
405,384,184030,101,2,0:0:0:0:
328,364,184147,1,2,0:0:0:0:
244,307,184264,5,10,0:1:0:0:
239,313,184323,101,2,0:0:0:0:
237,319,184381,5,2,0:0:0:0:
275,384,184499,102,0,P|213:355|148:371,1,115.000002193451,4|0,3:1|0:0,0:0:0:0:
255,226,184733,6,0,B|234:259|201:279|201:279|246:274|283:297|283:297|262:266|258:233,1,230.000004386902,6|0,3:1|0:0,0:0:0:0:
283,363,185085,101,2,0:0:0:0:
279,373,185143,5,2,0:0:0:0:
275,384,185202,102,0,P|257:248|228:115,1,230.000004386902,10|0,1:1|0:0,0:0:0:0:
425,331,185671,101,2,3:0:0:0:
455,251,185788,1,2,0:3:0:0:
332,304,185905,85,2,0:3:0:0:
422,344,186022,1,2,0:3:0:0:
360,204,186139,85,14,1:0:0:0:
20,239,186374,85,2,3:1:0:0:
0,258,186433,101,2,0:0:0:0:
5,286,186491,5,2,0:0:0:0:
85,285,186608,102,0,P|162:267|159:219,1,115.000002193451,6|0,3:1|0:0,0:0:0:0:
165,0,186842,5,2,0:0:0:0:
261,128,186960,1,2,0:0:0:0:
417,102,187077,2,0,B|353:70|353:70|383:93|377:128,1,115.000002193451,14|0,1:1|0:0,0:0:0:0:
339,288,187311,101,2,0:0:0:0:
319,307,187370,5,2,0:0:0:0:
324,335,187428,101,2,0:0:0:0:
346,348,187488,5,2,0:0:0:0:
368,313,187546,102,0,P|305:286|236:273,1,135.000000514984,4|0,3:2|0:0,0:0:0:0:
59,0,187780,5,6,1:0:0:0:
0,113,187897,1,2,0:0:0:0:
106,182,188014,1,10,1:1:0:0:
116,170,188249,101,2,3:1:0:0:
275,109,188366,1,2,0:0:0:0:
351,247,188483,2,0,P|404:218|387:155,1,115.000002193451,6|0,3:1|0:0,0:0:0:0:
389,48,188717,5,2,0:0:0:0:
512,134,188835,2,0,P|436:99|384:87,1,115.000002193451,4|8,0:0|0:1,0:0:0:0:
253,318,189069,101,2,0:0:0:0:
235,324,189128,5,2,0:0:0:0:
219,314,189186,102,0,P|242:201|303:189,1,172.500003290176,4|0,0:0|0:0,0:0:0:0:
294,190,189421,6,0,B|347:197|386:246|318:258|375:323|428:323,1,202.500000772476,4|0,3:1|0:0,0:0:0:0:
435,310,189655,101,6,1:0:0:0:
475,155,189772,1,2,0:0:0:0:
512,251,189889,2,0,P|455:227|391:212,1,115.000002193451,10|0,1:1|0:0,0:0:0:0:
301,14,190124,6,0,B|253:10|222:79|249:114|249:114|272:101|297:104,1,172.500003290176,4|0,3:1|0:0,0:0:0:0:
296,100,190358,102,0,B|354:153|340:273|340:273|384:164|477:154,1,375.000014305115,6|0,3:1|0:0,0:0:0:0:
512,251,190710,6,0,P|479:255|457:344,1,115.000002193451,2|8,0:0|0:1,0:0:0:0:
267,316,190944,1,2,0:0:0:0:
368,376,191061,2,0,P|277:342|224:338,1,115.000002193451,2|0,0:0|0:0,0:0:0:0:
172,47,191296,102,0,P|185:99|127:143,1,115.000002193451,4|0,3:1|0:0,0:0:0:0:
40,128,191530,5,2,1:0:0:0:
286,47,191647,1,2,1:0:0:0:
148,246,191764,1,12,1:1:0:0:
144,257,191999,102,0,P|88:258|56:213,1,115.000002193451,4|0,3:1|0:0,0:0:0:0:
103,354,192233,2,0,P|159:340|216:333,1,115.000002193451,4|0,3:2|0:0,0:0:0:0:
478,331,192467,5,2,1:0:0:0:
378,282,192585,1,2,1:0:0:0:
445,181,192702,2,0,B|398:174|380:198|380:198|406:194|431:216,1,115.000002193451,12|0,1:1|0:0,0:0:0:0:
498,241,192936,102,0,B|445:224|363:270|437:298|354:347|306:331,1,230.000004386902,4|2,0:0|3:1,0:0:0:0:
195,229,193288,1,2,0:0:0:0:
295,199,193405,5,2,0:0:0:0:
314,217,193463,101,2,0:0:0:0:
307,238,193522,5,2,0:0:0:0:
240,136,193639,102,0,P|300:154|311:101,1,115.000002193451,12|0,1:1|0:0,0:0:0:0:
315,32,193874,2,0,P|263:55|203:57,1,115.000002193451,4|0,3:1|0:0,0:0:0:0:
33,55,194108,6,2,B|13:39|13:39|162:-12|162:-12|120:17|117:61,2,270.000001029968,6|2|10,3:1|0:0|0:1,0:0:0:0:
140,213,194694,1,2,0:0:0:0:
43,255,194811,101,2,0:0:0:0:
23,239,194870,5,2,0:0:0:0:
28,217,194928,101,2,0:0:0:0:
161,130,195046,6,0,P|231:145|207:211,1,135.000000514984,4|0,3:2|0:0,0:0:0:0:
404,228,195280,101,6,1:0:0:0:
511,177,195397,1,2,0:0:0:0:
427,346,195514,5,10,1:0:0:0:
375,220,195631,1,2,0:0:0:0:
292,320,195749,102,0,B|243:326|179:274|247:261|183:206|139:212,1,202.500000772476,4|0,3:1|0:0,0:0:0:0:
71,168,195983,6,0,B|-1:210|-1:210|39:197|62:216,1,135.000000514984,6|0,3:1|0:0,0:0:0:0:
248,151,196217,101,2,0:0:0:0:
176,62,196335,2,0,P|243:66|276:26,1,115.000002193451,4|8,0:0|1:1,0:0:0:0:
482,122,196569,5,2,0:0:0:0:
471,140,196628,101,2,0:0:0:0:
452,141,196686,6,0,P|388:46|422:-6,1,172.500003290176,4|0,0:0|0:0,0:0:0:0:
411,0,196921,102,0,L|371:7,1,37.5000014305115,4|0,3:1|0:0,0:0:0:0:
321,139,197155,5,6,1:0:0:0:
415,239,197272,1,2,0:0:0:0:
279,298,197389,2,0,P|332:277|417:261,1,115.000002193451,12|0,0:1|0:0,0:0:0:0:
96,262,197624,102,0,B|39:280|39:280|0:257|-9:215|19:180,1,172.500003290176,4|0,3:1|0:0,0:0:0:0:
26,179,197858,6,0,B|64:151|114:154|152:219|151:256|108:234|118:265|165:314|207:323|246:303|246:303|209:295|183:264,1,375.000014305115,6|0,3:1|0:0,0:0:0:0:
185,244,198210,102,0,P|223:285|281:293,1,115.000002193451,2|8,0:0|0:1,0:0:0:0:
415,240,198444,1,2,0:0:0:0:
340,339,198561,2,0,B|354:314|352:285|352:285|371:310|404:318,1,115.000002193451,2|0,0:0|0:0,0:0:0:0:
329,0,198796,5,6,3:1:0:0:
306,76,198913,1,2,0:0:0:0:
197,89,199030,101,2,0:0:0:0:
219,165,199147,1,2,0:0:0:0:
302,210,199264,5,10,0:1:0:0:
297,216,199323,101,2,0:0:0:0:
295,222,199381,5,2,0:0:0:0:
278,299,199499,102,0,P|298:257|365:262,1,115.000002193451,6|0,3:1|0:0,0:0:0:0:
448,322,199733,6,0,P|320:288|142:263,1,287.500005483627,4|0,3:1|0:0,0:0:0:0:
101,348,200085,101,2,0:0:0:0:
106,357,200143,5,2,0:0:0:0:
112,366,200202,102,0,B|76:313|118:225|153:297|193:210|159:162,1,230.000004386902,12|0,0:1|0:0,0:0:0:0:
193,350,200671,5,2,3:1:0:0:
266,319,200788,1,2,1:0:0:0:
314,381,200905,2,0,P|298:302|281:248,1,115.000002193451,6|0,1:0|0:0,0:0:0:0:
304,62,201139,102,0,P|345:104|338:160,1,115.000002193451,4|0,3:1|0:0,0:0:0:0:
265,189,201374,6,0,P|339:211|469:276,1,172.500003290176,4|0,0:2|0:0,0:0:0:0:
423,259,201608,102,0,P|381:266|353:331,1,100,2|0,0:1|0:0,0:0:0:0:
392,381,201960,5,2,0:1:0:0:
204,144,205358,5,2,1:1:0:0:
223,226,205592,5,10,0:3:0:0:
202,233,205670,1,10,0:3:0:0:
179,229,205749,1,10,0:3:0:0:
162,215,205827,2,0,P|180:250|188:280,1,65.999999798584,8|4,0:3|0:2,0:0:0:0:
