osu file format v14

[General]
AudioFilename: audio.mp3
AudioLeadIn: 0
PreviewTime: 72362
Countdown: 0
SampleSet: Soft
StackLeniency: 0.2
Mode: 0
LetterboxInBreaks: 0
WidescreenStoryboard: 1

[Editor]
DistanceSpacing: 1
BeatDivisor: 4
GridSize: 8
TimelineZoom: 3.699999

[Metadata]
Title:Odo
TitleUnicode:踊
Artist:Ado
ArtistUnicode:Ado
Creator:Beren
Version:Lobelia's Expert
Source:
Tags:lobelia Anya_Melfissa Anya Melfissa Kyutei DECO*27 Giga TeddyLoid かゆか 藍瀬 まなみ ORIHARA dance japanese rap pop
BeatmapID:2988413
BeatmapSetID:1450065

[Difficulty]
HPDrainRate:6
CircleSize:4
OverallDifficulty:7.5
ApproachRate:9.2
SliderMultiplier:1.8
SliderTickRate:1

[Events]
//Background and Video events
0,0,"bg.jpg",0,0
Video,-650,"mv.mp4"
//Break Periods
2,156937,162729
//Storyboard Layer 0 (Background)
//Storyboard Layer 1 (Fail)
//Storyboard Layer 2 (Pass)
//Storyboard Layer 3 (Foreground)
//Storyboard Layer 4 (Overlay)
//Storyboard Sound Samples

[TimingPoints]
-763,468.75,4,2,1,60,1,0
1112,-50,4,2,1,60,0,0
1462,-50,4,2,1,5,0,0
1580,-200,4,2,1,60,0,0
2166,-200,4,2,1,5,0,0
2283,-40,4,2,1,60,0,0
4862,-50,4,2,1,60,0,0
5212,-50,4,2,1,5,0,0
5330,-200,4,2,1,60,0,0
5916,-200,4,2,1,5,0,0
6033,-40,4,2,1,60,0,0
8612,-40,4,2,1,80,0,0
11893,-100,4,2,1,80,0,0
13768,-76.9230769230769,4,2,1,80,0,0
14237,-62.5,4,2,1,80,0,0
16228,-62.5,4,2,1,5,0,0
16345,-62.5,4,2,1,80,0,0
16696,-62.5,4,2,1,5,0,0
16814,-62.5,4,2,1,80,0,0
17165,-62.5,4,2,1,5,0,0
17282,-62.5,4,2,1,80,0,0
17634,-62.5,4,2,1,5,0,0
17751,-62.5,4,2,1,80,0,0
18103,-62.5,4,2,1,5,0,0
18220,-62.5,4,2,1,80,0,0
18337,-62.5,4,2,1,5,0,0
18455,-40,4,2,1,80,0,0
19862,-100,4,2,1,60,0,0
20329,-100,4,2,0,60,0,0
20564,-100,4,2,1,60,0,0
22204,-100,4,2,0,60,0,0
22439,-100,4,2,1,60,0,0
23143,-50,4,2,1,60,0,0
24079,-50,4,2,0,60,0,0
24314,-50,4,2,1,60,0,0
25954,-50,4,2,0,60,0,0
26189,-50,4,2,1,60,0,0
27362,-71.4285714285714,4,2,1,60,0,0
27829,-71.4285714285714,4,2,0,60,0,0
28064,-71.4285714285714,4,2,1,60,0,0
28768,-71.4285714285714,4,2,0,60,0,0
28885,-71.4285714285714,4,2,1,60,0,0
29704,-71.4285714285714,4,2,0,60,0,0
29939,-71.4285714285714,4,2,1,60,0,0
30643,-71.4285714285714,4,2,0,60,0,0
30877,-40,4,2,1,60,0,0
31346,-71.4285714285714,4,2,1,60,0,0
31579,-71.4285714285714,4,2,0,60,0,0
31814,-71.4285714285714,4,2,1,60,0,0
32518,-71.4285714285714,4,2,0,60,0,0
32752,-71.4285714285714,4,2,1,60,0,0
34862,-50,4,2,1,60,0,0
41893,-33.3333333333333,4,2,1,60,0,0
42362,-50,4,2,1,60,0,0
45643,-100,4,2,1,60,0,0
45877,-50,4,2,1,60,0,0
46112,-33.3333333333333,4,2,1,60,0,0
46580,-66.6666666666667,4,2,1,60,0,0
46815,-100,4,2,1,60,0,0
47987,-50,4,2,1,60,0,0
50408,-100,4,2,1,60,0,0
50955,-100,4,2,1,5,0,0
51033,-40,4,2,1,60,0,0
51737,-100,4,2,1,60,0,0
52440,-66.6666666666667,4,2,1,60,0,0
53143,-100,4,2,1,60,0,0
53612,-50,4,2,1,60,0,0
54158,-100,4,2,1,60,0,0
54705,-100,4,2,1,5,0,0
54783,-40,4,2,1,60,0,0
55487,-100,4,2,1,60,0,0
56424,-66.6666666666667,4,2,1,60,0,0
57127,-50,4,2,1,60,0,0
57362,-40,4,2,1,60,0,0
60643,-100,4,2,1,60,0,0
61112,-50,4,2,1,60,0,0
62987,-62.5,4,2,1,60,0,0
64862,-100,4,2,1,40,0,0
65212,-100,4,2,1,5,0,0
65330,-76.9230769230769,4,2,1,45,0,0
65681,-76.9230769230769,4,2,1,5,0,0
65799,-62.5,4,2,1,50,0,0
66150,-62.5,4,2,1,5,0,0
66268,-52.6315789473684,4,2,1,55,0,0
66618,-52.6315789473684,4,2,1,5,0,0
66737,-45.4545454545455,4,2,1,60,0,0
67087,-45.4545454545455,4,2,1,5,0,0
67205,-40,4,2,1,65,0,0
67556,-40,4,2,1,5,0,0
67674,-35.7142857142857,4,2,1,70,0,0
68025,-35.7142857142857,4,2,1,5,0,0
68143,-32.258064516129,4,2,1,75,0,0
68493,-32.258064516129,4,2,1,5,0,0
68612,-100,4,2,1,80,0,0
68846,-76.9230769230769,4,2,1,80,0,0
69080,-62.5,4,2,1,80,0,0
69315,-52.6315789473684,4,2,1,80,0,0
69549,-45.4545454545455,4,2,1,80,0,0
69783,-40,4,2,1,80,0,0
70018,-35.7142857142857,4,2,1,80,0,0
70252,-32.258064516129,4,2,1,80,0,0
70487,-50,4,2,1,80,0,0
71893,-200,4,2,1,80,0,0
72127,-50,4,2,1,80,0,0
72362,-35.7142857142857,4,1,0,80,0,0
72596,-50,4,1,0,80,0,0
74237,-35.7142857142857,4,1,0,80,0,0
74471,-50,4,1,0,80,0,0
78455,-40,4,1,0,80,0,0
78924,-50,4,1,0,80,0,0
79392,-50,4,1,0,80,0,0
79627,-33.3333333333333,4,1,0,80,0,0
79862,-35.7142857142857,4,1,0,80,0,0
80096,-50,4,1,0,80,0,0
81737,-35.7142857142857,4,1,0,80,0,0
81971,-50,4,1,0,80,0,0
85955,-66.6666666666667,4,1,0,80,0,0
86424,-40,4,1,0,80,0,0
87127,-200,4,1,0,80,0,0
87362,-40,4,1,0,80,0,0
87830,-58.8235294117647,4,2,1,80,0,0
90643,-40,4,2,1,80,0,0
91112,-58.8235294117647,4,2,1,80,0,0
94862,-40,4,2,1,80,0,0
95330,-58.8235294117647,4,2,1,80,0,0
96033,-40,4,2,1,80,0,0
97205,-58.8235294117647,4,2,1,80,0,0
97908,-40,4,2,1,80,0,0
98612,-58.8235294117647,4,2,1,80,0,0
101893,-33.3333333333333,4,2,1,80,0,0
102127,-50,4,2,1,80,0,0
102244,-50,4,2,1,5,0,0
102362,-100,4,2,1,60,0,0
104237,-71.4285714285714,4,2,1,60,0,0
104705,-71.4285714285714,4,2,0,60,0,0
104940,-71.4285714285714,4,2,1,60,0,0
106580,-71.4285714285714,4,2,0,60,0,0
106815,-71.4285714285714,4,2,1,60,0,0
107987,-50,4,2,1,60,0,0
108455,-71.4285714285714,4,2,0,60,0,0
108690,-71.4285714285714,4,2,1,60,0,0
110330,-71.4285714285714,4,2,0,60,0,0
110447,-71.4285714285714,4,2,1,60,0,0
110916,-71.4285714285714,4,2,1,80,0,0
111502,-40,4,2,1,80,0,0
111737,-30.3030303030303,4,2,1,60,0,0
112205,-71.4285714285714,4,2,0,60,0,0
112322,-71.4285714285714,4,2,1,60,0,0
114080,-71.4285714285714,4,2,0,60,0,0
114197,-71.4285714285714,4,2,1,60,0,0
115487,-30.3030303030303,4,2,1,60,0,0
115955,-71.4285714285714,4,2,0,60,0,0
116072,-71.4285714285714,4,2,1,60,0,0
117830,-71.4285714285714,4,2,0,60,0,0
117947,-71.4285714285714,4,2,1,60,0,0
119237,-33.3333333333333,4,2,1,60,0,0
119705,-33.3333333333333,4,2,0,60,0,0
119940,-100,4,2,1,60,0,0
121346,-66.6666666666667,4,2,0,60,0,0
121580,-66.6666666666667,4,2,0,60,0,0
121815,-100,4,2,1,60,0,0
123221,-66.6666666666667,4,2,0,60,0,0
123690,-100,4,2,1,60,0,0
125330,-100,4,2,0,60,0,0
125447,-100,4,2,1,60,0,0
125799,-50,4,2,1,60,0,0
127205,-50,4,2,0,60,0,0
127440,-50,4,2,1,60,0,0
128612,-100,4,2,1,60,0,0
129080,-76.9230769230769,4,2,0,60,0,0
129197,-76.9230769230769,4,2,1,60,0,0
129549,-62.5,4,2,1,60,0,0
130018,-52.6315789473684,4,2,1,60,0,0
130487,-100,4,2,1,60,0,0
130955,-100,4,2,0,60,0,0
131190,-100,4,2,1,60,0,0
132830,-40,4,2,0,60,0,0
133065,-100,4,2,1,60,0,0
133299,-50,4,2,1,60,0,0
134237,-66.6666666666667,4,2,1,80,0,0
139861,-66.6666666666667,4,2,1,75,0,0
140096,-66.6666666666667,4,2,1,5,0,0
140212,-66.6666666666667,4,2,1,70,0,0
140447,-66.6666666666667,4,2,1,5,0,0
140564,-66.6666666666667,4,2,1,65,0,0
140799,-66.6666666666667,4,2,1,5,0,0
140915,-66.6666666666667,4,2,1,60,0,0
141151,-66.6666666666667,4,2,1,5,0,0
141268,-66.6666666666667,4,2,1,80,0,0
141502,-28.5714285714286,4,2,1,80,0,0
141737,-50,4,2,1,80,0,0
143143,-33.3333333333333,4,2,1,80,0,0
143494,-50,4,2,1,80,0,0
149237,-33.3333333333333,4,2,1,80,0,0
149705,-50,4,2,1,80,0,0
150408,-33.3333333333333,4,2,1,80,0,0
151580,-50,4,2,1,80,0,0
152283,-33.3333333333333,4,2,1,80,0,0
152987,-50,4,2,1,80,0,0
156736,-50,4,2,1,60,0,0
157205,-50,4,2,0,60,0,0
157440,-50,4,2,1,60,0,0
159080,-50,4,2,0,60,0,0
159315,-50,4,2,1,60,0,0
160955,-50,4,2,0,60,0,0
161190,-50,4,2,1,60,0,0
163182,-50,4,2,1,5,0,0
163299,-200,4,2,1,60,0,0
164237,-100,4,2,1,60,0,0
169393,-76.9230769230769,4,2,1,60,0,0
169627,-62.5,4,2,1,60,0,0
169862,-52.6315789473684,4,2,1,60,0,0
169978,-52.6315789473684,4,2,1,80,0,0
170330,-45.4545454545455,4,2,1,80,0,0
171737,-33.3333333333333,4,2,1,80,0,0
172674,-100,4,2,1,80,0,0
172908,-33.3333333333333,4,2,1,80,0,0
173377,-33.3333333333333,4,2,1,80,0,0
173612,-33.3333333333333,4,2,1,80,0,0
173846,-33.3333333333333,4,2,1,5,0,0
174079,-33.3333333333333,4,2,1,80,0,0
174197,-33.3333333333333,4,2,1,5,0,0
174315,-33.3333333333333,4,2,1,80,0,0
174432,-33.3333333333333,4,2,1,5,0,0
174549,-33.3333333333333,4,2,1,80,0,0
175487,-50,4,1,0,80,0,0
177830,-40,4,1,0,80,0,0
178299,-50,4,1,0,80,0,0
179002,-33.3333333333333,4,1,0,80,0,0
179237,-35.7142857142857,4,1,0,80,0,0
179471,-50,4,1,0,80,0,0
181112,-35.7142857142857,4,1,0,80,0,0
181346,-50,4,1,0,80,0,0
185330,-40,4,1,0,80,0,0
185565,-33.3333333333333,4,1,0,80,0,0
185799,-28.5714285714286,4,1,0,80,0,0
186268,-40,4,1,0,80,0,0
186502,-33.3333333333333,4,1,0,80,0,0
186737,-35.7142857142857,4,1,0,80,0,0
186971,-50,4,1,0,80,0,0
188612,-35.7142857142857,4,1,0,80,0,0
189080,-50,4,1,0,80,0,0
192362,-40,4,1,0,80,0,0
192830,-50,4,1,0,80,0,0
193768,-100,4,2,0,80,0,0
194237,-35.7142857142857,4,1,0,80,0,0
194471,-50,4,1,0,80,0,0
196112,-35.7142857142857,4,1,0,80,0,0
196346,-50,4,1,0,80,0,0
200330,-66.6666666666667,4,1,0,80,0,0
201268,-83.3333333333333,4,1,0,80,0,0
201737,-142.857142857143,4,2,1,80,0,0
204783,-142.857142857143,4,2,1,60,0,0
205487,-142.857142857143,4,2,1,40,0,0

[Colours]
Combo1 : 90,194,224
Combo2 : 82,73,182
Combo3 : 249,45,121
Combo4 : 228,211,58

[HitObjects]
116,104,1112,6,0,P|112:60|93:131,1,270,6|0,1:0|0:0,0:0:0:0:
155,176,1580,6,0,P|195:175|270:146,1,112.5,10|0,3:1|0:0,0:0:0:0:
277,72,2283,6,0,B|367:96|339:236|339:236|361:257|361:257|386:243|386:243|392:94|492:96,1,450,2|2,0:3|0:0,0:0:0:0:
481,96,2987,5,8,3:1:0:0:
383,43,3221,1,2,0:0:0:0:
277,72,3455,1,8,3:1:0:0:
384,28,3690,1,4,1:3:0:0:
361,257,3924,5,0,3:0:0:0:
348,380,4158,1,4,1:3:0:0:
292,309,4393,1,8,0:0:0:0:
415,322,4627,1,4,1:3:0:0:
116,280,4862,6,0,P|112:324|93:253,1,270,6|0,1:0|0:0,0:0:0:0:
155,208,5330,6,0,P|195:209|270:238,1,112.5,10|0,3:1|0:0,0:0:0:0:
277,312,6033,6,0,B|367:288|339:148|339:148|361:127|361:127|386:141|386:141|392:290|492:288,1,450,4|0,0:3|0:0,0:0:0:0:
481,287,6737,5,2,1:2:0:0:
481,287,6971,1,0,3:2:0:0:
386,354,7205,1,8,1:1:0:0:
386,354,7440,1,0,3:0:0:0:
277,312,7674,5,2,1:2:0:0:
58,331,7908,1,2,1:2:0:0:
169,320,8143,1,8,3:2:0:0:
150,101,8377,1,2,0:2:0:0:
488,128,8612,6,0,B|381:46|384:152|274:66,1,225,8|0,0:3|0:0,0:0:0:0:
358,20,9080,1,8,0:0:0:0:
279,70,9315,1,2,0:0:0:0:
334,279,9549,6,0,B|458:227|365:176|494:124,1,225,8|0,0:3|0:0,0:0:0:0:
500,220,10018,1,8,0:0:0:0:
487,127,10252,1,2,0:0:0:0:
279,70,10487,6,0,B|261:203|351:148|332:286,1,225,8|0,0:3|0:0,0:0:0:0:
246,241,10955,1,8,0:0:0:0:
334,279,11190,1,2,0:0:0:0:
488,128,11424,6,0,B|381:46|384:152|274:66,1,225,8|0,0:3|0:0,0:0:0:0:
105,37,11893,2,0,P|119:70|131:146,1,90,8|2,0:0|0:2,0:3:0:0:
105,333,12362,5,10,1:2:0:0:
27,226,12596,1,4,0:3:0:0:
152,267,12830,1,8,0:0:0:0:
27,307,13065,1,4,0:3:0:0:
105,201,13299,5,8,0:0:0:0:
233,350,13533,2,0,P|199:345|174:336,1,45,4|0,0:3|0:0,0:0:0:0:
105,333,13768,5,8,0:0:0:0:
369,321,14002,2,0,P|336:329|309:327,1,58.4999973220826,4|0,0:3|0:0,0:0:0:0:
233,350,14237,5,12,0:0:0:0:
496,242,14471,2,0,P|469:257|428:270,1,72,8|0,0:2|0:0,0:0:0:0:
511,256,14705,2,0,P|484:271|443:284,1,72,8|0,0:0|0:0,0:0:0:0:
369,321,14940,1,4,1:3:0:0:
183,57,15174,6,0,P|205:77|230:118,1,72,8|0,0:0|0:0,0:0:0:0:
256,192,15408,1,8,1:2:0:0:
329,327,15643,2,0,P|307:307|282:266,1,72,8|0,0:0|0:0,0:0:0:0:
256,192,15877,1,4,1:3:0:0:
336,61,16112,6,0,P|330:90|307:132,2,72,8|0|2,0:2|0:0|0:3,0:0:0:0:
175,322,16580,2,0,P|184:287|201:256,2,72,8|0|2,0:2|0:0|0:3,0:0:0:0:
409,196,17049,2,0,P|374:206|339:207,2,72,8|0|2,0:2|0:0|0:3,0:0:0:0:
102,187,17518,2,0,P|137:177|172:176,2,72,8|0|2,0:2|0:0|0:3,0:0:0:0:
328,326,17987,6,0,P|302:302|284:271,1,72,8|0,0:0|0:0,0:0:0:0:
183,57,18221,2,0,P|205:77|230:118,1,72,2|0,0:3|0:0,0:0:0:0:
256,192,18455,6,2,B|306:171|312:117|312:117|375:157|375:157|373:229|446:236|446:236|417:224|402:184,1,337.5,0|0,0:1|0:0,0:1:0:0:
500,172,18924,6,0,P|509:157|491:175,1,112.5,2|0,0:2|0:0,0:0:0:0:
500,325,19192,5,2,1:0:0:0:
479,334,19259,1,0,1:0:0:0:
480,311,19326,1,0,1:0:0:0:
487,323,19393,5,2,1:0:0:0:
346,317,19627,1,0,1:2:0:0:
204,313,19862,5,4,1:0:0:0:
0,339,20330,1,10,0:0:0:0:
204,313,20799,5,0,1:0:0:0:
88,223,21151,1,8,1:1:0:0:
0,339,21502,1,0,1:0:0:0:
101,326,21737,5,0,1:0:0:0:
75,122,22205,5,10,0:0:0:0:
88,223,22440,1,8,0:1:0:0:
101,326,22674,1,0,1:0:0:0:
75,122,23026,5,0,1:0:0:0:
66,39,23143,2,0,B|181:49|121:145|237:144|237:144|200:126|181:85,1,270,0|0,1:0|0:0,0:0:0:0:
266,71,23612,5,0,1:0:0:0:
470,45,24080,1,10,0:0:0:0:
266,71,24549,5,0,1:0:0:0:
382,161,24901,1,8,1:1:0:0:
470,45,25252,1,0,1:0:0:0:
369,58,25487,5,0,1:0:0:0:
395,262,25955,1,10,0:0:0:0:
382,161,26190,5,8,0:1:0:0:
442,122,26307,1,10,1:1:0:0:
487,177,26424,1,2,1:0:0:0:
488,301,26658,1,8,0:1:0:0:
492,372,26775,1,2,1:0:0:0:
422,384,26892,1,2,1:0:0:0:
314,323,27127,1,0,1:0:0:0:
251,291,27244,1,0,0:0:0:0:
275,224,27362,6,0,B|321:239|321:239|330:246|330:246|396:263,1,125.999996154785,4|0,1:0|0:0,0:0:0:0:
367,169,27713,1,8,0:1:0:0:
367,169,27830,2,0,B|356:121|356:121|358:110|358:110|340:46,1,125.999996154785,10|8,1:2|0:1,0:0:0:0:
273,114,28182,1,8,0:1:0:0:
273,114,28299,2,0,B|237:146|237:146|226:150|226:150|180:197,1,125.999996154785,0|8,1:0|0:1,0:0:0:0:
113,256,28651,1,8,0:1:0:0:
112,256,28768,2,0,L|27:241,1,62.9999980773926,10|0,1:2|0:0,0:0:0:0:
98,268,29002,2,0,L|13:253,1,62.9999980773926,0|0,1:0|0:0,0:0:0:0:
239,270,29237,6,0,B|274:237|274:237|285:233|285:233|331:186,1,125.999996154785,0|0,1:0|0:0,0:0:0:0:
399,128,29589,1,8,0:1:0:0:
399,128,29706,2,0,L|484:143,1,62.9999980773926,10|0,1:2|0:0,0:0:0:0:
414,116,29940,2,0,L|499:131,1,62.9999980773926,8|8,0:1|0:1,0:0:0:0:
273,114,30174,2,0,B|237:146|237:146|226:150|226:150|180:197,1,125.999996154785,0|8,1:0|0:1,0:0:0:0:
113,256,30526,1,0,1:0:0:0:
113,256,30643,2,0,L|28:241,1,62.9999980773926,10|0,1:2|0:0,0:0:0:0:
29,349,30877,6,0,B|127:360|127:360|165:336|165:336|251:346,1,225,0|0,1:0|1:0,0:0:0:0:
462,278,31346,6,0,L|449:349,1,62.9999980773926,0|8,0:0|1:1,0:0:0:0:
363,355,31580,2,0,L|389:215,1,125.999996154785,10|8,0:0|0:1,0:0:0:0:
401,147,31932,1,8,0:1:0:0:
401,147,32049,1,0,1:0:0:0:
216,99,32283,6,0,L|229:170,1,62.9999980773926,8|0,0:1|1:0,0:0:0:0:
315,176,32518,2,0,L|289:36,2,125.999996154785,10|8|8,1:2|0:1|1:2,0:0:0:0:
386,231,33104,1,0,1:0:0:0:
401,147,33221,1,8,1:2:0:0:
139,152,33455,1,8,0:0:0:0:
468,206,33690,1,4,0:3:0:0:
187,232,33924,5,2,0:0:0:0:
183,263,34041,1,2,0:0:0:0:
157,314,34158,1,2,0:0:0:0:
161,283,34276,1,2,0:0:0:0:
219,292,34393,1,2,0:0:0:0:
188,287,34510,1,2,0:0:0:0:
137,261,34627,1,2,0:0:0:0:
167,265,34744,1,2,0:0:0:0:
305,267,34862,6,0,B|351:280|365:330|365:330|397:286|441:292,1,180,4|2,1:3|0:0,0:0:0:0:
387,203,35213,1,8,0:1:0:0:
469,141,35330,2,0,B|423:128|409:78|409:78|377:122|333:116,2,180,4|4|4,1:3|1:3|1:3,0:0:0:0:
207,24,36033,1,2,0:0:0:0:
207,24,36151,1,8,0:1:0:0:
128,59,36268,2,0,L|119:168,1,90,2|0,1:1|0:0,0:0:0:0:
50,14,36502,2,0,L|41:123,1,90,2|0,1:1|0:0,0:0:0:0:
21,316,36737,6,0,B|63:301|48:359|144:374|152:317|197:341,1,180,4|2,1:3|0:0,0:0:0:0:
114,263,37088,1,8,0:1:0:0:
207,212,37205,2,0,B|165:227|180:169|84:154|76:211|31:187,2,180,4|4|4,1:3|1:3|1:3,0:0:0:0:
370,312,37908,1,2,0:0:0:0:
370,312,38026,1,8,0:1:0:0:
448,350,38143,5,2,1:2:0:0:
486,272,38260,1,0,0:0:0:0:
408,234,38377,1,2,0:2:0:0:
164,43,38612,6,0,P|191:75|188:152,1,90,8|0,0:0|0:0,0:0:0:0:
113,112,38846,1,2,0:0:0:0:
113,112,38963,2,0,P|202:76|304:72,1,180,8|0,0:1|0:0,0:0:0:0:
49,165,39315,2,0,P|29:124|40:67,1,90,4|0,0:3|0:0,0:0:0:0:
377,158,39549,6,0,P|350:190|353:267,1,90,8|0,0:0|0:0,0:0:0:0:
428,227,39783,1,2,0:0:0:0:
428,227,39900,2,0,P|339:191|237:187,1,180,8|0,0:1|0:0,0:0:0:0:
492,280,40252,2,0,P|512:239|501:182,1,90,4|0,0:3|0:0,0:0:0:0:
141,241,40487,6,0,P|168:273|165:350,2,90,8|0|2,0:0|0:0|0:0,0:0:0:0:
90,310,40838,2,0,P|179:274|281:270,1,180,8|0,0:1|0:0,0:0:0:0:
26,363,41190,2,0,P|6:322|17:265,2,90,4|0|10,1:3|0:0|1:1,0:0:0:0:
477,352,41658,5,2,1:1:0:0:
393,342,41776,1,8,0:1:0:0:
366,257,41893,2,0,B|335:192|380:168|382:140|351:115|302:121|302:121|347:133|361:179,1,270.000010299683,10|10,1:1|0:1,0:0:0:0:
109,176,42362,6,0,B|219:149|170:235|296:193,1,180,12|2,0:0|0:0,0:0:0:0:
360,176,42713,1,8,0:1:0:0:
440,210,42830,2,0,P|458:239|462:205,1,90,4|0,1:3|0:0,0:0:0:0:
365,306,43065,2,0,P|370:270|339:288,1,90,4|0,0:3|0:0,0:0:0:0:
434,350,43299,5,8,0:0:0:0:
261,300,43533,1,2,0:0:0:0:
197,256,43651,2,0,B|173:303|195:346|195:346|160:305|113:317,1,180,8|0,0:1|0:0,0:0:0:0:
31,228,44002,2,0,B|48:246|50:268|50:268|61:249|92:243,1,90,4|0,0:3|0:0,0:0:0:0:
2,6,44237,6,0,B|16:101|60:61|88:180,1,180,8|2,0:0|0:0,0:0:0:0:
86,244,44588,1,8,0:1:0:0:
172,244,44705,2,0,P|204:238|172:228,1,90,4|0,1:3|0:0,0:0:0:0:
294,169,44940,2,0,P|283:200|308:175,1,90,4|0,0:3|0:0,0:0:0:0:
372,249,45174,5,8,0:0:0:0:
429,68,45408,1,2,0:0:0:0:
401,135,45526,1,8,0:1:0:0:
383,205,45643,2,0,P|377:225|370:256,1,45,4|0,1:3|0:0,0:0:0:0:
431,349,45877,6,0,P|410:307|397:247,1,90,4|0,0:3|0:0,0:0:0:0:
429,68,46112,6,0,B|381:123|309:132|241:104|242:24|314:17|338:105,1,270.000010299683,8|0,0:0|0:0,0:0:0:0:
331,86,46580,6,0,P|340:123|343:158,1,67.5000025749208
240,197,46815,6,0,P|249:165|254:140,1,45,0|0,1:0|0:0,0:0:0:0:
140,66,47108,2,0,P|147:87|148:98,1,22.5,0|0,1:0|0:0,0:0:0:0:
33,162,47401,1,0,1:0:0:0:
52,194,47518,2,0,P|64:129|66:93,1,90,0|0,1:0|0:0,0:0:0:0:
319,220,47987,5,8,1:2:0:0:
390,205,48104,1,0,1:0:0:0:
342,152,48221,1,8,1:2:0:0:
369,278,48455,5,10,0:0:0:0:
415,136,48690,1,2,0:3:0:0:
266,161,48924,5,2,1:0:0:0:
184,124,49158,1,2,0:0:0:0:
115,182,49392,1,8,0:0:0:0:
142,268,49628,1,0,0:0:0:0:
55,248,49862,6,0,B|62:321|103:364|174:342,1,180,14|0,0:1|0:0,0:0:0:0:
194,331,50174,2,0,P|215:307|224:270,1,60
227,255,50330,1,10,3:1:0:0:
227,255,50408,6,0,B|370:242|304:308|432:296,1,210
457,313,51033,6,0,B|468:201|499:63|499:63|477:117|379:94|396:220,1,450,4|2,0:3|0:0,0:0:0:0:
38,109,51737,5,8,0:1:0:0:
167,55,51971,2,0,L|163:122,1,45,2|0,0:0|0:0,0:0:0:0:
19,29,52205,5,8,1:1:0:0:
247,49,52440,2,0,L|242:140,1,67.5000025749208,4|0,1:3|0:0,0:0:0:0:
330,33,52674,6,0,L|325:124,1,67.5000025749208,2|0,0:3|0:0,0:0:0:0:
247,49,52908,1,4,1:3:0:0:
409,48,53143,6,0,L|405:115,1,45,8|0,0:0|0:0,0:0:0:0:
330,33,53377,1,4,1:3:0:0:
455,206,53612,6,0,B|455:275|419:317|419:317|349:293,1,180,6|0,1:0|0:0,0:0:0:0:
351,281,53924,2,0,L|284:302,1,60
276,284,54080,1,2,3:1:0:0:
276,284,54158,2,0,B|183:270|183:270|157:280|157:280|63:268,1,210
55,281,54783,6,0,B|17:50|17:50|70:125|94:80|152:143|152:143|142:208,1,450,4|0,0:3|0:0,0:0:0:0:
449,340,55487,5,2,1:2:0:0:
372,269,55721,2,0,P|366:302|366:326,1,45
275,297,55955,2,0,P|283:323|287:358,1,45,2|0,1:2|0:0,0:0:0:0:
372,269,56190,1,0,0:0:0:0:
183,321,56424,6,0,P|180:287|186:231,1,67.5000025749208,2|0,1:2|0:0,0:0:0:0:
88,356,56658,2,0,P|72:274|0:325,1,202.500007724762,2|0,1:2|0:0,0:0:0:0:
185,339,57127,2,0,P|221:338|287:330,1,90,4|0,1:3|0:0,0:0:0:0:
468,157,57362,6,0,B|361:239|364:133|254:219,1,225,8|0,0:3|0:0,0:0:0:0:
338,265,57830,1,8,0:0:0:0:
259,215,58065,1,2,0:0:0:0:
314,6,58299,6,0,B|438:58|345:109|474:161,1,225,8|0,0:3|0:0,0:0:0:0:
480,65,58768,1,8,0:0:0:0:
467,158,59002,1,2,0:0:0:0:
259,215,59237,6,0,B|241:82|331:137|312:-1,1,225,8|0,0:3|0:0,0:0:0:0:
226,44,59705,1,8,0:0:0:0:
314,6,59940,1,2,0:0:0:0:
468,157,60174,6,0,B|361:239|364:133|254:219,1,225,8|0,0:3|0:0,0:0:0:0:
58,332,60643,6,0,L|47:230,1,90,8|2,0:0|0:0,0:0:0:0:
28,62,61112,5,8,1:2:0:0:
70,151,61346,1,4,0:3:0:0:
192,135,61580,5,8,0:0:0:0:
99,130,61815,1,4,0:3:0:0:
48,242,62049,5,8,0:0:0:0:
102,166,62283,1,4,0:3:0:0:
319,249,62518,6,0,B|235:254|235:254|222:243|222:243|143:246,1,180,8|6,0:0|0:3,0:0:0:0:
474,42,62987,5,12,0:0:0:0:
391,160,63221,2,0,L|382:76,1,72,8|0,1:2|0:0,0:0:0:0:
401,147,63455,2,0,L|392:63,1,72,8|0,0:0|0:0,0:0:0:0:
474,42,63690,1,4,1:3:0:0:
128,88,63924,6,0,L|121:160,1,72,8|0,0:0|0:0,0:0:0:0:
38,42,64158,1,8,1:2:0:0:
118,75,64393,2,0,L|111:147,1,72,8|0,0:0|0:0,0:0:0:0:
38,42,64628,1,4,1:3:0:0:
43,286,64862,6,0,P|38:269|48:285,2,45,2|0|0,3:2|0:0|0:0,3:0:0:0:
146,342,65330,6,0,P|126:333|145:335,2,58.4999973220826,2|0|0,3:2|0:0|0:0,3:0:0:0:
236,278,65799,6,0,P|221:257|230:284,2,72,2|0|0,3:2|0:0|0:0,3:0:0:0:
199,169,66268,6,0,P|174:179|189:146,2,85.4999977169037,2|0|0,3:2|0:0|0:0,3:0:0:0:
75,168,66737,6,0,P|53:145|61:184,2,99.0000030212403,2|0|0,3:2|0:0|0:0,3:0:0:0:
104,46,67205,6,0,P|119:28|118:71,2,112.5,2|0|0,3:2|0:0|0:0,3:0:0:0:
299,70,67674,6,0,P|259:82|295:51,2,125.999996154785,2|0|0,3:2|0:0|0:0,3:0:0:0:
431,126,68143,6,0,P|399:103|421:151,2,139.500001064301,2|0|0,3:2|0:0|0:0,3:0:0:0:
470,313,68612,6,0,P|448:307|424:296,1,45,0|0,1:0|0:0,0:0:0:0:
346,283,68846,6,0,P|348:320|359:351,1,58.4999973220826,2|0,0:0|0:0,0:0:0:0:
260,297,69080,6,0,P|262:261|277:228,1,72,0|0,1:0|0:0,0:0:0:0:
264,144,69315,6,0,P|220:166|191:207,1,85.4999977169037,2|0,0:0|0:0,0:0:0:0:
277,58,69549,6,0,P|320:80|353:123,1,99.0000030212403,0|0,1:0|0:0,0:0:0:0:
406,188,69783,6,0,P|428:151|432:71,1,112.5,2|0,0:0|0:0,0:0:0:0:
481,247,70018,6,0,P|421:274|348:267,1,125.999996154785,0|0,1:0|0:0,0:0:0:0:
266,273,70252,6,0,P|297:330|375:375,1,139.500001064301,2|0,0:0|0:0,0:0:0:0:
190,219,70487,5,8,0:0:0:0:
65,199,70643,1,0,1:0:0:0:
30,314,70799,1,0,1:0:0:0:
220,305,70955,2,0,L|237:170,1,120,0|0,1:0|0:0,0:0:0:0:
293,114,71190,1,0,1:0:0:0:
293,114,71268,2,0,L|282:42,1,60,0|0,2:0|2:0,0:0:0:0:
400,70,71424,6,0,L|392:23,7,45,2|0|0|0|0|0|0|0,3:1|3:0|3:0|3:0|3:0|3:0|3:0|3:0,3:0:0:0:
418,64,71893,6,0,L|413:96,1,22.5,2|0,1:0|0:0,0:0:0:0:
450,177,72127,6,0,B|459:194|459:194|385:184,1,90,2|0,1:0|0:0,0:0:0:0:
183,114,72362,6,0,P|223:119|252:197,1,125.999996154785,4|0,1:0|2:0,0:0:0:0:
209,350,72596,6,0,P|196:308|221:254,1,90,2|0,3:0|2:1,0:0:0:0:
409,335,72830,2,0,B|366:327|356:270|356:270|325:322|244:306,1,180,8|0,1:1|1:0,0:0:0:0:
33,311,73182,1,0,2:0:0:0:
102,270,73299,2,0,P|115:312|90:366,1,90,0|0,1:0|2:0,0:0:0:0:
26,229,73533,1,0,2:0:0:0:
26,229,73651,2,0,L|7:126,1,90,0|8,3:0|1:0,0:0:0:0:
41,56,73885,1,0,0:0:0:0:
130,47,74002,1,0,0:0:0:0:
181,120,74119,1,0,0:0:0:0:
253,223,74237,6,0,P|193:240|130:192,1,125.999996154785,0|0,1:0|2:0,0:0:0:0:
302,32,74471,6,0,P|278:69|264:126,1,90,0|0,3:0|2:1,0:0:0:0:
446,153,74705,2,0,P|441:89|353:116,1,180,8|0,1:0|1:0,0:0:0:0:
291,255,75057,1,0,2:0:0:0:
239,329,75174,2,0,B|342:366|326:294|413:313,1,180,0|0,1:0|2:0,0:0:0:0:
162,353,75526,2,0,P|141:349|87:305,1,90,0|8,3:0|1:0,0:0:0:0:
22,245,75760,1,0,0:0:0:0:
70,169,75877,1,0,0:0:0:0:
135,231,75994,1,0,0:0:0:0:
88,307,76112,6,0,P|59:349|-5:360,2,120,2|0|0,0:0|3:0|3:0,0:0:0:0:
164,114,76580,2,0,P|152:152|133:239,1,120,10|0,1:2|2:0,0:0:0:0:
153,217,76815,2,0,P|162:170|176:127,1,90,0|0,2:0|3:0,0:0:0:0:
424,77,77049,6,0,P|453:35|517:24,2,120,2|0|0,0:0|3:0|3:1,0:0:0:0:
348,270,77517,2,0,P|360:232|379:145,1,120,10|0,1:2|2:0,0:0:0:0:
359,167,77752,2,0,P|350:214|336:257,1,90,0|0,2:0|3:0,0:0:0:0:
88,307,77987,5,0,0:0:0:0:
6,261,78104,1,0,0:0:0:0:
111,316,78221,2,0,L|208:301,1,90,2|0,3:2|2:0,0:0:0:0:
494,356,78455,2,0,B|426:327|426:327|351:360|351:360|279:334,1,225,10|2,1:2|1:2,0:0:0:0:
57,180,78924,6,0,B|83:216|83:216|131:220,1,90,2|0,1:0|3:0,0:0:0:0:
121,60,79158,2,0,B|76:65|76:65|49:105,1,90,2|0,3:2|2:0,0:0:0:0:
194,175,79393,2,0,B|212:135|212:135|191:91,1,90,10|0,1:2|2:0,0:0:0:0:
125,136,79627,2,0,L|271:133,1,135.000005149842,2|0,1:2|2:0,0:0:0:0:
453,37,79862,6,0,P|405:60|411:128,1,125.999996154785,4|0,0:0|2:0,0:0:0:0:
456,293,80096,6,0,P|457:257|412:200,1,90,0|0,3:0|2:1,0:0:0:0:
236,330,80330,2,0,B|287:310|295:258|295:258|387:282,1,180,8|0,1:0|1:0,0:0:0:0:
206,246,80682,1,0,2:0:0:0:
119,241,80799,2,0,P|126:284|162:321,1,90,0|0,0:0|2:0,0:0:0:0:
259,179,81033,1,0,2:0:0:0:
259,179,81151,2,0,P|222:160|169:168,1,90,0|8,3:0|1:0,0:0:0:0:
119,241,81385,1,0,0:0:0:0:
31,222,81502,1,0,0:0:0:0:
25,132,81619,1,0,0:0:0:0:
111,100,81737,6,0,P|147:55|218:49,1,125.999996154785,0|0,0:0|2:0,0:0:0:0:
332,166,81971,6,0,P|297:151|270:105,1,90,0|0,3:0|2:1,0:0:0:0:
437,47,82205,2,0,P|397:8|361:95,1,180,8|0,1:0|1:0,0:0:0:0:
439,229,82557,1,0,2:0:0:0:
469,308,82674,2,0,B|381:328|405:269|292:292,1,180,0|0,0:0|2:0,0:0:0:0:
140,364,83026,2,0,P|133:316|117:272,1,90,0|8,3:0|1:1,0:0:0:0:
98,189,83260,1,0,0:0:0:0:
186,202,83377,1,0,0:0:0:0:
205,289,83494,1,0,0:0:0:0:
119,276,83612,6,0,P|74:308|47:371,2,120,2|0|0,0:0|3:0|3:0,0:0:0:0:
412,299,84080,2,0,P|346:303|282:286,1,120,10|0,1:2|2:0,0:0:0:0:
312,278,84315,2,0,P|359:286|406:282,1,90,0|0,0:0|3:0,0:0:0:0:
393,108,84549,6,0,P|438:76|465:13,2,120,2|0|0,0:0|3:0|3:0,0:0:0:0:
100,85,85017,2,0,P|166:81|230:98,1,120,10|0,1:2|2:0,0:0:0:0:
200,106,85252,2,0,P|153:98|106:102,1,90,0|0,2:0|3:0,0:0:0:0:
277,205,85487,5,4,0:0:0:0:
269,170,85604,1,0,0:0:0:0:
234,178,85721,1,0,0:0:0:0:
242,213,85838,1,0,0:0:0:0:
279,286,85955,6,0,P|286:312|291:355,1,67.5000025749208,0|0,0:0|2:0,0:0:0:0:
162,215,86190,2,0,P|136:222|93:227,1,67.5000025749208,0|0,0:0|2:0,0:0:0:0:
233,98,86424,6,2,B|221:57|235:18|235:18|234:50|245:70,1,112.5,2|0,0:0|2:0,0:0:0:0:
350,169,86692,5,0,1:0:0:0:
365,168,86759,1,0,1:0:0:0:
379,171,86826,1,0,1:0:0:0:
390,180,86893,1,0,1:0:0:0:
485,228,87127,6,0,L|479:191,1,22.5,4|0,0:3|0:0,0:0:0:0:
353,253,87362,6,0,B|372:162|372:162|363:158|363:158|382:160|382:160|373:153|373:153|396:33,1,225,8|0,0:0|0:0,0:0:0:0:
81,39,87830,5,0,1:0:0:0:
115,61,87987,1,0,0:0:0:0:
123,100,88143,1,0,0:0:0:0:
34,228,88299,5,8,0:0:0:0:
112,192,88416,2,0,P|186:174|274:183,1,153.000002918243,4|4,0:3|0:3,0:0:0:0:
441,207,88768,2,0,P|431:234|419:288,2,76.5000014591217,0|4|0,1:0|0:3|0:0,0:0:0:0:
34,228,89237,5,8,0:0:0:0:
112,192,89354,2,0,P|185:213|258:262,1,153.000002918243,4|4,0:3|0:3,0:0:0:0:
474,227,89705,2,0,P|451:245|414:286,2,76.5000014591217,0|0|4,1:0|0:0|0:3,0:0:0:0:
34,228,90174,5,8,0:0:0:0:
112,192,90291,2,0,P|164:246|203:326,1,153.000002918243,4|4,0:3|0:3,0:0:0:0:
419,280,90643,2,0,B|439:275|462:251|462:251|454:318|407:350|407:350|342:346|309:301|309:301|337:306|365:295,1,337.5,0|0,1:0|0:0,0:0:0:0:
325,61,91112,6,0,L|315:15,4,38.2500007295609,8|0|8|0|8,0:0|0:0|0:1|0:0|0:1,0:0:0:0:
345,145,91463,1,8,0:1:0:0:
406,86,91580,2,0,L|433:55,4,38.2500007295609,0|0|8|0|8,1:0|0:0|0:1|0:0|0:1,0:0:0:0:
345,145,91932,1,8,0:1:0:0:
427,168,92049,6,0,L|503:185,1,76.5000014591217,8|0,0:0|0:0,0:0:0:0:
361,226,92283,2,0,L|377:303,1,76.5000014591217,4|0,0:3|0:0,0:0:0:0:
279,203,92518,2,0,L|209:257,1,76.5000014591217,0|0,1:0|0:0,0:0:0:0:
260,120,92752,2,0,L|170:103,1,76.5000014591217,4|0,0:3|0:0,0:0:0:0:
325,61,92987,6,0,L|315:15,4,38.2500007295609,8|0|8|0|8,0:0|0:0|0:1|0:0|0:1,0:0:0:0:
345,145,93338,1,8,0:1:0:0:
279,203,93455,2,0,L|209:257,1,76.5000014591217,0|8,1:0|0:1,0:0:0:0:
345,145,93690,1,8,0:1:0:0:
427,168,93807,2,0,L|503:185,1,76.5000014591217,8|8,0:1|0:0,0:0:0:0:
345,145,94041,1,0,0:0:0:0:
260,120,94158,2,0,L|170:103,1,76.5000014591217,4|0,0:3|0:0,0:0:0:0:
169,102,94334,1,0,0:0:0:0:
153,98,94393,6,0,L|167:187,3,76.5000014591217,8|0|8|0,1:0|0:0|1:0|0:0,0:0:0:0:
84,49,94862,6,0,B|69:73|69:73|94:254|94:254|37:331|7:237|82:259,1,337.5,6|0,0:1|0:0,0:0:0:0:
180,275,95330,5,8,1:2:0:0:
220,269,95487,1,0,0:0:0:0:
253,292,95643,1,0,0:0:0:0:
201,352,95799,5,0,1:0:0:0:
358,288,95916,1,0,0:0:0:0:
346,311,96033,2,0,B|329:217|329:217|335:208|335:208|328:162|328:162|317:158|317:158|303:83,1,225,2|8,0:1|1:2,0:0:0:0:
446,260,96385,2,0,B|435:201|435:201|424:197|424:197|417:151|417:151|423:142|423:142|406:48,1,225,2|0,0:1|0:0,0:0:0:0:
221,45,96737,2,0,B|150:50|150:50|134:43|134:43|74:53|74:53|59:45|59:45|4:100|49:152|49:152|66:122|49:77,1,337.5,2|0,0:1|0:0,0:0:0:0:
115,237,97205,6,0,P|154:249|197:238,2,76.5000014591217,8|0|8,1:2|0:0|0:1,0:0:0:0:
168,166,97557,2,0,P|169:149|162:170,1,76.5000014591217,2|0,0:0|1:0,0:0:0:0:
29,234,97791,1,0,0:0:0:0:
11,210,97908,2,0,B|39:319|39:319|29:338|29:338|76:331|76:331|92:327|92:327|125:336,1,225,2|8,0:1|1:2,0:0:0:0:
151,255,98260,2,0,B|123:146|123:146|133:127|133:127|86:134|86:134|70:138|70:138|37:129,1,225,2|0,0:1|0:0,0:0:0:0:
328,325,98612,6,0,L|318:371,4,38.2500007295609,2|0|8|0|8,0:1|0:0|0:1|0:0|0:1,0:0:0:0:
348,241,98963,1,8,0:1:0:0:
409,300,99080,2,0,L|436:331,4,38.2500007295609,8|0|8|0|8,1:2|0:0|0:1|0:0|0:1,0:0:0:0:
348,241,99432,1,8,0:1:0:0:
430,218,99549,6,0,L|506:201,1,76.5000014591217
364,160,99783,2,0,L|380:83,1,76.5000014591217,2|0,0:1|0:0,0:0:0:0:
282,183,100018,2,0,L|212:129,1,76.5000014591217,8|2,1:2|0:1,0:0:0:0:
263,266,100252,2,0,L|173:283,1,76.5000014591217
328,325,100487,6,0,L|318:371,4,38.2500007295609,2|0|8|0|8,0:1|0:0|0:1|0:0|0:1,0:0:0:0:
348,241,100838,1,8,0:1:0:0:
430,218,100955,2,0,L|506:201,1,76.5000014591217,8|8,1:2|0:1,0:0:0:0:
348,241,101190,1,8,0:1:0:0:
282,183,101307,2,0,L|212:129,1,76.5000014591217,8|8,0:1|0:0,0:0:0:0:
348,241,101541,1,0,0:0:0:0:
364,160,101658,2,0,L|380:83,1,76.5000014591217,2|0,0:1|0:0,0:0:0:0:
71,65,101893,6,0,B|108:44|108:44|85:147,1,135.000005149842,8|2,1:2|0:1,0:0:0:0:
29,222,102127,6,0,B|6:214|6:214|27:292,1,90
88,328,102362,6,0,B|103:319|103:319|86:368,1,45,8|0,0:0|0:0,0:0:0:0:
71,65,102713,5,2,0:0:0:0:
440,304,103065,5,0,1:0:0:0:
423,297,103182,5,0,1:0:0:0:
400,298,103299,5,8,0:0:0:0:
375,309,103416,5,0,1:0:0:0:
359,336,103533,5,0,1:0:0:0:
330,357,103651,5,0,1:0:0:0:
289,351,103768,5,8,0:0:0:0:
259,317,103885,5,0,1:0:0:0:
271,269,104002,5,8,0:0:0:0:
236,227,104119,5,0,1:0:0:0:
177,234,104237,6,0,B|99:227|142:289|34:272,1,125.999996154785,6|0,0:1|0:0,0:0:0:0:
60,233,104588,1,8,0:1:0:0:
60,233,104705,2,0,B|138:226|95:288|203:271,1,125.999996154785,10|8,0:0|0:1,0:0:0:0:
257,258,105057,1,8,0:1:0:0:
335,234,105174,6,0,B|413:227|370:289|478:272,1,125.999996154785,0|8,1:0|0:1,0:0:0:0:
452,233,105525,1,8,0:1:0:0:
452,233,105642,2,0,B|374:226|417:288|309:271,1,125.999996154785,0|0,1:0|1:0,0:0:0:0:
257,258,105994,1,0,0:0:0:0:
232,184,106112,6,0,B|225:106|287:149|270:41,1,125.999996154785,0|0,1:0|0:0,0:0:0:0:
231,67,106463,1,8,0:1:0:0:
231,67,106580,2,0,B|224:145|286:102|269:210,1,125.999996154785,10|8,0:0|0:1,0:0:0:0:
257,258,106932,1,8,0:1:0:0:
173,273,107049,6,0,P|180:300|210:329,1,62.9999980773926,0|0,1:0|0:0,0:0:0:0:
285,205,107283,2,0,P|264:226|257:259,1,62.9999980773926,8|0,0:1|1:0,0:0:0:0:
398,238,107518,2,0,P|368:243|334:275,1,62.9999980773926,0|0,1:0|0:0,0:0:0:0:
463,341,107752,2,0,P|432:322|381:323,1,62.9999980773926,0|0,1:0|0:0,0:0:0:0:
333,364,107987,6,0,B|200:353|200:353|175:366|175:366|50:353,1,270,2|8,0:1|0:1,0:0:0:0:
72,268,108455,6,0,B|27:222|27:222|17:282,1,125.999996154785,10|8,0:0|0:1,0:0:0:0:
67,354,108807,1,8,0:1:0:0:
67,354,108924,2,0,L|27:224,1,125.999996154785,0|8,1:0|0:1,0:0:0:0:
62,146,109276,1,8,0:1:0:0:
113,74,109393,2,0,B|103:14|103:14|58:60,1,125.999996154785,0|0,1:0|1:0,0:0:0:0:
62,146,109744,1,0,0:0:0:0:
62,146,109862,2,0,L|104:12,1,125.999996154785,0|0,1:0|0:0,0:0:0:0:
194,121,110213,5,8,0:1:0:0:
249,123,110330,1,10,0:0:0:0:
298,95,110447,1,0,0:0:0:0:
333,50,110565,1,8,0:1:0:0:
353,103,110682,1,8,0:1:0:0:
396,139,110799,1,2,1:0:0:0:
451,145,110916,1,0,0:0:0:0:
432,58,111033,6,0,P|457:41|432:37,2,62.9999980773926,8|0|2,0:1|1:0|1:0,0:0:0:0:
318,180,111385,1,8,0:1:0:0:
238,215,111502,2,0,B|247:297|247:297|280:251,1,112.5,0|8,0:1|0:1,0:0:0:0:
396,139,111737,6,0,B|351:93|351:93|416:53|416:53|461:114|461:114|403:143|403:143|395:214|395:214|387:223|387:223|376:310,1,445.500004248619,2|8,0:1|0:1,0:0:0:0:
427,369,112205,6,0,B|364:387|364:387|309:353,1,125.999996154785,10|8,0:0|0:1,0:0:0:0:
376,303,112557,1,8,0:1:0:0:
325,236,112674,2,0,B|388:218|388:218|443:252,1,125.999996154785,0|8,0:0|0:1,0:0:0:0:
257,288,113026,1,8,0:1:0:0:
257,288,113143,2,0,L|192:284,1,62.9999980773926,8|0,0:0|0:0,0:0:0:0:
247,304,113377,2,0,L|182:300,1,62.9999980773926,0|0,1:0|0:0,0:0:0:0:
106,345,113612,6,0,B|95:288|95:288|99:277|99:277|86:195,1,125.999996154785,0|0,1:0|0:0,0:0:0:0:
147,150,113963,1,8,0:1:0:0:
147,150,114080,2,0,L|212:154,1,62.9999980773926,10|0,0:0|0:0,0:0:0:0:
157,134,114314,2,0,L|222:138,1,62.9999980773926,8|0,0:1|1:0,0:0:0:0:
298,88,114549,6,0,B|309:145|309:145|305:156|305:156|318:238,1,125.999996154785,0|8,1:0|0:1,0:0:0:0:
394,168,114901,1,0,1:0:0:0:
473,145,115018,2,0,B|487:174|487:174|382:167,1,125.999996154785,8|0,0:0|1:0,0:0:0:0:
97,294,115487,6,0,B|51:249|51:249|11:314|11:314|72:359|72:359|101:301|101:301|172:293|172:293|181:285|181:285|268:274,1,445.500004248619,2|8,0:1|0:1,0:0:0:0:
327,325,115955,6,0,B|345:262|345:262|311:207,1,125.999996154785,10|8,0:0|0:1,0:0:0:0:
261,274,116307,1,8,0:1:0:0:
194,223,116424,2,0,B|176:286|176:286|210:341,1,125.999996154785,0|8,1:0|0:1,0:0:0:0:
249,157,116776,1,8,0:1:0:0:
249,157,116893,2,0,L|241:82,1,62.9999980773926,0|0,1:0|0:0,0:0:0:0:
260,143,117127,2,0,L|252:68,1,62.9999980773926,0|0,1:0|0:0,0:0:0:0:
389,31,117362,6,0,B|395:48|415:63|415:63|370:38|309:66,1,125.999996154785,0|8,1:0|0:1,0:0:0:0:
368,132,117713,1,8,0:1:0:0:
368,132,117830,2,0,L|376:207,1,62.9999980773926,10|0,0:0|0:0,0:0:0:0:
357,146,118064,2,0,L|365:221,1,62.9999980773926,8|8,0:1|0:1,0:0:0:0:
485,336,118299,6,0,L|406:332,1,62.9999980773926,0|0,1:0|0:0,0:0:0:0:
400,354,118533,6,0,L|325:347,1,62.9999980773926,8|0,1:1|1:0,0:0:0:0:
305,363,118768,6,0,L|229:355,1,62.9999980773926,0|0,1:0|0:0,0:0:0:0:
207,370,119002,6,0,L|137:363,1,62.9999980773926,0|0,1:0|0:0,0:0:0:0:
3,233,119237,6,0,B|120:231|49:341|249:283|241:197|241:197|189:235|125:198,1,405.000015449525,4|0,1:0|0:0,0:0:0:0:
192,91,119705,2,0,P|205:129|207:104,1,135.000005149842,10|0,0:0|0:0,0:0:0:0:
257,14,119940,6,0,P|252:31|253:46,3,22.5,0|0|0|0,1:0|0:0|0:0|0:0,0:0:0:0:
279,34,120174,2,0,P|319:50|357:52,2,60,0|2|8,1:0|0:0|0:1,0:0:0:0:
512,51,120643,2,0,P|466:83|394:95,1,120,0|0,3:0|0:0,0:0:0:0:
279,34,121112,1,0,3:0:0:0:
476,178,121346,6,0,P|467:193|483:177,1,67.5000025749208,8|0,1:1|0:0,0:0:0:0:
383,222,121580,2,0,P|383:199|358:217,1,67.5000025749208,8|0,1:1|0:0,0:0:0:0:
343,318,121815,6,0,P|353:300|358:285,3,22.5,0|0|0|0,3:0|0:0|0:0|0:0,0:0:0:0:
331,299,122049,2,0,P|302:285|271:279,2,60,0|2|8,1:0|0:0|0:1,0:0:0:0:
92,261,122518,2,0,P|139:242|219:231,1,120,0|0,3:0|0:0,0:0:0:0:
331,299,122987,1,0,1:0:0:0:
184,149,123221,6,0,P|175:134|191:150,1,67.5000025749208,10|0,0:1|0:0,0:0:0:0:
85,138,123455,2,0,P|85:161|60:143,1,67.5000025749208,10|0,0:1|0:0,0:0:0:0:
59,39,123690,6,0,P|58:56|58:76,3,22.5,0|0|0|0,3:0|0:0|0:0|0:0,0:0:0:0:
84,48,123924,2,0,P|119:60|155:61,2,60,0|2|8,1:0|0:0|0:1,0:0:0:0:
320,50,124393,2,0,P|283:80|210:96,1,120,0|0,3:0|0:0,0:0:0:0:
84,48,124862,5,0,1:0:0:0:
17,127,125096,2,0,P|23:149|27:182,1,45,2|8,0:0|0:1,0:0:0:0:
170,177,125330,1,10,0:0:0:0:
87,228,125565,2,0,P|85:247|75:277,1,45,0|0,1:0|0:0,0:0:0:0:
226,335,125799,6,0,P|182:360|28:372,2,180,0|2|0,1:0|0:0|1:0,0:0:0:0:
232,317,126326,1,0,0:0:0:0:
229,299,126385,1,8,0:1:0:0:
222,282,126444,1,0,0:0:0:0:
208,270,126502,1,0,1:0:0:0:
389,299,126737,5,0,1:0:0:0:
304,267,126971,1,2,0:0:0:0:
267,185,127205,1,10,0:0:0:0:
298,101,127440,1,0,1:0:0:0:
380,63,127674,1,0,0:0:0:0:
465,95,127908,1,2,1:2:0:0:
502,177,128143,1,8,1:1:0:0:
470,261,128377,1,2,3:2:0:0:
389,299,128612,6,0,P|364:308|294:308,1,90,0|2,1:0|0:0,0:0:0:0:
193,327,129080,6,0,P|244:342|318:346,1,116.999994644165,8|2,0:0|1:2,0:0:0:0:
164,352,129549,6,0,P|134:339|64:248,1,144,0|2,1:0|0:0,0:0:0:0:
68,87,130018,6,0,P|40:138|28:257,1,170.999995433807,8|2,3:1|1:2,0:0:0:0:
49,43,130487,6,0,P|83:19|131:2,2,90,0|2|10,1:0|0:0|0:0,0:0:0:0:
229,38,131190,6,0,P|221:92|338:128,1,180,0|2,1:0|1:2,0:0:0:0:
415,23,131893,2,0,P|404:58|391:119,1,90,0|0,1:0|2:0,0:0:0:0:
488,248,132362,2,0,P|469:206|457:148,1,90,0|2,1:0|0:0,0:0:0:0:
416,305,132830,6,0,B|386:322|382:346|382:346|367:322|324:320,1,112.5,10|0,0:0|0:0,0:0:0:0:
235,351,133065,6,0,L|238:306,1,45,0|0,1:0|0:0,0:0:0:0:
137,307,133299,6,0,B|210:317|243:237|243:237|264:321|343:320,1,270,0|8,1:0|0:1,0:0:0:0:
335,237,133767,1,0,1:0:0:0:
335,219,133826,1,0,0:0:0:0:
353,213,133885,1,8,0:1:0:0:
363,228,133943,1,0,0:0:0:0:
353,243,134002,2,0,P|356:169|363:143,1,90,0|0,1:0|0:0,0:0:0:0:
153,222,134237,5,4,1:0:0:0:
128,173,134354,1,0,0:0:0:0:
75,184,134471,1,8,0:1:0:0:
41,263,134588,5,0,0:0:0:0:
66,312,134705,1,0,1:0:0:0:
119,301,134822,1,0,0:0:0:0:
128,173,134940,5,8,0:1:0:0:
107,219,135057,1,0,0:0:0:0:
86,265,135174,1,0,1:0:0:0:
66,311,135291,1,0,0:0:0:0:
256,339,135408,5,8,0:1:0:0:
256,339,135526,2,0,L|256:272,1,67.5000025749208,0|0,1:0|1:0,0:0:0:0:
256,179,135760,1,0,0:0:0:0:
256,179,135877,2,0,L|256:112,1,67.5000025749208,8|0,1:1|0:0,0:0:0:0:
359,222,136112,5,0,1:0:0:0:
384,173,136229,1,0,0:0:0:0:
437,184,136346,1,8,0:1:0:0:
471,263,136463,5,0,0:0:0:0:
446,312,136580,1,0,1:0:0:0:
393,301,136697,1,0,0:0:0:0:
384,173,136815,5,8,0:1:0:0:
404,219,136932,1,0,0:0:0:0:
425,265,137049,1,0,1:0:0:0:
445,311,137166,1,0,0:0:0:0:
256,339,137283,5,0,0:0:0:0:
256,339,137401,2,0,L|256:272,1,67.5000025749208,0|0,1:0|1:0,0:0:0:0:
256,179,137635,1,0,0:0:0:0:
256,179,137752,2,0,L|256:112,1,67.5000025749208,0|0,1:0|0:0,0:0:0:0:
256,8,137987,5,12,0:0:0:0:
256,24,138104,1,8,0:1:0:0:
336,80,138221,5,4,0:3:0:0:
336,64,138338,1,8,0:1:0:0:
416,24,138455,5,0,1:0:0:0:
416,40,138572,1,8,0:1:0:0:
496,96,138690,5,4,0:3:0:0:
496,80,138807,6,0,L|496:48,4,16.8750006437302,8|0|0|0|8,0:1|0:0|0:0|0:0|0:0,0:0:0:0:
496,176,139041,1,8,0:1:0:0:
416,184,139158,5,4,0:3:0:0:
416,168,139275,1,8,0:1:0:0:
336,152,139393,5,0,1:0:0:0:
336,168,139510,1,8,0:1:0:0:
256,192,139627,5,4,0:3:0:0:
256,176,139744,1,8,0:1:0:0:
256,192,139862,12,4,141268,0:3:0:0:
91,221,141502,6,0,B|44:234|4:191|4:191|40:232|35:272|35:272|52:240|81:236,1,236.250002253056,2|0,3:1|0:0,0:0:0:0:
163,188,141737,5,0,1:0:0:0:
171,232,141854,1,0,3:0:0:0:
206,205,141971,1,2,3:0:0:0:
250,200,142088,1,0,3:0:0:0:
330,177,142205,2,0,L|325:267,1,90,4|0,0:3|0:0,0:0:0:0:
492,255,142440,5,2,1:3:0:0:
484,211,142557,1,0,3:0:0:0:
449,238,142674,1,0,3:0:0:0:
405,243,142791,1,0,3:0:0:0:
363,98,143143,6,0,B|334:129|334:129|320:320|320:320|292:347,1,270.000010299683,0|2,3:0|3:0,0:0:0:0:
4,243,143612,5,0,1:0:0:0:
12,287,143729,1,0,3:0:0:0:
47,260,143846,1,2,3:0:0:0:
91,255,143963,1,0,3:0:0:0:
171,232,144080,2,0,L|166:322,1,90,4|0,0:3|0:0,0:0:0:0:
333,310,144315,5,2,3:3:0:0:
325,266,144432,1,0,3:0:0:0:
290,293,144549,1,0,1:0:0:0:
246,298,144666,1,0,3:0:0:0:
166,322,144783,2,0,L|168:284,4,22.5,2|0|0|0|0,3:0|0:0|0:0|0:0|0:0,0:0:0:0:
86,344,145018,6,0,L|92:208,1,135,0|0,1:0|0:0,0:0:0:0:
74,223,145252,2,0,L|23:222,3,45,2|0|0|0,3:0|3:0|3:0|3:0,3:0:0:0:
199,156,145487,6,0,L|148:154,4,45,8|0|8|0|8,1:2|0:0|0:1|0:0|0:1,0:0:0:0:
288,159,145838,1,8,0:1:0:0:
247,81,145955,2,0,L|223:35,4,45,0|0|8|0|8,1:0|0:0|0:1|0:0|0:1,0:0:0:0:
288,159,146306,1,8,0:1:0:0:
336,85,146424,6,0,L|386:5,1,90,8|0,0:0|0:0,0:0:0:0:
377,164,146658,2,0,L|471:167,1,90,4|0,0:3|0:0,0:0:0:0:
328,238,146893,2,0,L|372:321,1,90,4|0,1:3|0:0,0:0:0:0:
380,332,147069,1,0,0:0:0:0:
389,347,147127,1,4,0:3:0:0:
288,159,147244,1,0,0:0:0:0:
240,234,147362,6,0,L|205:288,4,45,8|0|8|0|8,0:0|0:0|0:1|0:0|0:1,0:0:0:0:
288,159,147713,1,8,0:1:0:0:
247,81,147830,2,0,L|206:-1,1,90,0|8,1:0|0:1,0:0:0:0:
288,159,148065,1,8,0:1:0:0:
377,164,148182,2,0,L|471:167,1,90,8|8,0:1|0:0,0:0:0:0:
288,159,148416,1,0,0:0:0:0:
199,156,148533,2,0,L|99:149,1,90,0|0,1:0|0:0,0:0:0:0:
91,147,148709,1,0,0:0:0:0:
72,145,148768,1,8,0:0:0:0:
65,309,149237,6,0,B|40:263|40:263|45:307|45:307|48:313|48:313|54:358|54:358|130:349|130:349|155:339|155:339|312:361,1,405.000015449525,6|0,0:1|0:0,0:0:0:0:
432,322,149705,2,0,B|407:318|407:318|389:396,1,90,8|0,0:0|0:0,0:0:0:0:
474,250,149940,1,2,3:0:0:0:
439,237,150057,1,0,3:0:0:0:
404,227,150174,1,0,1:0:0:0:
387,195,150291,1,0,3:0:0:0:
321,259,150408,6,0,B|304:218|304:218|208:251|208:251|190:204|190:204|224:194|224:194|239:232,1,270.000010299683,2|8,0:1|1:2,0:0:0:0:
66,60,150760,2,0,B|83:101|83:101|179:68|179:68|197:115|197:115|163:125|163:125|148:87,1,270.000010299683,2|0,0:1|0:0,0:0:0:0:
297,108,151112,6,0,B|349:119|349:119|56:198|56:198|122:218,1,405.000015449525,2|2,0:1|3:0,0:0:0:0:
153,275,151580,2,0,B|149:321|149:321|105:285,1,90,8|0,1:2|0:0,0:0:0:0:
238,229,151815,1,2,3:0:0:0:
236,264,151932,1,0,3:0:0:0:
234,299,152049,1,0,1:0:0:0:
232,334,152166,1,0,3:0:0:0:
370,341,152283,6,0,B|402:353|402:353|312:356|312:356|318:206,1,270.000010299683,2|8,0:1|1:2,0:0:0:0:
352,110,152635,2,0,B|320:98|320:98|410:95|410:95|404:245,1,270.000010299683,2|0,0:1|0:0,0:0:0:0:
202,105,152987,6,0,L|200:53,4,45,2|0|8|0|8,0:1|0:0|0:1|0:0|0:1,0:0:0:0:
202,194,153338,1,8,0:1:0:0:
125,151,153455,2,0,L|79:126,4,45,8|0|8|0|8,1:2|0:0|0:1|0:0|0:1,0:0:0:0:
202,194,153806,1,8,0:1:0:0:
127,240,153924,6,0,L|46:288,1,90,0|0,1:0|0:0,0:0:0:0:
205,283,154158,2,0,L|206:377,1,90,2|0,1:1|0:0,0:0:0:0:
280,235,154393,2,0,L|362:280,1,90,8|2,1:2|0:1,0:0:0:0:
375,286,154569,1,0,0:0:0:0:
390,294,154627,1,0,0:0:0:0:
202,194,154744,1,0,0:0:0:0:
278,147,154862,6,0,L|332:112,4,45,2|0|8|0|8,3:1|0:0|0:1|0:0|0:1,0:0:0:0:
202,194,155213,1,8,0:1:0:0:
125,151,155330,2,0,L|43:108,1,90,0|0,1:0|0:0,0:0:0:0:
202,194,155565,1,0,1:0:0:0:
205,283,155682,2,0,L|206:377,1,90,0|8,0:0|1:2,0:0:0:0:
202,194,155916,1,0,0:0:0:0:
127,240,156033,2,0,L|46:288,1,90,10|0,0:2|1:0,0:0:0:0:
34,296,156209,1,0,0:0:0:0:
18,305,156268,1,10,3:2:0:0:
282,241,156424,5,0,0:0:0:0:
305,246,156502,1,0,0:0:0:0:
328,240,156580,1,0,0:0:0:0:
350,248,156658,1,0,0:0:0:0:
373,242,156737,5,8,1:0:0:0:
109,330,163299,6,0,B|89:259|138:262|120:183,1,135,0|2,1:0|0:0,0:0:0:0:
117,181,164119,1,0,0:0:0:0:
106,167,164237,5,0,1:0:0:0:
52,159,164471,1,2,0:0:0:0:
20,115,164705,1,0,1:0:0:0:
28,62,164940,1,2,0:0:0:0:
71,30,165174,1,0,1:0:0:0:
125,38,165408,1,2,0:0:0:0:
157,81,165643,1,0,1:0:0:0:
149,134,165877,1,2,0:0:0:0:
166,203,166112,5,0,1:0:0:0:
208,261,166346,1,2,0:0:0:0:
172,323,166580,1,0,1:0:0:0:
220,376,166815,1,2,0:0:0:0:
292,376,167049,1,0,1:0:0:0:
340,323,167284,1,2,0:0:0:0:
304,261,167518,1,0,1:0:0:0:
346,203,167752,1,2,0:0:0:0:
356,192,167830,1,0,0:0:0:0:
365,180,167908,1,0,0:0:0:0:
406,167,167987,5,8,0:0:0:0:
460,159,168104,1,8,0:1:0:0:
492,115,168221,1,4,0:3:0:0:
484,62,168338,1,8,0:1:0:0:
441,30,168455,1,0,1:0:0:0:
387,38,168572,1,8,0:1:0:0:
355,81,168690,1,4,0:3:0:0:
363,134,168807,1,8,0:1:0:0:
406,167,168924,1,8,0:0:0:0:
460,159,169041,1,8,0:1:0:0:
423,100,169158,6,0,P|386:105|358:114,1,45,4|8,0:3|0:1,0:0:0:0:
283,129,169393,6,0,P|260:125|226:116,1,58.4999973220826,0|8,1:0|0:1,0:0:0:0:
142,65,169627,6,0,P|115:70|71:84,1,72,4|8,0:3|0:1,0:0:0:0:
50,226,169862,5,8,0:0:0:0:
123,193,169979,2,0,B|134:217|130:236|130:236|142:216|166:205,1,85.4999977169037,4|8,0:3|0:1,0:0:0:0:
339,354,170213,5,0,0:0:0:0:
310,280,170330,2,0,B|257:300|254:353|254:353|255:299|204:272,1,198.000006042481,0|4,1:0|0:3,0:0:0:0:
420,336,170682,5,8,0:1:0:0:
430,257,170799,1,8,0:0:0:0:
439,178,170916,1,8,0:1:0:0:
450,99,171033,6,0,L|458:50,1,49.5000015106202,4|0,0:3|0:0,0:0:0:0:
369,127,171151,6,0,L|377:78,1,49.5000015106202,8|0,0:1|0:0,0:0:0:0:
288,161,171268,6,0,L|303:58,2,99.0000030212403,0|0|0,1:0|0:0|0:0,0:0:0:0:
99,97,171619,6,0,B|134:105|113:114|156:120,1,49.5000015106202
157,40,171737,6,0,B|76:143|152:139|37:303,1,270.000010299683,12|0,0:0|0:0,0:0:0:0:
49,284,172205,1,0,0:0:0:0:
254,256,172674,6,0,P|270:261|296:276,1,45,8|0,0:0|0:0,0:0:0:0:
152,312,172908,2,0,P|280:292|443:311,1,270.000010299683,0|0,1:0|0:0,0:0:0:0:
419,305,173377,1,0,0:0:0:0:
493,174,173612,6,0,P|432:146|224:122,1,270.000010299683,8|0,0:0|0:0,0:0:0:0:
232,121,174080,6,0,B|237:88|277:33|277:33|257:34|236:53,1,135.000005149842,0|0,1:0|0:0,0:0:0:0:
124,145,174315,2,0,B|150:165|177:227|177:227|187:209|181:182,1,135.000005149842,0|0,1:0|0:0,0:0:0:0:
160,44,174549,2,0,B|129:56|61:49|61:49|72:66|99:74,1,135.000005149842,8|0,0:0|0:0,0:0:0:0:
49,345,174901,1,8,1:1:0:0:
26,267,175018,2,0,B|149:255|95:370|221:344,1,202.500007724762,8|0,1:2|0:0,0:0:0:0:
272,298,175252,2,0,B|192:293|230:338|114:336,1,135.000005149842,8|0,3:2|0:0,0:0:0:0:
447,239,175487,6,0,P|415:290|412:356,2,120,2|0|0,1:0|3:0|3:0,0:0:0:0:
492,141,175955,2,0,L|362:155,1,120,10|0,1:2|2:0,0:0:0:0:
387,133,176190,2,0,L|476:123,1,90,0|0,2:0|3:0,0:0:0:0:
222,155,176424,6,0,P|254:104|257:38,2,120,2|0|0,0:0|3:0|3:0,0:0:0:0:
177,253,176892,2,0,L|307:239,1,120,10|0,1:2|2:0,0:0:0:0:
282,261,177127,2,0,L|192:270,1,90,0|0,2:0|3:0,0:0:0:0:
32,293,177362,5,0,1:0:0:0:
140,360,177479,1,0,1:0:0:0:
45,307,177596,2,0,L|54:207,1,90,2|0,3:2|2:0,0:0:0:0:
198,51,177830,2,0,B|213:64|213:64|26:39|26:39|43:55,1,225,10|2,1:2|1:2,0:0:0:0:
455,180,178299,6,0,B|429:216|429:216|381:220,1,90,2|0,1:0|2:0,0:0:0:0:
391,60,178533,2,0,B|436:65|436:65|463:105,1,90,2|0,3:2|2:0,0:0:0:0:
318,175,178768,2,0,B|300:135|300:135|321:91,1,90,10|0,1:2|2:0,0:0:0:0:
387,136,179002,2,0,L|241:133,1,135.000005149842,2|0,1:2|2:0,0:0:0:0:
126,77,179237,6,0,P|72:112|102:183,1,125.999996154785,4|0,1:0|2:0,0:0:0:0:
185,275,179471,6,0,P|153:252|97:262,1,90,0|0,3:0|2:0,0:0:0:0:
263,331,179705,2,0,B|266:252|266:252|262:244|262:244|268:143,1,180,8|0,1:0|1:0,0:0:0:0:
370,279,180057,1,0,2:0:0:0:
424,225,180174,2,0,P|387:200|338:207,1,90,0|0,0:0|2:0,0:0:0:0:
491,274,180408,1,0,2:0:0:0:
491,274,180526,2,0,L|500:183,1,90,0|8,3:0|1:0,0:0:0:0:
510,95,180760,1,0,0:0:0:0:
436,43,180877,1,0,0:0:0:0:
347,55,180994,1,0,0:0:0:0:
295,126,181112,6,0,P|239:111|238:39,1,125.999996154785,0|0,0:0|2:0,0:0:0:0:
300,210,181346,6,0,P|347:206|371:163,1,90,0|0,3:2|2:1,0:0:0:0:
429,109,181580,2,0,P|464:95|445:179,1,180,8|0,1:0|1:2,0:0:0:0:
216,206,181932,1,0,2:0:0:0:
214,287,182049,2,0,B|113:276|171:211|64:200,1,180,0|0,0:0|2:2,0:0:0:0:
27,359,182401,2,0,P|55:330|70:278,1,90,0|8,3:1|1:0,0:0:0:0:
66,200,182635,1,0,0:0:0:0:
18,123,182752,1,0,0:0:0:0:
81,59,182869,1,0,0:0:0:0:
163,96,182987,6,0,P|173:127|165:224,2,120,2|2|0,0:0|3:0|3:0,0:0:0:0:
259,38,183455,2,0,L|384:49,1,120,10|0,1:2|2:0,0:0:0:0:
364,66,183690,2,0,L|265:55,1,90,2|0,2:0|3:0,0:0:0:0:
506,162,183924,6,0,P|496:131|504:34,2,120,2|0|0,0:0|3:0|3:0,0:0:0:0:
410,220,184393,2,0,L|285:209,1,120,10|0,1:2|2:0,0:0:0:0:
305,192,184627,2,0,L|404:203,1,90,0|0,2:0|3:0,0:0:0:0:
486,279,184862,5,0,0:0:0:0:
402,311,184979,1,0,0:0:0:0:
335,371,185096,1,0,0:2:0:0:
278,301,185213,1,0,0:1:0:0:
205,247,185330,6,0,B|187:271|187:297|187:297|169:269|141:264,1,112.5,8|0,1:0|2:0,0:0:0:0:
111,185,185565,2,0,B|136:169|137:127|137:127|163:162|197:166,1,135.000005149842,0|0,1:0|0:0,0:0:0:0:
426,109,185799,6,0,B|431:81|466:56|466:56|308:80|308:80|289:96|264:106|264:106|297:92|322:97,1,315.000003004074,2|2,1:0|2:0,0:0:0:0:
507,132,186151,1,0,1:1:0:0:
490,243,186268,2,0,L|508:118,1,112.5,0|0,1:0|2:0,0:0:0:0:
430,346,186502,2,0,B|420:291|420:291|415:289|415:289|401:204,1,135.000005149842,2|0,1:2|2:0,0:0:0:0:
241,345,186737,6,0,P|294:369|360:324,1,125.999996154785,4|0,0:0|2:0,0:0:0:0:
234,214,186971,6,0,P|227:245|174:278,1,90,0|0,0:2|1:1,0:0:0:0:
108,374,187205,2,0,B|106:303|106:303|102:287|102:287|102:194,1,180,8|0,1:0|1:0,0:0:0:0:
0,49,187557,1,0,2:0:0:0:
42,118,187674,2,0,L|145:105,1,90,0|0,0:0|2:0,0:0:0:0:
197,45,187908,1,0,2:0:0:0:
197,45,188026,2,0,L|299:68,1,90,0|8,3:1|1:0,0:0:0:0:
333,140,188260,1,0,0:0:0:0:
412,98,188377,1,0,0:0:0:0:
369,18,188494,1,0,0:0:0:0:
329,156,188612,6,0,B|322:189|322:189|289:227|313:306|403:287|405:220|405:220|419:195,1,251.999992309571,0|0,1:0|0:0,0:0:0:0:
228,237,188963,1,0,1:1:0:0:
241,155,189080,2,0,P|189:160|156:194,1,90,8|0,1:0|2:0,0:0:0:0:
77,160,189315,2,0,P|57:198|66:257,1,90,0|0,0:0|2:0,0:0:0:0:
2,326,189549,2,0,B|44:315|84:361|84:361|98:306|149:298,1,180,0|0,0:0|2:0,0:0:0:0:
59,243,189901,2,0,P|38:204|-3:169,1,90,0|8,3:1|1:0,0:0:0:0:
21,85,190135,1,0,0:0:0:0:
100,43,190252,1,0,0:0:0:0:
169,100,190369,1,0,0:0:0:0:
151,183,190487,6,0,P|198:179|240:145,1,90,0|0,0:0|2:0,0:0:0:0:
389,56,190721,1,2,0:0:0:0:
403,144,190838,2,0,P|371:144|321:21,1,180,0|0,3:1|2:0,0:0:0:0:
506,98,191190,2,0,P|488:144|480:191,1,90,0|0,1:0|3:0,0:0:0:0:
510,322,191424,2,0,B|418:332|460:272|314:279,2,180,0|2|8,0:0|0:0|1:2,0:0:0:0:
256,270,192127,2,0,B|250:286|226:302|226:302|249:302|277:329,1,90,0|0,1:0|2:0,0:0:0:0:
339,278,192362,6,0,B|200:275|240:371|117:337,1,225,0|2,0:0|0:2,0:0:0:0:
2,212,192713,1,0,0:1:0:0:
48,145,192830,6,0,P|76:175|79:240,1,90,10|0,1:2|2:0,0:0:0:0:
197,56,193065,2,0,P|177:91|116:114,1,90,2|0,1:2|2:0,0:0:0:0:
339,163,193299,2,0,P|298:155|258:104,1,90,2|0,0:2|2:0,0:0:0:0:
269,320,193533,2,0,P|263:279|299:224,1,90,2|0,3:2|2:1,0:0:0:0:
91,312,193768,6,0,P|128:294|190:311,1,90,10|0,1:2|0:0,0:0:0:0:
468,343,194237,6,0,P|432:348|389:274,1,125.999996154785,4|0,0:0|2:0,0:0:0:0:
479,110,194471,6,0,P|471:158|433:189,1,90,0|0,0:0|1:1,0:0:0:0:
257,78,194705,2,0,B|298:91|339:54|339:54|355:109|409:118,1,180,8|0,1:0|0:0,0:0:0:0:
309,161,195057,1,0,2:0:0:0:
192,132,195174,2,0,P|173:90|185:29,1,90,0|0,0:0|2:0,0:0:0:0:
235,212,195408,1,0,2:0:0:0:
235,212,195526,2,0,L|127:204,1,90,0|8,3:1|1:0,0:0:0:0:
81,142,195760,1,0,0:0:0:0:
31,217,195877,1,0,0:0:0:0:
96,278,195994,1,0,0:0:0:0:
165,327,196112,6,0,P|111:361|33:328,1,125.999996154785,0|0,0:0|2:0,0:0:0:0:
228,238,196346,6,0,P|237:284|277:314,1,90,0|0,3:0|2:2,0:0:0:0:
408,295,196580,2,0,P|415:247|308:262,1,180,8|0,1:0|0:0,0:0:0:0:
485,117,196932,1,0,2:0:0:0:
503,36,197049,2,0,B|396:30|447:108|317:92,1,180,0|0,0:0|3:0,0:0:0:0:
130,14,197401,2,0,P|145:67|149:117,1,90,0|8,3:1|1:0,0:0:0:0:
136,190,197635,1,0,0:0:0:0:
218,155,197752,1,0,0:0:0:0:
305,173,197869,1,0,0:0:0:0:
394,160,197987,6,0,P|377:225|374:279,2,120,2|0|0,0:0|3:0|3:0,0:0:0:0:
299,325,198455,2,0,L|172:307,1,120,10|0,1:2|2:0,0:0:0:0:
194,324,198690,2,0,L|283:336,1,90,0|0,2:0|3:0,0:0:0:0:
118,224,198924,6,0,P|135:159|138:105,2,120,2|0|0,0:0|3:0|3:0,0:0:0:0:
213,59,199392,2,0,L|340:77,1,120,10|0,1:2|2:0,0:0:0:0:
318,60,199627,2,0,L|228:47,1,90,0|0,2:0|3:0,0:0:0:0:
235,205,199862,5,2,0:0:0:0:
243,170,199979,1,0,0:0:0:0:
278,178,200096,1,0,0:0:0:0:
270,213,200213,1,0,0:1:0:0:
233,286,200330,6,0,P|226:312|221:355,1,67.5000025749208,10|0,1:2|2:0,0:0:0:0:
350,215,200565,2,0,P|376:222|419:227,1,67.5000025749208,0|0,1:0|2:0,0:0:0:0:
279,98,200799,2,0,P|286:72|291:29,1,67.5000025749208
162,169,201034,2,0,P|136:162|93:157,1,67.5000025749208,2|0,0:0|0:1,0:0:0:0:
270,213,201268,6,0,B|278:178|278:178|243:170|243:170|234:213,1,107.999996704102,8|0,1:2|0:0,0:0:0:0:
371,331,201737,6,0,L|416:326,2,31.4999990386963,0|0|0,1:0|3:0|3:0,0:0:0:0:
284,356,202088,2,0,P|243:354|219:345,1,62.9999980773926,0|2,3:0|3:2,0:0:0:0:
87,235,202557,1,0,0:0:0:0:
72,318,202733,1,0,0:0:0:0:
72,318,202850,2,0,L|122:313,1,47.2499985580445,0|0,2:0|3:0,0:0:0:0:
66,94,203260,2,0,L|75:161,1,62.9999980773926,2|0,3:2|0:0,0:0:0:0:
149,99,203612,6,0,L|152:131,2,31.4999990386963,0|0|0,1:0|0:0|3:0,0:0:0:0:
234,65,203963,2,0,P|272:62|306:72,1,62.9999980773926,0|2,0:0|0:0,0:0:0:0:
374,109,204315,1,0,0:0:0:0:
405,105,204432,1,0,0:0:0:0:
389,77,204549,5,2,1:1:0:0:
491,182,204817,2,0,L|492:155,3,17.9999994506836,0|0|0|0,1:0|1:0|1:0|1:0,0:0:0:0:
487,296,205252,5,2,1:0:0:0:
396,329,205487,5,2,1:2:0:0:
315,316,205721,5,0,0:0:0:0:
287,300,205955,5,0,0:0:0:0:
278,285,206190,5,0,0:0:0:0:
275,274,206424,5,0,0:0:0:0:
