osu file format v14

[General]
AudioFilename: audio.mp3
AudioLeadIn: 0
PreviewTime: 72362
Countdown: 0
SampleSet: Soft
StackLeniency: 0.3
Mode: 0
LetterboxInBreaks: 0
WidescreenStoryboard: 1

[Editor]
Bookmarks: 38601
DistanceSpacing: 0.3
BeatDivisor: 4
GridSize: 32
TimelineZoom: 2.999999

[Metadata]
Title:Odo
TitleUnicode:踊
Artist:Ado
ArtistUnicode:Ado
Creator:Beren
Version:Kyutei's Insane
Source:
Tags:lobelia Anya_Melfissa Anya Melfissa Kyutei DECO*27 Giga TeddyLoid かゆか 藍瀬 まなみ ORIHARA dance japanese rap pop
BeatmapID:3031685
BeatmapSetID:1450065

[Difficulty]
HPDrainRate:5
CircleSize:5
OverallDifficulty:7
ApproachRate:9
SliderMultiplier:1.6
SliderTickRate:1

[Events]
//Background and Video events
0,0,"bg.jpg",0,0
Video,-650,"mv.mp4"
//Break Periods
//Storyboard Layer 0 (Background)
//Storyboard Layer 1 (Fail)
//Storyboard Layer 2 (Pass)
//Storyboard Layer 3 (Foreground)
//Storyboard Layer 4 (Overlay)
//Storyboard Sound Samples

[TimingPoints]
-763,468.75,4,2,1,60,1,0
1112,-333.333333333333,4,2,1,60,0,0
1462,-333.333333333333,4,2,1,5,0,0
1580,-71.4285714285714,4,2,1,60,0,0
2752,-125,4,2,1,60,0,0
2987,-62.5,4,2,1,60,0,0
3221,-125,4,2,1,60,0,0
3455,-76.9230769230769,4,2,1,60,0,0
4862,-333.333333333333,4,2,1,60,0,0
5212,-333.333333333333,4,2,1,5,0,0
5330,-71.4285714285714,4,2,1,60,0,0
6268,-100,4,2,1,60,0,0
7674,-55.5555555555556,4,2,1,60,0,0
7908,-62.5,4,2,1,60,0,0
8611,-62.5,4,2,1,80,0,0
9080,-250,4,2,1,80,0,0
9549,-50,4,2,1,80,0,0
10018,-250,4,2,1,80,0,0
10487,-41.6666666666667,4,2,1,80,0,0
10955,-250,4,2,1,80,0,0
11424,-35.7142857142857,4,2,1,80,0,0
11893,-125,4,2,1,80,0,0
12127,-250,4,2,1,80,0,0
12362,-333.333333333333,4,2,1,80,0,0
12830,-55.5555555555556,4,2,1,80,0,0
13533,-71.4285714285714,4,2,1,80,0,0
14002,-125,4,2,1,80,0,0
16112,-66.6666666666667,4,2,1,80,0,0
16228,-66.6666666666667,4,2,1,5,0,0
16345,-66.6666666666667,4,2,1,80,0,0
16696,-66.6666666666667,4,2,1,5,0,0
16814,-66.6666666666667,4,2,1,80,0,0
17165,-66.6666666666667,4,2,1,5,0,0
17282,-66.6666666666667,4,2,1,80,0,0
17634,-66.6666666666667,4,2,1,5,0,0
17751,-66.6666666666667,4,2,1,80,0,0
17987,-250,4,2,1,80,0,0
18103,-250,4,2,1,5,0,0
18221,-500,4,2,1,80,0,0
18337,-500,4,2,1,5,0,0
18455,-333.333333333333,4,2,1,80,0,0
19862,-58.8235294117647,4,2,1,60,0,0
20329,-58.8235294117647,4,2,0,60,0,0
20564,-58.8235294117647,4,2,1,60,0,0
20799,-83.3333333333333,4,2,1,60,0,0
21268,-66.6666666666667,4,2,1,60,0,0
22204,-66.6666666666667,4,2,0,60,0,0
22439,-50,4,2,1,60,0,0
23612,-125,4,2,1,60,0,0
24079,-125,4,2,0,60,0,0
24314,-125,4,2,1,60,0,0
24549,-83.3333333333333,4,2,1,60,0,0
25018,-111.111111111111,4,2,1,60,0,0
25487,-125,4,2,1,60,0,0
25954,-125,4,2,0,60,0,0
26189,-125,4,2,1,60,0,0
26424,-83.3333333333333,4,2,1,60,0,0
26893,-111.111111111111,4,2,1,60,0,0
27362,-83.3333333333333,4,2,1,60,0,0
27829,-83.3333333333333,4,2,0,60,0,0
28064,-83.3333333333333,4,2,1,60,0,0
28768,-111.111111111111,4,2,0,60,0,0
28885,-111.111111111111,4,2,1,60,0,0
29237,-90.9090909090908,4,2,1,60,0,0
29704,-90.9090909090908,4,2,0,60,0,0
29939,-90.9090909090908,4,2,1,60,0,0
30174,-83.3333333333333,4,2,1,60,0,0
30643,-111.111111111111,4,2,0,60,0,0
30877,-111.111111111111,4,2,1,60,0,0
31580,-83.3333333333333,4,2,0,60,0,0
31814,-83.3333333333333,4,2,1,60,0,0
32049,-111.111111111111,4,2,1,60,0,0
32518,-166.666666666666,4,2,0,60,0,0
32752,-166.666666666666,4,2,1,60,0,0
32987,-83.3333333333332,4,2,1,60,0,0
34393,-62.5,4,2,1,60,0,0
34862,-66.6666666666667,4,2,1,60,0,0
35330,-90.9090909090909,4,2,1,60,0,0
35799,-76.9230769230769,4,2,1,60,0,0
36737,-62.5,4,2,1,60,0,0
37205,-66.6666666666667,4,2,1,60,0,0
37674,-41.6666666666667,4,2,1,60,0,0
38143,-76.9230769230769,4,2,1,60,0,0
40018,-100,4,2,1,60,0,0
42830,-166.666666666667,4,2,1,60,0,0
43299,-83.3333333333334,4,2,1,60,0,0
43768,-166.666666666667,4,2,1,60,0,0
44237,-71.4285714285714,4,2,1,60,0,0
45174,-50,4,2,1,60,0,0
45643,-100,4,2,1,60,0,0
47987,-133.333333333333,4,2,1,60,0,0
48455,-58.8235294117647,4,2,1,60,0,0
48924,-100,4,2,1,60,0,0
49393,-166.666666666667,4,2,1,60,0,0
49862,-500.000000000003,4,2,1,60,0,0
50330,-83.3333333333333,4,2,1,60,0,0
51502,-125,4,2,1,60,0,0
51737,-50,4,2,1,60,0,0
51971,-125,4,2,1,60,0,0
52205,-76.9230769230769,4,2,1,60,0,0
53612,-500.000000000003,4,2,1,60,0,0
54080,-83.3333333333333,4,2,1,60,0,0
55018,-125,4,2,1,60,0,0
56424,-55.5555555555556,4,2,1,60,0,0
56658,-62.5,4,2,1,60,0,0
57830,-76.9230769230769,4,2,1,60,0,0
58299,-55.5555555555556,4,2,1,60,0,0
58768,-71.4285714285714,4,2,1,60,0,0
59237,-50,4,2,1,60,0,0
59705,-66.6666666666667,4,2,1,60,0,0
60174,-45.4545454545455,4,2,1,60,0,0
60643,-125,4,2,1,60,0,0
60877,-250,4,2,1,60,0,0
61112,-333.333333333333,4,2,1,60,0,0
61580,-55.5555555555556,4,2,1,60,0,0
62283,-71.4285714285714,4,2,1,60,0,0
62752,-125,4,2,1,60,0,0
64862,-66.6666666666667,4,2,1,40,0,0
65212,-66.6666666666667,4,2,1,5,0,0
65330,-83.3333333333333,4,2,1,45,0,0
65681,-83.3333333333333,4,2,1,5,0,0
65799,-111.111111111111,4,2,1,50,0,0
66150,-111.111111111111,4,2,1,5,0,0
66268,-166.666666666667,4,2,1,55,0,0
66618,-166.666666666667,4,2,1,5,0,0
66737,-250,4,2,1,60,0,0
67087,-250,4,2,1,5,0,0
67205,-71.4285714285714,4,2,1,65,0,0
67556,-71.4285714285714,4,2,1,5,0,0
67674,-62.5,4,2,1,70,0,0
68025,-62.5,4,2,1,5,0,0
68143,-250,4,2,1,75,0,0
68493,-250,4,2,1,5,0,0
68612,-100,4,2,1,80,0,0
69080,-71.4285714285714,4,2,1,80,0,0
69549,-55.5555555555556,4,2,1,80,0,0
70018,-50,4,2,1,80,0,0
70252,-100,4,2,1,80,0,0
70487,-62.5,4,2,1,80,0,0
71307,-100,4,2,1,80,0,0
71424,-62.5,4,2,1,80,0,0
71893,-45.4545454545455,4,2,1,80,0,0
72127,-55.5555555555556,4,2,1,80,0,0
72362,-58.8235294117647,4,1,0,80,0,0
72596,-66.6666666666667,4,1,0,80,0,0
72830,-40,4,1,0,80,0,0
73299,-37.037037037037,4,1,0,80,0,0
73768,-40,4,1,0,80,0,0
74471,-100,4,1,0,80,0,0
75174,-37.037037037037,4,1,0,80,0,0
75643,-33.3333333333333,4,1,0,80,0,0
76112,-66.6666666666667,4,1,0,80,0,0
76580,-50,4,1,0,80,0,0
77049,-100,4,1,0,80,0,0
77518,-66.6666666666667,4,1,0,80,0,0
77987,-200,4,1,0,80,0,0
78455,-40,4,1,0,80,0,0
78924,-66.6666666666667,4,2,1,80,0,0
79392,-66.6666666666667,4,1,0,80,0,0
80096,-66.6666666666667,4,1,0,80,0,0
80330,-40,4,1,0,80,0,0
80799,-37.037037037037,4,1,0,80,0,0
81268,-40,4,1,0,80,0,0
81971,-100,4,1,0,80,0,0
82674,-37.037037037037,4,1,0,80,0,0
83612,-83.3333333333333,4,1,0,80,0,0
84080,-43.4782608695652,4,1,0,80,0,0
84549,-83.3333333333333,4,1,0,80,0,0
85018,-43.4782608695652,4,1,0,80,0,0
85487,-333.333333333333,4,1,0,80,0,0
85955,-125,4,1,0,80,0,0
87830,-83.3333333333333,4,2,1,80,0,0
91112,-55.5555555555556,4,2,1,80,0,0
92049,-200,4,2,1,80,0,0
92283,-100,4,2,1,80,0,0
92518,-66.6666666666667,4,2,1,80,0,0
92752,-50,4,2,1,80,0,0
92987,-55.5555555555556,4,2,1,80,0,0
93924,-200,4,2,1,80,0,0
94158,-100,4,2,1,80,0,0
94393,-66.6666666666667,4,2,1,80,0,0
94627,-50,4,2,1,80,0,0
94862,-250.000000000001,4,2,1,80,0,0
95330,-100,4,2,1,80,0,0
95799,-250,4,2,1,80,0,0
96033,-62.5,4,2,1,80,0,0
96385,-45.4545454545455,4,2,1,80,0,0
96737,-55.5555555555556,4,2,1,80,0,0
97205,-100,4,2,1,80,0,0
97674,-250,4,2,1,80,0,0
97908,-62.5,4,2,1,80,0,0
98260,-45.4545454545455,4,2,1,80,0,0
98612,-55.5555555555556,4,2,1,80,0,0
99549,-200,4,2,1,80,0,0
99783,-100,4,2,1,80,0,0
100018,-66.6666666666667,4,2,1,80,0,0
100252,-50,4,2,1,80,0,0
100487,-55.5555555555556,4,2,1,80,0,0
101424,-200,4,2,1,80,0,0
101658,-100,4,2,1,80,0,0
101893,-66.6666666666667,4,2,1,80,0,0
102244,-66.6666666666667,4,2,1,5,0,0
102362,-66.6666666666667,4,2,1,60,0,0
103768,-133.333333333333,4,2,1,60,0,0
104237,-83.3333333333333,4,2,1,60,0,0
104705,-142.857142857143,4,2,0,60,0,0
104940,-142.857142857143,4,2,1,60,0,0
105174,-83.3333333333334,4,2,1,60,0,0
105643,-142.857142857143,4,2,1,60,0,0
106112,-66.6666666666667,4,2,1,60,0,0
106580,-250.000000000001,4,2,0,60,0,0
106815,-250.000000000001,4,2,1,60,0,0
107049,-100,4,2,1,60,0,0
107987,-83.3333333333333,4,2,1,60,0,0
108455,-142.857142857143,4,2,0,60,0,0
108690,-142.857142857143,4,2,1,60,0,0
108924,-83.3333333333334,4,2,1,60,0,0
109393,-142.857142857143,4,2,1,60,0,0
109862,-66.6666666666667,4,2,1,60,0,0
110330,-250.000000000001,4,2,0,60,0,0
110447,-250.000000000001,4,2,1,60,0,0
110916,-250.000000000001,4,2,1,80,0,0
111268,-125,4,2,1,80,0,0
111502,-71.4285714285715,4,2,1,80,0,0
111737,-55.5555555555556,4,2,1,60,0,0
112205,-55.5555555555556,4,2,0,60,0,0
112322,-55.5555555555556,4,2,1,60,0,0
112440,-125,4,2,1,60,0,0
112908,-76.923076923077,4,2,1,60,0,0
113143,-55.5555555555556,4,2,1,60,0,0
113612,-55.5555555555556,4,2,1,60,0,0
114080,-55.5555555555556,4,2,0,60,0,0
114197,-55.5555555555556,4,2,1,60,0,0
114315,-125,4,2,1,60,0,0
115487,-66.6666666666667,4,2,1,60,0,0
115955,-125,4,2,0,60,0,0
116072,-125,4,2,1,60,0,0
117362,-250,4,2,1,60,0,0
117596,-55.5555555555556,4,2,1,60,0,0
117830,-55.5555555555556,4,2,0,60,0,0
117947,-55.5555555555556,4,2,1,60,0,0
118299,-71.4285714285714,4,2,1,60,0,0
118768,-50,4,2,1,60,0,0
119002,-333.333333333333,4,2,1,60,0,0
119705,-333.333333333333,4,2,0,60,0,0
119940,-333.333333333333,4,2,1,60,0,0
120174,-250,4,2,1,60,0,0
120643,-35.7142857142857,4,2,1,60,0,0
121346,-333.333333333333,4,2,0,60,0,0
121815,-333.333333333333,4,2,1,60,0,0
122049,-250,4,2,1,60,0,0
122518,-35.7142857142857,4,2,1,60,0,0
123221,-333.333333333333,4,2,0,60,0,0
123690,-333.333333333333,4,2,1,60,0,0
123924,-250,4,2,1,60,0,0
124393,-35.7142857142857,4,2,1,60,0,0
125096,-166.666666666667,4,2,1,60,0,0
125330,-166.666666666667,4,2,0,60,0,0
125447,-166.666666666667,4,2,1,60,0,0
125799,-55.5555555555556,4,2,1,60,0,0
126268,-83.3333333333333,4,2,1,60,0,0
127205,-83.3333333333333,4,2,0,60,0,0
127440,-83.3333333333333,4,2,1,60,0,0
129079,-83.3333333333333,4,2,0,60,0,0
129197,-83.3333333333333,4,2,1,60,0,0
130955,-83.3333333333333,4,2,0,60,0,0
131190,-83.3333333333333,4,2,1,60,0,0
131893,-166.666666666667,4,2,1,60,0,0
132830,-166.666666666667,4,2,0,60,0,0
133065,-166.666666666667,4,2,1,60,0,0
133299,-71.4285714285714,4,2,1,60,0,0
134237,-66.6666666666667,4,2,1,80,0,0
134705,-83.3333333333333,4,2,1,80,0,0
135408,-125,4,2,1,80,0,0
135877,-166.666666666667,4,2,1,80,0,0
136112,-71.4285714285714,4,2,1,80,0,0
139861,-71.4285714285714,4,2,1,75,0,0
140096,-71.4285714285714,4,2,1,5,0,0
140212,-71.4285714285714,4,2,1,70,0,0
140447,-71.4285714285714,4,2,1,5,0,0
140564,-71.4285714285714,4,2,1,65,0,0
140799,-71.4285714285714,4,2,1,5,0,0
140915,-71.4285714285714,4,2,1,60,0,0
141151,-71.4285714285714,4,2,1,5,0,0
141268,-71.4285714285714,4,2,1,80,0,0
141737,-71.4285714285714,4,2,1,80,0,0
143612,-142.857142857143,4,2,1,80,0,0
144080,-71.4285714285714,4,2,1,80,0,0
144315,-142.857142857143,4,2,1,80,0,0
145018,-55.5555555555556,4,2,1,80,0,0
145252,-100,4,2,1,80,0,0
145487,-55.5555555555556,4,2,1,80,0,0
146424,-200,4,2,1,80,0,0
146658,-100,4,2,1,80,0,0
146893,-66.6666666666667,4,2,1,80,0,0
147127,-50,4,2,1,80,0,0
147362,-55.5555555555556,4,2,1,80,0,0
148299,-200,4,2,1,80,0,0
148533,-100,4,2,1,80,0,0
148768,-66.6666666666667,4,2,1,80,0,0
149237,-40,4,2,1,80,0,0
149705,-71.4285714285714,4,2,1,80,0,0
150408,-40,4,2,1,80,0,0
150643,-31.25,4,2,1,80,0,0
151112,-71.4285714285714,4,2,1,80,0,0
152283,-40,4,2,1,80,0,0
152518,-31.25,4,2,1,80,0,0
152987,-55.5555555555556,4,2,1,80,0,0
153924,-200,4,2,1,80,0,0
154158,-100,4,2,1,80,0,0
154393,-66.6666666666667,4,2,1,80,0,0
154627,-50,4,2,1,80,0,0
154862,-83.3333333333333,4,2,1,80,0,0
155799,-333.333333333333,4,2,1,80,0,0
156033,-125,4,2,1,80,0,0
156268,-50,4,2,1,80,0,0
156737,-83.3333333333333,4,2,1,60,0,0
157205,-83.3333333333333,4,2,0,60,0,0
157440,-83.3333333333333,4,2,1,60,0,0
157791,-66.6666666666667,4,2,1,60,0,0
158143,-100,4,2,1,60,0,0
158612,-83.3333333333333,4,2,1,60,0,0
159080,-83.3333333333333,4,2,0,60,0,0
159315,-83.3333333333333,4,2,1,60,0,0
159666,-66.6666666666667,4,2,1,60,0,0
160018,-100,4,2,1,60,0,0
160487,-83.3333333333333,4,2,1,60,0,0
160955,-83.3333333333333,4,2,0,60,0,0
161190,-83.3333333333333,4,2,1,60,0,0
161541,-66.6666666666667,4,2,1,60,0,0
161893,-100,4,2,1,60,0,0
162362,-83.3333333333333,4,2,1,60,0,0
162713,-55.5555555555556,4,2,1,60,0,0
163182,-55.5555555555556,4,2,1,5,0,0
163299,-55.5555555555556,4,2,1,60,0,0
167987,-125,4,2,1,60,0,0
168924,-76.9230769230769,4,2,1,60,0,0
169978,-76.9230769230769,4,2,1,80,0,0
171737,-111.111111111111,4,2,1,80,0,0
172674,-111.111111111111,4,2,1,5,0,0
172908,-111.111111111111,4,2,1,80,0,0
173377,-111.111111111111,4,2,1,5,0,0
173612,-111.111111111111,4,2,1,80,0,0
173846,-111.111111111111,4,2,1,5,0,0
174079,-111.111111111111,4,2,1,80,0,0
174197,-111.111111111111,4,2,1,5,0,0
174315,-111.111111111111,4,2,1,80,0,0
174432,-111.111111111111,4,2,1,5,0,0
174549,-83.3333333333333,4,2,1,80,0,0
175487,-55.5555555555556,4,1,0,80,0,0
175955,-43.4782608695652,4,1,0,80,0,0
176424,-55.5555555555556,4,1,0,80,0,0
176893,-43.4782608695652,4,1,0,80,0,0
177362,-200,4,1,0,80,0,0
177830,-50,4,1,0,80,0,0
178299,-66.6666666666667,4,1,0,80,0,0
179471,-66.6666666666667,4,1,0,80,0,0
179705,-40,4,1,0,80,0,0
180174,-37.037037037037,4,1,0,80,0,0
180643,-40,4,1,0,80,0,0
181346,-100,4,1,0,80,0,0
182049,-37.037037037037,4,1,0,80,0,0
182987,-83.3333333333333,4,1,0,80,0,0
183455,-43.4782608695652,4,1,0,80,0,0
183924,-83.3333333333333,4,1,0,80,0,0
184393,-43.4782608695652,4,1,0,80,0,0
184862,-333.333333333333,4,1,0,80,0,0
185330,-83.3333333333333,4,1,0,80,0,0
185799,-50,4,1,0,80,0,0
186268,-31.25,4,1,0,80,0,0
186971,-66.6666666666667,4,1,0,80,0,0
187205,-40,4,1,0,80,0,0
187674,-37.037037037037,4,1,0,80,0,0
188143,-40,4,1,0,80,0,0
188846,-100,4,1,0,80,0,0
189549,-31.25,4,1,0,80,0,0
190017,-37.037037037037,4,1,0,80,0,0
190487,-83.3333333333333,4,1,0,80,0,0
190838,-43.4782608695652,4,1,0,80,0,0
191190,-66.6666666666667,4,1,0,80,0,0
191424,-83.3333333333334,4,1,0,80,0,0
191893,-166.666666666667,4,1,0,80,0,0
192362,-41.6666666666667,4,1,0,80,0,0
192830,-50,4,1,0,80,0,0
193299,-100,4,1,0,80,0,0
193767,-100,4,2,0,80,0,0
194236,-100,4,1,0,80,0,0
194471,-66.6666666666667,4,1,0,80,0,0
194705,-40,4,1,0,80,0,0
195174,-37.037037037037,4,1,0,80,0,0
195643,-40,4,1,0,80,0,0
196346,-100,4,1,0,80,0,0
197049,-37.037037037037,4,1,0,80,0,0
197987,-83.3333333333333,4,1,0,80,0,0
198455,-43.4782608695652,4,1,0,80,0,0
198924,-83.3333333333333,4,1,0,80,0,0
199393,-55.5555555555556,4,1,0,80,0,0
199862,-100,4,1,0,80,0,0
201033,-66.6666666666667,4,1,0,80,0,0
201268,-58.8235294117647,4,1,0,80,0,0
201737,-200,4,2,1,80,0,0
202322,-333.333333333333,4,2,1,80,0,0
202557,-200,4,2,1,80,0,0
204783,-200,4,2,1,60,0,0
205487,-200,4,2,1,40,0,0

[Colours]
Combo1 : 90,194,224
Combo2 : 82,73,182
Combo3 : 249,45,121
Combo4 : 228,211,58

[HitObjects]
59,252,1112,6,0,L|93:263,1,35.9999989013672,6|0,1:0|0:0,0:0:0:0:
68,348,1580,6,0,B|31:315|64:268|64:268|94:254|94:254|136:202|88:162,1,223.999993164063,10|0,3:1|0:0,0:0:0:0:
43,102,2283,6,0,B|6:91|6:91|36:108,1,55.9999982910157,2|0,0:3|0:0,0:0:0:0:
95,53,2518,1,8,3:1:0:0:
178,148,2752,6,0,L|228:126,1,32,2|0,0:0|0:0,0:0:0:0:
216,132,2987,2,0,B|240:142|240:142|246:153|246:153|280:167,1,64,8|0,3:1|0:0,0:0:0:0:
303,64,3221,6,0,L|353:86,1,32,2|0,0:0|0:0,0:0:0:0:
342,82,3455,2,0,B|377:66|377:66|386:50|386:50|434:30,1,103.999995239258,8|4,3:1|1:3,0:0:0:0:
479,80,3924,5,0,3:0:0:0:
441,155,4158,1,4,1:3:0:0:
502,272,4393,5,8,0:0:0:0:
450,168,4627,1,4,1:3:0:0:
342,289,4862,6,0,B|375:301,1,35.9999989013672,6|0,1:0|0:0,0:0:0:0:
435,235,5330,6,0,B|366:257|366:257|349:324|349:324|273:355,1,223.999993164063,10|0,3:1|0:0,0:0:0:0:
109,235,6033,6,0,B|120:198|120:198|103:227,1,55.9999982910157,4|0,0:3|0:0,0:0:0:0:
54,279,6268,2,0,P|65:322|74:364,1,80,8|0,3:1|0:0,0:0:0:0:
154,304,6737,5,2,1:2:0:0:
276,257,6971,1,0,3:2:0:0:
181,172,7205,1,8,1:1:0:0:
200,241,7440,5,0,3:0:0:0:
314,142,7674,6,0,B|342:152|342:152|348:161|348:161|378:174,1,71.9999978027344,2|0,1:2|0:0,0:0:0:0:
493,151,7908,6,0,B|468:250|373:209|373:209|389:198|378:180,1,192,2|0,1:2|0:0,0:0:0:0:
422,128,8377,1,2,0:2:0:0:
296,25,8612,6,0,B|249:40|249:40|234:61|234:61|177:85,1,128,8|0,0:3|0:0,0:0:0:0:
129,35,9080,2,0,L|107:27,2,16,8|0|2,0:0|0:0|0:0,0:0:0:0:
32,175,9549,6,0,B|37:239|148:270|134:168|88:213,1,160,8|0,0:3|0:0,0:0:0:0:
165,163,10018,2,0,L|187:155,2,16,8|0|2,0:0|0:0|0:0,0:0:0:0:
295,228,10487,6,0,B|304:231|304:231|333:245|317:287|279:269|279:269|220:242|220:242|214:240|165:254|203:284|213:241,1,191.999994140625,8|0,0:3|0:0,0:0:0:0:
145,313,10955,2,0,L|150:330,2,16,8|0|2,0:0|0:0|0:0,0:0:0:0:
68,352,11424,6,0,P|176:355|294:389,1,223.999993164063,8|0,0:3|0:0,0:0:0:0:
393,309,11893,6,0,L|382:271,1,32,8|0,0:0|0:3,0:3:0:0:
413,207,12127,2,0,L|417:222,1,16,2|0,0:2|0:0,0:0:0:0:
426,63,12362,6,0,L|460:49,1,35.9999989013672,10|0,1:2|0:0,0:0:0:0:
512,112,12830,6,0,B|470:100|440:142|440:142|478:62|417:10|417:10|434:26|386:56|442:60|435:85,1,287.999991210938,8|8,0:0|0:0,0:0:0:0:
356,112,13533,6,0,B|319:101|319:101|349:118,1,55.9999982910157,4|0,0:3|0:0,0:0:0:0:
420,70,13768,1,8,0:0:0:0:
294,166,14002,6,0,L|265:177,1,32,4|0,0:3|0:0,0:0:0:0:
85,240,14237,5,12,0:0:0:0:
188,266,14471,1,8,0:2:0:0:
60,343,14705,1,8,0:0:0:0:
162,368,14940,1,4,1:3:0:0:
264,334,15174,5,8,0:0:0:0:
261,327,15408,1,8,1:2:0:0:
298,244,15643,5,8,0:0:0:0:
295,237,15877,1,4,1:3:0:0:
474,102,16112,6,0,B|396:105|393:178|393:178|407:154|447:161,1,180.000006866455,8|0,0:2|0:0,0:0:0:0:
400,97,16580,6,0,B|363:166|425:205|425:205|411:181|437:149,1,180.000006866455,8|0,0:2|0:0,0:0:0:0:
362,159,17049,6,0,B|403:225|468:191|468:191|440:191|426:152,1,180.000006866455,8|0,0:2|0:0,0:0:0:0:
397,225,17518,6,0,B|475:221|477:148|477:148|463:172|424:166,1,180.000006866455,8|0,0:2|0:0,0:0:0:0:
338,263,17987,6,0,L|333:284,1,16,8|0,0:0|0:0,0:0:0:0:
320,281,18221,6,0,L|323:295,1,8,2|0,0:3|0:0,0:0:0:0:
439,325,18455,6,2,P|456:319|439:319,1,47.9999985351563,0|0,0:1|0:2,0:1:0:0:
384,362,19192,6,0,L|374:359,3,6.85714264787947,2|0|0|2,1:0|1:0|1:0|1:0,0:0:0:0:
316,300,19627,1,0,1:2:0:0:
228,357,19862,6,0,B|166:410|87:359|110:293|170:284|182:316,1,204.000003890991,4|8,1:0|0:1,0:0:0:0:
235,359,20330,1,10,0:0:0:0:
112,253,20565,5,8,0:1:0:0:
108,258,20682,1,8,0:1:0:0:
105,264,20799,2,0,L|115:325,1,47.9999985351563,0|0,1:0|0:0,0:0:0:0:
39,197,21033,5,8,0:1:0:0:
36,202,21151,1,8,1:1:0:0:
33,206,21268,2,0,B|61:214|80:205|94:173|79:144|79:144|71:151|62:153,1,120.000004577637,0|0,1:0|1:0,0:0:0:0:
1,89,21737,6,0,P|62:76|131:63,1,120.000004577637,0|0,1:0|0:0,0:0:0:0:
179,156,22205,5,10,0:0:0:0:
298,100,22440,1,8,0:1:0:0:
216,1,22675,1,0,1:0:0:0:
351,227,23026,5,0,1:0:0:0:
359,231,23143,2,0,B|348:155|266:183|266:183|280:198|272:216,1,160,0|0,1:0|0:0,0:0:0:0:
229,269,23612,6,0,B|193:281|193:281|182:295|182:295|137:309,1,96,0|8,1:0|0:1,0:0:0:0:
100,356,24080,2,0,B|77:347|77:347|70:338|70:338|29:324,1,64,10|8,0:0|0:1,0:0:0:0:
6,259,24432,5,8,0:1:0:0:
7,251,24549,2,0,P|58:240|72:198,1,95.9999970703126,0|8,1:0|0:1,0:0:0:0:
136,216,24901,5,8,1:1:0:0:
140,221,25018,2,0,P|151:184|130:159,1,71.9999978027344,0|0,1:0|1:0,0:0:0:0:
11,112,25487,6,0,B|46:99|46:99|57:85|57:85|103:72,1,96,0|8,1:0|0:1,0:0:0:0:
139,17,25955,2,0,B|162:26|162:26|169:35|169:35|210:49,1,64,10|8,0:0|0:1,0:0:0:0:
229,112,26307,5,10,1:1:0:0:
234,118,26424,2,0,P|278:109|330:91,1,95.9999970703126,2|8,1:0|0:1,0:0:0:0:
340,164,26776,5,2,1:0:0:0:
332,160,26893,2,0,P|295:172|258:179,1,71.9999978027344,2|0,1:0|1:0,0:0:0:0:
115,270,27362,6,0,P|92:222|155:155,1,143.999995605469,4|8,1:0|0:1,0:0:0:0:
161,221,27830,1,10,1:2:0:0:
100,340,28065,5,8,0:1:0:0:
93,335,28182,1,8,0:1:0:0:
86,328,28299,2,0,P|125:298|178:315,1,95.9999970703126,0|8,1:0|0:1,0:0:0:0:
230,341,28651,5,8,0:1:0:0:
228,348,28768,2,0,P|256:369|294:357,1,71.9999978027344,10|0,1:2|1:0,0:0:0:0:
383,212,29237,6,0,B|338:231|338:231|325:257|325:257|275:281,1,132.00000402832,0|8,1:0|0:1,0:0:0:0:
231,232,29705,1,10,1:2:0:0:
396,307,29940,5,8,0:1:0:0:
400,317,30057,1,8,0:1:0:0:
405,327,30174,2,0,P|437:340|499:365,1,95.9999970703126,0|8,1:0|0:1,0:0:0:0:
512,235,30526,5,0,1:0:0:0:
503,227,30643,2,0,P|477:237|429:256,1,71.9999978027344,10|0,1:2|1:0,0:0:0:0:
354,146,31112,5,0,1:0:0:0:
508,77,31346,6,0,L|469:60,1,35.9999989013672
468,54,31580,2,0,B|447:88|401:78|401:78|409:66|410:53,1,95.9999970703126,10|8,0:0|0:1,0:0:0:0:
346,35,31932,5,8,0:1:0:0:
344,25,32049,2,0,B|328:0|296:7|296:7|301:16|302:25,1,71.9999978027344,0|8,1:0|0:1,0:0:0:0:
225,91,32401,5,0,1:0:0:0:
218,85,32518,2,0,L|226:31,1,47.9999985351563,10|8,1:2|0:1,0:0:0:0:
61,131,32987,6,0,L|71:58,1,63.9999980468751,8|0,1:2|0:0,0:0:0:0:
63,57,33221,1,8,1:2:0:0:
139,122,33455,5,8,0:0:0:0:
0,207,33690,1,4,0:3:0:0:
173,366,33924,5,10,0:1:0:0:
186,353,34041,1,8,0:1:0:0:
191,337,34158,1,2,1:0:0:0:
188,319,34275,1,0,1:0:0:0:
178,304,34393,2,0,B|109:282|126:341|56:322,1,128,10|2,0:1|0:3,0:0:0:0:
2,369,34862,6,0,B|69:328|30:263|30:263,1,120.000004577637,4|2,1:3|0:0,0:0:0:0:
71,210,35213,5,8,0:1:0:0:
81,206,35330,2,0,B|30:175|59:125|59:125,1,88.000002685547,4|4,1:3|1:3,0:0:0:0:
201,92,35799,6,0,P|147:91|133:47,1,103.999995239258,4|2,1:3|0:0,0:0:0:0:
176,2,36151,5,8,0:1:0:0:
183,0,36268,2,0,L|233:15,3,51.999997619629,2|0|2|0,1:1|0:0|1:1|0:0,0:0:0:0:
283,69,36737,6,0,B|332:58|332:58|349:67|349:67|412:55,1,128,4|2,1:3|0:0,0:0:0:0:
497,151,37088,5,8,0:1:0:0:
492,160,37205,2,0,B|442:149|442:149|425:158|425:158|362:146,1,120.000004577637,4|4,1:3|1:3,0:0:0:0:
254,252,37674,6,0,B|181:205|237:139|237:139|231:153|271:161|250:194,1,191.999994140625,4|2,1:3|0:0,0:0:0:0:
320,269,38026,5,8,0:1:0:0:
323,277,38143,2,0,L|314:332,2,51.999997619629,2|0|2,1:2|0:0|0:2,0:0:0:0:
453,219,38612,5,8,0:0:0:0:
433,143,38846,1,2,0:0:0:0:
429,149,38963,1,8,0:1:0:0:
425,154,39080,2,0,P|377:187|400:241,1,103.999995239258,4|4,1:3|0:3,0:0:0:0:
503,282,39549,5,8,0:0:0:0:
409,375,39783,1,2,0:0:0:0:
416,370,39901,1,8,0:1:0:0:
423,366,40018,2,0,L|408:277,1,80,4|4,1:3|0:3,0:0:0:0:
317,161,40487,5,8,0:0:0:0:
270,227,40721,1,2,0:0:0:0:
266,216,40838,1,8,0:1:0:0:
263,207,40955,2,0,L|218:193,3,40,4|0|4|0,1:3|0:0|1:3|0:0,0:0:0:0:
193,128,41424,5,10,1:1:0:0:
99,227,41658,2,0,L|60:237,1,40,2|8,1:1|0:1,0:0:0:0:
10,184,41893,5,10,1:1:0:0:
147,276,42127,1,10,0:1:0:0:
52,384,42362,6,0,L|65:298,1,80,12|0,0:0|0:0,0:0:0:0:
122,340,42713,1,8,0:1:0:0:
125,346,42830,6,0,L|121:369,3,23.9999992675781,4|0|4|0,1:3|0:0|0:3|0:0,0:0:0:0:
224,306,43299,6,0,L|209:211,1,95.9999970703126,12|0,0:0|0:0,0:0:0:0:
277,229,43651,1,8,0:1:0:0:
282,236,43768,6,0,L|287:273,3,23.9999992675781,4|0|4|0,1:3|0:0|0:3|0:0,0:0:0:0:
374,384,44237,6,0,L|391:270,1,111.999996582031,12|0,0:0|0:0,0:0:0:0:
349,218,44588,1,8,0:1:0:0:
439,195,44705,5,4,1:3:0:0:
438,187,44822,1,0,0:0:0:0:
437,179,44939,1,4,0:3:0:0:
508,145,45174,6,0,P|422:122|424:57,1,160,8|2,0:0|0:0,0:0:0:0:
435,0,45526,1,8,0:1:0:0:
445,6,45643,2,0,L|432:91,1,80,4|4,1:3|0:3,0:0:0:0:
512,222,46112,5,8,0:0:0:0:
118,302,47987,6,0,L|159:286,1,45.0000017166138,8|0,1:2|0:0,0:0:0:0:
30,353,48221,6,0,L|73:368,1,45.0000017166138,8|0,1:2|0:0,0:0:0:0:
167,283,48455,6,0,B|210:303|210:303|224:333|224:333|282:360,1,136.000002593994,10|2,0:0|0:3,0:0:0:0:
360,254,48924,6,0,L|273:280,1,80,2|2,1:0|0:0,0:0:0:0:
220,194,49276,5,8,0:1:0:0:
226,187,49393,2,0,L|277:202,1,47.9999985351563,8|0,0:0|0:0,0:0:0:0:
379,70,49862,6,0,L|371:92,1,24,14|0,0:1|0:0,0:0:0:0:
454,93,50330,6,0,B|425:124|385:96|385:96|373:70|373:70|329:35|295:75,1,191.999994140625,10|0,3:1|0:0,0:0:0:0:
225,121,51033,6,0,B|239:155|239:155|233:122,1,47.9999985351563,4|0,0:3|0:0,0:0:0:0:
155,100,51268,1,8,3:1:0:0:
45,229,51502,6,0,L|75:239,1,32,2|0,0:0|0:0,0:0:0:0:
81,247,51737,2,0,B|115:261|171:221|125:202|117:233,1,80,8|0,0:1|0:0,0:0:0:0:
176,324,51971,6,0,L|206:314,1,32,2|0,0:0|0:0,0:0:0:0:
210,309,52205,2,0,B|251:295|311:347|255:364|250:327,1,103.999995239258,8|4,1:1|1:3,0:0:0:0:
377,228,52674,5,2,0:3:0:0:
324,268,52908,1,4,1:3:0:0:
477,298,53143,5,8,0:0:0:0:
383,235,53377,1,4,1:3:0:0:
480,139,53612,6,0,L|455:125,1,24,6|0,1:0|0:0,0:0:0:0:
411,57,54080,6,0,B|434:71|459:69|459:69|485:111|491:168|410:180,1,191.999994140625,2|0,3:1|0:0,0:0:0:0:
329,50,54783,6,0,B|343:16|343:16|337:49,1,47.9999985351563,4|0,0:3|0:0,0:0:0:0:
276,90,55018,2,0,P|280:114|287:152,1,64,8|0,3:1|0:0,0:0:0:0:
172,288,55487,5,2,1:2:0:0:
297,251,55721,1,0,0:0:0:0:
210,158,55955,1,2,1:2:0:0:
223,229,56190,5,0,0:0:0:0:
140,129,56424,6,0,B|112:139|112:139|106:148|106:148|76:161,1,71.9999978027344,2|0,1:2|0:0,0:0:0:0:
34,219,56658,2,0,B|-41:133|76:48|119:156|46:165,1,192,2|0,1:2|0:0,0:0:0:0:
108,245,57127,5,4,1:3:0:0:
54,353,57362,6,0,P|89:338|194:337,1,128,8|0,0:3|0:0,0:0:0:0:
236,360,57830,2,0,B|234:375|244:386|244:386|233:379|211:386,2,51.999997619629,8|0|2,0:0|0:0|0:0,0:0:0:0:
317,260,58299,6,0,B|301:274|321:302|321:302|419:329,1,143.999995605469,8|0,0:3|0:0,0:0:0:0:
456,278,58768,2,0,B|471:282|483:274|483:274|472:287|473:307,2,55.9999982910157,8|0|2,0:0|0:0|0:0,0:0:0:0:
400,208,59237,6,0,P|369:152|437:105,1,160,8|0,0:3|0:0,0:0:0:0:
483,151,59705,2,0,B|497:140|510:149|510:149|497:140|498:117,2,60.0000022888184,8|0|2,0:0|0:0|0:0,0:0:0:0:
369,35,60174,6,0,P|274:49|192:69,1,176.000005371094,8|0,0:3|0:0,0:0:0:0:
99,210,60643,6,0,L|88:172,1,32,8|0,0:0|0:0,0:0:0:0:
119,108,60877,2,0,L|123:123,1,16,2|0,0:0|0:0,0:0:0:0:
57,345,61112,6,0,P|37:345|23:335,1,35.9999989013672,8|0,1:2|0:0,0:0:0:0:
0,252,61580,6,0,B|50:271|45:333|45:333|63:285|105:249|145:268|174:313|130:365|104:331,1,287.999991210938,8|8,0:0|0:0,0:0:0:0:
238,363,62283,6,0,B|201:352|201:352|231:369,1,55.9999982910157,4|0,0:3|0:0,0:0:0:0:
319,298,62518,1,8,0:0:0:0:
252,213,62752,6,0,L|223:224,1,32,6|0,0:3|0:0,0:0:0:0:
69,77,62987,5,12,0:0:0:0:
172,103,63221,1,8,1:2:0:0:
44,180,63455,1,8,0:0:0:0:
146,205,63690,1,4,1:3:0:0:
268,49,63924,5,8,0:0:0:0:
270,57,64158,1,8,1:2:0:0:
399,180,64393,5,8,0:0:0:0:
397,188,64627,1,4,1:3:0:0:
484,334,64862,6,0,B|386:370|359:227|466:251|422:320,1,180.000006866455,2|0,3:2|3:0,3:0:0:0:
421,353,65330,6,0,B|354:297|445:219|472:305|405:302,1,143.999995605469,2|0,3:2|3:0,3:0:0:0:
386,313,65799,6,0,B|397:248|482:278|436:329|412:283,1,107.999996704102,2|0,3:2|3:0,3:0:0:0:
401,276,66268,6,0,B|438:262|449:317|414:317|424:281,1,71.9999978027344,2|0,3:2|3:0,3:0:0:0:
306,349,66737,6,0,L|280:344,2,16,2|0|0,3:2|0:0|0:0,3:0:0:0:
264,263,67205,6,0,B|158:235|135:352|238:338|205:281,1,167.999994873047,2|0,3:2|3:0,3:0:0:0:
26,199,67674,6,0,B|139:164|168:296|51:282|86:217,1,192,2|0,3:2|3:0,3:0:0:0:
184,200,68143,6,0,L|179:174,1,16,2|0,3:2|0:0,3:0:0:0:
201,107,68377,2,0,L|204:122,1,16,0|0,0:0|3:0,0:0:0:0:
114,62,68612,6,0,L|154:50,1,40,0|0,1:0|0:0,0:0:0:0:
197,25,68846,2,0,L|157:37,1,40,2|0,0:0|0:0,0:0:0:0:
275,106,69080,6,0,L|331:122,1,55.9999982910157,0|0,1:0|0:0,0:0:0:0:
391,157,69314,2,0,L|334:140,1,55.9999982910157,2|0,0:0|0:0,0:0:0:0:
503,85,69549,6,0,L|486:156,1,71.9999978027344,0|0,1:0|0:0,0:0:0:0:
449,233,69784,2,0,L|465:161,1,71.9999978027344,2|0,0:0|0:0,0:0:0:0:
290,229,70018,6,0,L|307:307,1,80,0|0,1:0|0:0,0:0:0:0:
344,361,70253,6,0,L|332:310,1,40,2|0,0:0|0:0,0:0:0:0:
186,239,70487,6,0,B|160:250|146:244|146:244|161:254|169:287,2,85.3333333333333,8|0|0,0:0|0:0|0:0,0:0:0:0:
233,287,70955,6,0,L|212:144,1,128,0|0,1:0|1:0,0:0:0:0:
281,89,71307,6,0,L|288:115,1,20
290,117,71424,6,0,L|332:127,6,32,2|0|0|0|0|0|0,1:0|0:0|0:0|0:0|0:0|0:0|0:0,0:0:0:0:
228,40,71893,6,0,B|192:55|192:55|183:67|183:67|144:85,1,88.000002685547,2|0,1:0|0:0,0:0:0:0:
128,150,72127,6,0,B|98:137|98:137|91:127|91:127|59:112,1,71.9999978027344,2|0,1:0|0:0,0:0:0:0:
37,52,72362,5,4,1:0:0:0:
2,295,72596,6,0,P|26:303|56:279,1,60.0000022888184,2|0,3:0|2:1,0:0:0:0:
16,226,72830,6,0,P|78:210|112:323,1,200,8|0,1:1|1:0,0:0:0:0:
45,366,73182,5,0,2:0:0:0:
53,369,73299,2,0,P|148:346|277:329,1,216.000000823975,0|0,1:0|2:0,0:0:0:0:
384,217,73651,5,0,3:0:0:0:
389,223,73768,2,0,B|368:213|420:219|391:169|420:155|420:155|318:203|340:326|340:326|315:257|260:258,1,400,8|0,1:0|1:0,0:0:0:0:
123,124,74471,5,0,3:0:0:0:
183,90,74705,2,0,B|189:56|189:56|197:49|197:49|206:8,1,80,8|0,1:0|1:0,0:0:0:0:
32,174,75174,6,0,P|119:153|159:257,1,216.000000823975,0|0,1:0|2:0,0:0:0:0:
94,296,75526,5,0,3:0:0:0:
100,304,75643,2,0,B|59:347|89:407|173:409|197:356|168:304|168:304|142:261|159:230|189:220|239:244|214:292,1,360.000013732911,8|0,1:0|2:0,0:0:0:0:
281,310,76112,6,0,B|280:333|291:347|291:347|279:334|247:336,2,80.0000030517579,2|0|0,0:0|3:0|0:1,0:0:0:0:
444,257,76580,6,0,P|351:230|377:154,1,160,10|0,1:2|2:0,0:0:0:0:
409,149,76932,1,0,3:0:0:0:
410,142,77049,6,0,B|409:125|417:115|417:115|408:124|385:123,2,53.3333333333333,2|0|0,0:1|0:0|0:1,0:0:0:0:
342,30,77518,6,0,P|283:39|220:55,1,120.000004577637,10|0,1:2|2:0,0:0:0:0:
97,27,77869,1,0,3:0:0:0:
100,36,77987,6,0,L|131:45,1,20,0|0,0:0|1:0,0:0:0:0:
160,116,78221,2,0,L|129:107,1,20,0|0,0:0|2:1,0:0:0:0:
72,183,78455,6,0,B|38:162|38:130|38:130|15:167|39:226|100:226,1,200,10|0,1:2|1:0,0:0:0:0:
246,294,78924,6,0,P|234:307|192:306,1,60.0000022888184,2|0,1:0|0:0,0:0:0:0:
188,280,79158,2,0,P|200:267|242:268,1,60.0000022888184,0|0,1:0|0:1,0:0:0:0:
377,345,79393,6,0,P|389:358|431:357,1,60.0000022888184,10|0,1:2|2:0,0:0:0:0:
445,294,79627,2,0,P|433:281|391:282,1,60.0000022888184,0|0,1:0|2:0,0:0:0:0:
306,341,79862,5,4,0:0:0:0:
501,127,80096,6,0,P|477:119|447:143,1,60.0000022888184,0|0,3:0|2:1,0:0:0:0:
487,196,80330,6,0,P|425:212|391:99,1,200,8|0,1:0|1:0,0:0:0:0:
366,13,80682,5,0,2:0:0:0:
359,2,80799,2,0,B|297:35|297:35|281:99|281:99|211:138,1,216.000000823975,0|0,0:0|2:0,0:0:0:0:
72,198,81151,5,0,3:0:0:0:
76,205,81268,2,0,B|78:237|25:225|36:263|23:285|23:285|-7:184|70:131|141:140|141:140|142:192|189:204,1,400,8|0,1:0|0:0,0:0:0:0:
354,300,81971,5,0,3:0:0:0:
300,259,82205,2,0,B|268:273|268:273|264:283|264:283|226:302,1,80,8|0,1:0|1:0,0:0:0:0:
354,300,82674,6,0,B|318:258|349:167|460:165|469:266|400:267,1,216.000000823975,0|0,0:0|2:0,0:0:0:0:
437,354,83026,5,0,3:0:0:0:
432,361,83143,2,0,B|437:382|489:413|563:345|481:270|424:302|435:320|382:348|317:281|347:232|382:210|421:271,1,324.000001235962,8|0,1:1|0:0,0:0:0:0:
505,243,83612,6,0,L|493:175,2,63.9999980468751,2|0|0,0:0|3:0|0:1,0:0:0:0:
512,94,84080,6,0,P|428:113|394:25,1,184.000003509522,10|0,1:2|1:0,0:0:0:0:
316,7,84432,1,0,3:0:0:0:
322,1,84549,2,0,P|354:-1|387:47,2,63.9999980468751,2|0|0,0:0|3:0|0:1,0:0:0:0:
278,124,85018,6,0,B|220:151|220:151|206:196|206:196|135:232,1,184.000003509522,10|0,1:2|2:0,0:0:0:0:
47,161,85369,1,0,3:0:0:0:
58,153,85487,6,0,L|79:158,3,11.9999996337891,4|0|0|0,0:0|0:0|0:0|0:0,0:0:0:0:
64,85,85955,2,0,L|101:93,3,32
103,27,86424,6,2,L|88:24,1,16,2|2,0:0|2:0,0:0:0:0:
180,133,86692,2,0,L|199:123,2,18.2857142857143
132,189,86893,5,0,1:0:0:0:
246,75,87127,1,4,0:3:0:0:
402,300,87362,5,8,0:0:0:0:
494,164,87830,5,0,1:0:0:0:
456,192,87987,5,0,0:0:0:0:
404,140,88143,5,0,0:0:0:0:
352,195,88299,5,8,0:0:0:0:
347,182,88416,6,0,B|314:193|314:193|302:211|302:211|265:225,1,95.9999970703126,4|4,0:3|0:3,0:0:0:0:
213,182,88768,1,0,1:0:0:0:
207,176,88885,2,0,L|219:120,1,47.9999985351563,4|0,0:3|0:0,0:0:0:0:
122,240,89237,2,0,L|132:287,2,47.9999985351563,8|4|0,0:0|0:3|0:0,0:0:0:0:
45,93,89705,5,0,1:0:0:0:
69,75,89822,1,0,0:0:0:0:
98,114,89940,1,4,0:3:0:0:
139,88,90057,1,0,0:0:0:0:
162,125,90174,6,0,P|111:113|61:97,1,95.9999970703126,8|0,0:0|0:0,0:0:0:0:
9,165,90526,1,4,0:3:0:0:
16,170,90643,2,0,L|25:218,2,47.9999985351563,0|4|0,1:0|0:3|3:0,0:0:0:0:
88,330,91112,6,0,L|123:320,4,35.9999989013672,8|0|8|0|8,0:0|0:0|0:1|0:0|0:1,0:0:0:0:
32,290,91463,1,8,0:1:0:0:
164,212,91580,6,0,L|199:202,4,35.9999989013672,0|0|8|0|8,1:0|0:0|0:1|0:0|0:1,0:0:0:0:
264,242,91932,5,8,0:1:0:0:
271,248,92049,2,0,L|292:241,1,20,8|0,0:0|0:0,0:0:0:0:
281,200,92283,6,0,L|323:187,1,40,4|0,0:3|0:0,0:0:0:0:
378,247,92518,6,0,L|437:230,1,60.0000022888184,0|0,1:0|0:0,0:0:0:0:
413,109,92752,6,0,L|492:86,1,80,4|0,0:3|0:0,0:0:0:0:
456,332,92987,6,0,L|421:322,2,35.9999989013672,8|0|8,0:0|0:0|0:1,0:0:0:0:
404,338,93221,6,0,L|369:328,1,35.9999989013672,8|0,0:1|0:0,0:0:0:0:
318,364,93338,1,8,0:1:0:0:
319,236,93455,5,0,1:0:0:0:
313,244,93572,2,0,L|244:222,1,71.9999978027344,8|8,0:1|0:1,0:0:0:0:
172,247,93807,5,0,0:0:0:0:
170,238,93924,2,0,L|149:231,1,20,8|0,0:0|0:0,0:0:0:0:
152,199,94158,6,0,L|110:186,1,40,4|0,0:3|0:0,0:0:0:0:
29,275,94393,6,0,P|80:200|43:106,1,180.000006866455,8|0,1:0|0:0,0:0:0:0:
1,55,94862,6,0,L|50:39,1,48,6|0,0:1|0:0,0:0:0:0:
115,62,95330,6,0,L|180:44,2,53.3333333333333,8|0|0,1:2|0:0|0:0,0:0:0:0:
234,118,95799,6,0,L|230:135,1,16,0|0,1:0|0:0,0:0:0:0:
179,191,96033,6,0,B|229:211|229:211|236:227|236:227|301:251,1,128,2|8,0:1|1:2,0:0:0:0:
126,294,96385,6,0,B|193:320|193:320|202:342|202:342|289:374,1,176.000005371094,2|0,0:1|0:0,0:0:0:0:
395,277,96737,6,0,L|380:200,2,71.9999978027344,2|0|0,0:1|0:0|0:0,0:0:0:0:
446,322,97088,5,0,0:0:0:0:
453,326,97205,6,0,L|463:381,2,40,8|0|0,1:2|0:0|0:0,0:0:0:0:
496,244,97557,5,0,0:0:0:0:
499,237,97674,6,0,L|494:209,1,16,0|0,1:0|0:0,0:0:0:0:
486,141,97908,6,0,B|437:165|437:165|432:181|432:181|369:211,1,128,2|8,0:1|1:2,0:0:0:0:
471,19,98260,6,0,B|406:50|406:50|399:73|399:73|315:112,1,176.000005371094,2|0,0:1|0:0,0:0:0:0:
217,32,98612,6,0,L|225:72,4,35.9999989013672,2|0|8|0|8,0:1|0:0|0:1|0:0|0:1,0:0:0:0:
160,0,98963,1,8,0:1:0:0:
144,126,99080,6,0,L|152:166,4,35.9999989013672,8|0|8|0|0,0:1|0:0|0:1|0:0|0:0,0:0:0:0:
272,143,99432,5,0,0:0:0:0:
266,149,99549,2,0,L|269:170,1,20
249,182,99783,6,0,L|257:225,1,40,2|0,0:1|0:0,0:0:0:0:
345,207,100018,6,0,L|357:267,1,60.0000022888184,8|2,1:2|0:1,0:0:0:0:
219,304,100252,6,0,L|235:384,1,80
305,307,100487,6,0,L|311:271,2,35.9999989013672,2|0|8,0:1|0:0|0:1,0:0:0:0:
333,278,100721,6,0,L|346:207,1,71.9999978027344,8|0,0:1|0:0,0:0:0:0:
249,182,100955,5,8,1:2:0:0:
256,177,101072,2,0,L|273:99,1,71.9999978027344,8|8,0:1|0:1,0:0:0:0:
385,94,101307,5,0,0:0:0:0:
390,88,101424,2,0,L|393:66,1,20,8|0,0:0|0:0,0:0:0:0:
364,53,101658,6,0,L|372:9,1,40,2|0,0:1|0:0,0:0:0:0:
491,128,101893,6,0,P|462:135|433:145,1,60.0000022888184,8|2,1:2|0:1,0:0:0:0:
453,206,102127,2,0,P|481:196|510:189,1,60.0000022888184
401,276,102362,5,8,0:0:0:0:
78,317,103065,5,0,1:0:0:0:
70,315,103182,5,0,1:0:0:0:
55,306,103299,5,8,0:0:0:0:
43,258,103416,5,0,1:0:0:0:
81,215,103533,5,0,1:0:0:0:
146,214,103651,5,0,1:0:0:0:
176,282,103768,6,0,L|169:321,3,30.0000011444092,8|0|8|0,0:0|1:0|0:0|1:0,0:0:0:0:
230,354,104237,6,0,B|281:332|281:332|295:303|295:303|362:274,1,143.999995605469,6|8,0:1|0:1,0:0:0:0:
396,324,104705,1,10,0:0:0:0:
457,266,104940,6,0,L|466:236,1,27.9999991455078,8|8,0:1|0:1,0:0:0:0:
467,232,105174,6,0,B|440:197|467:167|486:180|507:135|472:100,1,143.999995605469,0|8,1:0|0:1,0:0:0:0:
434,56,105643,1,0,1:0:0:0:
346,129,105877,6,0,L|314:142,1,27.9999991455078,0|0,1:0|0:0,0:0:0:0:
313,142,106112,6,0,B|288:37|195:56|221:136|271:107,1,180.000006866455,0|8,1:0|0:1,0:0:0:0:
336,48,106580,1,10,0:0:0:0:
209,168,106815,6,0,L|188:159,1,16,8|8,0:1|0:1,0:0:0:0:
188,154,107049,6,0,L|144:170,1,40,0|0,1:0|0:0,0:0:0:0:
97,211,107283,2,0,L|134:197,1,40,0|0,1:0|0:0,0:0:0:0:
95,129,107518,5,0,1:0:0:0:
95,129,107752,1,0,1:0:0:0:
144,267,107987,6,0,B|192:291|192:291|202:321|202:321|265:355,1,143.999995605469,2|8,0:1|0:1,0:0:0:0:
302,303,108455,1,10,0:0:0:0:
468,350,108690,6,0,L|441:363,1,27.9999991455078,8|8,0:1|0:1,0:0:0:0:
437,359,108924,6,0,P|408:303|473:252,1,143.999995605469,0|8,1:0|0:1,0:0:0:0:
510,293,109393,1,0,1:0:0:0:
368,161,109627,6,0,L|360:127,1,27.9999991455078,0|0,1:0|0:0,0:0:0:0:
356,128,109862,6,0,B|296:126|279:69|279:69|293:115|248:150,1,180.000006866455,0|8,1:0|0:1,0:0:0:0:
214,186,110330,2,0,L|217:205,3,16,10|0|8|8,0:0|0:0|0:1|0:1,0:0:0:0:
194,241,110799,2,0,L|196:225,1,16,2|0,1:0|0:0,0:0:0:0:
100,126,111033,6,0,L|102:142,1,16,8|0,0:1|1:0,0:0:0:0:
87,119,111268,6,0,L|91:156,1,32,2|8,1:0|0:1,0:0:0:0:
54,107,111502,6,0,L|61:167,1,55.9999982910157,0|8,0:1|0:1,0:0:0:0:
3,242,111737,6,0,P|54:231|101:299,1,143.999995605469,2|0,0:1|0:0,0:0:0:0:
55,341,112088,1,8,0:1:0:0:
51,348,112205,1,10,0:0:0:0:
200,265,112440,6,0,L|194:229,1,32,8|8,0:1|0:1,0:0:0:0:
236,182,112674,1,0,0:0:0:0:
450,292,112908,6,0,L|458:239,1,51.999997619629,8|8,0:1|0:1,0:0:0:0:
443,224,113143,6,0,B|396:240|396:240|388:277|388:277|331:296,1,143.999995605469,8|0,0:0|0:0,0:0:0:0:
263,363,113612,6,0,B|322:400|350:325|350:325|332:326|324:310,1,143.999995605469,0|0,1:0|0:0,0:0:0:0:
288,261,113963,1,8,0:1:0:0:
290,251,114080,1,10,0:0:0:0:
126,185,114315,6,0,L|120:149,1,32,8|0,0:1|1:0,0:0:0:0:
162,102,114549,1,0,1:0:0:0:
271,49,114783,6,0,L|277:85,1,32,8|0,0:1|1:0,0:0:0:0:
227,125,115018,1,8,0:0:0:0:
316,1,115252,1,0,1:0:0:0:
466,120,115487,6,0,B|396:164|445:229|445:229,1,120.000004577637,2|8,0:1|0:1,0:0:0:0:
503,265,115838,1,8,0:1:0:0:
506,276,115955,2,0,B|484:288|484:288|480:297|480:297|456:313,1,64,10|8,0:0|0:1,0:0:0:0:
415,363,116307,1,8,0:1:0:0:
418,370,116424,1,0,1:0:0:0:
294,294,116658,6,0,L|301:259,1,32,8|8,0:1|0:1,0:0:0:0:
260,211,116893,1,0,1:0:0:0:
328,349,117127,1,0,1:0:0:0:
67,261,117362,6,0,L|73:241,1,16,0|0,1:0|0:0,0:0:0:0:
70,238,117596,2,0,P|101:222|151:300,1,143.999995605469,8|10,0:1|0:0,0:0:0:0:
228,359,118065,1,8,0:1:0:0:
228,359,118182,1,8,0:1:0:0:
228,359,118299,6,0,L|214:284,1,55.9999982910157,0|0,1:0|0:0,0:0:0:0:
237,259,118533,2,0,L|243:295,2,27.9999991455078,8|0|0,1:1|0:0|1:0,0:0:0:0:
332,185,118768,6,0,P|281:184|268:150,1,80,0|0,1:0|0:0,0:0:0:0:
217,114,119002,2,0,L|205:116,1,11.9999996337891,0|0,1:0|0:0,0:0:0:0:
64,181,119237,5,4,1:0:0:0:
68,186,119471,5,2,0:0:0:0:
72,192,119705,5,10,0:0:0:0:
110,246,119940,6,0,L|109:255,3,5.99999981689454,0|0|0|0,1:0|0:0|0:0|0:0,0:0:0:0:
152,302,120174,6,0,L|155:332,2,21.3333333333333,0|2|8,1:0|0:0|0:1,0:0:0:0:
253,223,120643,6,0,B|312:113|121:149|217:340|297:189|223:342|279:230|359:365|396:343|260:253|439:280|335:302|303:282,1,335.999989746094,0|0,3:0|0:0,0:0:0:0:
259,351,121112,1,0,3:0:0:0:
472,220,121346,6,0,L|456:225,1,11.9999996337891,8|0,1:1|0:0,0:0:0:0:
417,225,121580,2,0,L|428:221,1,11.9999996337891,8|0,1:1|0:0,0:0:0:0:
435,153,121815,6,0,L|425:155,3,5.99999981689454,0|0|0|0,3:0|0:0|0:0|0:0,0:0:0:0:
433,87,122049,6,0,L|408:91,2,21.3333333333333,0|2|8,1:0|0:0|0:1,0:0:0:0:
341,59,122518,6,0,B|204:204|329:244|407:176|242:61,1,335.999989746094,0|0,3:0|0:0,0:0:0:0:
291,8,122987,1,0,1:0:0:0:
86,354,123221,6,0,L|102:349,1,11.9999996337891,10|0,0:1|0:0,0:0:0:0:
133,321,123455,2,0,L|122:325,1,11.9999996337891,10|0,0:1|0:0,0:0:0:0:
84,252,123690,6,0,L|94:250,3,5.99999981689454,0|0|0|0,3:0|0:0|0:0|0:0,0:0:0:0:
60,188,123924,6,0,L|81:184,2,21.3333333333333,0|2|8,1:0|0:0|0:1,0:0:0:0:
57,118,124393,6,0,B|212:73|107:392|386:158|210:104|155:163,1,335.999989746094,0|0,3:0|0:0,0:0:0:0:
154,259,124862,1,0,1:0:0:0:
300,131,125096,6,0,P|296:115|293:95,1,23.9999992675781,2|8,0:0|0:1,0:0:0:0:
329,49,125330,1,10,0:0:0:0:
440,161,125565,6,0,L|430:199,1,23.9999992675781,0|0,1:0|0:0,0:0:0:0:
440,193,125799,6,0,B|393:216|393:216|392:258|392:258|335:300,1,143.999995605469,0|2,1:0|0:0,0:0:0:0:
491,277,126268,6,0,L|523:293,3,23.9999992675781,0|8|0|0,0:0|0:1|0:0|0:0,0:0:0:0:
448,329,126502,1,0,0:0:0:0:
364,193,126737,5,0,1:0:0:0:
317,246,126971,1,2,0:0:0:0:
317,238,127088,1,8,0:1:0:0:
323,242,127205,1,10,0:0:0:0:
217,158,127440,2,0,L|222:132,3,23.9999992675781,0|0|0|0,1:0|0:0|0:0|0:0,0:0:0:0:
167,89,127674,6,0,B|133:105|133:105|125:120|125:120|88:139,1,95.9999970703126,0|2,0:0|1:2,0:0:0:0:
32,101,128143,1,8,1:1:0:0:
156,198,128377,1,2,3:2:0:0:
3,321,128612,2,0,L|17:224,1,95.9999970703126,0|2,1:0|0:0,0:0:0:0:
105,362,129080,5,8,0:0:0:0:
158,322,129315,2,0,L|180:331,3,23.9999992675781,2|0|0|0,1:2|0:0|0:0|0:0,0:0:0:0:
229,288,129549,6,0,P|273:277|325:257,1,95.9999970703126,0|2,1:0|0:0,0:0:0:0:
328,193,129901,1,0,0:0:0:0:
325,184,130018,1,8,3:1:0:0:
450,303,130252,1,2,1:2:0:0:
496,253,130487,6,0,L|477:153,1,95.9999970703126,0|2,1:0|0:0,0:0:0:0:
504,88,130838,1,8,0:1:0:0:
511,98,130955,2,0,L|501:147,1,47.9999985351563,10|0,0:0|0:0,0:0:0:0:
386,55,131190,6,0,L|361:61,3,23.9999992675781,0|0|0|0,1:0|0:0|0:0|0:0,0:0:0:0:
311,21,131424,6,0,P|263:11|213:2,1,95.9999970703126,0|2,3:0|1:2,0:0:0:0:
273,83,131893,2,0,P|247:77|221:72,1,47.9999985351563,0|0,1:0|2:0,0:0:0:0:
105,166,132362,5,0,1:0:0:0:
164,215,132596,1,2,0:0:0:0:
158,211,132713,1,8,0:1:0:0:
158,219,132830,1,10,0:0:0:0:
40,331,133065,1,0,1:0:0:0:
16,263,133299,6,0,B|110:244|81:323|187:299,1,167.999994873047,0|8,1:0|0:1,0:0:0:0:
226,351,133768,2,0,L|221:383,4,27.9999991455078,0|0|8|0|0,1:0|0:0|0:1|0:0|1:0,0:0:0:0:
325,237,134237,6,0,L|337:295,2,60.0000022888184,4|0|8,1:0|0:0|0:1,0:0:0:0:
383,176,134588,5,0,0:0:0:0:
388,169,134705,2,0,L|375:118,1,47.9999985351563,0|0,1:0|0:0,0:0:0:0:
194,109,134940,6,0,L|181:58,1,47.9999985351563,8|0,0:1|0:0,0:0:0:0:
275,24,135174,6,0,L|262:75,1,47.9999985351563,0|0,1:0|0:0,0:0:0:0:
89,161,135409,6,0,L|79:200,1,32,8|0,0:1|1:0,0:0:0:0:
236,289,135643,5,0,1:0:0:0:
239,296,135760,1,0,0:0:0:0:
242,303,135877,2,0,L|234:332,1,23.9999992675781,8|0,1:1|0:0,0:0:0:0:
164,378,136112,5,0,1:0:0:0:
162,368,136229,1,0,0:0:0:0:
160,359,136346,1,8,0:1:0:0:
158,350,136463,1,0,0:0:0:0:
157,341,136580,6,0,L|145:286,1,55.9999982910157,0|0,1:0|0:0,0:0:0:0:
338,145,136815,2,0,L|326:90,1,55.9999982910157,8|0,0:1|0:0,0:0:0:0:
246,162,137049,5,0,1:0:0:0:
244,172,137166,1,0,0:0:0:0:
242,181,137283,1,0,0:0:0:0:
240,190,137400,1,0,1:0:0:0:
239,199,137517,6,0,L|227:254,1,55.9999982910157,0|0,1:0|0:0,0:0:0:0:
459,86,137752,2,0,L|447:141,1,55.9999982910157,0|0,1:0|0:0,0:0:0:0:
475,206,137987,5,12,0:0:0:0:
469,214,138105,1,8,0:1:0:0:
440,215,138222,5,4,0:3:0:0:
445,224,138338,1,8,0:1:0:0:
424,278,138456,5,0,1:0:0:0:
433,278,138572,1,8,0:1:0:0:
476,335,138690,5,4,0:3:0:0:
471,342,138807,2,0,L|457:349,4,13.9999995727539,8|0|0|0|8,0:1|0:0|0:0|0:0|0:0,0:0:0:0:
395,334,139041,1,8,0:1:0:0:
318,366,139158,5,4,0:3:0:0:
313,356,139276,1,8,0:1:0:0:
287,350,139393,5,0,1:0:0:0:
292,342,139511,1,8,0:1:0:0:
282,289,139627,5,4,0:3:0:0:
290,291,139745,1,8,0:1:0:0:
256,192,139862,12,0,141151,0:0:0:0:
256,192,141268,5,4,0:3:0:0:
155,306,141502,6,0,L|142:234,1,55.9999982910157,2|0,3:1|0:0,0:0:0:0:
89,196,141737,5,0,1:0:0:0:
35,183,141854,1,0,3:0:0:0:
22,236,141971,1,2,3:0:0:0:
75,249,142088,1,0,3:0:0:0:
188,190,142205,6,0,L|197:134,1,55.9999982910157,4|0,0:3|0:0,0:0:0:0:
256,80,142440,5,0,0:0:0:0:
307,35,142557,1,0,0:0:0:0:
363,72,142674,1,0,0:0:0:0:
349,138,142791,1,0,0:0:0:0:
281,142,142908,1,0,0:0:0:0:
409,273,143143,5,0,3:0:0:0:
469,258,143260,1,0,3:0:0:0:
454,199,143377,1,2,3:0:0:0:
394,214,143494,1,0,3:0:0:0:
340,263,143612,6,0,L|334:296,3,27.9999991455078,0|0|2|0,1:0|3:0|3:0|3:0,0:0:0:0:
353,355,144080,6,0,L|343:300,1,55.9999982910157,4|0,0:3|0:0,0:0:0:0:
278,248,144315,6,0,L|272:275,3,27.9999991455078,2|0|0|0,3:3|3:0|1:0|3:0,0:0:0:0:
216,311,144783,1,2,3:0:0:0:
211,55,145018,6,0,B|183:66|183:66|179:75|179:75|147:89,1,71.9999978027344,0|0,1:0|0:0,0:0:0:0:
124,154,145252,2,0,L|100:148,3,20,2|0|0|0,3:0|3:0|3:0|3:0,3:0:0:0:
64,191,145487,6,0,L|99:181,4,35.9999989013672,8|0|8|0|8,1:2|0:0|0:1|0:0|0:1,0:0:0:0:
17,146,145838,1,8,0:1:0:0:
178,263,145955,6,0,L|213:253,4,35.9999989013672,8|0|8|0|0,0:1|0:0|0:1|0:0|0:0,0:0:0:0:
232,189,146307,5,0,0:0:0:0:
237,182,146424,2,0,L|258:175,1,20,8|0,0:0|0:0,0:0:0:0:
246,133,146658,6,0,L|288:120,1,40,4|0,0:3|0:0,0:0:0:0:
344,181,146893,6,0,L|403:164,1,60.0000022888184,4|0,1:3|0:0,0:0:0:0:
379,43,147127,6,0,L|458:20,1,80,4|0,0:3|0:0,0:0:0:0:
458,243,147362,6,0,L|423:233,2,35.9999989013672,8|0|8,0:0|0:0|0:1,0:0:0:0:
420,251,147596,6,0,L|385:241,1,35.9999989013672,8|0,0:1|0:0,0:0:0:0:
334,277,147713,1,8,0:1:0:0:
321,147,147830,5,0,1:0:0:0:
315,155,147947,2,0,L|246:133,1,71.9999978027344,8|8,0:1|0:1,0:0:0:0:
186,162,148182,5,0,0:0:0:0:
182,167,148299,2,0,L|161:160,1,20,8|0,0:0|0:0,0:0:0:0:
167,129,148533,6,0,L|125:116,1,40,0|0,1:0|0:0,0:0:0:0:
33,72,148768,6,0,P|93:133|55:234,1,180.000006866455,8|0,0:0|0:0,0:0:0:0:
6,261,149237,5,6,0:1:0:0:
9,271,149354,2,0,B|42:288|42:288|55:307|55:307|95:327,1,100,0|4,0:0|0:3,0:0:0:0:
177,364,149705,6,0,L|165:297,1,55.9999982910157,8|0,0:0|0:0,0:0:0:0:
251,245,149940,5,2,3:0:0:0:
304,258,150057,1,0,3:0:0:0:
291,311,150174,1,0,1:0:0:0:
237,298,150291,1,0,3:0:0:0:
143,223,150408,6,0,B|176:206|176:206|189:187|189:187|229:167,1,100,2|0,0:1|0:0,0:0:0:0:
100,144,150643,1,8,1:2:0:0:
92,138,150760,6,0,B|132:117|132:117|148:93|148:93|197:69,1,128,2|0,0:1|0:0,0:0:0:0:
272,39,150994,1,0,0:0:0:0:
278,46,151112,6,0,L|268:103,1,55.9999982910157,2|0,0:1|0:0,0:0:0:0:
353,188,151346,1,2,3:0:0:0:
356,195,151463,1,2,3:0:0:0:
359,201,151580,2,0,L|349:258,1,55.9999982910157,8|0,1:2|0:0,0:0:0:0:
284,304,151815,5,2,3:0:0:0:
230,317,151932,1,0,3:0:0:0:
217,264,152049,1,0,1:0:0:0:
270,251,152166,1,0,3:0:0:0:
349,256,152283,6,0,B|382:273|382:273|395:292|395:292|435:312,1,100,2|0,0:1|0:0,0:0:0:0:
370,154,152518,1,8,1:2:0:0:
367,147,152635,6,0,B|407:168|407:168|423:192|423:192|472:216,1,128,2|0,0:1|0:0,0:0:0:0:
512,136,152869,1,0,0:0:0:0:
506,126,152987,6,0,L|466:134,4,35.9999989013672,2|0|8|0|8,0:1|0:0|0:1|0:0|0:1,0:0:0:0:
511,58,153338,1,8,0:1:0:0:
367,74,153455,6,0,L|327:82,4,35.9999989013672,8|0|8|0|0,0:1|0:0|0:1|0:0|0:0,0:0:0:0:
312,187,153807,5,0,0:0:0:0:
309,195,153924,2,0,L|288:198,1,20,0|0,1:0|0:0,0:0:0:0:
276,178,154158,6,0,L|233:186,1,40,2|0,1:1|0:0,0:0:0:0:
217,264,154393,6,0,L|157:276,1,60.0000022888184,8|2,1:2|0:1,0:0:0:0:
154,148,154627,6,0,L|74:164,1,80
30,274,154862,6,0,L|66:280,2,23.9999992675781,2|0|8,3:1|0:0|0:1,0:0:0:0:
61,297,155096,6,0,L|116:307,1,47.9999985351563,8|0,0:1|0:0,0:0:0:0:
212,257,155330,5,0,1:0:0:0:
217,264,155447,2,0,L|270:275,1,47.9999985351563,0|0,0:0|1:0,0:0:0:0:
298,341,155682,5,0,0:0:0:0:
302,349,155799,2,0,L|316:351,1,11.9999996337891,8|0,1:2|0:0,0:0:0:0:
333,326,156033,6,0,L|377:334,1,32,10|0,0:2|1:0,0:0:0:0:
415,382,156268,1,10,3:2:0:0:
451,304,156424,6,0,B|448:292|448:292|450:289|450:289|443:274|443:274|445:272|445:272|441:256,3,53.3333333333333
479,212,156737,6,0,L|466:160,1,47.9999985351563,0|0,1:0|0:0,0:0:0:0:
302,57,157088,6,0,L|314:104,2,47.9999985351563,8|10|0,0:1|0:0|0:0,0:0:0:0:
342,4,157440,1,0,1:0:0:0:
255,173,157674,5,0,1:0:0:0:
204,133,157791,2,0,B|166:151|166:151|154:179|154:179|112:200,1,120.000004577637,0|8,0:0|0:1,0:0:0:0:
68,257,158143,2,0,L|29:244,1,40,0|0,1:0|0:0,0:0:0:0:
72,270,158377,1,0,1:0:0:0:
186,358,158612,6,0,L|175:307,1,47.9999985351563,0|0,1:0|0:0,0:0:0:0:
273,156,158963,6,0,L|285:203,2,47.9999985351563,8|10|0,0:1|0:0|0:0,0:0:0:0:
313,103,159315,1,0,1:0:0:0:
464,262,159549,5,0,1:0:0:0:
477,195,159666,2,0,P|435:198|397:261,1,120.000004577637,0|0,0:0|1:0,0:0:0:0:
367,322,160018,2,0,P|372:346|376:369,1,40,0|0,1:0|0:0,0:0:0:0:
369,371,160252,1,0,1:0:0:0:
254,284,160487,6,0,L|263:231,1,47.9999985351563,0|0,1:0|0:0,0:0:0:0:
116,73,160838,6,0,L|128:26,2,47.9999985351563,8|10|0,0:1|0:0|0:0,0:0:0:0:
156,126,161190,1,0,1:0:0:0:
8,238,161424,5,0,1:0:0:0:
55,192,161541,2,0,B|93:212|93:212|99:242|99:242|142:265,1,120.000004577637,0|8,0:0|0:1,0:0:0:0:
177,321,161893,2,0,B|203:306|203:306|207:285|207:285|238:269,1,80,0|0,1:0|1:0,0:0:0:0:
299,295,162244,5,8,0:1:0:0:
306,287,162362,2,0,L|295:229,1,47.9999985351563,0|0,1:0|0:0,0:0:0:0:
450,98,162713,5,0,0:0:0:0:
445,92,162830,2,0,B|439:66|463:43|463:43|384:32|361:110|399:144,1,215.999993408203,8|0,0:1|0:0,0:0:0:0:
478,277,163299,5,0,1:0:0:0:
375,251,163533,1,2,0:0:0:0:
503,174,163767,1,0,1:0:0:0:
401,149,164002,1,2,0:0:0:0:
308,338,164237,5,0,1:0:0:0:
256,229,164471,1,2,0:0:0:0:
159,332,164705,5,0,1:0:0:0:
244,302,164940,1,2,0:0:0:0:
35,162,165174,5,0,1:0:0:0:
172,227,165408,1,2,0:0:0:0:
123,152,165643,5,0,1:0:0:0:
83,236,165877,1,2,0:0:0:0:
325,152,166112,5,0,1:0:0:0:
223,27,166346,1,2,0:0:0:0:
387,1,166580,5,0,1:0:0:0:
314,59,166814,1,2,0:0:0:0:
463,218,167049,5,0,1:0:0:0:
390,84,167283,1,2,0:0:0:0:
385,174,167518,5,0,1:0:0:0:
467,129,167752,1,2,0:0:0:0:
394,253,167987,6,0,L|354:241,1,32,8|8,0:0|0:1,0:0:0:0:
346,251,168221,6,0,L|306:239,1,32,4|8,0:3|0:1,0:0:0:0:
293,179,168455,6,0,L|253:167,1,32,0|8,1:0|0:1,0:0:0:0:
201,246,168690,6,0,L|161:234,1,32,4|8,0:3|0:1,0:0:0:0:
48,138,168924,6,0,P|74:132|101:126,1,51.999997619629,8|8,0:0|0:1,0:0:0:0:
122,146,169158,6,0,P|148:140|175:134,1,51.999997619629,4|8,0:3|0:1,0:0:0:0:
163,50,169393,6,0,P|189:44|216:38,1,51.999997619629,0|8,1:0|0:1,0:0:0:0:
262,169,169627,6,0,P|288:163|315:157,1,51.999997619629,4|8,0:3|0:1,0:0:0:0:
390,61,169862,6,0,L|384:35,12,25.9999988098145,8|0|4|0|0|0|8|0|0|0|8|0|4,0:0|0:0|0:3|0:0|0:0|0:0|0:1|0:0|1:0|0:0|0:1|0:0|0:3,0:0:0:0:
428,122,170682,5,8,0:1:0:0:
378,132,170799,1,8,0:0:0:0:
363,181,170916,1,8,0:1:0:0:
397,218,171033,1,4,0:3:0:0:
447,207,171151,1,8,0:1:0:0:
461,158,171268,1,0,1:0:0:0:
497,262,171737,6,0,B|447:281|452:343|452:343|434:295|392:259|352:278|323:323|367:375|393:341,1,287.999991210938,12|8,0:0|0:0,0:0:0:0:
247,285,172908,6,0,L|267:131,1,143.999995605469,0|0,1:0|0:0,0:0:0:0:
211,93,173612,2,0,B|194:68|194:68|208:112,1,71.9999978027344,8|0,0:0|0:0,0:0:0:0:
60,290,174080,6,0,P|79:284|97:278,1,35.9999989013672,0|0,1:0|0:0,0:0:0:0:
42,229,174315,2,0,P|61:223|79:217,1,35.9999989013672,0|0,1:0|0:0,0:0:0:0:
146,349,174549,6,0,B|170:334|170:334|187:259,1,95.9999970703126,8|0,0:0|0:0,0:0:0:0:
247,374,174901,2,0,B|231:349|231:349|248:274,1,95.9999970703126,8|0,1:1|0:0,0:0:0:0:
229,222,175252,1,8,3:2:0:0:
386,102,175487,6,0,B|416:90|433:101|433:101|417:89|410:61,2,95.9999970703126,4|0|0,1:0|2:2|3:1,0:0:0:0:
289,39,175955,6,0,B|313:41|331:17|331:17|387:43|385:118|341:124,1,184.000003509522,8|0,1:0|2:0,0:0:0:0:
308,180,176307,1,0,3:0:0:0:
301,174,176424,6,0,B|270:162|253:173|253:173|269:161|276:133,2,95.9999970703126,0|0|0,0:0|2:0|3:1,0:0:0:0:
346,123,176893,6,0,L|318:314,1,184.000003509522,8|0,1:0|2:0,0:0:0:0:
363,353,177244,1,0,3:0:0:0:
368,361,177362,6,0,L|395:351,1,20,0|0,1:0|1:0,0:0:0:0:
439,289,177596,2,0,L|412:299,1,20,2|0,1:2|2:0,0:0:0:0:
278,360,177830,6,0,B|245:385|198:351|222:328|181:297|139:320,1,160,10|2,1:2|1:2,0:0:0:0:
76,262,178299,6,0,P|52:244|24:248,1,60.0000022888184,2|0,1:0|2:0,0:0:0:0:
18,276,178533,2,0,P|41:293|69:289,1,60.0000022888184,2|0,0:2|2:1,0:0:0:0:
171,179,178768,6,0,P|183:166|225:167,1,60.0000022888184,10|0,1:2|2:0,0:0:0:0:
239,230,179002,2,0,P|227:243|185:242,1,60.0000022888184,2|0,1:2|2:0,0:0:0:0:
81,108,179237,5,4,1:0:0:0:
235,24,179471,6,0,P|259:16|289:40,1,60.0000022888184,0|0,1:0|2:0,0:0:0:0:
249,93,179705,6,0,P|311:109|345:-4,1,200,8|0,1:0|1:0,0:0:0:0:
505,162,180057,5,0,2:0:0:0:
504,174,180174,2,0,B|469:235|383:213|348:135|431:92|455:158,1,216.000000823975,0|0,0:0|2:0,0:0:0:0:
249,236,180526,5,0,3:0:0:0:
242,241,180643,2,0,B|213:179|284:122|362:170|363:229|309:272|309:272|263:302|266:341|286:366|349:375|343:307,1,400,8|0,1:0|0:0,0:0:0:0:
65,326,181346,5,0,3:2:0:0:
22,273,181580,2,0,B|28:239|28:239|36:232|36:232|45:191,1,80,8|0,1:0|1:2,0:0:0:0:
21,111,182049,6,0,B|-7:80|23:-10|134:-12|143:88|98:83,1,216.000000823975,0|0,0:0|2:2,0:0:0:0:
121,180,182401,5,0,3:1:0:0:
116,187,182518,2,0,B|121:208|173:239|247:171|165:96|108:128|119:146|66:174|1:107|31:58|66:36|105:97,1,324.000001235962,8|0,1:0|2:0,0:0:0:0:
190,43,182987,6,0,B|196:23|208:15|208:15|195:22|174:12,2,63.9999980468751,0|2|0,0:0|2:0|3:1,0:0:0:0:
256,69,183455,6,0,B|338:154|397:78|360:24|309:85,1,184.000003509522,8|2,1:2|2:0,0:0:0:0:
391,145,183807,1,0,3:0:0:0:
392,153,183924,6,0,B|398:172|410:180|410:180|397:173|376:183,2,63.9999980468751,0|2|0,0:0|2:0|3:1,0:0:0:0:
502,271,184393,6,0,P|391:291|394:368,1,184.000003509522,8|2,1:2|2:0,0:0:0:0:
325,373,184744,1,0,3:0:0:0:
319,366,184862,6,0,L|300:376,3,11.9999996337891,0|0|0|0,0:0|0:0|0:2|0:1,0:0:0:0:
283,284,185330,6,0,L|256:326,1,47.9999985351563,8|0,1:0|2:0,0:0:0:0:
160,285,185565,6,0,L|183:329,1,47.9999985351563,0|0,1:0|0:0,0:0:0:0:
72,373,185799,6,0,P|85:292|105:214,1,160,2|2,1:0|2:0,0:0:0:0:
1,125,186151,5,0,1:1:0:0:
6,118,186268,2,0,B|44:114|63:156|63:156|43:80|105:45|105:45|88:56|124:90|75:84|77:107,1,256,0|2,1:0|1:2,0:0:0:0:
174,60,186737,5,4,0:0:0:0:
296,201,186971,6,0,P|272:209|242:185,1,60.0000022888184,0|0,0:2|1:1,0:0:0:0:
282,132,187205,6,0,P|220:116|186:229,1,200,8|0,1:0|1:0,0:0:0:0:
242,314,187557,5,0,2:0:0:0:
250,317,187674,2,0,P|292:294|467:278,1,216.000000823975,0|0,0:0|2:0,0:0:0:0:
480,337,188026,5,0,3:1:0:0:
473,342,188143,2,0,B|428:349|410:385|410:385|442:276|281:271|359:184|359:184|333:218|440:210|349:260|426:300,1,400,8|0,1:0|1:0,0:0:0:0:
297,365,188846,5,0,0:0:0:0:
250,317,189080,2,0,B|218:331|218:331|214:341|214:341|176:360,1,80,8|0,1:0|0:0,0:0:0:0:
84,191,189549,6,0,B|42:175|-5:214|38:307|105:269|161:269|152:150,1,256,0|0,0:0|2:0,0:0:0:0:
194,82,189901,5,0,3:1:0:0:
198,75,190017,2,0,B|249:-1|357:44|311:167|198:132|209:101|138:69|97:142,1,324.000001235962,8|0,1:0|2:0,0:0:0:0:
39,84,190487,6,0,P|46:53|51:31,1,47.9999985351563
105,115,190721,5,2,0:0:0:0:
107,126,190838,2,0,P|8:154|35:235,1,184.000003509522,0|0,3:1|0:0,0:0:0:0:
34,278,191190,2,0,L|25:211,1,60.0000022888184,0|0,1:0|3:0,0:0:0:0:
106,326,191424,6,0,L|98:374,3,47.9999985351563,0|0|2|0,0:0|0:0|0:0|0:2,0:0:0:0:
181,267,191893,6,0,L|177:239,1,23.9999992675781,8|0,1:2|0:0,0:0:0:0:
195,197,192127,2,0,L|198:220,1,23.9999992675781,0|0,1:0|2:0,0:0:0:0:
261,321,192362,6,0,B|286:363|379:371|402:263|328:252|307:297,1,191.999994140625,0|2,0:0|0:2,0:0:0:0:
394,225,192713,5,0,0:1:0:0:
401,228,192830,6,0,P|438:212|486:207,1,80,10|0,1:2|2:0,0:0:0:0:
458,144,193065,2,0,P|418:149|381:164,1,80,2|0,1:2|2:0,0:0:0:0:
234,115,193299,6,0,P|256:117|277:126,1,40,2|0,0:2|2:0,0:0:0:0:
287,63,193533,2,0,P|268:56|248:53,1,40,2|0,0:2|2:1,0:0:0:0:
392,10,193768,5,10,1:2:0:0:
241,182,194237,5,4,0:0:0:0:
23,187,194471,6,0,P|47:195|77:171,1,60.0000022888184,0|0,0:0|1:1,0:0:0:0:
37,118,194705,6,0,P|99:102|133:215,1,200,8|0,1:0|0:0,0:0:0:0:
15,263,195057,5,0,2:0:0:0:
25,255,195174,2,0,B|95:296|95:296|108:348|108:348|186:386,1,216.000000823975,0|0,0:0|2:0,0:0:0:0:
318,313,195526,5,0,3:1:0:0:
323,302,195643,2,0,B|333:197|238:216|222:192|222:192|235:221|174:293|279:328|279:328|317:337|316:379,1,400,8|0,1:0|0:0,0:0:0:0:
474,231,196346,5,0,3:0:0:0:
431,178,196580,2,0,B|437:144|437:144|445:137|445:137|454:96,1,80,8|0,1:0|0:0,0:0:0:0:
151,76,197049,6,0,B|208:2|295:53|295:53|267:86|295:118,1,216.000000823975,0|0,0:0|2:0,0:0:0:0:
366,118,197401,5,0,3:1:0:0:
377,107,197518,2,0,P|85:47|60:46,1,324.000001235962,8|0,1:0|2:0,0:0:0:0:
27,105,197987,6,0,B|9:104|0:116|0:116|7:104|4:83,2,63.9999980468751,2|0|0,0:0|3:0|0:1,0:0:0:0:
95,148,198455,6,0,P|75:223|52:334,1,184.000003509522,10|0,1:2|2:0,0:0:0:0:
113,353,198807,1,0,2:0:0:0:
111,360,198924,6,0,B|111:379|121:390|121:390|110:380|87:384,2,63.9999980468751,2|0|0,0:0|3:0|0:1,0:0:0:0:
150,257,199393,6,0,P|227:268|233:332,1,143.999995605469,10|0,1:2|2:0,0:0:0:0:
281,384,199744,1,0,3:0:0:0:
288,376,199862,6,0,L|277:315,3,40,2|0|0|0,0:0|0:0|0:0|0:1,0:0:0:0:
348,263,200330,6,0,L|337:324,3,40,10|0|0|0,1:2|2:0|1:0|2:0,0:0:0:0:
421,291,200799,5,0,0:0:0:0:
475,249,201033,2,0,B|490:256|502:248|502:248|490:256|485:280,1,60.0000022888184,2|0,0:0|0:1,0:0:0:0:
414,295,201268,6,0,L|438:87,1,204.000003890991,8|0,1:2|0:0,0:0:0:0:
382,37,201737,6,0,L|387:70,2,20,0|0|0,1:0|3:0|3:0,0:0:0:0:
316,28,202088,6,0,L|319:59,2,20,0|0|2,3:0|0:0|3:2,0:0:0:0:
255,2,202440,1,0,0:0:0:0:
194,68,202557,5,0,0:0:0:0:
199,77,202674,2,0,L|192:115,1,30,2|0,1:2|0:0,0:0:0:0:
73,275,203026,6,0,L|69:255,1,20,0|0,3:0|0:0,0:0:0:0:
103,198,203260,1,2,3:2:0:0:
409,356,203612,6,0,L|405:332,2,20,0|0|0,1:0|0:0|3:0,0:0:0:0:
457,244,203963,6,0,L|450:286,1,40,0|2,0:0|0:0,0:0:0:0:
319,217,204315,6,0,L|344:209,1,20
365,151,204549,5,2,1:1:0:0:
254,71,204817,6,0,L|255:60,2,11.4285714285714,0|0|0,1:0|0:0|0:0,0:0:0:0:
209,14,205018,5,0,1:0:0:0:
203,10,205252,5,2,1:0:0:0:
198,7,205487,5,2,1:2:0:0:
