osu file format v14

[General]
AudioFilename: audio.mp3
AudioLeadIn: 0
PreviewTime: 72362
Countdown: 0
SampleSet: Soft
StackLeniency: 0
Mode: 0
LetterboxInBreaks: 0
WidescreenStoryboard: 0

[Editor]
DistanceSpacing: 0.8
BeatDivisor: 4
GridSize: 8
TimelineZoom: 2.000005

[Metadata]
Title:Odo
TitleUnicode:踊
Artist:Ado
ArtistUnicode:Ado
Creator:Beren
Version:K.O.
Source:
Tags:lobelia Anya_Melfissa Anya Melfissa Kyutei DECO*27 Giga TeddyLoid かゆか 藍瀬 まなみ ORIHARA dance japanese rap pop
BeatmapID:2981274
BeatmapSetID:1450065

[Difficulty]
HPDrainRate:6
CircleSize:4
OverallDifficulty:8
ApproachRate:9.3
SliderMultiplier:2
SliderTickRate:1

[Events]
//Background and Video events
0,0,"bg.jpg",0,0
Video,-650,"mv.mp4"
//Break Periods
//Storyboard Layer 0 (Background)
//Storyboard Layer 1 (Fail)
//Storyboard Layer 2 (Pass)
//Storyboard Layer 3 (Foreground)
//Storyboard Layer 4 (Overlay)
//Storyboard Sound Samples

[TimingPoints]
-763,468.75,4,2,1,60,1,0
1111,-50,4,2,1,60,0,0
1462,-50,4,2,1,5,0,0
1579,-100,4,2,1,60,0,0
2751,-66.6666666666667,4,2,1,60,0,0
3220,-57.1428571428571,4,2,1,60,0,0
3923,-100,4,2,1,60,0,0
4861,-50,4,2,1,60,0,0
5212,-50,4,2,1,5,0,0
5329,-100,4,2,1,60,0,0
7907,-200,4,2,1,60,0,0
8611,-66.6666666666667,4,2,1,80,0,0
9079,-100,4,2,1,80,0,0
9548,-50,4,2,1,80,0,0
10017,-100,4,2,1,80,0,0
10486,-40,4,2,1,80,0,0
10954,-100,4,2,1,80,0,0
11423,-33.3333333333333,4,2,1,80,0,0
11892,-100,4,2,1,80,0,0
16111,-1000,4,2,1,80,0,0
16228,-1000,4,2,1,5,0,0
16345,-1000,4,2,1,80,0,0
16696,-1000,4,2,1,5,0,0
16814,-1000,4,2,1,80,0,0
17165,-1000,4,2,1,5,0,0
17282,-1000,4,2,1,80,0,0
17634,-1000,4,2,1,5,0,0
17751,-1000,4,2,1,80,0,0
17986,-40,4,2,1,80,0,0
18103,-40,4,2,1,5,0,0
18220,-66.6666666666667,4,2,1,80,0,0
18337,-66.6666666666667,4,2,1,5,0,0
18454,-200,4,2,1,80,0,0
19861,-66.6666666666667,4,2,1,60,0,0
20329,-66.6666666666667,4,2,0,60,0,0
20564,-100,4,2,1,60,0,0
21736,-66.6666666666667,4,2,1,60,0,0
22204,-66.6666666666667,4,2,0,60,0,0
22439,-100,4,2,1,60,0,0
23611,-66.6666666666667,4,2,1,60,0,0
24079,-66.6666666666667,4,2,0,60,0,0
24314,-100,4,2,1,60,0,0
25486,-66.6666666666667,4,2,1,60,0,0
25954,-66.6666666666667,4,2,0,60,0,0
26189,-100,4,2,1,60,0,0
27361,-66.6666666666667,4,2,1,60,0,0
27829,-66.6666666666667,4,2,0,60,0,0
28064,-66.6666666666667,4,2,1,60,0,0
28768,-66.6666666666667,4,2,0,60,0,0
28885,-66.6666666666667,4,2,1,60,0,0
29704,-66.6666666666667,4,2,0,60,0,0
29939,-66.6666666666667,4,2,1,60,0,0
30643,-66.6666666666667,4,2,0,60,0,0
30877,-66.6666666666667,4,2,1,60,0,0
31579,-66.6666666666667,4,2,0,60,0,0
31814,-66.6666666666667,4,2,1,60,0,0
32518,-66.6666666666667,4,2,0,60,0,0
32752,-66.6666666666667,4,2,1,60,0,0
34392,-50,4,2,1,60,0,0
35798,-100,4,2,1,60,0,0
36267,-50,4,2,1,60,0,0
37673,-100,4,2,1,60,0,0
38142,-50,4,2,1,60,0,0
38845,-100,4,2,1,60,0,0
41423,-66.6666666666667,4,2,1,60,0,0
41892,-50,4,2,1,60,0,0
45642,-100,4,2,1,60,0,0
48454,-50,4,2,1,60,0,0
48923,-100,4,2,1,60,0,0
49861,-50,4,2,1,60,0,0
50212,-50,4,2,1,60,0,0
50330,-100,4,2,1,60,0,0
51501,-66.6666666666667,4,2,1,60,0,0
51970,-57.1428571428571,4,2,1,60,0,0
52673,-100,4,2,1,60,0,0
53611,-50,4,2,1,60,0,0
53962,-50,4,2,1,60,0,0
54080,-100,4,2,1,60,0,0
56658,-200,4,2,1,60,0,0
57361,-50,4,2,1,60,0,0
57829,-100,4,2,1,60,0,0
58298,-40,4,2,1,60,0,0
58767,-100,4,2,1,60,0,0
59236,-33.3333333333333,4,2,1,60,0,0
59704,-100,4,2,1,60,0,0
60173,-28.5714285714286,4,2,1,60,0,0
60642,-100,4,2,1,60,0,0
64861,-100,4,2,1,40,0,0
65212,-100,4,2,1,5,0,0
65330,-83.3333333333333,4,2,1,45,0,0
65681,-83.3333333333333,4,2,1,5,0,0
65799,-71.4285714285714,4,2,1,50,0,0
66150,-71.4285714285714,4,2,1,5,0,0
66267,-62.5,4,2,1,55,0,0
66618,-62.5,4,2,1,5,0,0
66736,-55.5555555555556,4,2,1,60,0,0
67087,-55.5555555555556,4,2,1,5,0,0
67205,-50,4,2,1,65,0,0
67556,-50,4,2,1,5,0,0
67674,-45.4545454545455,4,2,1,70,0,0
68025,-45.4545454545455,4,2,1,5,0,0
68142,-41.6666666666667,4,2,1,75,0,0
68493,-41.6666666666667,4,2,1,5,0,0
68611,-38.4615384615385,4,2,1,80,0,0
69080,-35.7142857142857,4,2,1,80,0,0
69549,-33.3333333333333,4,2,1,80,0,0
70017,-31.25,4,2,1,80,0,0
70954,-100,4,2,1,80,0,0
71892,-66.6666666666667,4,2,1,80,0,0
72361,-50,4,1,0,80,0,0
73767,-66.6666666666667,4,1,0,80,0,0
74470,-50,4,1,0,80,0,0
75642,-66.6666666666667,4,1,0,80,0,0
76579,-50,4,1,0,80,0,0
78923,-45.4545454545455,4,1,0,80,0,0
79392,-41.6666666666667,4,1,0,80,0,0
79861,-50,4,1,0,80,0,0
81267,-66.6666666666667,4,1,0,80,0,0
81970,-50,4,1,0,80,0,0
83142,-66.6666666666667,4,1,0,80,0,0
84079,-50,4,1,0,80,0,0
87829,-100,4,2,1,80,0,0
92048,-66.6666666666667,4,2,1,80,0,0
92986,-100,4,2,1,80,0,0
93923,-66.6666666666667,4,2,1,80,0,0
94861,-50,4,2,1,80,0,0
95329,-100,4,2,1,80,0,0
96032,-50,4,2,1,80,0,0
97204,-100,4,2,1,80,0,0
97907,-50,4,2,1,80,0,0
98611,-100,4,2,1,80,0,0
99548,-66.6666666666667,4,2,1,80,0,0
100134,-50,4,2,1,80,0,0
100486,-100,4,2,1,80,0,0
101423,-66.6666666666667,4,2,1,80,0,0
102009,-50,4,2,1,80,0,0
102244,-50,4,2,1,5,0,0
102362,-50,4,2,1,60,0,0
104236,-100,4,2,1,60,0,0
104705,-100,4,2,0,60,0,0
104940,-100,4,2,1,60,0,0
106580,-100,4,2,0,60,0,0
106815,-100,4,2,1,60,0,0
108455,-100,4,2,0,60,0,0
108690,-100,4,2,1,60,0,0
110330,-100,4,2,0,60,0,0
110447,-100,4,2,1,60,0,0
110916,-100,4,2,1,80,0,0
111736,-80,4,2,1,60,0,0
112205,-80,4,2,0,60,0,0
112322,-80,4,2,1,60,0,0
114080,-80,4,2,0,60,0,0
114197,-80,4,2,1,60,0,0
115955,-80,4,2,0,60,0,0
116072,-80,4,2,1,60,0,0
117830,-80,4,2,0,60,0,0
117947,-80,4,2,1,60,0,0
119236,-133.333333333333,4,2,1,60,0,0
119705,-133.333333333333,4,2,0,60,0,0
119940,-133.333333333333,4,2,1,60,0,0
121346,-133.333333333333,4,2,0,60,0,0
121580,-133.333333333333,4,2,0,60,0,0
121815,-133.333333333333,4,2,1,60,0,0
123221,-133.333333333333,4,2,0,60,0,0
123690,-133.333333333333,4,2,1,60,0,0
125330,-133.333333333333,4,2,0,60,0,0
125447,-133.333333333333,4,2,1,60,0,0
127205,-133.333333333333,4,2,0,60,0,0
127440,-133.333333333333,4,2,1,60,0,0
129079,-117.647058823529,4,2,0,60,0,0
129197,-117.647058823529,4,2,1,60,0,0
129548,-105.263157894737,4,2,1,60,0,0
130017,-95.2380952380951,4,2,1,60,0,0
130955,-95.2380952380951,4,2,0,60,0,0
131190,-95.2380952380951,4,2,1,60,0,0
132830,-95.2380952380951,4,2,0,60,0,0
133065,-95.2380952380951,4,2,1,60,0,0
134236,-80,4,2,1,80,0,0
135173,-66.6666666666667,4,2,1,80,0,0
136111,-57.1428571428571,4,2,1,80,0,0
137048,-50,4,2,1,80,0,0
138923,-44.4444444444445,4,2,1,80,0,0
139392,-40,4,2,1,80,0,0
139861,-50,4,2,1,75,0,0
140096,-50,4,2,1,5,0,0
140212,-66.6666666666667,4,2,1,70,0,0
140447,-66.6666666666667,4,2,1,5,0,0
140564,-100,4,2,1,65,0,0
140799,-100,4,2,1,5,0,0
140915,-200,4,2,1,60,0,0
141151,-200,4,2,1,5,0,0
141268,-200,4,2,1,80,0,0
141501,-66.6666666666667,4,2,1,80,0,0
142790,-100,4,2,1,80,0,0
144079,-66.6666666666667,4,2,1,80,0,0
144782,-100,4,2,1,80,0,0
146423,-66.6666666666667,4,2,1,80,0,0
147361,-100,4,2,1,80,0,0
148298,-66.6666666666667,4,2,1,80,0,0
149236,-50,4,2,1,80,0,0
149704,-66.6666666666667,4,2,1,80,0,0
150407,-50,4,2,1,80,0,0
152986,-100,4,2,1,80,0,0
153923,-66.6666666666667,4,2,1,80,0,0
154392,-50,4,2,1,80,0,0
154861,-100,4,2,1,80,0,0
155798,-66.6666666666667,4,2,1,80,0,0
156267,-50,4,2,1,80,0,0
156736,-100,4,2,1,60,0,0
157205,-100,4,2,0,60,0,0
157440,-100,4,2,1,60,0,0
159080,-100,4,2,0,60,0,0
159315,-100,4,2,1,60,0,0
160955,-100,4,2,0,60,0,0
161190,-100,4,2,1,60,0,0
163182,-100,4,2,1,5,0,0
163299,-100,4,2,1,60,0,0
169978,-66.6666666666667,4,2,1,80,0,0
171267,-50,4,2,1,80,0,0
171736,-100,4,2,1,80,0,0
172674,-100,4,2,1,5,0,0
172908,-100,4,2,1,80,0,0
173377,-100,4,2,1,5,0,0
173612,-100,4,2,1,80,0,0
173846,-100,4,2,1,5,0,0
174079,-66.6666666666667,4,2,1,80,0,0
174197,-66.6666666666667,4,2,1,5,0,0
174315,-66.6666666666667,4,2,1,80,0,0
174432,-66.6666666666667,4,2,1,5,0,0
174549,-66.6666666666667,4,2,1,80,0,0
175486,-50,4,1,0,80,0,0
178298,-45.4545454545455,4,1,0,80,0,0
178767,-41.6666666666667,4,1,0,80,0,0
179236,-50,4,1,0,80,0,0
180642,-66.6666666666667,4,1,0,80,0,0
181345,-50,4,1,0,80,0,0
182517,-66.6666666666667,4,1,0,80,0,0
182986,-50,4,1,0,80,0,0
188142,-66.6666666666667,4,1,0,80,0,0
188845,-50,4,1,0,80,0,0
190017,-66.6666666666667,4,1,0,80,0,0
190486,-50,4,1,0,80,0,0
193767,-66.6666666666667,4,2,0,80,0,0
194236,-50,4,1,0,80,0,0
195642,-66.6666666666667,4,1,0,80,0,0
196345,-50,4,1,0,80,0,0
197517,-66.6666666666667,4,1,0,80,0,0
197986,-50,4,1,0,80,0,0
201736,-100,4,2,1,80,0,0
204783,-100,4,2,1,60,0,0
205487,-100,4,2,1,40,0,0

[Colours]
Combo1 : 90,194,224
Combo2 : 82,73,182
Combo3 : 249,45,121
Combo4 : 228,211,58

[HitObjects]
173,80,1112,6,0,P|234:35|192:148,1,300,6|0,1:0|0:0,0:0:0:0:
2,171,1580,6,0,B|50:135|119:158|127:210|135:264|203:286|255:254,1,300,10|2,3:1|0:3,0:0:0:0:
255,253,2518,1,8,3:1:0:0:
487,125,2752,6,0,P|417:130|401:199,1,150.000005722046,2|8,0:0|3:1,0:0:0:0:
483,111,3221,6,0,P|421:106|387:199,1,175.00000166893,2|8,0:0|3:1,0:0:0:0:
403,379,3690,5,4,1:3:0:0:
402,379,3924,2,0,P|391:330|356:295,1,100,0|4,3:0|1:3,0:0:0:0:
255,253,4393,1,8,0:0:0:0:
402,379,4627,1,4,1:3:0:0:
339,80,4862,6,0,P|277:35|319:148,1,300,6|0,1:0|0:0,0:0:0:0:
510,171,5330,6,0,B|461:135|392:158|384:210|376:264|308:286|256:254,1,300,10|4,3:1|0:3,0:0:0:0:
256,255,6268,1,8,3:1:0:0:
0,152,6737,5,2,1:2:0:0:
20,33,6971,1,0,3:2:0:0:
192,125,7205,1,8,1:1:0:0:
140,17,7440,1,0,3:0:0:0:
106,209,7674,1,2,1:2:0:0:
106,209,7908,2,0,L|118:305,1,50,2|8,1:2|3:2,0:0:0:0:
112,258,8377,1,2,0:2:0:0:
464,384,8612,6,0,P|412:331|339:321,1,150.000005722046,8|0,0:3|0:0,0:0:0:0:
224,352,9080,2,0,P|240:344|224:320,2,50,8|0|2,0:0|0:0|0:0,0:0:0:0:
480,168,9549,6,0,P|382:166|304:226,1,200,8|0,0:3|0:0,0:0:0:0:
224,352,10018,2,0,P|240:344|224:320,2,50,8|0|2,0:0|0:0|0:0,0:0:0:0:
304,16,10487,6,0,P|216:101|200:222,1,250,8|0,0:3|0:0,0:0:0:0:
224,352,10955,2,0,P|240:344|224:320,2,50,8|0|2,0:0|0:0|0:0,0:0:0:0:
24,24,11424,6,0,P|22:170|111:287,1,300.000011444092,8|0,0:3|0:0,0:0:0:0:
224,352,11893,2,0,P|240:344|224:320,2,50,8|0|2,0:0|0:3|0:2,0:3:0:0:
304,16,12362,5,10,1:2:0:0:
480,169,12596,1,4,0:3:0:0:
246,149,12830,1,8,0:0:0:0:
447,27,13065,1,4,0:3:0:0:
358,245,13299,5,8,0:0:0:0:
98,108,13533,1,4,0:3:0:0:
102,353,13768,1,8,0:0:0:0:
246,149,14002,1,4,0:3:0:0:
8,229,14237,5,12,0:0:0:0:
16,240,14471,1,8,0:2:0:0:
248,306,14705,1,8,0:0:0:0:
240,317,14940,1,4,1:3:0:0:
496,48,15174,5,8,0:0:0:0:
488,59,15408,1,8,1:2:0:0:
256,125,15643,1,8,0:0:0:0:
264,136,15877,1,4,1:3:0:0:
424,240,16112,6,0,L|416:240,1,5,8|0,0:2|0:0,0:0:0:0:
419,240,16346,1,2,0:3:0:0:
88,144,16580,6,0,L|96:144,1,5,8|0,0:2|0:0,0:0:0:0:
93,144,16815,1,2,0:3:0:0:
102,353,17049,6,0,L|110:353,1,5,8|0,0:2|0:0,0:0:0:0:
107,353,17283,1,2,0:3:0:0:
408,32,17518,6,0,L|400:32,1,5,8|0,0:2|0:0,0:0:0:0:
403,32,17752,1,2,0:3:0:0:
208,32,17987,6,0,L|208:200,1,125,8|0,0:0|0:0,0:0:0:0:
304,208,18221,6,0,L|304:133,1,75.0000028610231,2|0,0:3|0:0,0:0:0:0:
255,302,18455,6,2,B|251:310|251:310|259:310|259:310|251:318|251:318|259:318|259:318|251:326|251:326|259:326|259:326|251:334|251:334|259:334|259:334|251:342|251:342|259:342|259:342|255:350|255:350,1,100,0|0,0:1|0:2,0:1:0:0:
464,184,19192,5,2,1:0:0:0:
424,176,19259,1,0,1:0:0:0:
384,184,19326,1,0,1:0:0:0:
352,208,19393,1,2,1:0:0:0:
255,302,19627,1,0,1:2:0:0:
96,152,19862,6,0,B|60:121|89:73|145:60|201:121|155:201,1,225.000008583069,4|8,1:0|0:1,0:0:0:0:
96,368,20330,2,0,P|58:306|82:238,1,150.000005722046,10|8,0:0|0:1,0:0:0:0:
156,198,20682,1,8,0:1:0:0:
155,295,20799,2,0,L|256:302,1,100,0|8,1:0|0:1,0:0:0:0:
336,256,21151,1,8,1:1:0:0:
338,353,21268,2,0,L|439:360,1,100,0|0,1:0|1:0,0:0:0:0:
416,48,21737,6,0,B|452:17|423:-31|367:-44|311:17|357:97,1,225.000008583069,0|8,1:0|0:1,0:0:0:0:
413,264,22205,2,0,P|451:202|427:134,1,150.000005722046,10|8,0:0|0:1,0:0:0:0:
355,94,22557,1,8,0:1:0:0:
354,191,22674,2,0,L|253:198,1,100,0|8,1:0|0:1,0:0:0:0:
173,144,23026,1,0,1:0:0:0:
171,249,23143,2,0,L|70:256,1,100,0|0,1:0|1:0,0:0:0:0:
8,104,23612,6,0,B|-29:49|21:2|21:2|91:6|99:87,1,225.000008583069,0|8,1:0|0:1,0:0:0:0:
229,153,24080,2,0,B|251:119|220:90|220:90|177:92|172:142,1,150.000005722046,10|8,0:0|0:1,0:0:0:0:
171,249,24432,1,8,0:1:0:0:
228,336,24549,2,0,P|276:348|328:328,1,100,0|8,1:0|0:1,0:0:0:0:
322,332,24901,1,8,1:1:0:0:
422,352,25018,2,0,P|464:326|487:275,1,100,0|0,1:0|1:0,0:0:0:0:
504,104,25487,6,0,B|541:49|491:2|491:2|421:6|413:87,1,225.000008583069,0|8,1:0|0:1,0:0:0:0:
283,153,25955,2,0,B|260:119|291:90|291:90|334:92|339:142,1,150.000005722046,10|8,0:0|0:1,0:0:0:0:
341,249,26307,1,10,1:1:0:0:
284,336,26424,2,0,P|236:348|184:328,1,100,2|8,1:0|0:1,0:0:0:0:
190,332,26776,1,2,1:0:0:0:
90,352,26893,2,0,P|47:326|24:275,1,100,2|0,1:0|1:0,0:0:0:0:
96,70,27362,6,0,P|160:22|136:110,1,225.000008583069,4|8,1:0|0:1,0:0:0:0:
80,192,27830,1,10,1:2:0:0:
80,192,28065,1,8,0:1:0:0:
176,272,28182,1,8,0:1:0:0:
284,336,28299,2,0,B|326:278|266:251|309:194,1,150.000005722046,0|8,1:0|0:1,0:0:0:0:
176,272,28651,1,8,0:1:0:0:
284,336,28768,2,0,B|326:278|266:251|309:194,1,150.000005722046,10|0,1:2|1:0,0:0:0:0:
416,70,29237,6,0,P|352:22|376:110,1,225.000008583069,0|8,1:0|0:1,0:0:0:0:
432,192,29705,1,10,1:2:0:0:
432,192,29940,1,8,0:1:0:0:
336,272,30057,1,8,0:1:0:0:
228,336,30174,2,0,B|185:278|245:251|202:194,1,150.000005722046,0|8,1:0|0:1,0:0:0:0:
336,272,30526,1,0,1:0:0:0:
228,336,30643,2,0,B|185:278|245:251|202:194,1,150.000005722046,10|0,1:2|1:0,0:0:0:0:
64,60,31112,5,0,1:0:0:0:
64,60,31463,1,8,1:1:0:0:
12,142,31580,2,0,P|88:162|140:118,1,150.000005722046,10|8,0:0|0:1,0:0:0:0:
372,110,31932,1,8,0:1:0:0:
424,192,32049,2,0,P|348:212|296:168,1,150.000005722046,0|8,1:0|0:1,0:0:0:0:
153,275,32401,1,0,1:0:0:0:
101,357,32518,2,0,P|177:377|229:333,1,150.000005722046,10|8,1:2|0:1,0:0:0:0:
424,192,32987,5,8,1:2:0:0:
480,244,33104,1,0,1:0:0:0:
408,264,33221,1,8,1:2:0:0:
153,275,33455,5,8,0:0:0:0:
472,368,33690,1,4,0:3:0:0:
282,25,33924,5,10,0:1:0:0:
200,62,34041,1,8,0:1:0:0:
209,152,34158,1,2,1:0:0:0:
297,170,34276,1,0,1:0:0:0:
342,92,34393,6,0,B|440:64|448:192|520:96|480:16|432:56|400:108,1,200,10|2,0:1|0:3,0:0:0:0:
80,48,34862,6,0,B|91:111|91:111|69:171|69:171|88:282,1,200,4|2,1:3|0:0,0:0:0:0:
352,384,35213,1,8,0:1:0:0:
266,364,35330,2,0,B|253:293|253:293|275:232|275:232|264:169,1,200,4|4,1:3|1:3,0:0:0:0:
272,144,35799,6,0,L|153:164,1,100,4|2,1:3|0:0,0:0:0:0:
104,264,36151,5,8,0:1:0:0:
104,264,36268,2,0,L|-14:284,1,100,2|0,1:1|0:0,0:0:0:0:
120,280,36502,2,0,L|1:300,1,100,2|0,1:1|0:0,0:0:0:0:
80,48,36737,6,0,B|137:65|175:31|175:31|200:76|256:78,1,200,4|2,1:3|0:0,0:0:0:0:
488,208,37088,1,8,0:1:0:0:
408,264,37205,2,0,B|350:281|312:247|312:247|287:292|231:294,1,200,4|4,1:3|1:3,0:0:0:0:
216,312,37674,6,0,L|195:193,1,100,4|2,1:3|0:0,0:0:0:0:
80,168,38026,5,8,0:1:0:0:
80,168,38143,2,0,L|59:49,1,100,2|0,1:2|0:0,0:0:0:0:
96,152,38377,2,0,L|75:33,1,100,2|0,0:2|0:0,0:0:0:0:
256,78,38612,5,8,0:0:0:0:
257,96,38846,5,2,0:0:0:0:
168,216,38963,1,8,0:1:0:0:
311,248,39080,2,0,L|409:265,1,100,4|4,1:3|0:3,0:0:0:0:
376,144,39549,5,8,0:0:0:0:
360,152,39783,5,2,0:0:0:0:
216,312,39901,1,8,0:1:0:0:
152,112,40018,2,0,L|131:-7,1,100,4|4,1:3|0:3,0:0:0:0:
310,143,40487,6,0,L|359:151,1,50,8|0,0:0|0:0,0:0:0:0:
456,200,40721,1,2,0:0:0:0:
448,80,40838,1,8,0:1:0:0:
248,272,40955,2,0,L|216:310,1,50,4|0,1:3|0:0,0:0:0:0:
169,158,41190,2,0,L|151:111,1,50,4|0,1:3|0:0,0:0:0:0:
310,143,41424,6,0,L|393:156,1,75.0000028610231,10|0,1:1|0:0,0:0:0:0:
373,68,41658,2,0,L|456:81,1,75.0000028610231,2|8,1:1|0:1,0:0:0:0:
248,272,41893,6,0,L|147:288,1,100,10|0,1:1|0:0,0:0:0:0:
169,158,42127,2,0,L|68:174,1,100,10|0,0:1|0:0,0:0:0:0:
248,88,42362,6,0,P|280:125|272:173,1,100,12|0,0:0|0:0,0:0:0:0:
264,85,42596,2,0,P|295:121|287:169,1,100,2|8,0:0|0:1,0:0:0:0:
248,272,42830,1,4,1:3:0:0:
128,208,42947,1,0,0:0:0:0:
32,304,43065,1,4,0:3:0:0:
152,376,43182,1,0,0:0:0:0:
344,384,43299,6,0,L|360:283,1,100,8|0,0:0|0:0,0:0:0:0:
360,384,43533,2,0,L|376:283,1,100,2|8,0:0|0:1,0:0:0:0:
392,168,43768,1,4,1:3:0:0:
512,104,43885,1,0,0:0:0:0:
416,0,44002,1,4,0:3:0:0:
296,72,44119,1,0,0:0:0:0:
224,217,44237,6,0,B|176:225|176:225|127:207,1,100,8|0,0:0|0:0,0:0:0:0:
224,233,44471,2,0,B|176:241|176:241|127:223,1,100,2|8,0:0|0:1,0:0:0:0:
62,69,44705,1,4,1:3:0:0:
48,80,44940,5,4,0:3:0:0:
0,256,45057,1,0,0:0:0:0:
224,232,45174,2,0,P|328:240|352:320,1,200,8|2,0:0|0:0,0:0:0:0:
216,376,45526,1,8,0:1:0:0:
344,344,45643,6,0,L|464:328,1,100,4|4,1:3|0:3,0:0:0:0:
464,344,46112,5,8,0:0:0:0:
443,330,47987,5,8,1:2:0:0:
448,280,48104,1,0,1:0:0:0:
456,224,48221,1,8,1:2:0:0:
464,168,48338,1,0,1:0:0:0:
480,64,48455,6,0,B|512:40|536:104|456:152|480:0|328:88,1,200,10|2,0:0|0:3,0:0:0:0:
32,208,48924,6,0,P|81:210|123:185,1,100,2|2,1:0|0:0,0:0:0:0:
32,208,49276,1,8,0:1:0:0:
175,111,49393,2,0,P|191:55|175:-1,1,100,8|0,0:0|0:0,0:0:0:0:
464,168,49862,6,0,B|404:197|404:197|389:195|389:195|343:217|343:217|408:248|408:248|420:262|420:262|492:296,1,300,14|0,0:1|0:0,0:0:0:0:
322,375,50330,2,0,B|319:343|301:320|301:320|299:296|312:271|312:271|310:239|292:217|292:217|290:193|303:167|303:167|301:143|283:121|283:121|281:97|303:71|303:71,1,300,10|4,3:1|0:3,0:0:0:0:
289,94,51268,1,8,3:1:0:0:
40,112,51502,6,0,P|110:117|126:186,1,150.000005722046,2|8,0:0|0:1,0:0:0:0:
44,98,51971,6,0,P|106:93|140:186,1,175.00000166893,2|8,0:0|1:1,0:0:0:0:
223,290,52440,5,4,1:3:0:0:
223,290,52674,2,0,L|232:400,1,100,2|4,0:3|1:3,0:0:0:0:
352,336,53143,1,8,0:0:0:0:
223,290,53377,1,4,1:3:0:0:
48,216,53612,6,0,B|108:187|108:187|123:189|123:189|169:167|169:167|104:136|104:136|92:122|92:122|20:88,1,300,6|0,1:0|0:0,0:0:0:0:
190,9,54080,2,0,B|193:41|211:64|211:64|213:88|200:113|200:113|202:145|220:167|220:167|222:191|209:217|209:217|211:241|229:263|229:263|231:287|209:313|209:313,1,300,2|4,3:1|0:3,0:0:0:0:
223,290,55018,1,8,3:1:0:0:
512,232,55487,5,2,1:2:0:0:
492,351,55721,1,0,0:0:0:0:
320,259,55955,1,2,1:2:0:0:
372,367,56190,1,0,0:0:0:0:
406,175,56424,1,2,1:2:0:0:
406,175,56658,2,0,L|394:79,1,50,2|10,1:2|1:2,0:0:0:0:
400,126,57127,1,4,1:3:0:0:
240,24,57362,6,0,B|183:28|183:28|183:20|183:20|174:21|174:21|175:29|175:29|135:32|135:32|136:40|136:40|129:41|129:41|127:33|127:33|72:38,1,200,8|0,0:3|0:0,0:0:0:0:
16,120,57830,2,0,B|0:136|0:136|0:108,2,50,8|0|2,0:0|0:0|0:0,0:0:0:0:
320,128,58299,6,0,B|250:133|250:133|249:123|249:123|238:124|238:124|240:134|240:134|190:138|190:138|190:147|190:147|180:148|180:148|180:139|180:139|109:145,1,250,8|0,0:3|0:0,0:0:0:0:
16,120,58768,2,0,B|0:136|0:136|0:108,2,50,8|0|2,0:0|0:0|0:0,0:0:0:0:
400,232,59237,6,0,B|316:238|316:238|315:226|315:226|303:227|303:227|303:239|303:239|244:245|244:245|245:255|245:255|233:257|233:257|232:246|232:246|148:253,1,300.000011444092,8|0,0:3|0:0,0:0:0:0:
56,344,59705,2,0,B|40:360|40:360|40:332,2,50,8|0|2,0:0|0:0|0:0,0:0:0:0:
480,336,60174,6,0,B|381:343|381:343|380:329|380:329|367:330|367:330|367:344|367:344|299:350|299:350|300:364|300:364|286:365|286:365|284:351|284:351|188:358,1,350.00000333786,8|0,0:3|0:0,0:0:0:0:
56,344,60643,2,0,B|40:360|40:360|40:332,2,50,8|0|2,0:0|0:0|0:0,0:0:0:0:
400,126,61112,5,8,1:2:0:0:
384,120,61346,1,4,0:3:0:0:
304,232,61580,1,8,0:0:0:0:
288,240,61815,1,4,0:3:0:0:
152,160,62049,5,8,0:0:0:0:
136,152,62283,1,4,0:3:0:0:
16,288,62518,1,8,0:0:0:0:
0,296,62752,1,6,0:3:0:0:
400,126,62987,5,12,0:0:0:0:
119,205,63221,1,8,1:2:0:0:
393,306,63455,1,8,0:0:0:0:
230,63,63690,1,4,1:3:0:0:
221,355,63924,5,8,0:0:0:0:
436,109,64158,1,8,1:2:0:0:
83,208,64393,1,8,0:0:0:0:
428,335,64627,1,4,1:3:0:0:
223,29,64862,6,0,L|73:42,1,150,2|0,3:2|3:0,3:0:0:0:
64,64,65330,6,0,L|251:47,1,179.999994506836,2|0,3:2|3:0,3:0:0:0:
384,233,65799,6,0,L|368:24,1,209.999993591309,2|0,3:2|3:0,3:0:0:0:
386,1,66268,6,0,L|408:240,1,240,2|0,3:2|3:0,3:0:0:0:
203,354,66737,6,0,L|472:328,1,269.999991760254,2|0,3:2|3:0,3:0:0:0:
490,348,67205,6,0,L|192:376,1,300,2|0,3:2|3:0,3:0:0:0:
8,32,67674,6,0,L|37:360,1,330.000010070801,2|0,3:2|3:0,3:0:0:0:
64,368,68143,6,0,L|30:10,1,359.999989013672,2|0,3:2|3:0,3:0:0:0:
136,160,68612,6,0,P|200:163|256:194,1,129.999994049073,0|0,1:0|0:0,0:0:0:0:
392,185,68846,2,0,P|422:241|423:306,1,129.999994049073,2|0,0:0|0:0,0:0:0:0:
220,324,69080,6,0,P|223:255|256:194,1,139.999995727539,0|0,1:0|0:0,0:0:0:0:
246,49,69315,2,0,P|306:16|375:15,1,139.999995727539,2|0,0:0|0:0,0:0:0:0:
395,234,69549,6,0,P|321:229|256:194,1,150.000005722046,0|0,1:0|0:0,0:0:0:0:
100,205,69783,2,0,P|65:140|64:65,1,150.000005722046,2|0,0:0|0:0,0:0:0:0:
298,45,70018,6,0,P|294:123|256:192,1,160,0|0,1:0|0:0,0:0:0:0:
267,349,70252,2,0,P|202:383|116:383,1,160,2|0,0:0|0:0,0:0:0:0:
5,374,70487,5,8,0:0:0:0:
100,205,70643,1,0,1:0:0:0:
254,193,70799,1,0,1:0:0:0:
334,77,70955,6,0,P|328:40|320:72,1,100,0|0,1:0|1:0,0:0:0:0:
320,112,71268,1,0,2:0:0:0:
344,152,71346,1,0,2:0:0:0:
384,168,71424,2,0,L|416:176,7,25,2|0|0|0|0|0|0|0,1:0|0:0|0:0|0:0|0:0|0:0|0:0|0:0,0:0:0:0:
384,168,71893,6,0,L|376:272,1,75.0000028610231,2|0,1:0|0:0,0:0:0:0:
480,304,72127,2,0,L|472:408,1,75.0000028610231,2|0,1:0|0:0,0:0:0:0:
267,348,72362,6,0,P|217:350|173:328,1,100,4|0,1:0|2:0,0:0:0:0:
32,328,72596,2,0,P|5:286|3:237,1,100,2|0,3:0|2:1,0:0:0:0:
128,8,72830,6,0,P|105:51|107:101,1,100,8|0,1:1|2:0,0:0:0:0:
230,172,73065,2,0,P|257:213|301:236,1,100,0|0,1:0|2:0,0:0:0:0:
512,96,73299,6,0,P|520:24|448:88,1,200,0|0,1:0|2:0,0:0:0:0:
405,173,73651,1,0,3:0:0:0:
464,344,73768,2,0,B|520:328|528:240|432:208|360:272|416:304|368:376|264:328,1,300.000011444092,8|0,1:0|1:0,0:0:0:0:
74,301,74471,6,0,P|30:278|2:236,1,100,0|0,3:0|2:1,0:0:0:0:
77,101,74705,2,0,P|80:150|106:192,1,100,8|0,1:0|2:0,0:0:0:0:
197,109,74940,2,0,P|194:59|216:15,1,100,0|0,1:0|2:0,0:0:0:0:
496,72,75174,6,0,B|455:104|404:77|404:77|354:49|309:85,1,200,0|0,1:0|2:0,0:0:0:0:
197,109,75526,1,0,3:0:0:0:
74,301,75643,2,0,B|31:336|80:386|144:370|168:298|88:234,1,225.000008583069,8|0,1:0|2:0,0:0:0:0:
77,101,76112,5,2,0:0:0:0:
215,15,76268,1,0,3:0:0:0:
224,176,76424,1,0,3:0:0:0:
465,102,76580,2,0,B|401:107|401:107|335:89|335:89|263:95,1,200,10|0,1:2|2:0,0:0:0:0:
171,99,76932,1,0,3:0:0:0:
297,369,77049,5,2,0:0:0:0:
435,283,77205,1,0,3:0:0:0:
288,208,77362,1,0,3:1:0:0:
47,282,77518,2,0,B|111:277|111:277|177:295|177:295|249:289,1,200,10|0,1:2|2:0,0:0:0:0:
341,285,77869,1,0,3:0:0:0:
488,168,77987,6,0,P|439:163|397:188,1,100
488,152,78221,2,0,P|439:147|397:172,1,100,2|0,3:2|2:0,0:0:0:0:
392,366,78455,6,0,P|427:331|434:282,1,100,10|0,1:2|2:0,0:0:0:0:
288,208,78690,2,0,P|252:242|245:291,1,100,2|0,1:2|2:0,0:0:0:0:
396,188,78924,6,0,P|391:133|355:94,1,110.000003356934,2|0,1:0|3:0,0:0:0:0:
112,216,79158,2,0,P|114:268|151:308,1,110.000003356934,2|0,3:2|2:0,0:0:0:0:
191,64,79393,6,0,P|143:29|85:30,1,119.999996337891,10|0,1:2|2:0,0:0:0:0:
0,352,79627,2,0,P|47:385|106:384,1,119.999996337891,2|0,1:2|2:0,0:0:0:0:
381,219,79862,6,0,L|331:305,1,100,4|0,0:0|2:0,0:0:0:0:
162,302,80096,2,0,L|112:216,1,100,0|0,3:0|2:1,0:0:0:0:
478,315,80330,6,0,L|391:365,1,100,8|0,1:0|2:0,0:0:0:0:
244,278,80565,2,0,L|244:179,1,100,0|0,1:0|2:0,0:0:0:0:
436,59,80799,6,0,B|484:67|524:35|524:35|532:83|460:115,1,200,0|0,0:0|2:0,0:0:0:0:
296,56,81151,1,0,3:0:0:0:
157,97,81268,2,0,B|149:75|125:73|125:73|181:57|221:113|221:113|253:161|317:161|349:137,1,300.000011444092,8|0,1:0|0:0,0:0:0:0:
511,235,81971,6,0,L|415:205,1,100,0|0,3:0|0:1,0:0:0:0:
328,40,82205,2,0,L|350:137,1,100,8|0,1:0|2:0,0:0:0:0:
244,299,82440,2,0,L|317:230,1,100,0|0,1:0|2:0,0:0:0:0:
248,56,82674,6,0,B|194:35|194:35|206:90|206:90|200:99|200:99|218:177,1,200,0|0,0:0|2:0,0:0:0:0:
244,299,83026,1,0,3:0:0:0:
248,56,83143,2,0,B|191:65|191:65|193:73|193:73|138:83|138:83|136:75|136:75|42:92,1,225.000008583069,8|0,1:1|0:0,0:0:0:0:
5,259,83612,5,2,0:0:0:0:
135,357,83768,1,0,3:0:0:0:
158,197,83924,1,0,3:0:0:0:
392,320,84080,2,0,B|344:340|301:301|301:301|260:261|208:284,1,200,10|0,1:2|0:0,0:0:0:0:
135,357,84432,1,0,3:0:0:0:
353,186,84549,5,2,0:0:0:0:
506,124,84705,1,0,3:0:0:0:
376,26,84862,1,0,3:0:0:0:
121,64,85018,2,0,B|157:102|212:82|212:82|265:60|304:101,1,200,10|0,1:2|2:0,0:0:0:0:
353,186,85369,1,0,3:0:0:0:
400,352,85487,5,4,0:0:0:0:
400,352,86424,2,2,L|424:304,1,50,2|2,0:0|2:0,0:0:0:0:
465,162,86692,5,0,1:0:0:0:
425,154,86759,1,0,1:0:0:0:
385,162,86826,1,0,1:0:0:0:
353,186,86893,1,0,1:0:0:0:
224,288,87127,1,4,0:3:0:0:
55,117,87362,5,8,0:0:0:0:
55,117,87830,6,0,L|95:117,1,33.3333333333333,0|0,1:0|0:0,0:0:0:0:
47,133,87987,2,0,L|81:153,1,33.3333333333333,0|4,0:0|0:3,0:0:0:0:
39,149,88143,2,0,L|59:183,1,33.3333333333333
126,307,88299,6,0,L|138:377,2,50,8|4|0,0:0|0:3|0:0,0:0:0:0:
200,192,88651,1,4,0:3:0:0:
192,216,88768,2,0,L|286:232,1,50,0|4,1:0|0:3,0:0:0:0:
328,288,89002,1,0,0:0:0:0:
448,56,89237,6,0,L|460:-14,2,50,8|4|0,0:0|0:3|0:0,0:0:0:0:
445,194,89588,1,4,0:3:0:0:
445,194,89705,6,0,L|416:210,1,33.3333333333333,0|0,1:0|0:0,0:0:0:0:
417,174,89862,2,0,L|400:202,1,33.3333333333333,0|4,0:0|0:3,0:0:0:0:
385,162,90018,2,0,L|385:195,1,33.3333333333333
432,320,90174,6,0,L|502:308,2,50,8|4|0,0:0|0:3|0:0,0:0:0:0:
328,288,90526,1,4,0:3:0:0:
304,296,90643,2,0,L|288:202,1,50,0|4,1:0|0:3,0:0:0:0:
385,162,90877,1,0,3:0:0:0:
256,56,91112,6,0,L|232:51,1,25,8|0,0:0|0:0,0:0:0:0:
223,58,91229,2,0,L|198:53,1,25,8|0,0:1|0:0,0:0:0:0:
190,60,91346,2,0,L|134:50,1,50,8|8,0:1|0:1,0:0:0:0:
0,192,91580,6,0,L|24:188,1,25,0|0,1:0|0:0,0:0:0:0:
33,194,91697,2,0,L|58:190,1,25,8|0,0:1|0:0,0:0:0:0:
66,196,91815,2,0,L|122:187,1,50,8|8,0:1|0:1,0:0:0:0:
216,224,92049,6,0,P|227:260|220:297,1,75.0000028610231,8|0,0:0|0:0,0:0:0:0:
291,374,92283,2,0,P|315:346|324:310,1,75.0000028610231,4|0,0:3|0:0,0:0:0:0:
411,119,92518,6,0,P|417:156|407:192,1,75.0000028610231,0|0,1:0|0:0,0:0:0:0:
499,106,92752,2,0,P|490:70|466:42,1,75.0000028610231,4|0,0:3|0:0,0:0:0:0:
288,0,92987,6,0,L|293:24,1,25,8|0,0:0|0:0,0:0:0:0:
286,33,93104,2,0,L|291:58,1,25,8|0,0:1|0:0,0:0:0:0:
284,66,93221,2,0,L|294:122,1,50,8|8,0:1|0:1,0:0:0:0:
324,309,93455,1,0,1:0:0:0:
408,192,93572,1,8,0:1:0:0:
216,224,93690,2,8,L|191:229,2,25,8|8|8,0:1|0:1|0:1,0:1:0:0:
216,224,93924,6,0,L|97:244,1,75.0000028610231,8|0,0:0|0:0,0:0:0:0:
140,51,94158,2,0,L|21:31,1,75.0000028610231,4|0,0:3|0:0,0:0:0:0:
0,140,94393,5,8,1:0:0:0:
0,259,94510,1,0,0:0:0:0:
81,346,94627,1,8,1:0:0:0:
200,346,94744,1,0,0:0:0:0:
478,304,94862,6,0,P|388:254|295:286,1,200,6|0,0:1|0:0,0:0:0:0:
200,346,95213,1,0,0:0:0:0:
200,346,95330,6,0,L|189:289,1,33.3333333333333,8|0,1:2|0:0,0:0:0:0:
120,280,95487,2,0,L|110:227,1,33.3333333333333,0|8,0:0|0:1,0:0:0:0:
160,176,95643,2,0,L|150:123,1,33.3333333333333
80,80,95799,2,0,L|68:9,1,50,0|0,1:0|0:0,0:0:0:0:
284,66,96033,6,0,B|354:53|354:53|406:68|406:68|485:54,1,200,2|8,0:1|1:2,0:0:0:0:
280,91,96385,6,0,B|350:78|350:78|402:93|402:93|481:79,1,200,2|0,0:1|0:0,0:0:0:0:
276,116,96737,6,0,B|346:103|346:103|398:118|398:118|477:104,1,200,2|0,0:1|0:0,0:0:0:0:
471,105,97088,1,0,0:0:0:0:
472,271,97205,6,0,L|480:320,1,33.3333333333333,8|0,1:2|0:0,0:0:0:0:
392,328,97362,2,0,L|359:333,1,33.3333333333333,0|8,0:0|0:1,0:0:0:0:
304,256,97518,2,0,L|296:207,1,33.3333333333333
276,116,97674,2,0,L|227:124,1,50,0|0,1:0|0:0,0:0:0:0:
94,174,97908,6,0,B|58:212|81:265|81:265|104:317|64:359,1,200,2|8,0:1|1:2,0:0:0:0:
70,171,98260,6,0,B|34:209|57:262|57:262|80:314|40:356,1,200,2|0,0:1|0:0,0:0:0:0:
235,373,98612,6,0,L|259:378,1,25,2|0,0:1|0:0,0:0:0:0:
268,371,98729,2,0,L|293:376,1,25,8|0,0:1|0:0,0:0:0:0:
301,369,98846,2,0,L|357:379,1,50,8|8,0:1|0:1,0:0:0:0:
450,204,99080,6,0,L|426:209,1,25,8|0,1:2|0:0,0:0:0:0:
417,202,99197,2,0,L|392:207,1,25,8|0,0:1|0:0,0:0:0:0:
384,200,99315,2,0,L|328:210,1,50,8|8,0:1|0:1,0:0:0:0:
200,184,99549,6,0,B|215:150|215:150|212:113,1,75.0000028610231
40,40,99783,2,0,B|24:73|24:73|27:110,1,75.0000028610231,2|0,0:1|0:0,0:0:0:0:
88,288,100018,5,8,1:2:0:0:
88,288,100135,2,0,B|48:304|40:240|120:208|112:328|144:320|224:312,1,200,2|0,0:1|0:0,0:0:0:0:
388,315,100487,6,0,L|383:291,1,25,2|0,0:1|0:0,0:0:0:0:
390,282,100604,2,0,L|385:257,1,25,8|0,0:1|0:0,0:0:0:0:
392,249,100721,2,0,L|382:193,1,50,8|8,0:1|0:1,0:0:0:0:
360,8,100955,1,8,1:2:0:0:
472,88,101072,1,8,0:1:0:0:
272,112,101190,2,8,L|277:87,2,25,8|8|8,0:1|0:1|0:1,0:1:0:0:
272,111,101424,6,0,P|238:96|203:105,1,75.0000028610231,8|0,0:0|0:0,0:0:0:0:
135,307,101658,2,0,P|168:322|203:314,1,75.0000028610231,2|0,0:1|0:0,0:0:0:0:
383,199,101893,5,8,1:2:0:0:
383,199,102010,2,0,B|398:193|415:170|415:170|404:233|443:270|443:270|414:238|353:235,1,200,2|0,0:1|0:0,0:0:0:0:
312,256,102362,1,8,0:0:0:0:
480,64,103065,5,0,1:0:0:0:
448,32,103182,5,0,1:0:0:0:
384,24,103299,5,8,0:0:0:0:
328,80,103416,5,0,1:0:0:0:
328,168,103533,5,0,1:0:0:0:
400,232,103651,5,0,1:0:0:0:
400,328,103768,5,8,0:0:0:0:
320,384,103885,5,0,1:0:0:0:
208,376,104002,5,8,0:0:0:0:
160,272,104119,5,0,1:0:0:0:
205,164,104237,6,0,P|140:129|70:151,1,150,6|8,0:1|0:1,0:0:0:0:
16,232,104705,1,10,0:0:0:0:
16,232,104940,1,8,0:1:0:0:
120,344,105057,1,8,0:1:0:0:
208,376,105174,2,0,L|216:256,1,100,0|8,1:0|0:1,0:0:0:0:
292,176,105526,1,8,0:1:0:0:
380,144,105643,2,0,L|388:264,1,100,0|0,1:0|1:0,0:0:0:0:
496,144,105994,1,0,0:0:0:0:
456,64,106112,6,0,P|390:29|321:51,1,150,0|8,1:0|0:1,0:0:0:0:
232,24,106580,1,10,0:0:0:0:
232,24,106815,1,8,0:1:0:0:
292,176,106932,1,8,0:1:0:0:
224,240,107049,2,0,P|177:255|134:232,1,100,0|8,1:0|0:1,0:0:0:0:
128,352,107401,1,0,1:0:0:0:
38,324,107518,2,0,P|1:291|0:242,1,100,0|0,1:0|1:0,0:0:0:0:
8,40,107987,6,0,B|59:44|59:44|93:71|93:71|157:77,1,150,2|8,0:1|0:1,0:0:0:0:
232,24,108455,1,10,0:0:0:0:
232,24,108690,1,8,0:1:0:0:
292,176,108807,1,8,0:1:0:0:
200,160,108924,2,0,B|184:208|184:208|201:254,1,100,0|8,1:0|0:1,0:0:0:0:
96,368,109276,1,8,0:1:0:0:
4,384,109393,2,0,B|-12:336|-12:336|5:290,1,100,0|0,1:0|1:0,0:0:0:0:
120,208,109744,1,0,0:0:0:0:
201,254,109862,6,0,B|252:250|252:250|286:223|286:223|350:217,1,150,0|8,1:0|0:1,0:0:0:0:
400,328,110330,2,0,L|478:314,1,50,10|0,0:0|0:0,0:0:0:0:
472,192,110565,1,8,0:1:0:0:
464,176,110682,1,8,0:1:0:0:
456,160,110799,2,0,L|464:110,1,50,2|0,1:0|0:0,0:0:0:0:
480,16,111033,5,8,0:1:0:0:
440,8,111151,1,0,1:0:0:0:
384,24,111268,1,2,1:0:0:0:
368,96,111385,1,8,0:1:0:0:
312,160,111502,1,0,0:1:0:0:
215,159,111619,1,8,0:1:0:0:
143,79,111737,6,0,P|80:72|32:112,1,125,2|0,0:1|0:0,0:0:0:0:
8,208,112088,1,8,0:1:0:0:
187,269,112205,2,0,P|224:217|213:156,1,125,10|8,0:0|0:1,0:0:0:0:
143,79,112557,1,8,0:1:0:0:
8,208,112674,2,0,P|33:266|92:287,1,125,0|8,0:0|0:1,0:0:0:0:
87,287,113026,6,0,L|79:351,1,62.5,8|8,0:1|0:0,0:0:0:0:
79,349,113377,1,0,1:0:0:0:
256,352,113612,6,0,P|308:316|319:254,1,125,0|0,1:0|0:0,0:0:0:0:
315,162,113963,1,8,0:1:0:0:
180,14,114080,2,0,P|183:77|230:117,1,125,10|8,0:0|0:1,0:0:0:0:
315,162,114432,1,0,1:0:0:0:
506,116,114549,2,0,P|448:87|390:109,1,125,0|8,1:0|0:1,0:0:0:0:
394,106,114901,6,0,L|390:41,1,62.5,0|8,1:0|0:0,0:0:0:0:
390,43,115252,1,0,1:0:0:0:
315,162,115487,6,0,L|171:174,1,125,2|8,0:1|0:1,0:0:0:0:
127,256,115838,1,8,0:1:0:0:
188,379,115955,2,0,P|225:327|213:265,1,125,10|8,0:0|0:1,0:0:0:0:
191,173,116307,1,8,0:1:0:0:
2,245,116424,6,0,L|145:257,1,125,0|8,1:0|0:1,0:0:0:0:
191,173,116776,1,8,0:1:0:0:
131,50,116893,2,0,P|93:101|105:163,1,125,0|0,1:0|1:0,0:0:0:0:
216,269,117362,6,0,L|287:262,1,62.5,0|0,1:0|0:0,0:0:0:0:
315,162,117596,2,0,L|321:99,1,62.5,8|8,0:1|0:1,0:0:0:0:
496,256,117830,2,0,P|436:271|381:245,1,125,10|8,0:0|0:1,0:0:0:0:
315,162,118182,1,8,0:1:0:0:
432,48,118299,6,0,L|438:110,1,62.5,0|0,1:0|0:0,0:0:0:0:
278,111,118533,2,0,L|314:161,1,62.5,8|0,1:1|1:0,0:0:0:0:
136,224,118768,2,0,L|192:249,1,62.5,0|0,1:0|0:0,0:0:0:0:
48,384,119002,2,0,L|110:377,1,62.5,0|0,1:0|0:0,0:0:0:0:
288,352,119237,6,0,P|312:344|280:328,1,75.0000028610231,4|2,1:0|0:0,0:0:0:0:
285,321,119705,1,10,0:0:0:0:
136,224,119940,6,0,L|154:223,3,18.7500007152558,0|0|0|0,1:0|0:0|0:0|0:0,0:0:0:0:
177,241,120174,2,0,L|226:237,2,50.0000019073487,0|2|8,1:0|0:0|0:1,0:0:0:0:
177,241,120643,2,0,P|154:291|158:347,1,112.500004291535,0|0,3:0|0:0,0:0:0:0:
40,280,121112,2,0,P|24:247|27:210,1,75.0000028610231,0|8,3:0|1:1,0:0:0:0:
72,104,121580,5,8,1:1:0:0:
208,104,121815,6,0,L|207:85,3,18.7500007152558,0|0|0|0,3:0|0:0|0:0|0:0,0:0:0:0:
225,63,122049,2,0,L|221:14,2,50.0000019073487,0|2|8,1:0|0:0|0:1,0:0:0:0:
225,63,122518,2,0,P|275:86|331:82,1,112.500004291535,0|0,3:0|0:0,0:0:0:0:
352,72,122987,5,0,1:0:0:0:
504,192,123221,1,10,0:1:0:0:
504,192,123455,1,10,0:1:0:0:
316,271,123690,6,0,L|317:252,3,18.7500007152558,0|0|0|0,3:0|0:0|0:0|0:0,0:0:0:0:
299,230,123924,2,0,L|303:181,2,50.0000019073487,0|2|8,1:0|0:0|0:1,0:0:0:0:
299,230,124393,2,0,P|249:253|193:249,1,112.500004291535,0|0,3:0|0:0,0:0:0:0:
78,241,124862,6,0,L|69:336,1,75.0000028610231,0|2,1:0|0:0,0:0:0:0:
166,353,125213,1,8,0:1:0:0:
192,248,125330,2,0,L|185:173,1,75.0000028610231,10|0,0:0|1:0,0:0:0:0:
16,26,125799,2,0,L|22:100,1,75.0000028610231,0|2,1:0|0:0,0:0:0:0:
127,93,126151,1,8,0:1:0:0:
207,45,126268,6,0,L|231:45,1,18.7500007152558,0|0,1:0|0:0,0:0:0:0:
240,56,126385,2,0,L|264:56,1,18.7500007152558,8|0,0:1|0:0,0:0:0:0:
288,64,126502,1,0,1:0:0:0:
480,80,126737,2,0,P|442:77|407:95,1,75.0000028610231,0|2,1:0|0:0,0:0:0:0:
336,136,127088,2,0,L|331:183,1,37.5000014305115,8|10,0:1|0:0,0:0:0:0:
121,233,127440,6,0,L|117:214,3,18.7500007152558,0|0|0|0,1:0|0:0|0:0|0:0,0:0:0:0:
121,233,127674,2,0,P|158:230|193:248,1,75.0000028610231,0|2,0:0|1:2,0:0:0:0:
264,288,128026,2,0,L|269:335,1,37.5000014305115,8|8,0:1|1:1,0:0:0:0:
136,352,128377,1,2,3:2:0:0:
24,296,128612,6,0,P|16:264|40:280,1,75.0000028610231,0|2,1:0|0:0,0:0:0:0:
80,136,129080,6,0,P|89:102|102:129,1,85.0000016212464,8|2,0:0|1:2,0:0:0:0:
256,48,129549,6,0,P|283:21|281:54,1,94.9999974632264,0|2,1:0|0:0,0:0:0:0:
456,96,130018,6,0,P|497:85|476:116,1,104.999996795654,8|2,3:1|1:2,0:0:0:0:
480,280,130487,6,0,P|424:272|376:304,1,104.999996795654,0|2,1:0|0:0,0:0:0:0:
344,360,130838,1,8,0:1:0:0:
344,360,130955,1,10,0:0:0:0:
136,160,131190,6,0,L|144:120,3,26.2499991989136,0|0|0|0,1:0|0:0|0:0|0:0,0:0:0:0:
111,183,131424,2,0,P|167:175|215:207,1,104.999996795654,0|2,3:0|1:2,0:0:0:0:
208,198,131893,2,0,B|203:245|203:245|211:254|211:254|207:299,1,104.999996795654,0|0,1:0|2:0,0:0:0:0:
456,96,132362,6,0,P|400:88|352:120,1,104.999996795654,0|2,1:0|0:0,0:0:0:0:
320,176,132713,1,8,0:1:0:0:
320,176,132830,1,10,0:0:0:0:
206,299,133065,1,0,1:0:0:0:
112,40,133299,2,0,P|168:32|216:64,1,104.999996795654,0|2,1:0|0:0,0:0:0:0:
320,64,133651,1,8,0:1:0:0:
320,176,133768,6,0,L|320:201,1,26.2499991989136,0|0,1:0|0:0,0:0:0:0:
312,216,133885,2,0,L|312:243,1,26.2499991989136,8|0,0:1|0:0,0:0:0:0:
304,272,134002,1,0,1:0:0:0:
79,379,134237,6,0,L|73:317,1,62.5,4|0,1:0|0:0,0:0:0:0:
212,361,134471,2,0,L|206:299,1,62.5,8|0,0:1|0:0,0:0:0:0:
453,220,134705,6,0,L|460:158,1,62.5,0|0,1:0|0:0,0:0:0:0:
320,202,134940,2,0,L|327:140,1,62.5,8|0,0:1|0:0,0:0:0:0:
125,51,135174,6,0,P|86:52|38:76,1,75.0000028610231,0|0,1:0|0:0,0:0:0:0:
109,179,135408,2,0,P|75:199|45:244,1,75.0000028610231,8|0,0:1|1:0,0:0:0:0:
387,333,135643,6,0,P|426:332|474:308,1,75.0000028610231,0|0,1:0|0:0,0:0:0:0:
403,205,135877,2,0,P|437:185|467:140,1,75.0000028610231,8|0,1:1|0:0,0:0:0:0:
170,21,136112,6,0,L|160:108,1,87.500000834465,0|0,1:0|0:0,0:0:0:0:
170,317,136346,2,0,L|179:229,1,87.500000834465,8|0,0:1|0:0,0:0:0:0:
318,169,136580,6,0,L|230:160,1,87.500000834465,0|0,1:0|0:0,0:0:0:0:
22,169,136815,2,0,L|109:179,1,87.500000834465,8|0,0:1|0:0,0:0:0:0:
388,372,137049,6,0,P|394:323|375:277,1,100,0|0,1:0|0:0,0:0:0:0:
305,74,137283,2,0,P|298:122|317:168,1,100,0|0,0:0|1:0,0:0:0:0:
197,262,137518,6,0,P|246:269|292:250,1,100,0|0,1:0|0:0,0:0:0:0:
495,179,137752,2,0,P|446:174|401:192,1,100,0|0,1:0|0:0,0:0:0:0:
280,360,137987,5,12,0:0:0:0:
272,376,138104,1,8,0:1:0:0:
112,336,138221,5,4,0:3:0:0:
97,345,138338,1,8,0:1:0:0:
32,200,138455,5,0,1:0:0:0:
14,200,138572,1,8,0:1:0:0:
96,24,138690,5,4,0:3:0:0:
81,16,138807,2,0,L|88:70,1,50,8|0,0:1|0:0,0:0:0:0:
80,88,138924,6,0,B|136:104|136:104|189:93,1,112.500004291535,8|8,0:0|0:1,0:0:0:0:
488,176,139158,2,0,B|432:160|432:160|378:170,1,112.500004291535,4|8,0:3|0:1,0:0:0:0:
272,376,139393,6,0,L|287:245,1,125,0|8,1:0|0:1,0:0:0:0:
378,170,139627,2,0,L|393:39,1,125,4|8,0:3|0:1,0:0:0:0:
376,32,139862,6,0,P|279:22|202:81,1,200,2|0,0:0|0:0,0:0:0:0:
136,32,140213,6,0,P|93:90|102:163,1,150.000005722046,2|0,0:0|0:0,0:0:0:0:
40,208,140565,6,0,P|59:252|104:271,1,100,2|0,0:0|0:0,0:0:0:0:
112,352,140916,6,0,P|136:354|155:339,1,50,2|0,0:0|0:0,0:0:0:0:
176,328,141268,5,4,0:3:0:0:
464,248,141502,6,0,L|344:240,1,112.500004291535,2|0,3:1|0:0,0:0:0:0:
328,208,141737,5,0,1:0:0:0:
288,216,141854,1,0,3:0:0:0:
280,264,141971,1,2,3:0:0:0:
328,280,142088,1,0,3:0:0:0:
424,344,142205,6,0,B|432:376|432:376|424:296,1,75.0000028610231,4|0,0:3|0:0,0:0:0:0:
416,160,142440,5,2,1:3:0:0:
424,120,142557,1,0,3:0:0:0:
432,80,142674,1,0,3:0:0:0:
440,32,142791,2,0,L|464:112,1,50,0|2,3:0|1:3,3:0:0:0:
288,96,143143,5,0,3:0:0:0:
242,90,143260,1,0,3:0:0:0:
202,74,143377,1,2,3:0:0:0:
178,42,143494,1,0,3:0:0:0:
24,152,143612,5,0,1:0:0:0:
8,192,143729,1,0,3:0:0:0:
48,208,143846,1,2,3:0:0:0:
64,168,143963,1,0,3:0:0:0:
88,64,144080,6,0,B|80:32|80:32|88:112,1,75.0000028610231,4|0,0:3|0:0,0:0:0:0:
184,184,144315,5,2,3:3:0:0:
176,224,144432,1,0,3:0:0:0:
168,264,144549,1,0,1:0:0:0:
160,304,144666,1,0,3:0:0:0:
152,344,144783,2,0,L|112:347,2,25,2|0|0,3:0|0:0|0:0,0:0:0:0:
264,304,145018,6,0,L|330:299,1,50,0|0,1:0|0:0,0:0:0:0:
392,352,145252,2,0,L|425:348,3,25,2|0|0|0,3:0|3:0|3:0|3:0,3:0:0:0:
424,336,145487,6,0,L|420:303,1,25,8|0,1:2|0:0,0:0:0:0:
432,304,145604,2,0,L|428:271,1,25,8|0,0:1|0:0,0:0:0:0:
432,264,145721,2,0,L|423:196,1,50,8|8,0:1|0:1,0:0:0:0:
488,96,145955,6,0,L|455:92,1,25,0|0,1:0|0:0,0:0:0:0:
456,104,146072,2,0,L|423:100,1,25,8|0,0:1|0:0,0:0:0:0:
416,104,146190,2,0,L|348:95,1,50,8|8,0:1|0:1,0:0:0:0:
230,7,146424,6,0,B|206:36|206:36|201:73,1,75.0000028610231,8|0,0:0|0:0,0:0:0:0:
96,184,146658,2,0,L|0:192,1,75.0000028610231,4|0,0:3|0:0,0:0:0:0:
189,370,146893,6,0,B|184:333|184:333|160:304,1,75.0000028610231,4|0,1:3|0:0,0:0:0:0:
264,193,147127,2,0,L|360:201,1,75.0000028610231,4|0,0:3|0:0,0:0:0:0:
464,240,147362,6,0,L|460:207,1,25,8|0,0:0|0:0,0:0:0:0:
472,208,147479,2,0,L|468:175,1,25,8|0,0:1|0:0,0:0:0:0:
472,168,147596,2,0,L|463:100,1,50,8|8,0:1|0:1,0:0:0:0:
360,0,147830,1,0,1:0:0:0:
232,88,147947,1,8,0:1:0:0:
338,199,148065,2,8,L|334:223,2,25,8|8|8,0:1|0:1|0:1,0:1:0:0:
337,199,148299,6,0,L|327:273,1,75.0000028610231,8|0,0:0|0:0,0:0:0:0:
169,378,148533,2,0,L|159:303,1,75.0000028610231,0|0,1:0|0:0,0:0:0:0:
136,144,148768,2,0,B|64:144|56:224|56:224|88:176|144:176,1,225.000008583069,8|0,0:0|0:0,0:0:0:0:
232,88,149237,6,0,B|248:24|248:24|240:104,1,100,6|0,0:1|0:0,0:0:0:0:
264,193,149471,2,0,L|277:292,1,100,4|0,0:3|0:0,0:0:0:0:
240,368,149705,6,0,P|288:312|368:312,1,150.000005722046,8|2,0:0|3:0,0:0:0:0:
472,344,150057,1,0,3:0:0:0:
505,244,150174,1,0,1:0:0:0:
495,139,150291,1,0,3:0:0:0:
344,64,150408,6,0,B|368:22|368:22|430:58|430:58|382:141,1,200,2|8,0:1|1:2,0:0:0:0:
344,64,150760,6,0,B|368:22|368:22|430:58|430:58|382:141,1,200,2|0,0:1|0:0,0:0:0:0:
344,64,151112,6,0,B|368:22|368:22|430:58|430:58|382:141,1,200,2|2,0:1|3:0,0:0:0:0:
360,224,151463,5,2,3:0:0:0:
264,193,151580,1,8,1:2:0:0:
248,176,151815,5,2,3:0:0:0:
138,181,151932,1,0,3:0:0:0:
59,258,152049,1,0,1:0:0:0:
50,367,152166,1,0,3:0:0:0:
240,376,152283,6,0,P|246:310|176:373,1,200,2|8,0:1|1:2,0:0:0:0:
240,376,152635,6,0,P|246:310|176:373,1,200,2|0,0:1|0:0,0:0:0:0:
350,342,152987,6,0,L|383:338,1,25,2|0,0:1|0:0,0:0:0:0:
382,350,153104,2,0,L|415:346,1,25,8|0,0:1|0:0,0:0:0:0:
422,350,153221,2,0,L|490:341,1,50,8|8,0:1|0:1,0:0:0:0:
512,192,153455,6,0,L|479:188,1,25,8|0,1:2|0:0,0:0:0:0:
480,200,153572,2,0,L|447:196,1,25,8|0,0:1|0:0,0:0:0:0:
440,200,153690,2,0,L|372:191,1,50,8|8,0:1|0:1,0:0:0:0:
256,192,153924,6,0,L|246:117,1,75.0000028610231,0|0,1:0|0:0,0:0:0:0:
406,29,154158,2,0,L|416:104,1,75.0000028610231,2|0,1:1|0:0,0:0:0:0:
480,296,154393,5,8,1:2:0:0:
480,296,154510,2,0,B|430:307|409:362|409:362|398:304|353:285,1,200,2|0,0:1|0:0,0:0:0:0:
256,192,154862,6,0,L|223:196,1,25,2|0,3:1|0:0,0:0:0:0:
224,184,154979,2,0,L|191:188,1,25,8|0,0:1|0:0,0:0:0:0:
184,184,155096,2,0,L|116:193,1,50,8|8,0:1|0:1,0:0:0:0:
40,175,155330,5,0,1:0:0:0:
49,75,155447,1,0,0:0:0:0:
128,13,155565,1,0,1:0:0:0:
227,5,155682,1,0,0:0:0:0:
315,53,155799,2,0,L|325:128,1,75.0000028610231,8|0,1:2|0:0,0:0:0:0:
480,328,156033,6,0,L|484:290,1,37.5000014305115,10|0,0:2|0:0,0:0:0:0:
472,280,156151,2,0,L|476:242,1,37.5000014305115,0|0,1:0|0:0,0:0:0:0:
464,232,156268,2,0,B|423:200|372:227|372:227|322:255|277:219,1,200,10|0,3:2|0:0,0:0:0:0:
128,13,156737,6,0,P|192:32|152:80,1,150,0|8,1:0|0:1,0:0:0:0:
64,120,157205,1,10,0:0:0:0:
160,96,157440,2,0,L|166:167,1,50,0|8,1:0|0:1,0:0:0:0:
72,304,157674,2,0,B|56:256|56:256|80:208,1,100,0|2,1:0|0:0,0:0:0:0:
176,264,158026,1,8,0:1:0:0:
176,264,158143,2,0,L|185:377,1,100,0|0,1:0|1:0,0:0:0:0:
392,376,158612,6,0,P|456:357|416:309,1,150,0|8,1:0|0:1,0:0:0:0:
328,269,159080,1,10,0:0:0:0:
424,293,159315,2,0,L|430:221,1,50,0|8,1:0|0:1,0:0:0:0:
336,85,159549,2,0,B|320:133|320:133|344:181,1,100,0|2,1:0|0:0,0:0:0:0:
440,128,159901,1,0,1:0:0:0:
440,128,160018,2,0,L|449:14,1,100,0|0,1:0|1:0,0:0:0:0:
342,177,160487,6,0,B|286:172|286:172|244:184|244:184|173:178,1,150,0|8,1:0|0:1,0:0:0:0:
104,112,160955,1,10,0:0:0:0:
184,168,161190,2,0,L|189:231,1,50,0|8,1:0|0:1,0:0:0:0:
72,376,161424,2,0,P|39:335|47:279,1,100,0|2,1:0|0:0,0:0:0:0:
144,304,161776,1,8,0:1:0:0:
144,304,161893,2,0,L|258:295,1,100,0|0,1:0|1:0,0:0:0:0:
288,176,162244,5,8,0:1:0:0:
288,176,162362,2,0,L|402:185,1,100,0|2,1:0|0:0,0:0:0:0:
464,280,162713,1,8,0:1:0:0:
464,280,162830,2,0,P|464:336|432:288,1,150,0|0,1:0|0:0,0:0:0:0:
387,183,163299,5,0,1:0:0:0:
428,104,163533,1,2,0:0:0:0:
364,24,163768,1,0,1:0:0:0:
260,56,164002,1,2,0:0:0:0:
260,164,164237,5,0,1:0:0:0:
260,172,164471,1,2,0:0:0:0:
156,264,164705,1,0,1:0:0:0:
148,264,164940,1,2,0:0:0:0:
12,212,165174,5,0,1:0:0:0:
12,204,165408,1,2,0:0:0:0:
44,48,165643,1,0,1:0:0:0:
52,48,165877,1,2,0:0:0:0:
216,24,166112,5,0,1:0:0:0:
224,28,166346,1,2,0:0:0:0:
288,176,166580,1,0,1:0:0:0:
292,184,166815,1,2,0:0:0:0:
156,316,167049,5,0,1:0:0:0:
152,324,167283,1,2,0:0:0:0:
396,384,167518,1,0,1:0:0:0:
404,380,167752,1,2,0:0:0:0:
480,176,167987,5,8,0:0:0:0:
480,128,168104,1,8,0:1:0:0:
448,88,168221,1,4,0:3:0:0:
392,80,168338,1,8,0:1:0:0:
344,112,168455,5,0,1:0:0:0:
328,168,168572,1,8,0:1:0:0:
353,224,168690,1,4,0:3:0:0:
360,288,168807,1,8,0:1:0:0:
336,352,168924,5,8,0:0:0:0:
264,384,169041,1,8,0:1:0:0:
176,376,169158,1,4,0:3:0:0:
112,312,169276,1,8,0:1:0:0:
121,214,169393,5,0,1:0:0:0:
196,155,169510,1,8,0:1:0:0:
198,46,169627,1,4,0:3:0:0:
85,12,169744,1,8,0:1:0:0:
0,120,169862,5,8,0:0:0:0:
0,120,169979,2,0,B|49:124|49:124|91:112|91:112|147:117,1,150,4|8,0:3|0:1,0:0:0:0:
224,63,170330,2,0,B|224:23|224:23|176:63,1,75.0000028610231,0|8,1:0|0:1,0:0:0:0:
196,155,170565,1,4,0:3:0:0:
208,256,170682,1,8,0:1:0:0:
304,320,170799,5,8,0:0:0:0:
432,320,170916,1,8,0:1:0:0:
512,216,171033,1,4,0:3:0:0:
488,80,171151,1,8,0:1:0:0:
352,8,171268,2,0,B|361:71|361:71|344:136|344:136|352:208,1,200,0|0,1:0|0:0,0:0:0:0:
48,352,171737,6,0,P|0:280|176:312,1,400,12|8,0:0|0:0,0:0:0:0:
336,344,172908,6,0,B|294:384|242:361|242:361|189:338|151:374,1,200,0|0,1:0|0:0,0:0:0:0:
424,384,173612,6,0,P|440:336|416:288,1,100,8|0,0:0|0:0,0:0:0:0:
416,16,174080,6,0,L|410:90,1,75.0000028610231,0|0,1:0|0:0,0:0:0:0:
512,160,174315,2,0,L|506:234,1,75.0000028610231,0|0,1:0|0:0,0:0:0:0:
321,259,174549,6,0,P|352:195|424:192,1,150.000005722046,8|0,0:0|0:0,0:0:0:0:
506,234,174901,1,8,1:1:0:0:
253,379,175018,2,0,P|189:348|186:276,1,150.000005722046,8|8,1:2|3:2,0:0:0:0:
56,16,175487,6,0,L|68:156,1,133.333333333333,2|0,1:0|3:0,0:0:0:0:
185,276,175799,1,0,3:0:0:0:
192,72,175955,2,0,B|238:47|283:82|283:82|327:118|378:90,1,200,10|0,1:2|2:0,0:0:0:0:
480,40,176307,1,0,3:0:0:0:
88,120,176424,6,0,L|100:260,1,133.333333333333,2|0,0:0|3:0,0:0:0:0:
217,380,176737,1,0,3:0:0:0:
224,176,176893,2,0,B|270:151|315:186|315:186|359:222|410:194,1,200,10|0,1:2|2:0,0:0:0:0:
512,144,177244,1,0,3:0:0:0:
464,56,177362,6,0,P|414:59|377:91,1,100,0|0,1:0|1:0,0:0:0:0:
461,40,177596,2,0,P|411:43|374:75,1,100,2|0,3:2|2:0,0:0:0:0:
383,283,177830,6,0,P|411:242|409:192,1,100,10|0,1:2|2:0,0:0:0:0:
253,145,178065,2,0,P|223:184|225:234,1,100,2|0,1:2|2:0,0:0:0:0:
377,91,178299,6,0,P|362:37|320:5,1,110.000003356934,2|0,1:0|2:0,0:0:0:0:
88,192,178533,2,0,P|98:242|142:275,1,110.000003356934,2|0,3:2|2:0,0:0:0:0:
168,56,178768,6,0,P|115:30|58:41,1,119.999996337891,10|0,1:2|2:0,0:0:0:0:
24,360,179002,2,0,P|76:384|133:373,1,119.999996337891,2|0,1:2|2:0,0:0:0:0:
482,291,179237,6,0,L|338:278,1,100,4|0,1:0|2:0,0:0:0:0:
344,376,179471,2,0,L|200:363,1,100,0|0,3:0|2:0,0:0:0:0:
57,41,179705,6,0,L|201:28,1,100,8|0,1:0|2:0,0:0:0:0:
195,126,179940,2,0,L|339:113,1,100,0|0,1:0|2:0,0:0:0:0:
448,136,180174,6,0,B|432:88|456:40|456:40|392:72|408:160,1,200,0|0,0:0|2:0,0:0:0:0:
392,232,180526,1,0,3:0:0:0:
479,347,180643,2,0,B|408:318|392:232|392:232|360:314|289:331,1,300.000011444092,8|0,1:0|0:0,0:0:0:0:
0,139,181346,6,0,P|49:137|87:167,1,100,0|0,3:2|2:1,0:0:0:0:
272,139,181580,2,0,P|248:182|203:200,1,100,8|0,1:0|2:0,0:0:0:0:
136,371,181815,2,0,P|110:329|116:280,1,100,0|0,1:2|2:0,0:0:0:0:
146,67,182049,6,0,B|168:32|224:-8|288:0|280:72|212:56,1,200,0|0,0:0|2:2,0:0:0:0:
87,167,182401,1,0,3:1:0:0:
376,32,182518,2,0,B|392:104|392:104|360:176|360:176|374:247,1,225.000008583069,8|0,1:0|2:0,0:0:0:0:
512,384,182987,6,0,L|483:239,1,133.333333333333,2|2,0:0|3:0,0:0:0:0:
512,168,183299,1,0,3:0:0:0:
416,336,183455,2,0,B|365:364|321:328|321:328|276:293|230:318,1,200,10|2,1:2|2:0,0:0:0:0:
136,376,183807,1,0,3:0:0:0:
376,248,183924,6,0,L|347:103,1,133.333333333333,2|0,0:0|3:0,0:0:0:0:
376,32,184237,1,0,3:0:0:0:
280,200,184393,2,0,B|229:228|185:192|185:192|140:157|94:182,1,200,10|0,1:2|2:0,0:0:0:0:
0,240,184744,1,0,3:0:0:0:
136,376,184862,5,0,0:0:0:0:
128,272,184979,1,0,0:0:0:0:
280,200,185096,1,0,0:2:0:0:
272,304,185213,1,0,0:1:0:0:
449,108,185330,2,0,L|349:116,1,100,8|0,1:0|2:0,0:0:0:0:
280,200,185565,1,0,1:0:0:0:
512,184,185682,1,0,0:0:0:0:
352,24,185799,6,0,P|256:8|272:80,1,200,2|2,1:0|2:0,0:0:0:0:
280,200,186151,1,0,1:1:0:0:
84,293,186268,2,0,P|4:325|-1:240,1,200,0|2,1:0|1:2,0:0:0:0:
93,182,186619,1,0,0:0:0:0:
253,304,186737,6,0,P|303:306|347:284,1,100,4|0,0:0|2:0,0:0:0:0:
373,180,186971,2,0,P|323:178|279:200,1,100,0|0,0:2|1:1,0:0:0:0:
425,360,187205,6,0,P|451:317|454:268,1,100,8|0,1:0|2:0,0:0:0:0:
201,124,187440,2,0,P|174:166|171:215,1,100,0|0,1:0|2:0,0:0:0:0:
456,104,187674,6,0,P|464:32|392:96,1,200,0|0,0:0|2:0,0:0:0:0:
373,180,188026,1,0,3:1:0:0:
45,127,188143,2,0,B|-11:111|-19:23|77:-9|149:55|93:87|141:159|245:111,1,300.000011444092,8|0,1:0|1:0,0:0:0:0:
380,67,188846,6,0,L|260:56,1,100,0|0,0:0|1:1,0:0:0:0:
489,93,189080,2,0,P|500:45|474:4,1,100,8|0,1:0|2:0,0:0:0:0:
408,216,189315,2,0,L|527:205,1,100,0|0,0:0|2:0,0:0:0:0:
304,172,189549,6,0,B|272:213|299:264|299:264|327:314|291:359,1,200,0|0,0:0|2:0,0:0:0:0:
184,376,189901,1,0,3:1:0:0:
404,342,190018,2,0,B|461:414|533:390|549:326|499:277|464:320,1,225.000008583069,8|0,1:0|2:0,0:0:0:0:
304,172,190487,5,0,0:0:0:0:
304,172,190721,2,0,L|204:181,1,100,2|0,0:0|3:1,0:0:0:0:
0,288,190955,1,10,1:2:0:0:
0,288,191190,2,0,L|99:297,1,100,0|0,1:0|3:0,0:0:0:0:
208,368,191424,6,0,B|232:320|224:272|224:272|272:296|264:368,1,200,0|2,0:0|0:0,0:0:0:0:
296,384,191776,1,0,0:2:0:0:
296,384,191893,1,8,1:2:0:0:
489,93,192127,2,0,L|480:192,1,100,0|0,1:0|2:0,0:0:0:0:
504,216,192362,6,0,B|463:184|412:211|412:211|362:239|317:203,1,200,0|2,0:0|0:2,0:0:0:0:
200,123,192713,1,0,0:1:0:0:
344,80,192830,6,0,P|360:56|360:96,1,100,10|0,1:2|2:0,0:0:0:0:
312,320,193065,6,0,P|336:336|296:336,1,100,2|0,1:2|2:0,0:0:0:0:
64,312,193299,6,0,P|48:336|48:296,1,100,2|0,0:2|2:0,0:0:0:0:
96,72,193533,6,0,P|72:56|112:56,1,100,2|0,3:2|2:1,0:0:0:0:
200,123,193768,6,0,B|209:192|209:192|190:263|190:263|200:344,1,225.000008583069,10|0,1:2|0:0,0:0:0:0:
112,192,194237,6,0,L|13:183,1,100,4|0,0:0|2:0,0:0:0:0:
200,344,194471,2,0,B|248:352|248:352|297:337,1,100,0|0,0:0|1:1,0:0:0:0:
312,40,194705,6,0,B|264:32|264:32|215:47,1,100,8|0,1:0|2:0,0:0:0:0:
400,192,194940,2,0,L|499:201,1,100,0|0,0:0|2:0,0:0:0:0:
297,336,195174,6,0,B|254:316|236:257|236:257|231:318|192:353,1,200,0|0,0:0|2:0,0:0:0:0:
64,312,195526,1,0,3:1:0:0:
56,136,195643,2,0,B|0:120|-8:32|88:0|160:64|104:96|152:168|256:120,1,300.000011444092,8|0,1:0|0:0,0:0:0:0:
491,290,196346,6,0,P|513:246|499:200,1,100,0|0,3:0|2:2,0:0:0:0:
288,246,196580,2,0,P|273:292|296:335,1,100,8|0,1:0|2:0,0:0:0:0:
384,136,196815,2,0,B|380:96|380:96|387:79|387:79|381:15,1,100,0|0,0:0|2:0,0:0:0:0:
64,87,197049,6,0,P|8:71|56:135,1,200,0|0,0:0|3:0,0:0:0:0:
168,40,197401,1,0,3:1:0:0:
384,136,197518,2,0,B|338:171|280:141|280:141|224:110|174:150,1,225.000008583069,8|0,1:0|2:0,0:0:0:0:
26,314,197987,6,0,B|44:344|47:376|47:376|44:344|65:310,1,133.333333333333,2|0,0:0|3:0,0:0:0:0:
173,150,198299,1,0,3:0:0:0:
232,344,198455,2,0,B|290:355|325:318|325:318|353:361|409:358,1,200,10|0,1:2|2:0,0:0:0:0:
512,296,198807,1,0,3:0:0:0:
486,70,198924,6,0,B|468:40|465:8|465:8|468:40|447:74,1,133.333333333333,2|0,0:0|3:0,0:0:0:0:
339,234,199236,1,0,3:0:0:0:
280,40,199393,2,0,B|222:29|187:66|187:66|159:23|103:26,1,200,10|0,1:2|2:0,0:0:0:0:
0,88,199744,1,0,3:0:0:0:
208,252,199862,5,2,0:0:0:0:
283,356,199979,1,0,0:0:0:0:
339,234,200096,1,0,0:0:0:0:
256,127,200213,1,0,0:1:0:0:
88,224,200330,2,0,B|78:272|78:272|101:317,1,100,10|0,1:2|2:0,0:0:0:0:
72,224,200565,2,0,B|62:272|62:272|85:317,1,100,0|0,1:0|2:0,0:0:0:0:
283,356,200799,5,0,0:0:0:0:
339,234,201033,1,2,0:0:0:0:
339,234,201151,2,0,L|459:224,1,100,0|8,0:1|1:2,0:0:0:0:
448,102,201737,5,0,1:0:0:0:
417,77,201854,1,0,3:0:0:0:
378,73,201971,1,0,3:0:0:0:
339,79,202088,1,0,3:0:0:0:
256,127,202322,1,2,3:2:0:0:
256,127,202557,5,0,0:0:0:0:
221,144,202674,1,2,1:2:0:0:
161,152,202850,1,0,3:0:0:0:
101,141,203026,1,0,3:0:0:0:
48,85,203260,1,2,3:2:0:0:
72,359,203612,5,0,1:0:0:0:
103,333,203729,1,0,0:0:0:0:
120,296,203846,1,0,3:0:0:0:
124,256,203963,1,0,0:0:0:0:
103,143,204197,1,2,0:0:0:0:
178,173,204432,1,0,0:0:0:0:
217,181,204549,1,2,1:1:0:0:
264,279,204817,5,0,1:0:0:0:
290,271,204884,1,0,1:0:0:0:
316,271,204951,1,0,1:0:0:0:
342,276,205018,1,0,1:0:0:0:
440,312,205252,1,2,1:0:0:0:
512,384,205487,5,2,1:2:0:0:
