osu file format v14

[General]
AudioFilename: audio.mp3
AudioLeadIn: 0
PreviewTime: 72362
Countdown: 0
SampleSet: Soft
StackLeniency: 0.4
Mode: 0
LetterboxInBreaks: 0
WidescreenStoryboard: 1

[Editor]
DistanceSpacing: 1.3
BeatDivisor: 7
GridSize: 8
TimelineZoom: 2.7

[Metadata]
Title:Odo
TitleUnicode:踊
Artist:Ado
ArtistUnicode:Ado
Creator:Beren
Version:Hard
Source:
Tags:lobelia Anya_Melfissa Anya Melfissa Kyutei DECO*27 Giga TeddyLoid かゆか 藍瀬 まなみ ORIHARA dance japanese rap pop
BeatmapID:2983110
BeatmapSetID:1450065

[Difficulty]
HPDrainRate:5
CircleSize:3.5
OverallDifficulty:6
ApproachRate:7.5
SliderMultiplier:1.6
SliderTickRate:1

[Events]
//Background and Video events
0,0,"bg.jpg",0,0
Video,-650,"mv.mp4"
//Break Periods
//Storyboard Layer 0 (Background)
//Storyboard Layer 1 (Fail)
//Storyboard Layer 2 (Pass)
//Storyboard Layer 3 (Foreground)
//Storyboard Layer 4 (Overlay)
//Storyboard Sound Samples

[TimingPoints]
-763,468.75,4,2,1,60,1,0
1462,-100,4,2,1,5,0,0
1579,-100,4,2,1,60,0,0
5212,-100,4,2,1,5,0,0
5329,-100,4,2,1,60,0,0
8611,-100,4,2,1,80,0,0
16228,-100,4,2,1,5,0,0
16345,-100,4,2,1,80,0,0
16696,-100,4,2,1,5,0,0
16814,-100,4,2,1,80,0,0
17165,-100,4,2,1,5,0,0
17282,-100,4,2,1,80,0,0
17634,-100,4,2,1,5,0,0
17751,-100,4,2,1,80,0,0
18103,-100,4,2,1,5,0,0
18220,-100,4,2,1,80,0,0
18337,-100,4,2,1,5,0,0
18454,-100,4,2,1,80,0,0
19862,-83.3333333333333,4,2,1,60,0,0
20329,-83.3333333333333,4,2,0,60,0,0
20564,-83.3333333333333,4,2,1,60,0,0
22204,-83.3333333333333,4,2,0,60,0,0
22439,-83.3333333333333,4,2,1,60,0,0
24079,-83.3333333333333,4,2,0,60,0,0
24314,-83.3333333333333,4,2,1,60,0,0
25954,-83.3333333333333,4,2,0,60,0,0
26189,-83.3333333333333,4,2,1,60,0,0
27829,-83.3333333333333,4,2,0,60,0,0
28064,-83.3333333333333,4,2,1,60,0,0
28768,-83.3333333333333,4,2,0,60,0,0
28885,-83.3333333333333,4,2,1,60,0,0
29704,-83.3333333333333,4,2,0,60,0,0
29939,-83.3333333333333,4,2,1,60,0,0
30643,-83.3333333333333,4,2,0,60,0,0
30877,-83.3333333333333,4,2,1,60,0,0
31579,-83.3333333333333,4,2,0,60,0,0
31814,-83.3333333333333,4,2,1,60,0,0
32518,-83.3333333333333,4,2,0,60,0,0
32752,-83.3333333333333,4,2,1,60,0,0
49862,-100,4,2,1,60,0,0
64861,-100,4,2,1,40,0,0
65212,-100,4,2,1,5,0,0
65330,-100,4,2,1,45,0,0
65681,-100,4,2,1,5,0,0
65799,-100,4,2,1,50,0,0
66150,-100,4,2,1,5,0,0
66267,-100,4,2,1,55,0,0
66618,-100,4,2,1,5,0,0
66736,-100,4,2,1,60,0,0
67087,-100,4,2,1,5,0,0
67205,-100,4,2,1,65,0,0
67556,-100,4,2,1,5,0,0
67674,-100,4,2,1,70,0,0
68025,-100,4,2,1,5,0,0
68142,-100,4,2,1,75,0,0
68493,-100,4,2,1,5,0,0
68611,-100,4,2,1,80,0,0
72362,-83.3333333333333,4,1,0,80,0,0
78923,-83.3333333333333,4,1,0,80,0,0
79392,-83.3333333333333,4,1,0,80,0,0
87829,-83.3333333333333,4,2,1,80,0,0
94862,-83.3333333333333,4,2,1,80,0,0
102244,-100,4,2,1,5,0,0
102362,-100,4,2,1,60,0,0
104705,-100,4,2,0,60,0,0
104940,-100,4,2,1,60,0,0
106580,-100,4,2,0,60,0,0
106815,-100,4,2,1,60,0,0
108455,-100,4,2,0,60,0,0
108690,-100,4,2,1,60,0,0
110330,-100,4,2,0,60,0,0
110447,-100,4,2,1,60,0,0
110916,-100,4,2,1,80,0,0
111736,-100,4,2,1,60,0,0
112205,-100,4,2,0,60,0,0
112322,-100,4,2,1,60,0,0
114080,-100,4,2,0,60,0,0
114197,-100,4,2,1,60,0,0
115955,-100,4,2,0,60,0,0
116072,-100,4,2,1,60,0,0
117830,-100,4,2,0,60,0,0
117947,-100,4,2,1,60,0,0
119705,-100,4,2,0,60,0,0
119940,-100,4,2,1,60,0,0
121346,-100,4,2,0,60,0,0
121580,-100,4,2,0,60,0,0
121815,-100,4,2,1,60,0,0
123221,-100,4,2,0,60,0,0
123690,-100,4,2,1,60,0,0
125330,-100,4,2,0,60,0,0
125447,-100,4,2,1,60,0,0
127205,-100,4,2,0,60,0,0
127440,-100,4,2,1,60,0,0
129079,-100,4,2,0,60,0,0
129197,-100,4,2,1,60,0,0
130955,-100,4,2,0,60,0,0
131190,-100,4,2,1,60,0,0
132830,-100,4,2,0,60,0,0
133065,-100,4,2,1,60,0,0
134236,-100,4,2,1,80,0,0
139861,-100,4,2,1,75,0,0
140096,-100,4,2,1,5,0,0
140212,-100,4,2,1,70,0,0
140447,-100,4,2,1,5,0,0
140564,-100,4,2,1,65,0,0
140799,-100,4,2,1,5,0,0
140915,-100,4,2,1,60,0,0
141151,-100,4,2,1,5,0,0
141268,-100,4,2,1,80,0,0
141737,-83.3333333333333,4,2,1,80,0,0
156736,-100,4,2,1,60,0,0
157205,-100,4,2,0,60,0,0
157440,-100,4,2,1,60,0,0
159080,-100,4,2,0,60,0,0
159315,-100,4,2,1,60,0,0
160955,-100,4,2,0,60,0,0
161190,-100,4,2,1,60,0,0
163182,-100,4,2,1,5,0,0
163299,-100,4,2,1,60,0,0
169978,-100,4,2,1,80,0,0
171737,-83.3333333333333,4,2,1,80,0,0
172674,-83.3333333333333,4,2,1,5,0,0
172908,-83.3333333333333,4,2,1,80,0,0
173377,-83.3333333333333,4,2,1,5,0,0
173612,-83.3333333333333,4,2,1,80,0,0
173846,-83.3333333333333,4,2,1,5,0,0
174079,-83.3333333333333,4,2,1,80,0,0
174197,-83.3333333333333,4,2,1,5,0,0
174315,-83.3333333333333,4,2,1,80,0,0
174432,-83.3333333333333,4,2,1,5,0,0
174549,-83.3333333333333,4,2,1,80,0,0
175486,-83.3333333333333,4,1,0,80,0,0
193767,-83.3333333333333,4,2,0,80,0,0
194236,-83.3333333333333,4,1,0,80,0,0
201736,-83.3333333333333,4,2,1,80,0,0
204783,-83.3333333333333,4,2,1,60,0,0
205487,-83.3333333333333,4,2,1,40,0,0

[Colours]
Combo1 : 90,194,224
Combo2 : 82,73,182
Combo3 : 249,45,121
Combo4 : 228,211,58

[HitObjects]
54,300,1112,6,0,P|99:284|132:291,1,80,6|0,1:0|0:0,0:0:0:0:
220,339,1580,2,0,P|267:358|351:211,1,240,10|2,3:1|0:3,0:0:0:0:
426,152,2518,1,8,3:1:0:0:
434,48,2752,6,0,L|346:43,1,80,2|8,0:0|3:1,0:0:0:0:
274,111,3221,2,0,L|169:101,1,80,2|8,0:0|3:1,0:0:0:0:
90,99,3690,1,4,1:3:0:0:
22,178,3924,1,0,3:0:0:0:
47,278,4158,1,4,1:3:0:0:
118,353,4393,2,0,P|148:288|148:249,1,80,8|4,0:0|1:3,0:0:0:0:
212,136,4862,6,0,P|215:177|260:207,1,80,6|0,1:0|0:0,0:0:0:0:
334,249,5330,2,0,P|422:244|428:108,1,240,10|4,3:1|0:3,0:0:0:0:
381,25,6268,1,8,3:1:0:0:
173,32,6737,5,2,1:2:0:0:
71,12,6971,1,0,3:2:0:0:
18,101,7205,1,8,1:1:0:0:
81,183,7440,1,0,3:0:0:0:
185,161,7674,1,2,1:2:0:0:
185,161,7908,2,0,L|207:256,1,80,2|8,1:2|3:2,0:0:0:0:
139,321,8377,1,2,0:2:0:0:
295,332,8612,6,0,P|331:322|375:342,1,80,8|0,0:3|0:0,0:0:0:0:
472,353,9080,1,8,0:0:0:0:
472,353,9315,1,2,0:0:0:0:
512,206,9549,6,0,P|476:196|432:216,1,80,8|0,0:3|0:0,0:0:0:0:
335,227,10018,1,8,0:0:0:0:
335,227,10252,1,2,0:0:0:0:
206,171,10487,6,0,P|223:138|209:71,1,80,8|0,0:3|0:0,0:0:0:0:
175,2,10955,1,8,0:0:0:0:
175,2,11190,1,2,0:0:0:0:
23,58,11424,6,0,P|6:91|20:158,1,80,8|0,0:3|0:0,0:0:0:0:
54,227,11893,1,8,0:0:0:0:
54,227,12127,1,2,0:2:0:0:
64,328,12362,6,0,L|160:320,1,80,10|4,1:2|0:3,0:0:0:0:
224,256,12830,1,8,0:0:0:0:
304,320,13065,1,4,0:3:0:0:
408,320,13299,6,0,L|416:216,1,80,8|4,0:0|0:3,0:0:0:0:
368,144,13768,1,8,0:0:0:0:
424,56,14002,1,4,0:3:0:0:
320,56,14237,5,12,0:0:0:0:
320,56,14471,1,8,0:2:0:0:
230,176,14705,1,8,0:0:0:0:
230,176,14940,1,4,1:3:0:0:
144,56,15174,5,8,0:0:0:0:
72,136,15409,1,8,1:2:0:0:
56,240,15643,1,8,0:0:0:0:
104,328,15877,1,4,1:3:0:0:
200,368,16112,5,8,0:2:0:0:
200,368,16580,1,8,0:2:0:0:
200,368,17049,1,8,0:2:0:0:
200,368,17518,1,8,0:2:0:0:
400,320,17987,5,8,0:0:0:0:
400,320,18221,1,2,0:3:0:0:
400,320,18455,2,2,P|432:264|416:144,1,160,0|0,0:1|0:2,0:1:0:0:
368,64,19192,6,0,L|370:33,3,22.8571428571429,2|0|0|2,1:0|1:0|1:0|1:0,0:0:0:0:
304,128,19627,1,0,1:2:0:0:
216,40,19863,6,0,P|160:24|68:78,1,143.999995605469,4|8,1:0|0:1,0:0:0:0:
42,102,20330,1,10,0:0:0:0:
45,227,20565,2,0,L|-11:243,2,47.9999985351563,8|8|0,0:1|0:1|1:0,0:0:0:0:
155,306,21034,1,8,0:1:0:0:
155,306,21151,1,8,1:1:0:0:
155,306,21268,2,0,P|171:250|163:194,1,95.9999970703126,0|0,1:0|1:0,0:0:0:0:
192,96,21737,6,0,P|256:56|320:80,1,143.999995605469,0|8,1:0|0:1,0:0:0:0:
368,112,22205,1,10,0:0:0:0:
464,192,22440,2,0,L|520:152,2,47.9999985351563,8|8|0,0:1|0:1|1:0,0:0:0:0:
424,312,22909,1,8,0:1:0:0:
424,312,23026,1,0,1:0:0:0:
424,312,23143,2,0,P|360:312|328:280,1,95.9999970703126,0|0,1:0|1:0,0:0:0:0:
240,216,23612,6,0,L|232:72,1,143.999995605469,0|8,1:0|0:1,0:0:0:0:
256,16,24080,1,10,0:0:0:0:
136,48,24315,2,0,L|88:40,2,47.9999985351563,8|8|0,0:1|0:1|1:0,0:0:0:0:
64,152,24784,2,0,L|48:216,1,47.9999985351563,8|8,0:1|1:1,0:0:0:0:
40,264,25018,2,0,P|88:280|136:256,1,95.9999970703126,0|0,1:0|1:0,0:0:0:0:
232,200,25487,6,0,P|256:256|232:336,1,143.999995605469,0|8,1:0|0:1,0:0:0:0:
208,384,25955,1,10,0:0:0:0:
328,344,26190,2,0,L|360:392,2,47.9999985351563,8|10|2,0:1|1:1|1:0,0:0:0:0:
392,240,26659,1,8,0:1:0:0:
392,240,26776,1,2,1:0:0:0:
392,240,26893,2,0,L|496:243,1,95.9999970703126,2|0,1:0|1:0,0:0:0:0:
432,128,27362,6,0,P|384:104|304:176,1,143.999995605469,4|8,1:0|0:1,0:0:0:0:
256,184,27830,2,0,L|240:72,1,95.9999970703126,10|8,1:2|0:1,0:0:0:0:
184,72,28182,1,8,0:1:0:0:
184,72,28299,1,0,1:0:0:0:
72,128,28534,2,0,L|24:128,2,47.9999985351563,8|8|10,0:1|0:1|1:2,0:0:0:0:
72,128,29002,1,0,1:0:0:0:
168,208,29237,6,0,P|216:272|184:328,1,143.999995605469,0|8,1:0|0:1,0:0:0:0:
152,368,29705,2,0,L|256:376,1,95.9999970703126,10|8,1:2|0:1,0:0:0:0:
312,360,30057,1,8,0:1:0:0:
312,360,30174,1,0,1:0:0:0:
416,288,30409,2,0,L|480:304,2,47.9999985351563,8|0|10,0:1|1:0|1:2,0:0:0:0:
416,288,30877,1,0,1:0:0:0:
448,168,31112,5,0,1:0:0:0:
280,88,31463,1,8,1:1:0:0:
280,88,31581,2,0,P|232:56|174:64,1,95.9999970703126,10|8,0:0|0:1,0:0:0:0:
136,56,31932,2,0,L|64:48,1,47.9999985351563,8|0,0:1|1:0,0:0:0:0:
48,152,32284,1,8,0:1:0:0:
56,152,32401,1,0,1:0:0:0:
64,152,32518,2,0,L|94:274,1,95.9999970703126,10|8,1:2|0:1,0:0:0:0:
176,344,32987,5,8,1:2:0:0:
176,344,33104,1,0,1:0:0:0:
176,344,33221,1,8,1:2:0:0:
240,216,33456,1,8,0:0:0:0:
336,296,33690,1,4,0:3:0:0:
424,208,33924,2,0,L|416:160,1,47.9999985351563,10|8,0:1|0:1,0:0:0:0:
400,104,34159,2,0,L|344:96,1,47.9999985351563,2|0,1:0|1:0,0:0:0:0:
296,72,34393,2,0,P|248:56|192:67,1,95.9999970703126,10|2,0:1|0:3,0:0:0:0:
72,48,34862,6,0,L|64:162,1,95.9999970703126,4|2,1:3|0:0,0:0:0:0:
56,208,35213,1,8,0:1:0:0:
56,208,35331,1,4,1:3:0:0:
168,272,35565,1,4,1:3:0:0:
72,352,35799,1,4,1:3:0:0:
421,341,36268,1,2,1:1:0:0:
421,341,36502,1,2,1:1:0:0:
424,200,36737,6,0,P|357:175|301:192,1,95.9999970703126,4|2,1:3|0:0,0:0:0:0:
288,136,37088,1,8,0:1:0:0:
288,136,37206,1,4,1:3:0:0:
164,122,37440,1,4,1:3:0:0:
75,34,37674,1,4,1:3:0:0:
48,282,38143,1,2,1:2:0:0:
48,282,38377,1,2,0:2:0:0:
174,345,38612,6,0,P|246:321|302:345,1,95.9999970703126,8|2,0:0|0:0,0:0:0:0:
324,353,38963,1,8,0:1:0:0:
324,353,39081,1,4,1:3:0:0:
439,252,39315,1,4,0:3:0:0:
280,152,39549,2,0,P|208:144|168:184,1,95.9999970703126,8|2,0:0|0:0,0:0:0:0:
136,176,39901,1,8,0:1:0:0:
136,176,40018,1,4,1:3:0:0:
24,50,40252,1,4,0:3:0:0:
182,13,40487,6,0,P|260:12|307:31,1,95.9999970703126,8|2,0:0|0:0,0:0:0:0:
321,60,40838,1,8,0:1:0:0:
321,60,40956,2,0,P|374:78|396:129,1,95.9999970703126,4|4,1:3|1:3,0:0:0:0:
415,233,41424,2,0,L|419:343,1,95.9999970703126,10|2,1:1|1:1,0:0:0:0:
368,367,41776,1,8,0:1:0:0:
368,367,41893,1,10,1:1:0:0:
270,289,42127,1,10,0:1:0:0:
185,197,42362,6,0,P|114:195|85:238,1,95.9999970703126,12|2,0:0|0:0,0:0:0:0:
45,242,42713,1,8,0:1:0:0:
45,242,42831,2,0,L|62:358,1,95.9999970703126,4|4,1:3|0:3,0:0:0:0:
182,352,43299,1,8,0:0:0:0:
281,276,43534,2,0,L|279:218,1,47.9999985351563,2|8,0:0|0:1,0:0:0:0:
313,175,43768,2,0,P|351:166|415:184,1,95.9999970703126,4|4,1:3|0:3,0:0:0:0:
508,215,44237,6,0,L|509:106,1,95.9999970703126,8|2,0:0|0:0,0:0:0:0:
486,60,44588,1,8,0:1:0:0:
486,60,44706,2,0,P|430:46|367:67,1,95.9999970703126,4|4,1:3|0:3,0:0:0:0:
268,69,45174,1,8,0:0:0:0:
245,192,45409,2,0,L|237:253,1,47.9999985351563,2|8,0:0|0:1,0:0:0:0:
228,300,45643,2,0,P|169:295|135:260,1,95.9999970703126,4|4,1:3|0:3,0:0:0:0:
20,145,46112,5,8,0:0:0:0:
48,128,47988,6,0,L|60:55,2,47.9999985351563,8|0|8,1:2|1:0|1:2,0:0:0:0:
96,176,48339,1,0,1:0:0:0:
96,176,48456,2,0,P|144:200|192:184,1,95.9999970703126,10|2,0:0|0:3,0:0:0:0:
288,128,48924,1,2,1:0:0:0:
408,104,49159,1,2,0:0:0:0:
456,216,49393,1,8,0:0:0:0:
344,272,49628,1,0,0:0:0:0:
240,283,49863,6,0,P|200:277|164:293,1,80,14|0,0:1|0:0,0:0:0:0:
70,338,50331,2,0,P|23:216|118:159,1,240,10|4,3:1|0:3,0:0:0:0:
189,117,51268,1,8,3:1:0:0:
285,79,51503,6,0,L|277:166,1,80,2|8,0:0|0:1,0:0:0:0:
381,147,51971,2,0,L|397:254,1,80,2|8,0:0|1:1,0:0:0:0:
412,328,52440,1,4,1:3:0:0:
493,263,52674,1,2,0:3:0:0:
392,226,52909,1,4,1:3:0:0:
290,250,53143,2,0,P|251:259|217:280,1,80,8|4,0:0|1:3,0:0:0:0:
129,336,53612,6,0,P|85:320|66:278,1,80,6|0,1:0|0:0,0:0:0:0:
68,188,54081,2,0,B|150:97|223:221|297:100,1,240,2|4,3:1|0:3,0:0:0:0:
381,25,55018,1,8,3:1:0:0:
465,215,55487,5,2,1:2:0:0:
463,318,55721,1,0,0:0:0:0:
365,354,55956,1,2,1:2:0:0:
300,271,56190,1,0,0:0:0:0:
359,186,56424,1,2,1:2:0:0:
359,186,56659,2,0,L|252:159,1,80,2|10,1:2|1:2,0:0:0:0:
186,122,57128,1,4,1:3:0:0:
40,68,57362,6,0,P|30:104|50:148,1,80,8|0,0:3|0:0,0:0:0:0:
61,245,57831,1,8,0:0:0:0:
61,245,58065,1,2,0:0:0:0:
215,384,58299,6,0,P|225:348|205:304,1,80,8|0,0:3|0:0,0:0:0:0:
194,207,58768,1,8,0:0:0:0:
194,207,59003,1,2,0:0:0:0:
222,69,59237,6,0,P|255:52|322:66,1,80,8|0,0:3|0:0,0:0:0:0:
391,100,59706,1,8,0:0:0:0:
391,100,59940,1,2,0:0:0:0:
474,250,60174,6,0,P|441:267|374:253,1,80,8|0,0:3|0:0,0:0:0:0:
305,219,60643,1,8,0:0:0:0:
305,219,60878,1,2,0:0:0:0:
160,288,61112,6,0,L|166:367,1,80,8|4,1:2|0:3,0:0:0:0:
64,368,61581,1,8,0:0:0:0:
24,272,61815,1,4,0:3:0:0:
112,184,62049,6,0,L|120:80,1,80,8|4,0:0|0:3,0:0:0:0:
192,32,62518,1,8,0:0:0:0:
248,120,62753,1,6,0:3:0:0:
344,72,62987,5,12,0:0:0:0:
344,72,63221,1,8,1:2:0:0:
497,153,63456,1,8,0:0:0:0:
497,153,63690,1,4,1:3:0:0:
400,288,63925,5,8,0:0:0:0:
320,224,64159,1,8,1:2:0:0:
216,216,64393,1,8,0:0:0:0:
120,248,64628,1,4,1:3:0:0:
72,336,64862,5,2,3:2:0:0:
72,336,65331,1,2,3:2:0:0:
72,336,65800,1,2,3:2:0:0:
72,336,66268,1,2,3:2:0:0:
40,128,66737,5,2,3:2:0:0:
40,128,67206,1,2,3:2:0:0:
40,128,67675,1,2,3:2:0:0:
40,128,68143,1,2,3:2:0:0:
240,64,68612,5,0,1:0:0:0:
240,64,68846,1,2,0:0:0:0:
336,112,69081,1,0,1:0:0:0:
336,112,69315,1,2,0:0:0:0:
424,168,69550,1,0,1:0:0:0:
424,168,69784,1,2,0:0:0:0:
512,224,70018,1,0,1:0:0:0:
512,224,70253,1,2,0:0:0:0:
416,328,70487,5,8,0:0:0:0:
416,328,72363,6,0,P|352:336|304:312,1,95.9999970703126,4|2,1:0|3:0,0:0:0:0:
296,272,72713,2,0,L|232:280,1,47.9999985351563,0|8,2:1|1:1,0:0:0:0:
147,354,73065,1,0,1:0:0:0:
80,247,73300,2,0,L|64:119,1,95.9999970703126,0|0,1:0|2:0,0:0:0:0:
88,92,73651,1,0,3:0:0:0:
88,92,73768,2,0,P|177:56|265:104,1,191.999994140625,8|0,1:0|1:0,0:0:0:0:
416,32,74471,5,0,3:0:0:0:
416,32,74588,1,0,2:1:0:0:
416,32,74706,2,0,L|408:128,1,95.9999970703126,8|0,1:0|1:0,0:0:0:0:
344,240,75175,1,0,1:0:0:0:
464,264,75408,2,0,L|464:336,1,47.9999985351563,0|0,2:0|3:0,0:0:0:0:
424,360,75643,2,0,P|384:376|328:368,1,95.9999970703126,8|0,1:0|0:0,0:0:0:0:
224,312,76112,6,0,L|215:395,2,63.9999980468751,2|0|0,0:0|3:0|3:0,0:0:0:0:
232,232,76581,2,0,P|162:203|102:219,1,95.9999970703126,10|0,1:2|2:0,0:0:0:0:
54,114,77050,2,0,L|53:31,2,63.9999980468751,2|0|0,0:0|3:0|3:1,0:0:0:0:
50,196,77518,2,0,L|44:320,1,95.9999970703126,10|0,1:2|2:0,0:0:0:0:
160,344,77987,6,0,L|240:368,2,47.9999985351563,0|0|2,0:0|0:0|3:2,0:0:0:0:
176,224,78456,2,0,P|182:160|225:125,1,95.9999970703126,10|2,1:2|1:2,0:0:0:0:
261,29,78925,1,2,1:0:0:0:
385,31,79159,1,2,3:2:0:0:
458,131,79393,1,10,1:2:0:0:
467,255,79628,1,2,1:2:0:0:
322,325,79862,6,0,P|265:345|224:325,1,95.9999970703126,4|0,0:0|3:0,0:0:0:0:
208,280,80213,2,0,L|232:224,1,47.9999985351563,0|8,2:1|1:0,0:0:0:0:
280,128,80565,1,0,1:0:0:0:
177,62,80800,2,0,P|110:49|69:99,1,95.9999970703126,0|0,0:0|2:0,0:0:0:0:
30,82,81151,1,0,3:0:0:0:
30,82,81268,2,0,B|21:148|21:148|40:175|40:175|34:270,1,191.999994140625,8|0,1:0|0:0,0:0:0:0:
140,334,81972,5,0,3:0:0:0:
140,334,82206,2,0,L|267:333,1,95.9999970703126,8|0,1:0|1:0,0:0:0:0:
385,267,82675,1,0,0:0:0:0:
385,267,83143,2,0,L|489:289,1,95.9999970703126,8|0,1:1|0:0,0:0:0:0:
458,154,83612,6,0,L|478:87,2,63.9999980468751,2|0|0,0:0|3:0|3:0,0:0:0:0:
374,150,84081,2,0,P|303:141|284:93,1,95.9999970703126,10|0,1:2|0:0,0:0:0:0:
169,153,84550,6,0,L|217:213,2,63.9999980468751,2|0|0,0:0|3:0|3:0,0:0:0:0:
124,82,85018,2,0,P|54:99|31:135,1,95.9999970703126,10|0,1:2|2:0,0:0:0:0:
28,239,85487,6,0,L|8:304,2,47.9999985351563,4|0|0,0:0|0:0|0:0,0:0:0:0:
128,312,85956,2,0,P|189:310|237:270,1,95.9999970703126
313,223,86425,1,2,0:0:0:0:
365,335,86692,2,0,L|321:331,3,27.4285705915179,0|0|0|0,1:0|1:0|1:0|1:0,0:0:0:0:
365,335,87128,1,4,0:3:0:0:
488,220,87362,5,8,0:0:0:0:
304,48,87830,6,0,L|370:21,2,63.9999980468751,0|0|0,1:0|0:0|0:0,0:0:0:0:
250,111,88299,2,0,L|255:175,2,47.9999985351563,8|4|0,0:0|0:3|0:0,0:0:0:0:
135,59,88768,1,0,1:0:0:0:
97,50,88885,1,4,0:3:0:0:
59,43,89002,1,0,0:0:0:0:
26,163,89237,6,0,L|13:229,2,47.9999985351563,8|4|0,0:0|0:3|0:0,0:0:0:0:
137,213,89705,2,0,L|203:198,2,63.9999980468751,0|0|0,1:0|0:0|0:0,0:0:0:0:
103,289,90174,2,0,L|93:339,2,47.9999985351563,8|4|0,0:0|0:3|0:0,0:0:0:0:
224,318,90643,1,0,1:0:0:0:
264,329,90760,1,4,0:3:0:0:
300,339,90877,1,0,3:0:0:0:
420,304,91112,6,0,L|452:297,4,23.9999992675781,8|0|8|0|8,0:0|0:0|0:1|0:0|0:1,0:0:0:0:
474,191,91580,2,0,L|484:164,4,23.9999992675781,0|0|8|0|8,1:0|0:0|0:1|0:0|0:1,0:0:0:0:
351,167,92049,1,8,0:0:0:0:
369,43,92283,1,4,0:3:0:0:
254,94,92518,1,0,1:0:0:0:
135,54,92752,1,4,0:3:0:0:
61,152,92987,6,0,L|29:168,4,23.9999992675781,8|0|8|0|8,0:0|0:0|0:1|0:0|0:1,0:0:0:0:
28,272,93455,2,0,L|44:304,4,23.9999992675781,0|0|8|0|8,1:0|0:0|0:1|0:0|0:1,0:0:0:0:
149,244,93924,1,8,0:0:0:0:
189,361,94158,1,4,0:3:0:0:
313,354,94393,2,0,L|369:354,1,47.9999985351563,8|0,1:0|0:0,0:0:0:0:
421,340,94627,2,0,L|421:276,1,47.9999985351563,8|0,1:0|0:0,0:0:0:0:
433,229,94863,6,0,L|301:252,1,95.9999970703126,6|0,0:1|0:0,0:0:0:0:
327,121,95331,6,0,L|415:131,2,63.9999980468751,8|0|0,1:2|0:0|0:0,0:0:0:0:
266,72,95799,1,0,1:0:0:0:
144,40,96033,6,0,L|135:141,1,95.9999970703126,2|8,0:1|1:2,0:0:0:0:
120,200,96385,2,0,P|73:209|21:186,1,95.9999970703126,2|0,0:1|0:0,0:0:0:0:
16,256,96737,2,0,L|22:364,1,95.9999970703126,2|0,0:1|0:0,0:0:0:0:
144,352,97205,6,0,L|215:364,2,63.9999980468751,8|0|0,1:2|0:0|0:0,0:0:0:0:
104,280,97674,1,0,1:0:0:0:
224,264,97908,6,0,L|338:257,1,95.9999970703126,2|8,0:1|1:2,0:0:0:0:
344,200,98260,2,0,L|471:220,1,95.9999970703126,2|0,0:1|0:0,0:0:0:0:
496,184,98612,6,0,L|504:161,4,23.9999992675781,2|0|8|0|8,0:1|0:0|0:1|0:0|0:1,0:0:0:0:
440,72,99080,2,0,L|456:104,4,23.9999992675781,8|0|8|0|8,1:2|0:0|0:1|0:0|0:1,0:0:0:0:
320,120,99549,1,0,0:0:0:0:
200,136,99783,6,0,L|178:36,1,95.9999970703126,2|8,0:1|1:2,0:0:0:0:
120,32,100135,2,0,P|71:43|39:86,1,95.9999970703126,2|0,0:1|0:0,0:0:0:0:
24,136,100487,2,0,L|18:252,1,95.9999970703126,2|8,0:1|0:1,0:0:0:0:
96,328,100955,6,0,L|122:369,2,47.9999985351563,8|8|8,1:2|0:1|0:1,0:0:0:0:
144,216,101424,1,8,0:0:0:0:
232,304,101658,6,0,L|327:298,1,95.9999970703126,2|8,0:1|1:2,0:0:0:0:
360,248,102010,2,0,L|455:241,1,95.9999970703126,2|0,0:1|0:0,0:0:0:0:
480,192,102362,5,8,0:0:0:0:
429,215,104237,6,0,P|374:237|334:293,1,120,6|8,0:1|0:1,0:0:0:0:
309,327,104706,1,10,0:0:0:0:
207,348,104940,1,8,0:1:0:0:
108,304,105175,2,0,P|59:262|43:207,1,120,0|8,1:0|0:1,0:0:0:0:
46,158,105644,1,0,1:0:0:0:
118,83,105878,1,0,1:0:0:0:
204,140,106112,6,0,P|253:157|336:157,1,120,0|8,1:0|0:1,0:0:0:0:
372,153,106581,1,10,0:0:0:0:
453,88,106815,1,8,0:1:0:0:
464,191,107050,2,0,L|446:279,1,80,0|8,1:0|0:1,0:0:0:0:
343,274,107519,2,0,L|319:368,1,80,0|0,1:0|1:0,0:0:0:0:
219,341,107987,6,0,P|165:342|104:285,1,120,2|8,0:1|0:1,0:0:0:0:
70,273,108456,1,10,0:0:0:0:
20,181,108690,1,8,0:1:0:0:
124,176,108925,2,0,P|197:173|243:142,1,120,0|8,1:0|0:1,0:0:0:0:
259,102,109394,1,0,1:0:0:0:
238,0,109628,1,0,1:0:0:0:
333,41,109862,6,0,L|422:55,1,80,0|0,1:0|0:0,0:0:0:0:
412,157,110331,2,0,L|520:172,1,80,10|8,0:0|0:1,0:0:0:0:
509,65,110800,1,2,1:0:0:0:
477,271,111034,1,8,0:1:0:0:
477,271,111269,1,2,1:0:0:0:
269,258,111737,6,0,L|253:358,1,80,2|0,0:1|0:0,0:0:0:0:
152,329,112206,2,0,P|111:341|63:328,1,80,10|8,0:0|0:1,0:0:0:0:
46,234,112675,2,0,P|87:207|143:219,1,80,0|8,0:0|0:1,0:0:0:0:
214,170,113144,1,8,0:0:0:0:
214,170,113612,6,0,P|214:118|234:86,1,80,0|0,1:0|0:0,0:0:0:0:
331,95,114081,2,0,L|416:109,1,80,10|8,0:0|0:1,0:0:0:0:
383,208,114550,2,0,P|367:252|371:293,1,80,0|8,1:0|0:1,0:0:0:0:
435,364,115019,1,8,0:0:0:0:
435,364,115487,6,0,L|338:373,1,80,2|8,0:1|0:1,0:0:0:0:
255,341,115956,2,0,P|239:297|249:249,1,80,10|8,0:0|0:1,0:0:0:0:
267,163,116425,2,0,L|169:178,1,80,0|8,1:0|0:1,0:0:0:0:
83,180,116894,2,0,P|66:237|67:273,1,80,0|0,1:0|1:0,0:0:0:0:
135,333,117362,6,0,L|239:322,1,80,0|8,1:0|0:1,0:0:0:0:
314,353,117831,1,10,0:0:0:0:
314,353,118066,1,8,0:1:0:0:
371,223,118300,1,0,1:0:0:0:
512,333,118534,1,8,1:1:0:0:
502,118,119003,1,0,1:0:0:0:
314,36,119237,5,4,1:0:0:0:
314,37,120175,2,0,P|269:22|213:30,1,80,0|0,1:0|0:0,0:0:0:0:
174,106,120644,2,0,L|186:220,1,80,0|0,3:0|0:0,0:0:0:0:
134,281,121112,5,0,3:0:0:0:
134,281,121581,1,8,1:1:0:0:
328,354,122050,2,0,P|336:315|325:242,1,80,0|0,1:0|0:0,0:0:0:0:
279,186,122519,2,0,L|377:171,1,80,0|0,3:0|0:0,0:0:0:0:
461,180,122987,5,0,1:0:0:0:
489,30,123222,1,10,0:1:0:0:
489,30,123456,1,10,0:1:0:0:
268,86,123925,2,0,P|212:85|166:117,1,80,0|0,1:0|0:0,0:0:0:0:
107,157,124394,2,0,L|103:257,1,80,0|0,3:0|0:0,0:0:0:0:
53,329,124862,5,0,1:0:0:0:
53,329,125097,2,0,B|130:355|139:296|219:346,1,160,2|0,0:0|1:0,0:0:0:0:
358,366,125800,1,0,1:0:0:0:
358,366,126269,2,0,L|370:268,1,80,0|0,1:0|1:0,0:0:0:0:
423,199,126737,6,0,P|427:137|419:111,1,80,0|2,1:0|0:0,0:0:0:0:
336,61,127206,2,0,P|315:104|315:144,1,80,10|0,0:0|1:0,0:0:0:0:
262,226,127675,2,0,P|198:246|158:235,1,80,0|2,0:0|1:2,0:0:0:0:
138,152,128144,2,0,P|94:158|51:182,1,80,8|2,1:1|3:2,0:0:0:0:
37,274,128613,6,0,P|29:300|70:288,1,80,0|2,1:0|0:0,0:0:0:0:
195,345,129081,2,0,P|228:336|227:371,1,80,8|2,0:0|1:2,0:0:0:0:
419,333,129550,2,0,B|460:342|460:342|453:274,1,80,0|2,1:0|0:0,0:0:0:0:
438,95,130019,2,0,B|397:86|397:86|401:124,1,80,8|2,3:1|1:2,0:0:0:0:
496,197,130488,5,0,1:0:0:0:
243,29,131191,1,0,1:0:0:0:
243,29,131425,2,0,L|228:128,1,80,0|2,3:0|1:2,0:0:0:0:
177,197,131894,2,0,P|97:176|30:234,1,160,0|0,1:0|1:0,0:0:0:0:
325,340,133066,5,0,1:0:0:0:
325,340,133300,2,0,L|321:243,1,80,0|2,1:0|0:0,0:0:0:0:
417,221,133768,2,0,P|461:201|472:162,1,80,0|0,1:0|1:0,0:0:0:0:
383,117,134238,6,0,L|366:29,1,80,4|8,1:0|0:1,0:0:0:0:
265,54,134706,2,0,L|266:137,1,80,0|8,1:0|0:1,0:0:0:0:
185,304,135175,2,0,P|134:316|95:290,1,80,0|8,1:0|0:1,0:0:0:0:
64,212,135644,2,0,P|115:186|161:204,1,80,0|8,1:0|1:1,0:0:0:0:
285,258,136113,6,0,L|281:353,1,80,0|8,1:0|0:1,0:0:0:0:
385,340,136581,2,0,L|397:248,1,80,0|8,1:0|0:1,0:0:0:0:
366,60,137050,2,0,P|423:51|454:77,1,80,0|0,1:0|0:0,0:0:0:0:
494,149,137519,2,0,P|447:164|405:144,1,80,0|0,1:0|1:0,0:0:0:0:
293,123,137988,5,12,0:0:0:0:
293,123,138222,1,4,0:3:0:0:
152,49,138456,1,0,1:0:0:0:
152,49,138691,1,4,0:3:0:0:
28,173,138925,1,8,0:0:0:0:
28,173,139159,1,4,0:3:0:0:
137,353,139394,1,0,1:0:0:0:
137,353,139628,1,4,0:3:0:0:
256,192,139863,12,4,141269,0:3:0:0:
425,177,141737,6,0,L|419:246,3,47.9999985351563,0|0|2|0,1:0|3:0|3:0|3:0,0:0:0:0:
377,269,142205,1,4,0:3:0:0:
267,330,142440,2,0,L|247:281,3,47.9999985351563,2|0|0|0,1:3|3:0|3:0|3:0,0:0:0:0:
110,97,143143,2,0,L|58:84,3,47.9999985351563,0|0|2|0,3:0|3:0|3:0|3:0,0:0:0:0:
39,143,143612,6,0,L|47:223,3,47.9999985351563,0|0|2|0,1:0|3:0|3:0|3:0,0:0:0:0:
58,251,144080,1,4,0:3:0:0:
170,195,144315,2,0,L|235:185,3,47.9999985351563,2|0|0|0,3:3|3:0|1:0|3:0,0:0:0:0:
381,96,145018,2,0,L|362:215,1,95.9999970703126,0|2,1:0|3:0,0:0:0:0:
474,252,145487,6,0,L|467:227,4,23.9999992675781,8|0|8|0|8,1:2|0:0|0:1|0:0|0:1,0:0:0:0:
368,319,145955,2,0,L|378:292,4,23.9999992675781,0|0|8|0|8,1:0|0:0|0:1|0:0|0:1,0:0:0:0:
243,329,146424,1,8,0:0:0:0:
118,334,146658,1,4,0:3:0:0:
118,208,146893,1,4,1:3:0:0:
5,154,147127,1,4,0:3:0:0:
75,50,147362,6,0,L|91:82,4,23.9999992675781,8|0|8|0|8,0:0|0:0|0:1|0:0|0:1,0:0:0:0:
193,88,147830,2,0,L|209:120,4,23.9999992675781,0|0|8|0|8,1:0|0:0|0:1|0:0|0:1,0:0:0:0:
227,208,148299,1,8,0:0:0:0:
350,227,148533,1,0,1:0:0:0:
433,320,148768,1,8,0:0:0:0:
482,74,149238,6,0,P|442:96|350:97,1,95.9999970703126,6|4,0:1|0:3,0:0:0:0:
269,84,149706,6,0,L|287:128,2,47.9999985351563,8|0|2,0:0|0:0|3:0,0:0:0:0:
157,28,150174,1,0,1:0:0:0:
90,133,150408,6,0,P|94:192|81:234,1,95.9999970703126,2|8,0:1|1:2,0:0:0:0:
73,288,150760,2,0,P|113:296|176:260,1,95.9999970703126,2|0,0:1|0:0,0:0:0:0:
224,265,151112,2,0,L|326:287,1,95.9999970703126,2|2,0:1|3:0,0:0:0:0:
440,311,151581,6,0,L|466:265,2,47.9999985351563,8|0|2,1:2|0:0|3:0,0:0:0:0:
406,190,152049,1,0,1:0:0:0:
282,172,152283,6,0,P|284:118|330:48,1,95.9999970703126,2|8,0:1|1:2,0:0:0:0:
289,18,152635,2,0,L|187:38,1,95.9999970703126,2|0,0:1|0:0,0:0:0:0:
140,68,152987,6,0,L|148:91,4,23.9999992675781,2|0|8|0|8,0:1|0:0|0:1|0:0|0:1,0:0:0:0:
42,145,153455,2,0,L|69:256,1,95.9999970703126,8|8,1:2|0:1,0:0:0:0:
53,362,153924,1,0,1:0:0:0:
169,317,154158,6,0,P|216:308|264:322,1,95.9999970703126,2|8,1:1|1:2,0:0:0:0:
319,346,154510,2,0,L|315:251,1,95.9999970703126,2|0,0:1|0:0,0:0:0:0:
326,188,154862,2,0,P|371:200|417:189,1,95.9999970703126,2|8,3:1|0:1,0:0:0:0:
459,71,155330,6,0,L|438:19,2,47.9999985351563,0|0|0,1:0|0:0|1:0,0:0:0:0:
333,75,155799,1,8,1:2:0:0:
213,38,156033,6,0,L|220:133,1,95.9999970703126,10|10,0:2|3:2,0:0:0:0:
136,324,156738,6,0,L|47:341,2,80,0|0|10,1:0|0:0|0:0,0:0:0:0:
224,268,157441,1,0,1:0:0:0:
309,209,157675,2,0,L|407:218,2,80,0|2|0,1:0|0:0|1:0,0:0:0:0:
268,112,158378,1,0,1:0:0:0:
169,142,158613,6,0,L|78:151,2,80,0|0|10,1:0|0:0|0:0,0:0:0:0:
236,221,159316,1,0,1:0:0:0:
293,307,159550,2,0,L|386:311,1,80,0|2,1:0|0:0,0:0:0:0:
505,227,160019,1,0,1:0:0:0:
332,84,160488,6,0,L|405:49,2,80,0|0|10,1:0|0:0|0:0,0:0:0:0:
227,86,161191,1,0,1:0:0:0:
127,116,161425,2,0,L|100:24,2,80,0|2|0,1:0|0:0|1:0,0:0:0:0:
143,218,162128,1,0,1:0:0:0:
44,251,162363,6,0,L|33:349,1,80,0|2,1:0|0:0,0:0:0:0:
188,384,162830,1,0,1:0:0:0:
361,323,163299,1,0,1:0:0:0:
301,237,163533,1,2,0:0:0:0:
402,216,163768,1,0,1:0:0:0:
388,113,164002,1,2,0:0:0:0:
491,103,164237,6,0,L|467:22,1,80,0|2,1:0|0:0,0:0:0:0:
364,33,164705,2,0,L|275:42,1,80,0|2,1:0|0:0,0:0:0:0:
246,137,165174,2,0,L|240:249,1,80,0|2,1:0|0:0,0:0:0:0:
180,301,165643,2,0,L|84:315,1,80,0|2,1:0|0:0,0:0:0:0:
54,219,166112,5,0,1:0:0:0:
54,219,166346,1,2,0:0:0:0:
41,73,166580,1,0,1:0:0:0:
41,73,166815,1,2,0:0:0:0:
218,142,167049,1,0,1:0:0:0:
218,142,167283,1,2,0:0:0:0:
360,28,167518,1,0,1:0:0:0:
360,28,167752,1,2,0:0:0:0:
370,167,167987,6,0,L|419:151,3,40,8|8|4|8,0:0|0:1|0:3|0:1,0:0:0:0:
444,191,168455,2,0,L|460:240,3,40,0|8|4|8,1:0|0:1|0:3|0:1,0:0:0:0:
457,280,168924,2,0,L|408:296,3,40,8|8|4|8,0:0|0:1|0:3|0:1,0:0:0:0:
372,317,169393,2,0,L|388:366,3,40,0|8|4|8,1:0|0:1|0:3|0:1,0:0:0:0:
289,310,169979,5,4,0:3:0:0:
213,246,170213,1,8,0:1:0:0:
213,246,170330,1,0,1:0:0:0:
116,283,170565,2,0,L|70:288,1,40,4|8,0:3|0:1,0:0:0:0:
53,240,170799,2,0,L|47:170,1,40,8|8,0:0|0:1,0:0:0:0:
76,155,171033,2,0,L|128:145,1,40,4|8,0:3|0:1,0:0:0:0:
167,143,171268,2,0,L|172:36,1,80,0|0,1:0|0:0,0:0:0:0:
274,50,171737,6,0,P|336:41|375:52,1,95.9999970703126,12|0,0:0|0:0,0:0:0:0:
400,267,172908,1,0,1:0:0:0:
400,267,173612,5,8,0:0:0:0:
388,104,174080,1,0,1:0:0:0:
286,83,174315,1,0,1:0:0:0:
184,61,174549,1,8,0:0:0:0:
43,214,175018,1,8,1:2:0:0:
43,214,175487,6,0,L|35:306,2,63.9999980468751,2|0|0,1:0|3:0|3:0,0:0:0:0:
67,134,175956,2,0,P|115:126|170:141,1,95.9999970703126,10|0,1:2|2:0,0:0:0:0:
277,93,176424,6,0,L|289:-2,2,63.9999980468751,2|0|0,0:0|3:0|3:0,0:0:0:0:
286,176,176893,2,0,P|330:195|386:180,1,95.9999970703126,10|0,1:2|2:0,0:0:0:0:
456,280,177362,6,0,L|507:287,2,47.9999985351563,0|0|2,1:0|1:0|3:2,0:0:0:0:
332,284,177831,2,0,P|306:337|303:378,1,95.9999970703126,10|2,1:2|1:2,0:0:0:0:
184,328,178298,2,0,L|80:312,1,95.9999970703126,2|2,1:0|3:2,0:0:0:0:
72,257,178650,1,0,2:0:0:0:
72,257,178768,1,10,1:2:0:0:
92,103,179003,1,2,1:2:0:0:
192,184,179237,6,0,L|296:193,1,95.9999970703126,4|0,1:0|3:0,0:0:0:0:
320,248,179587,2,0,L|304:304,1,47.9999985351563,0|8,2:0|1:0,0:0:0:0:
454,370,179940,1,0,1:0:0:0:
439,246,180174,2,0,P|433:195|451:140,1,95.9999970703126,0|0,0:0|2:0,0:0:0:0:
467,94,180526,1,0,3:0:0:0:
467,94,180643,2,0,B|390:57|390:57|247:82,1,191.999994140625,8|0,1:0|0:0,0:0:0:0:
159,79,181346,5,0,3:2:0:0:
159,79,181581,2,0,L|150:182,1,95.9999970703126,8|0,1:0|1:2,0:0:0:0:
16,152,182049,1,0,0:0:0:0:
0,320,182282,1,0,2:2:0:0:
0,320,182400,1,0,3:1:0:0:
0,320,182518,2,0,P|28:363|76:387,1,95.9999970703126,8|0,1:0|0:0,0:0:0:0:
225,322,182987,6,0,L|302:333,2,63.9999980468751,2|2|0,0:0|3:0|3:0,0:0:0:0:
197,243,183456,2,0,P|185:192|216:139,1,95.9999970703126,10|2,1:2|2:0,0:0:0:0:
282,58,183924,6,0,L|210:35,2,63.9999980468751,2|0|0,0:0|3:0|3:0,0:0:0:0:
365,62,184393,2,0,P|415:55|467:68,1,95.9999970703126,10|0,1:2|2:0,0:0:0:0:
416,184,184862,6,0,L|341:179,2,47.9999985351563,0|0|0,0:0|0:0|0:2,0:0:0:0:
488,288,185331,2,0,P|488:337|464:385,1,95.9999970703126,8|0,1:0|1:0,0:0:0:0:
344,352,185799,2,0,P|326:303|333:245,1,95.9999970703126,2|2,1:0|2:0,0:0:0:0:
269,152,186268,1,0,1:0:0:0:
151,108,186503,1,2,1:2:0:0:
29,134,186737,6,0,P|30:182|52:230,1,95.9999970703126,4|0,0:0|0:2,0:0:0:0:
56,288,187088,2,0,L|48:344,1,47.9999985351563,0|8,1:1|1:0,0:0:0:0:
193,327,187440,1,0,1:0:0:0:
196,174,187674,2,0,P|247:164|294:186,1,95.9999970703126,0|0,0:0|2:0,0:0:0:0:
319,233,188026,1,0,3:1:0:0:
319,233,188143,2,0,B|355:269|418:238|418:238|443:209|423:118,1,191.999994140625,8|0,1:0|1:0,0:0:0:0:
431,30,188845,5,0,0:0:0:0:
431,30,189080,2,0,L|326:37,1,95.9999970703126,8|0,1:0|0:0,0:0:0:0:
192,8,189548,1,0,0:0:0:0:
184,144,189782,1,0,2:0:0:0:
184,144,189900,1,0,3:1:0:0:
184,144,190017,2,0,P|182:190|201:244,1,95.9999970703126,8|0,1:0|0:0,0:0:0:0:
256,352,190486,6,0,P|192:344|160:376,1,95.9999970703126,0|2,0:0|0:0,0:0:0:0:
104,360,190837,2,0,L|80:312,1,47.9999985351563,0|10,3:1|1:2,0:0:0:0:
0,192,191189,1,0,1:0:0:0:
36,59,191424,2,0,P|108:55|153:71,1,95.9999970703126,0|2,0:0|0:0,0:0:0:0:
130,60,192127,1,0,1:0:0:0:
290,24,192361,5,0,0:0:0:0:
460,190,192830,2,0,B|485:238|442:309|442:309|374:266|361:223|361:223|285:245|310:340,1,383.99998828125,10|10,1:2|1:2,0:0:0:0:
59,307,194236,6,0,P|116:327|163:307,1,95.9999970703126,4|0,0:0|0:0,0:0:0:0:
144,256,194587,2,0,L|152:208,1,47.9999985351563,0|8,1:1|1:0,0:0:0:0:
176,56,194939,1,0,0:0:0:0:
352,76,195174,2,0,L|354:177,1,95.9999970703126,0|0,0:0|2:0,0:0:0:0:
308,214,195525,1,0,3:1:0:0:
308,214,195643,2,0,B|359:243|404:235|429:157|505:226,1,191.999994140625,8|0,1:0|0:0,0:0:0:0:
491,338,196345,5,0,3:0:0:0:
491,338,196580,2,0,L|380:360,1,95.9999970703126,8|0,1:0|0:0,0:0:0:0:
231,332,197049,1,0,0:0:0:0:
152,208,197282,1,0,3:0:0:0:
152,208,197400,1,0,3:1:0:0:
152,208,197517,2,0,P|142:148|155:111,1,95.9999970703126,8|0,1:0|0:0,0:0:0:0:
324,120,197986,6,0,L|396:129,2,63.9999980468751,2|0|0,0:0|3:0|3:0,0:0:0:0:
240,125,198455,2,0,P|230:78|244:26,1,95.9999970703126,10|0,1:2|2:0,0:0:0:0:
117,50,198924,6,0,L|51:37,2,63.9999980468751,2|0|0,0:0|3:0|3:0,0:0:0:0:
90,128,199393,2,0,P|79:191|46:211,1,95.9999970703126,10|0,1:2|2:0,0:0:0:0:
48,336,199862,6,0,L|-24:328,2,47.9999985351563,2|0|0,0:0|0:0|0:0,0:0:0:0:
160,272,200330,1,10,1:2:0:0:
160,272,200565,1,0,1:0:0:0:
259,195,200799,2,0,L|382:211,1,95.9999970703126,0|2,0:0|0:0,0:0:0:0:
403,163,201151,1,0,0:1:0:0:
403,163,201268,2,0,P|427:162|393:261,1,191.999994140625,8|0,1:2|1:0,0:0:0:0:
