osu file format v14

[General]
AudioFilename: audio.mp3
AudioLeadIn: 0
PreviewTime: 89003
Countdown: 0
SampleSet: Soft
StackLeniency: 0.7
Mode: 0
LetterboxInBreaks: 0
WidescreenStoryboard: 0

[Editor]
Bookmarks: 1500,23175,34146,45117,56089,67060,78032,89003,99975,110946,121917,132889,143860,154832,165803,176775,187746,198717,209689,220917
DistanceSpacing: 1.2
BeatDivisor: 4
GridSize: 4
TimelineZoom: 1

[Metadata]
Title:New Genesis
TitleUnicode:新時代
Artist:Ado
ArtistUnicode:Ado
Creator:Andrea
Version:New Beginning
Source:ONE PIECE FILM RED
Tags:osuplayer111 Sekai Sekaii Sekai-nyan Kirishima- Mrgglock Baack toei animation japanese pop j-pop jpop anime movie Female Vocalist Vocal Monkey D Luffy モンキー D ルフィ Roronoa Zoro ロロノア ゾロ Nami ナミ Nico Robin ニコ ロビン Usopp ウソップ Sanji サンジ Tony Chopper トニーチョッパー Brook ブルック Franky フランキー Jinbe Jimbei ジンベエ Straw Hat Pirates 麦わらの一味 Mugiwara no Ichimi UTA ウタ New Genesis Insert Song 赤髪のシャンクス Red-Haired Shanks シャンクス Shin Jidai
BeatmapID:3796188
BeatmapSetID:1848011

[Difficulty]
HPDrainRate:6
CircleSize:4.5
OverallDifficulty:9
ApproachRate:9.2
SliderMultiplier:1.8
SliderTickRate:1

[Events]
//Background and Video events
0,0,"BG.jpg",0,0
Video,-54,"Video.mp4"
//Break Periods
//Storyboard Layer 0 (Background)
//Storyboard Layer 1 (Fail)
//Storyboard Layer 2 (Pass)
//Storyboard Layer 3 (Foreground)
//Storyboard Layer 4 (Overlay)
//Storyboard Sound Samples

[TimingPoints]
1500,512.820512820513,4,2,1,40,1,0
1500,-200,4,2,1,40,0,0
2012,517.241379310345,4,2,1,40,1,0
2270,-200,4,2,1,40,0,0
3046,444.444444444445,4,2,1,40,1,0
3268,588.235294117648,4,2,1,40,1,0
3268,-250,4,2,1,40,0,0
3562,512.820512820513,4,2,1,40,1,0
3562,-200,4,2,1,40,0,0
3818,461.538461538462,4,2,1,40,1,0
3818,-200,4,2,1,40,0,0
4048,507.39957716702,4,2,1,40,1,0
4301,526.315789473685,4,2,1,40,1,0
4301,-200,4,2,1,40,0,0
4827,481.927710843374,4,2,1,40,1,0
5549,689.655172413792,4,2,1,40,1,0
5549,-200,4,2,1,40,0,0
6238,564.705882352941,4,2,1,40,1,0
6520,909.090909090909,4,2,1,40,1,0
6974,498.960498960499,4,2,1,40,1,0
6974,-200,4,2,1,40,0,0
7472,544.711756695415,4,2,1,40,1,0
8289,530.973451327434,4,2,1,40,1,0
8289,-200,4,2,1,40,0,0
8554,522.306855277476,4,2,1,40,1,0
8554,-200,4,2,1,40,0,0
9598,561.40350877193,4,2,1,40,1,0
9598,-200,4,2,1,40,0,0
10159,620.15503875969,4,2,1,40,1,0
10159,-200,4,2,1,40,0,0
10779,428.571428571429,4,2,1,40,1,0
10779,-200,4,2,1,40,0,0
11207,472.44094488189,4,2,1,40,1,0
11207,-200,4,2,1,40,0,0
12151,571.428571428572,4,2,1,40,1,0
12151,-200,4,2,1,40,0,0
13293,589.68058968059,4,2,1,40,1,0
13293,-200,4,2,1,40,0,0
13587,510.638297872341,4,2,1,40,1,0
14097,607.594936708861,4,2,1,40,1,0
14097,-200,4,2,1,40,0,0
14552,-200,4,2,1,5,0,0
14704,825.309491059147,4,2,1,40,1,0
14704,-200,4,2,1,40,0,0
15322,-200,4,2,1,5,0,0
15529,669.269380925823,4,2,1,40,1,0
15529,-200,4,2,1,40,0,0
16532,769.230769230769,4,2,1,20,1,0
16916,1034.48275862069,4,2,1,20,1,0
17433,666.666666666667,4,2,1,20,1,0
18099,705.882352941176,4,2,1,20,1,0
18804,652.173913043478,4,2,1,20,1,0
19458,440.04400440044,4,2,1,20,1,0
20778,481.347773766546,4,2,1,5,1,0
20778,-200,4,2,1,5,0,0
23184,342.857142857145,4,3,1,50,1,0
23184,-133.333333333333,4,3,1,50,0,0
28669,-66.6666666666667,4,3,1,50,0,0
29012,-111.111111111111,4,3,1,50,0,0
29955,-111.111111111111,4,3,1,5,0,0
30041,-111.111111111111,4,3,1,50,0,0
33812,-200,4,3,1,50,0,0
34069,-200,4,3,1,5,0,0
34155,-66.6666666666667,4,2,1,60,0,0
34412,-66.6666666666667,4,2,1,5,0,0
34498,-100,4,2,1,60,0,0
35784,-100,4,2,1,5,0,0
35869,-100,4,2,1,60,0,0
37155,-100,4,2,1,5,0,0
37241,-100,4,2,1,60,0,0
38184,-100,4,2,1,5,0,0
38269,-100,4,2,1,60,0,0
39898,-100,4,2,1,5,0,0
39984,-100,4,2,1,60,0,0
41269,-100,4,2,1,5,0,0
41355,-100,4,2,1,60,0,0
42641,-100,4,2,1,5,0,0
42726,-100,4,2,1,60,0,0
43669,-100,4,2,1,5,0,0
43755,-100,4,2,1,60,0,0
44012,-100,4,2,1,5,0,0
44098,-100,4,2,1,60,0,0
45126,-111.111111111111,4,2,1,55,0,0
67069,-100,4,2,1,60,0,0
68012,-100,4,2,1,5,0,0
68098,-100,4,2,1,60,0,0
69726,-100,4,2,1,5,0,0
69812,-100,4,2,1,60,0,0
70584,-100,4,2,1,5,0,0
70669,-100,4,2,1,60,0,0
73498,-100,4,2,1,5,0,0
73584,-100,4,2,1,60,0,0
75212,-100,4,2,1,5,0,0
75298,-100,4,2,1,60,0,0
76069,-100,4,2,1,5,0,0
76155,-100,4,2,1,60,0,0
76926,-100,4,2,1,5,0,0
77012,-100,4,2,1,60,0,0
78041,-50,4,2,1,60,0,0
78298,-50,4,2,1,5,0,0
78384,-100,4,2,1,60,0,0
79669,-100,4,2,1,5,0,0
79755,-100,4,2,1,60,0,0
82412,-100,4,2,1,5,0,0
82498,-100,4,2,1,60,0,0
83355,-66.6666666666667,4,2,1,60,0,0
83784,-66.6666666666667,4,2,1,5,0,0
83869,-100,4,2,1,60,0,0
85155,-100,4,2,1,5,0,0
85241,-100,4,2,1,60,0,0
86098,-100,4,2,1,60,0,0
86612,-100,4,2,1,60,0,0
86869,-100,4,2,1,5,0,0
86955,-100,4,2,1,60,0,0
87812,-100,4,2,1,65,0,0
89012,-50,4,2,1,75,0,1
89269,-50,4,2,1,5,0,1
89355,-83.3333333333333,4,2,1,75,0,1
90469,-83.3333333333333,4,2,1,5,0,1
90555,-83.3333333333333,4,2,1,75,0,1
91584,-50,4,2,1,75,0,1
92012,-50,4,2,1,5,0,1
92098,-83.3333333333333,4,2,1,75,0,1
96126,-83.3333333333333,4,2,1,5,0,1
96212,-83.3333333333333,4,2,1,75,0,1
98869,-83.3333333333333,4,2,1,5,0,1
98955,-83.3333333333333,4,2,1,75,0,1
99898,-83.3333333333333,4,2,1,75,0,0
99984,-50,4,2,1,75,0,1
100326,-83.3333333333333,4,2,1,75,0,1
101441,-83.3333333333333,4,2,1,5,0,1
101526,-83.3333333333333,4,2,1,75,0,1
102555,-50,4,2,1,75,0,1
102812,-50,4,2,1,5,0,1
102898,-50,4,2,1,75,0,1
102984,-50,4,2,1,5,0,1
103069,-83.3333333333333,4,2,1,75,0,1
104355,-83.3333333333333,4,2,1,5,0,1
104441,-83.3333333333333,4,2,1,75,0,1
106069,-83.3333333333333,4,2,1,5,0,1
106155,-83.3333333333333,4,2,1,75,0,1
107098,-83.3333333333333,4,2,1,5,0,1
107184,-83.3333333333333,4,2,1,75,0,1
109412,-133.333333333333,4,2,1,75,0,0
110955,-66.6666666666667,4,2,1,70,0,0
111212,-66.6666666666667,4,2,1,5,0,0
111298,-100,4,2,1,70,0,0
113955,-100,4,2,1,5,0,0
114041,-100,4,2,1,70,0,0
116441,-66.6666666666667,4,2,1,70,0,0
116698,-66.6666666666667,4,2,1,5,0,0
116784,-100,4,2,1,70,0,0
121584,-200,4,2,1,70,0,0
121841,-200,4,2,1,5,0,0
121926,-66.6666666666667,4,2,1,70,0,0
122184,-66.6666666666667,4,2,1,5,0,0
122269,-100,4,2,1,70,0,0
123555,-100,4,2,1,5,0,0
123641,-100,4,2,1,70,0,0
124241,-100,4,2,1,5,0,0
124326,-100,4,2,1,70,0,0
124926,-100,4,2,1,5,0,0
125012,-100,4,2,1,70,0,0
125955,-100,4,2,1,5,0,0
126041,-100,4,2,1,70,0,0
127412,-66.6666666666667,4,2,1,70,0,0
127669,-66.6666666666667,4,2,1,5,0,0
127755,-100,4,2,1,70,0,0
129041,-100,4,2,1,5,0,0
129126,-100,4,2,1,70,0,0
130412,-100,4,2,1,5,0,0
130498,-100,4,2,1,70,0,0
131441,-100,4,2,1,5,0,0
131526,-100,4,2,1,70,0,0
132641,-100,4,2,1,5,0,0
132726,-133.333333333333,4,2,1,60,0,0
132898,-133.333333333333,4,2,1,50,0,0
134441,-133.333333333333,4,2,1,60,0,0
135469,-133.333333333333,4,2,1,65,0,0
144126,-111.111111111111,4,2,1,5,0,0
144212,-111.111111111111,4,2,1,65,0,0
154841,-100,4,2,1,70,0,0
155784,-100,4,2,1,5,0,0
155869,-100,4,2,1,70,0,0
157498,-100,4,2,1,5,0,0
157584,-100,4,2,1,70,0,0
158355,-100,4,2,1,5,0,0
158441,-100,4,2,1,70,0,0
161269,-100,4,2,1,5,0,0
161355,-100,4,2,1,70,0,0
162984,-100,4,2,1,5,0,0
163069,-100,4,2,1,70,0,0
163841,-100,4,2,1,5,0,0
163926,-100,4,2,1,70,0,0
164698,-100,4,2,1,5,0,0
164784,-100,4,2,1,70,0,0
165812,-50,4,2,1,70,0,0
166069,-50,4,2,1,5,0,0
166155,-100,4,2,1,70,0,0
167441,-100,4,2,1,5,0,0
167526,-100,4,2,1,70,0,0
170184,-100,4,2,1,5,0,0
170269,-100,4,2,1,70,0,0
171126,-66.6666666666667,4,2,1,70,0,0
171555,-66.6666666666667,4,2,1,5,0,0
171641,-100,4,2,1,70,0,0
172926,-100,4,2,1,5,0,0
173012,-100,4,2,1,70,0,0
173869,-66.6666666666667,4,2,1,70,0,0
174384,-100,4,2,1,70,0,0
174641,-100,4,2,1,5,0,0
174726,-100,4,2,1,70,0,0
176441,-200,4,2,1,70,0,0
176784,-50,4,2,1,80,0,1
177041,-50,4,2,1,5,0,1
177126,-83.3333333333333,4,2,1,80,0,1
178241,-83.3333333333333,4,2,1,5,0,1
178326,-83.3333333333333,4,2,1,80,0,1
179355,-50,4,2,1,80,0,1
179784,-50,4,2,1,5,0,1
179869,-83.3333333333333,4,2,1,80,0,1
183898,-83.3333333333333,4,2,1,5,0,1
183984,-83.3333333333333,4,2,1,80,0,1
186384,-83.3333333333333,4,2,1,80,0,0
186641,-83.3333333333333,4,2,1,5,0,0
186726,-83.3333333333333,4,2,1,80,0,0
187755,-50,4,2,1,85,0,1
188012,-50,4,2,1,5,0,1
188098,-83.3333333333333,4,2,1,85,0,1
189212,-83.3333333333333,4,2,1,5,0,1
189298,-83.3333333333333,4,2,1,85,0,1
190326,-50,4,2,1,85,0,1
190584,-50,4,2,1,5,0,1
190669,-50,4,2,1,85,0,1
190755,-50,4,2,1,5,0,1
190841,-83.3333333333333,4,2,1,85,0,1
192126,-83.3333333333333,4,2,1,5,0,1
192212,-83.3333333333333,4,2,1,85,0,1
193841,-83.3333333333333,4,2,1,5,0,1
193926,-83.3333333333333,4,2,1,85,0,1
194869,-83.3333333333333,4,2,1,5,0,1
194955,-83.3333333333333,4,2,1,85,0,1
197184,-133.333333333333,4,2,1,85,0,0
198726,-66.6666666666667,4,2,1,75,0,0
198984,-66.6666666666667,4,2,1,5,0,0
199069,-100,4,2,1,75,0,0
201726,-100,4,2,1,5,0,0
201812,-100,4,2,1,75,0,0
204212,-66.6666666666667,4,2,1,75,0,0
204469,-66.6666666666667,4,2,1,5,0,0
204555,-100,4,2,1,75,0,0
209355,-200,4,2,1,75,0,0
209612,-200,4,2,1,5,0,0
209698,-66.6666666666667,4,2,1,75,0,0
209955,-66.6666666666667,4,2,1,5,0,0
210041,-100,4,2,1,75,0,0
211326,-100,4,2,1,5,0,0
211412,-100,4,2,1,75,0,0
212698,-100,4,2,1,5,0,0
212784,-100,4,2,1,75,0,0
213726,-100,4,2,1,5,0,0
213812,-100,4,2,1,75,0,0
215184,-66.6666666666667,4,2,1,75,0,0
215441,-66.6666666666667,4,2,1,5,0,0
215526,-100,4,2,1,75,0,0
216812,-100,4,2,1,5,0,0
216898,-100,4,2,1,75,0,0
218184,-100,4,2,1,5,0,0
218269,-100,4,2,1,75,0,0
219212,-100,4,2,1,5,0,0
219298,-133.333333333333,4,2,1,75,0,0
220498,-100,4,2,1,75,0,0
220926,-100,4,2,1,5,0,0

[Colours]
Combo1 : 128,255,255
Combo2 : 255,128,128
Combo3 : 170,170,213
Combo4 : 255,169,128

[HitObjects]
61,263,1500,6,0,P|90:282|150:287,1,90,2|2,0:0|0:0,0:0:0:0:
212,216,2270,2,0,L|236:124,1,90,2|2,0:0|0:0,0:0:0:0:
234,128,3268,2,0,P|282:128|312:152,1,67.5,2|2,0:0|0:0,0:0:0:0:
372,180,4048,1,2,0:0:0:0:
400,100,4301,2,0,L|436:12,1,90,2|2,0:0|0:0,0:0:0:0:
434,16,5549,6,0,P|458:48|458:104,1,90,2|2,0:0|0:0,0:0:0:0:
460,96,6520,1,2,0:0:0:0:
384,136,6974,2,0,L|292:124,1,90,2|2,0:0|0:0,0:0:0:0:
294,124,8289,5,2,0:0:0:0:
204,112,8554,2,0,P|188:140|180:204,1,90,2|2,0:0|0:0,0:0:0:0:
220,332,9598,1,2,0:0:0:0:
348,352,10159,1,2,0:0:0:0:
256,192,10314,12,2,12151,0:0:0:0:
468,172,13293,5,2,0:0:0:0:
384,200,13587,1,2,0:0:0:0:
344,84,14097,2,0,P|320:68|280:52,1,67.5,2|0,0:0|0:0,0:0:0:0:
264,48,14704,2,0,P|250:81|218:115,1,67.5,2|0,0:0|0:0,0:0:0:0:
152,140,15529,1,2,0:0:0:0:
256,192,15696,12,0,20778,0:0:0:0:
418,58,23184,6,0,P|406:94|394:133,1,67.5000025749208,4|0,1:2|0:0,0:0:0:0:
340,206,23526,1,0,1:0:0:0:
266,135,23698,2,0,P|299:112|327:95,1,67.5000025749208,2|0,0:0|1:0,0:0:0:0:
186,63,24041,2,0,P|181:111|171:201,1,135.000005149842,2|0,0:0|0:0,0:0:0:0:
203,311,24555,6,0,P|247:294|275:284,1,67.5000025749208,2|0,1:3|0:0,0:0:0:0:
359,250,24898,1,0,1:0:0:0:
376,356,25069,2,0,P|337:354|299:352,1,67.5000025749208,2|0,0:0|1:0,0:0:0:0:
359,250,25412,2,0,B|414:240|414:240|475:297,1,135.000005149842,2|0,0:0|0:0,0:0:0:0:
493,138,25926,6,0,P|449:146|413:151,1,67.5000025749208,2|0,1:3|0:0,0:0:0:0:
347,66,26269,1,0,1:0:0:0:
446,3,26441,2,0,P|443:36|441:70,1,67.5000025749208,2|0,0:0|1:0,0:0:0:0:
347,66,26784,1,0,0:0:0:0:
266,37,26955,1,2,1:3:0:0:
187,12,27126,1,0,0:0:0:0:
174,161,27298,6,0,P|205:133|228:113,1,67.5000025749208,2|2,1:2|0:2,0:0:0:0:
347,66,27641,2,0,P|331:106|321:136,1,67.5000025749208,0|10,1:0|0:0,0:0:0:0:
342,219,27984,1,0,1:0:0:0:
256,187,28155,1,10,0:0:0:0:
165,157,28326,1,4,1:3:0:0:
259,312,28498,1,0,0:0:0:0:
487,60,28669,6,0,B|439:76|399:146|399:146|290:101|361:7,1,270.000010299683,4|0,1:2|1:0,0:0:0:0:
499,143,29184,2,0,P|467:196|445:233,1,80.9999975280763,2|0,0:0|1:0,0:0:0:0:
469,343,29526,1,2,0:0:0:0:
374,279,29698,1,0,1:0:0:0:
286,206,29869,1,0,0:0:0:0:
159,343,30041,6,0,P|219:325|262:314,1,80.9999975280763,2|0,1:3|0:0,0:0:0:0:
141,216,30384,1,0,1:0:0:0:
58,306,30555,2,0,P|67:349|77:384,1,80.9999975280763,2|0,0:0|1:0,0:0:0:0:
58,306,30898,1,2,0:0:0:0:
141,216,31070,1,0,1:0:0:0:
229,133,31241,1,0,0:0:0:0:
32,85,31412,6,0,P|44:120|58:163,1,80.9999975280763,2|0,1:3|0:0,0:0:0:0:
151,47,31755,1,0,1:0:0:0:
228,132,31926,2,0,P|215:170|203:209,1,80.9999975280763,2|0,0:0|1:0,0:0:0:0:
343,113,32269,1,8,0:0:0:0:
337,261,32441,1,8,1:3:0:0:
228,132,32612,5,4,0:0:0:0:
228,132,32698,1,4,0:0:0:0:
228,132,32784,1,4,1:3:0:0:
409,161,32955,1,2,0:0:0:0:
230,249,33126,1,0,1:0:0:0:
413,319,33298,1,0,0:0:0:0:
321,227,33470,1,2,1:3:0:0:
228,132,33641,1,0,0:0:0:0:
487,209,33812,6,0,P|455:216|425:250,1,67.5,8|0,0:1|0:0,0:0:0:0:
413,319,34155,6,0,P|345:306|270:290,1,135.000005149842,6|0,1:2|0:0,0:0:0:0:
124,340,34498,1,10,0:0:0:0:
280,292,34669,1,0,0:0:0:0:
124,212,34841,1,2,1:2:0:0:
212,340,35012,1,0,0:0:0:0:
216,132,35184,1,10,0:2:0:0:
188,268,35355,1,0,0:0:0:0:
180,48,35526,6,0,P|228:48|300:92,1,135,2|0,1:2|0:0,0:0:0:0:
360,152,35869,2,0,P|400:128|448:128,1,90,10|0,0:0|0:0,0:0:0:0:
508,280,36212,1,2,1:2:0:0:
424,204,36384,1,0,1:0:0:0:
400,340,36555,1,10,0:0:0:0:
508,196,36726,1,0,0:0:0:0:
332,256,36898,6,0,B|280:248|280:248|248:260|248:260|200:252,1,135,2|0,1:2|0:0,0:0:0:0:
120,244,37241,2,0,P|116:288|88:328,1,90,10|0,0:0|0:0,0:0:0:0:
84,148,37584,1,2,1:2:0:0:
44,256,37755,1,0,0:0:0:0:
180,176,37926,2,0,P|200:136|200:92,1,90,10|0,0:0|0:0,0:0:0:0:
332,144,38269,5,0,1:0:0:0:
260,32,38441,2,0,P|220:12|176:12,1,90,2|8,0:0|0:0,0:0:0:0:
60,124,38784,1,0,0:0:0:0:
160,260,38955,2,0,P|180:220|180:176,1,90,2|0,1:2|1:0,0:0:0:0:
260,32,39298,1,10,0:0:0:0:
179,175,39469,1,0,0:0:0:0:
332,144,39641,6,0,B|380:172|380:172|460:156,1,135,2|0,1:2|0:0,0:0:0:0:
512,209,39984,1,10,0:0:0:0:
469,361,40155,1,0,0:0:0:0:
367,243,40326,1,2,1:2:0:0:
512,289,40498,1,0,0:0:0:0:
457,156,40669,1,10,0:0:0:0:
403,319,40841,1,0,0:0:0:0:
293,206,41012,6,0,P|257:154|265:82,1,135,2|0,1:2|0:0,0:0:0:0:
320,12,41355,2,0,L|228:0,1,90,10|0,0:0|0:0,0:0:0:0:
112,116,41698,1,2,1:2:0:0:
230,0,41869,1,0,1:0:0:0:
286,87,42041,1,10,0:0:0:0:
144,24,42212,1,0,0:0:0:0:
32,180,42384,6,0,B|56:220|44:256|44:256|76:312,1,135,2|0,1:2|0:0,0:0:0:0:
120,368,42726,2,0,P|160:344|184:304,1,90,10|0,0:0|0:0,0:0:0:0:
212,168,43069,1,2,1:2:0:0:
182,307,43241,1,0,1:0:0:0:
329,270,43412,2,0,P|286:251|240:249,1,90,10|0,0:0|0:0,0:0:0:0:
288,112,43755,6,0,P|352:92|420:120,1,135,4|0,1:2|0:0,0:0:0:0:
476,164,44098,1,8,0:0:0:0:
392,232,44269,1,0,0:0:0:0:
484,64,44441,1,0,1:0:0:0:
500,304,44612,1,8,3:0:0:0:
500,304,44955,1,2,3:2:0:0:
280,232,45126,5,4,1:2:0:0:
336,344,45298,1,2,0:0:0:0:
377,222,45469,1,10,0:0:0:0:
224,296,45641,1,2,0:0:0:0:
312,148,45812,5,2,1:2:0:0:
377,222,45984,1,2,0:0:0:0:
233,88,46155,5,10,0:0:0:0:
168,162,46327,1,2,0:0:0:0:
382,2,46498,6,0,P|357:56|310:151,1,161.999995056153,2|10,1:2|0:0,0:0:0:0:
207,232,47012,2,0,P|187:196|167:161,1,80.9999975280763,2|0,0:0|1:0,0:0:0:0:
316,320,47355,2,0,P|333:285|356:249,1,80.9999975280763,2|8,1:2|0:0,0:0:0:0:
153,323,47698,5,2,0:0:0:0:
77,250,47869,1,0,1:0:0:0:
3,174,48041,1,2,0:0:0:0:
216,222,48212,5,10,0:0:0:0:
153,323,48384,1,2,0:0:0:0:
3,174,48555,5,2,1:2:0:0:
66,73,48727,1,2,0:0:0:0:
77,250,48898,5,10,0:0:0:0:
140,149,49070,1,2,0:0:0:0:
353,168,49241,6,0,B|288:158|288:158|210:226,1,161.999995056153,2|10,1:2|0:0,0:0:0:0:
357,243,49755,2,0,P|367:203|347:162,1,80.9999975280763,2|0,0:0|1:0,0:0:0:0:
437,252,50098,1,2,1:2:0:0:
414,119,50269,1,8,0:0:0:0:
357,243,50441,6,0,P|416:250|448:254,1,80.9999975280763,2|0,0:0|1:0,0:0:0:0:
364,349,50784,1,2,0:0:0:0:
264,300,50955,2,0,P|273:256|281:210,1,80.9999975280763,8|0,0:0|0:0,0:0:0:0:
172,135,51298,2,0,P|179:174|187:214,1,80.9999975280763,0|0,1:0|0:0,0:0:0:0:
74,181,51641,1,8,0:0:0:0:
104,304,51812,1,0,0:0:0:0:
187,214,51984,1,0,1:0:0:0:
0,321,52155,5,2,0:0:0:0:
74,181,52326,1,10,0:0:0:0:
104,304,52498,2,0,P|65:274|38:253,1,80.9999975280763,2|0,0:0|1:0,0:0:0:0:
0,119,52841,1,2,1:2:0:0:
39,254,53012,1,8,0:0:0:0:
114,110,53184,6,0,P|89:153|71:185,1,80.9999975280763,2|0,0:0|1:0,0:0:0:0:
94,18,53526,2,0,P|161:28|207:108,1,161.999995056153,2|2,0:0|0:0,0:0:0:0:
388,54,54041,1,2,1:2:0:0:
293,161,54212,1,0,0:0:0:0:
260,7,54384,1,10,0:0:0:0:
411,146,54555,5,0,3:0:0:0:
411,146,54641,1,0,3:0:0:0:
411,146,54726,1,2,1:2:0:0:
267,271,54898,1,0,0:0:0:0:
285,95,55069,1,8,0:0:0:0:
385,252,55241,1,2,0:0:0:0:
205,143,55412,5,0,1:0:0:0:
318,361,55584,1,2,1:2:0:0:
391,127,55755,1,8,0:0:0:0:
166,306,55926,5,2,0:2:0:0:
166,306,56012,1,2,0:0:0:0:
166,306,56098,2,0,P|120:304|84:284,1,80.9999975280763,0|2,1:0|0:0,0:0:0:0:
32,136,56441,1,10,0:0:0:0:
89,288,56612,1,2,0:0:0:0:
160,144,56784,1,2,1:2:0:0:
24,228,56955,1,2,0:0:0:0:
176,232,57126,1,10,0:0:0:0:
96,80,57298,1,2,0:0:0:0:
256,168,57469,6,0,P|264:124|288:92,1,80.9999975280763,2|2,1:2|0:0,0:0:0:0:
400,44,57812,1,10,0:0:0:0:
424,188,57984,2,0,P|390:165|350:159,1,80.9999975280763,2|0,0:0|1:0,0:0:0:0:
320,304,58326,1,2,1:2:0:0:
350,159,58498,1,8,0:0:0:0:
208,268,58669,6,0,B|152:256|152:256|112:268|112:268|48:252,1,161.999995056153,2|2,0:0|0:0,0:0:0:0:
158,336,59184,1,10,0:0:0:0:
100,180,59355,1,2,0:0:0:0:
0,320,59526,1,2,1:2:0:0:
50,252,59698,1,2,0:0:0:0:
208,268,59869,1,10,0:0:0:0:
158,336,60041,1,2,0:0:0:0:
4,176,60212,6,0,P|48:168|92:172,1,80.9999975280763,2|2,1:2|0:0,0:0:0:0:
240,184,60555,1,10,0:0:0:0:
208,0,60726,2,0,P|180:44|164:152,1,161.999995056153,2|2,0:0|1:2,0:0:0:0:
180,304,61241,1,8,0:0:0:0:
163,151,61412,1,2,0:0:0:0:
244,368,61584,2,0,P|264:328|264:288,1,80.9999975280763,0|2,1:0|0:0,0:0:0:0:
408,216,61926,6,0,B|416:172|456:156|456:156|468:72,1,161.999995056153,8|2,0:0|1:2,0:0:0:0:
492,232,62441,1,0,0:0:0:0:
380,108,62612,2,0,P|328:104|240:32,1,161.999995056153,8|0,0:0|1:0,0:0:0:0:
128,80,63126,1,2,0:0:0:0:
243,38,63298,1,10,0:0:0:0:
204,164,63469,1,0,0:0:0:0:
168,0,63641,1,2,1:2:0:0:
48,124,63812,1,2,1:2:0:0:
243,38,63984,1,8,0:0:0:0:
270,204,64155,6,0,P|226:188|202:160,1,80.9999975280763,2|0,0:0|1:0,0:0:0:0:
128,80,64498,1,2,0:0:0:0:
334,143,64669,2,0,P|288:208|280:288,1,161.999995056153,8|0,0:0|1:0,0:0:0:0:
144,356,65184,1,0,1:0:0:0:
279,287,65355,1,10,0:0:0:0:
112,184,65526,6,0,B|76:140|76:140|88:24,1,161.999995056153,6|2,1:2|1:2,0:0:0:0:
260,92,66041,2,0,P|220:96|176:112,1,80.9999975280763,10|2,0:2|0:0,0:0:0:0:
280,176,66384,1,2,1:2:0:0:
256,12,66555,1,10,0:0:0:0:
384,76,66726,1,0,1:0:0:0:
280,176,66898,1,0,1:0:0:0:
86,35,67069,5,4,1:2:0:0:
242,78,67241,1,2,0:0:0:0:
85,130,67412,1,10,0:0:0:0:
218,191,67584,1,2,0:0:0:0:
86,35,67755,2,0,B|119:29|147:39|147:39|173:113,1,135,2|0,1:2|0:0,0:0:0:0:
242,78,68098,5,10,0:0:0:0:
139,192,68269,1,2,0:0:0:0:
340,124,68441,1,2,1:2:0:0:
217,255,68612,2,0,P|225:302|234:346,1,90,2|8,0:0|0:0,0:0:0:0:
402,302,68955,5,2,0:0:0:0:
301,206,69126,1,2,1:2:0:0:
481,230,69298,1,2,1:2:0:0:
300,312,69469,2,0,P|235:303|157:290,1,135,10|0,0:0|0:0,0:0:0:0:
97,341,69812,5,2,1:2:0:0:
224,369,69984,1,2,0:0:0:0:
97,229,70155,1,10,0:0:0:0:
256,190,70326,2,0,P|218:234|160:298,1,135,2|0,0:0|0:0,0:0:0:0:
97,341,70669,1,2,0:0:0:0:
270,307,70841,1,10,0:0:0:0:
153,177,71012,1,2,0:0:0:0:
344,91,71184,5,2,1:2:0:0:
212,240,71355,1,2,0:0:0:0:
182,77,71526,2,0,P|137:67|93:58,1,90,10|0,0:0|0:0,0:0:0:0:
0,120,71869,1,2,1:2:0:0:
0,120,72041,1,2,1:2:0:0:
71,224,72212,2,0,P|100:190|131:155,1,90,8|0,0:0|0:0,0:0:0:0:
348,49,72555,5,4,1:2:0:0:
489,148,72726,1,2,0:0:0:0:
297,129,72898,1,10,0:0:0:0:
485,31,73069,1,2,0:0:0:0:
393,173,73241,2,0,P|372:222|334:306,1,135,2|0,1:2|0:0,0:0:0:0:
402,352,73584,5,10,0:0:0:0:
236,363,73755,1,2,0:0:0:0:
363,242,73926,1,2,1:2:0:0:
202,278,74098,2,0,P|218:227|228:187,1,90,2|8,0:0|0:0,0:0:0:0:
158,354,74441,5,2,0:0:0:0:
122,244,74612,1,2,1:2:0:0:
88,132,74784,1,2,1:2:0:0:
0,247,74955,2,0,P|41:224|127:249,1,135,10|0,0:0|0:0,0:0:0:0:
58,298,75298,5,2,1:2:0:0:
0,125,75469,1,2,0:0:0:0:
169,197,75641,1,10,0:0:0:0:
58,298,75812,2,0,P|69:246|88:147,1,135,2|0,0:0|0:0,0:0:0:0:
93,90,76155,1,2,0:0:0:0:
226,127,76326,2,0,P|192:167|158:209,1,90,10|0,0:0|0:0,0:0:0:0:
342,319,76669,6,0,B|397:335|397:335|468:269,1,135,2|0,1:2|0:0,0:0:0:0:
485,214,77012,1,10,0:0:0:0:
342,319,77184,1,0,0:0:0:0:
512,348,77355,1,2,1:2:0:0:
370,229,77526,1,0,1:0:0:0:
370,229,77612,1,0,1:0:0:0:
370,229,77698,2,0,P|387:189|413:136,1,90,10|0,0:0|1:0,0:0:0:0:
378,68,77955,5,0,1:0:0:0:
378,68,78041,2,0,B|323:72|282:151|282:151|243:71|173:67,1,270,6|0,1:2|0:0,0:0:0:0:
285,27,78384,1,8,0:0:0:0:
176,168,78555,2,0,P|148:208|140:256,1,90,2|0,0:0|1:0,0:0:0:0:
224,360,78898,1,0,0:0:0:0:
232,236,79069,1,8,0:0:0:0:
120,328,79241,1,0,0:0:0:0:
300,300,79412,6,0,P|348:320|432:308,1,135,0|0,1:0|0:0,0:0:0:0:
504,276,79755,1,10,0:0:0:0:
476,124,79926,1,2,0:0:0:0:
476,124,80012,1,2,0:0:0:0:
476,124,80098,1,2,1:2:0:0:
376,240,80269,1,2,1:2:0:0:
504,276,80441,1,8,0:0:0:0:
448,48,80612,6,0,P|408:76|388:116,1,90,2|0,0:0|1:0,0:0:0:0:
376,240,80955,1,2,0:0:0:0:
476,124,81126,1,8,0:0:0:0:
504,276,81298,2,0,P|482:314|445:339,1,90,2|0,0:0|1:0,0:0:0:0:
324,312,81641,1,2,0:0:0:0:
445,339,81812,1,8,0:0:0:0:
376,240,81984,1,2,0:0:0:0:
264,372,82155,6,0,B|216:360|216:360|184:372|184:372|124:360,1,135,0|0,1:0|0:0,0:0:0:0:
56,340,82498,1,10,0:0:0:0:
80,204,82669,1,2,0:0:0:0:
180,288,82841,1,0,1:0:0:0:
24,264,83012,2,0,P|4:224|0:176,1,90,2|8,1:2|0:0,0:0:0:0:
168,44,83355,5,2,0:0:0:0:
168,44,83441,1,2,0:0:0:0:
168,44,83526,2,0,B|216:52|216:52|252:40|252:40|288:72|364:64,1,202.500007724762,4|0,1:2|0:0,0:0:0:0:
448,64,83869,1,8,0:0:0:0:
320,248,84041,2,0,P|352:212|364:168,1,90,2|0,0:0|1:0,0:0:0:0:
362,64,84384,1,0,0:0:0:0:
448,180,84555,1,8,0:0:0:0:
512,12,84726,1,0,0:0:0:0:
292,120,84898,6,0,P|260:88|168:68,1,135,0|0,1:0|0:0,0:0:0:0:
96,72,85241,1,10,0:0:0:0:
56,232,85412,1,2,0:0:0:0:
56,232,85498,1,2,0:0:0:0:
56,232,85584,1,2,1:2:0:0:
240,188,85755,2,0,P|200:160|144:152,1,90,2|8,1:2|0:0,0:0:0:0:
96,336,86098,5,2,0:0:0:0:
160,151,86269,1,0,1:2:0:0:
272,328,86441,1,2,0:0:0:0:
56,232,86612,2,0,B|28:196|28:196|48:100,1,135,8|0,0:0|0:0,0:0:0:0:
68,24,86955,1,0,1:2:0:0:
180,164,87126,1,0,1:0:0:0:
46,108,87298,1,8,0:0:0:0:
256,8,87469,1,8,3:0:0:0:
256,8,87812,5,0,3:2:0:0:
320,132,87984,1,2,0:2:0:0:
440,36,88155,1,0,3:2:0:0:
440,36,88241,1,0,3:2:0:0:
440,36,88326,1,8,3:0:0:0:
360,280,88498,5,8,0:1:0:0:
352,24,88669,1,8,0:1:0:0:
512,232,88841,1,0,1:2:0:0:
208,180,89012,6,0,B|141:186|114:249|114:249|17:243|-3:173,1,270,6|0,1:0|0:0,0:0:0:0:
81,142,89355,1,10,0:1:0:0:
58,331,89526,2,0,P|111:351|163:348,1,107.999996704102,2|0,0:1|1:1,0:0:0:0:
0,176,89869,1,2,0:1:0:0:
162,349,90041,1,8,0:1:0:0:
192,76,90212,6,0,P|262:63|364:44,1,161.999995056153,2|0,0:1|0:0,0:0:0:0:
440,78,90555,1,2,0:1:0:0:
265,143,90726,2,0,P|265:196|269:250,1,107.999996704102,10|2,0:1|0:1,0:0:0:0:
469,164,91069,1,0,1:1:0:0:
270,251,91241,1,2,1:1:0:0:
351,46,91412,1,8,0:1:0:0:
476,268,91584,5,2,1:0:0:0:
476,268,91669,1,2,1:0:0:0:
476,268,91755,2,0,B|306:244|391:372|225:330,1,270,0|0,1:1|0:0,0:0:0:0:
270,251,92098,1,10,0:1:0:0:
54,349,92269,2,0,P|86:301|103:252,1,107.999996704102,2|0,0:1|1:1,0:0:0:0:
161,372,92612,1,2,0:1:0:0:
14,212,92784,1,8,0:1:0:0:
249,85,92955,6,0,B|198:100|174:161|174:161|166:114|110:81,1,215.999993408203,2|0,0:1|0:1,0:0:0:0:
263,185,93469,1,10,0:1:0:0:
225,9,93641,1,2,0:1:0:0:
225,9,93726,1,2,0:1:0:0:
225,9,93812,1,0,1:1:0:0:
463,69,93984,1,2,1:1:0:0:
249,85,94155,1,8,0:1:0:0:
444,175,94326,1,2,0:1:0:0:
255,258,94498,5,4,1:1:0:0:
348,78,94669,1,2,0:1:0:0:
434,293,94841,2,0,P|384:238|246:267,1,215.999993408203,8|0,0:1|1:1,0:0:0:0:
61,238,95355,1,0,1:0:0:0:
174,352,95526,2,0,P|168:289|162:235,1,107.999996704102,8|0,0:1|0:1,0:0:0:0:
288,99,95869,6,0,P|272:159|253:268,1,161.999995056153,0|0,1:1|0:0,0:0:0:0:
329,308,96212,1,10,0:1:0:0:
417,124,96384,2,0,P|401:177|391:230,1,107.999996704102,2|0,0:1|1:1,0:0:0:0:
173,257,96726,1,2,1:1:0:0:
288,99,96898,1,8,0:1:0:0:
329,308,97069,1,2,0:1:0:0:
408,50,97241,5,0,1:1:0:0:
180,157,97412,1,2,0:1:0:0:
221,13,97584,2,0,P|255:55|292:105,1,107.999996704102,8|0,0:1|0:1,0:0:0:0:
34,124,97926,5,0,1:1:0:0:
97,294,98098,1,2,0:1:0:0:
142,97,98269,5,10,0:1:0:0:
0,295,98441,1,2,0:1:0:0:
225,237,98612,6,0,P|311:249|405:260,1,161.999995056153,0|0,1:1|0:0,0:0:0:0:
432,336,98955,2,0,P|475:291|513:252,1,107.999996704102,8|0,0:1|0:1,0:0:0:0:
476,55,99298,6,0,P|430:50|402:69,1,53.9999983520508,0|0,1:1|1:0,0:0:0:0:
261,23,99469,2,0,P|256:69|275:97,1,53.9999983520508,0|0,1:1|1:0,0:0:0:0:
225,237,99641,2,0,P|271:242|299:223,1,53.9999983520508,8|0,0:1|1:0,0:0:0:0:
441,244,99812,2,0,P|452:200|433:172,1,53.9999983520508,2|0,0:1|1:0,0:0:0:0:
350,140,99984,5,6,1:1:0:0:
152,56,100155,1,0,1:0:0:0:
152,56,100241,1,0,1:0:0:0:
152,56,100326,1,10,0:1:0:0:
84,264,100498,2,0,P|48:220|36:168,1,107.999996704102,2|0,0:1|1:0,0:0:0:0:
152,56,100841,1,2,0:1:0:0:
36,171,101012,1,8,0:1:0:0:
228,136,101184,6,0,B|308:144|308:144|348:168|348:168|436:176,1,215.999993408203,2|2,0:1|0:1,0:0:0:0:
260,224,101698,1,10,0:1:0:0:
384,92,101869,1,2,0:1:0:0:
480,248,102041,1,0,1:0:0:0:
452,36,102212,2,0,P|400:12|340:12,1,107.999996704102,2|8,1:0|0:1,0:0:0:0:
180,192,102555,6,0,B|152:232|176:272|176:272|100:308|44:268|36:188,1,270,2|0,0:1|0:0,0:0:0:0:
20,120,102898,1,0,0:0:0:0:
172,0,103069,1,10,0:1:0:0:
180,192,103241,1,2,0:1:0:0:
48,36,103412,1,0,1:0:0:0:
264,56,103584,1,2,0:1:0:0:
264,56,103669,1,2,0:1:0:0:
264,56,103755,2,0,P|296:100|300:156,1,107.999996704102,8|2,0:1|0:1,0:0:0:0:
248,328,104098,6,0,B|288:304|320:340|320:340|352:360|408:340,1,161.999995056153,0|0,1:0|0:0,0:0:0:0:
480,328,104441,1,10,0:1:0:0:
400,132,104612,2,0,P|368:174|363:228,1,107.999996704102,2|0,0:1|1:0,0:0:0:0:
480,328,104955,1,2,1:0:0:0:
504,160,105126,1,8,0:1:0:0:
398,343,105298,1,2,0:1:0:0:
400,132,105469,1,4,1:0:0:0:
500,252,105641,1,2,0:1:0:0:
248,328,105812,6,0,P|180:344|104:300,1,161.999995056153,8|0,0:1|0:0,0:0:0:0:
188,256,106155,1,0,1:0:0:0:
28,356,106326,1,0,0:0:0:0:
0,180,106498,1,8,0:1:0:0:
188,256,106669,1,0,0:0:0:0:
196,36,106841,6,0,P|152:72|112:168,1,161.999995056153,0|0,1:0|0:0,0:0:0:0:
84,248,107184,1,10,0:1:0:0:
232,372,107355,1,2,0:1:0:0:
232,372,107441,1,2,0:1:0:0:
232,372,107526,1,0,1:0:0:0:
255,175,107698,2,0,P|211:211|187:259,1,107.999996704102,2|8,1:0|0:1,0:0:0:0:
128,368,108041,1,2,0:1:0:0:
324,272,108212,5,0,1:0:0:0:
255,175,108384,1,2,0:1:0:0:
424,264,108555,5,8,0:1:0:0:
288,76,108726,1,0,0:0:0:0:
512,252,108898,5,0,1:0:0:0:
360,32,109069,1,0,0:0:0:0:
384,168,109241,5,8,0:1:0:0:
492,88,109412,1,2,0:0:0:0:
492,88,109755,5,2,0:2:0:0:
426,38,109926,2,0,P|390:30|350:34,1,67.5000025749208,2|2,0:2|0:2,0:0:0:0:
304,92,110269,2,0,P|328:156|348:228,1,135.000005149842,2|2,0:2|0:2,0:0:0:0:
372,300,110784,1,2,0:2:0:0:
121,186,110955,6,0,B|85:317|85:317|118:279|156:270,1,202.500007724762,6|0,1:2|0:0,0:0:0:0:
173,352,111298,2,0,P|203:329|212:270,1,90,8|0,0:2|0:2,0:0:0:0:
121,186,111641,1,0,1:2:0:0:
311,58,111812,1,2,0:2:0:0:
256,210,111984,1,10,0:2:0:0:
158,26,112155,1,2,0:2:0:0:
401,161,112326,6,0,B|360:175|322:150|322:150|259:156|253:226,1,180,0|8,1:2|0:2,0:0:0:0:
377,87,112841,1,0,0:0:0:0:
351,263,113012,2,0,P|406:255|471:248,1,90,0|2,1:2|1:2,0:0:0:0:
184,187,113355,1,10,0:2:0:0:
285,346,113526,1,2,0:2:0:0:
260,161,113698,6,0,P|232:126|132:126,1,135,0|0,1:2|0:0,0:0:0:0:
72,83,114041,2,0,P|74:141|76:179,1,90,8|0,0:2|0:2,0:0:0:0:
24,337,114384,1,0,1:2:0:0:
0,162,114555,1,2,0:2:0:0:
149,292,114726,1,8,0:2:0:0:
0,253,114898,1,2,0:2:0:0:
165,179,115069,6,0,P|161:129|150:0,1,180,0|8,1:2|0:2,0:0:0:0:
266,0,115584,1,0,0:0:0:0:
241,116,115755,2,0,P|188:99|149:86,1,90,0|2,1:2|1:2,0:0:0:0:
259,201,116098,1,10,0:2:0:0:
308,37,116269,1,2,0:2:0:0:
361,250,116441,6,0,B|314:228|253:278|253:278|225:246|262:196,1,202.500007724762,6|0,1:2|0:0,0:0:0:0:
328,362,116784,2,0,P|323:322|348:351,1,90,8|0,0:2|0:2,0:0:0:0:
199,357,117126,1,0,1:2:0:0:
258,200,117298,1,2,0:2:0:0:
328,362,117469,1,10,0:2:0:0:
171,269,117641,1,2,0:2:0:0:
282,118,117812,6,0,B|235:96|200:132|201:139|203:146|169:183|121:160,1,180,0|8,1:2|0:2,0:0:0:0:
258,200,118326,1,0,0:0:0:0:
146,89,118498,2,0,P|106:82|61:103,1,90,0|2,1:2|1:2,0:0:0:0:
137,267,118841,1,10,0:2:0:0:
5,188,119012,1,2,0:2:0:0:
96,362,119184,5,0,1:2:0:0:
172,187,119355,2,0,P|121:210|75:223,1,90,2|10,0:1|0:2,0:0:0:0:
253,349,119698,2,0,P|307:325|356:315,1,90,2|0,0:1|1:2,0:0:0:0:
446,140,120041,1,2,0:1:0:0:
447,327,120212,1,10,0:2:0:0:
295,238,120384,1,2,0:1:0:0:
508,254,120555,5,0,1:2:0:0:
375,85,120726,2,0,P|354:138|340:177,1,90,2|8,0:1|0:0,0:0:0:0:
147,49,121069,1,2,0:1:0:0:
231,234,121241,1,0,1:2:0:0:
283,19,121412,1,0,1:0:0:0:
101,188,121584,6,0,P|86:204|108:192,1,67.5,10|0,0:2|0:0,0:0:0:0:
124,117,121926,6,0,P|56:126|25:250,1,202.500007724762,6|0,1:2|0:0,0:0:0:0:
131,284,122269,2,0,P|165:256|180:214,1,90,10|0,0:2|0:0,0:0:0:0:
256,88,122612,1,2,1:2:0:0:
180,213,122784,1,0,0:2:0:0:
313,193,122955,1,10,0:2:0:0:
173,88,123126,1,0,0:0:0:0:
360,64,123298,6,0,P|419:80|463:148,1,135,2|0,1:2|0:0,0:0:0:0:
378,147,123641,2,0,P|339:169|314:206,1,90,10|0,0:2|0:2,0:0:0:0:
379,332,123984,1,2,1:2:0:0:
314,206,124155,1,0,0:0:0:0:
225,324,124326,1,10,0:0:0:0:
377,257,124498,1,0,0:0:0:0:
223,213,124669,6,0,P|184:189|140:184,1,90,2|0,1:2|0:0,0:0:0:0:
343,123,125012,2,0,P|338:167|314:205,1,90,10|0,0:0|0:0,0:0:0:0:
192,31,125355,2,0,P|231:55|275:60,1,90,2|0,1:2|0:0,0:0:0:0:
448,140,125698,6,0,P|460:184|432:272,1,135,10|0,0:0|0:0,0:0:0:0:
396,332,126041,1,0,1:0:0:0:
300,224,126212,1,0,0:0:0:0:
216,380,126384,2,0,P|256:360|288:324,1,90,8|0,0:0|0:0,0:0:0:0:
196,200,126726,1,0,1:0:0:0:
286,326,126898,1,0,1:0:0:0:
120,292,127069,1,10,0:0:0:0:
272,152,127241,5,2,0:0:0:0:
272,152,127326,1,2,0:0:0:0:
272,152,127412,2,0,B|228:88|152:120|152:120|76:156,1,202.500007724762,6|0,1:2|0:0,0:0:0:0:
24,184,127755,2,0,P|46:224|52:269,1,90,10|0,0:0|0:0,0:0:0:0:
175,344,128098,1,2,1:2:0:0:
52,267,128269,1,0,0:0:0:0:
196,200,128441,1,10,0:0:0:0:
87,347,128612,1,0,0:0:0:0:
258,281,128784,6,0,B|306:265|306:265|330:273|330:273|386:257,1,135,2|0,1:2|0:0,0:0:0:0:
457,231,129126,2,0,P|477:191|478:143,1,90,10|0,0:0|0:0,0:0:0:0:
379,21,129469,1,2,1:2:0:0:
478,146,129641,1,0,1:0:0:0:
326,159,129812,1,10,0:0:0:0:
456,52,129984,1,0,0:0:0:0:
248,104,130155,6,0,B|216:84|192:100|192:100|176:84|176:84|156:96|112:80,1,135,2|0,1:2|0:0,0:0:0:0:
44,72,130498,1,10,0:0:0:0:
108,196,130669,1,0,0:0:0:0:
12,316,130841,2,0,P|56:312|100:328,1,90,2|0,1:2|0:0,0:0:0:0:
192,208,131184,2,0,P|196:252|180:296,1,90,10|0,0:0|0:0,0:0:0:0:
340,360,131526,6,0,P|297:344|253:348,1,90,2|0,1:2|0:0,0:0:0:0:
98,327,131869,1,8,0:0:0:0:
192,208,132041,1,2,0:0:0:0:
192,208,132126,1,2,0:0:0:0:
192,208,132212,1,0,1:0:0:0:
253,348,132384,2,0,P|304:324|340:244,1,135,8|0,0:0|0:0,0:0:0:0:
352,180,132726,6,0,P|395:204|480:254,1,135.000005149842,2|0,1:2|0:0,0:0:0:0:
461,141,133241,2,0,P|465:111|463:64,1,67.5000025749208,2|0,0:0|0:0,0:0:0:0:
378,94,133584,2,0,P|358:58|336:32,1,67.5000025749208,2|0,0:0|0:0,0:0:0:0:
278,98,133926,2,0,P|232:74|195:60,1,67.5000025749208,2|0,0:3|0:0,0:0:0:0:
82,147,134269,5,2,0:3:0:0:
234,232,134441,1,8,3:0:0:0:
148,65,134612,1,8,3:0:0:0:
99,286,134784,1,4,3:0:0:0:
221,137,134955,1,4,3:0:0:0:
234,232,135126,1,0,1:0:0:0:
248,328,135298,1,8,0:1:0:0:
375,295,135469,6,0,B|319:290|319:290|240:339,1,135.000005149842,6|2,1:2|0:2,0:0:0:0:
353,383,135984,1,10,0:2:0:0:
375,295,136155,1,2,0:2:0:0:
395,208,136326,1,2,1:2:0:0:
460,321,136498,1,2,0:2:0:0:
298,278,136669,1,10,0:2:0:0:
490,201,136841,1,2,0:2:0:0:
306,118,137012,5,2,1:2:0:0:
441,59,137184,2,0,P|429:99|416:144,1,67.5000025749208,2|10,0:2|0:2,0:0:0:0:
324,182,137526,2,0,P|313:142|303:109,1,67.5000025749208,2|0,0:2|1:0,0:0:0:0:
214,43,137869,1,2,1:2:0:0:
322,21,138041,1,10,0:0:0:0:
209,137,138212,6,0,P|167:118|136:106,1,67.5000025749208,2|2,0:0|1:2,0:0:0:0:
56,45,138555,1,0,0:0:0:0:
45,169,138726,2,0,P|90:172|147:100,1,135.000005149842,10|2,0:0|1:2,0:0:0:0:
197,214,139241,1,0,0:0:0:0:
109,163,139412,1,10,0:0:0:0:
110,270,139584,1,0,0:0:0:0:
258,329,139755,5,2,1:2:0:0:
157,354,139926,1,0,0:0:0:0:
192,254,140098,1,10,0:0:0:0:
293,370,140269,1,2,0:0:0:0:
157,354,140441,1,2,1:2:0:0:
293,247,140612,2,0,P|304:205|312:174,1,67.5000025749208,2|8,0:0|0:0,0:0:0:0:
281,72,140955,6,0,P|327:85|357:90,1,67.5000025749208,2|0,0:0|1:0,0:0:0:0:
160,25,141298,2,0,P|176:74|197:156,1,135.000005149842,2|2,0:0|0:0,0:0:0:0:
107,252,141812,1,0,1:0:0:0:
216,237,141984,1,0,0:0:0:0:
100,117,142155,1,8,0:0:0:0:
152,320,142326,5,2,0:0:0:0:
152,320,142412,1,2,0:0:0:0:
152,320,142498,1,0,1:0:0:0:
309,380,142669,1,0,0:0:0:0:
231,218,142841,1,8,0:0:0:0:
400,296,143012,1,0,0:0:0:0:
320,98,143184,5,0,1:0:0:0:
291,301,143355,1,0,1:0:0:0:
291,301,143441,1,0,1:0:0:0:
291,301,143526,1,8,0:0:0:0:
409,148,143698,1,2,0:0:0:0:
214,32,143869,6,0,P|193:76|234:137,1,101.250003862381,4|0,1:2|0:0,0:0:0:0:
150,171,144212,2,0,P|127:137|115:93,1,80.9999975280763,10|2,0:0|0:0,0:0:0:0:
40,196,144555,1,2,1:2:0:0:
115,98,144726,1,2,0:0:0:0:
75,269,144898,1,10,0:0:0:0:
150,171,145069,1,2,0:0:0:0:
224,316,145241,6,0,P|200:284|168:260,1,80.9999975280763,2|2,1:2|0:0,0:0:0:0:
164,380,145584,1,10,0:0:0:0:
300,280,145755,1,2,0:0:0:0:
167,259,145926,1,0,1:0:0:0:
304,360,146098,1,2,1:2:0:0:
260,192,146269,1,8,0:0:0:0:
412,276,146441,6,0,P|456:232|468:136,1,161.999995056153,2|2,0:0|0:0,0:0:0:0:
400,16,146955,1,10,0:0:0:0:
280,96,147126,1,2,0:0:0:0:
280,96,147212,1,2,0:0:0:0:
280,96,147298,2,0,P|240:76|200:72,1,80.9999975280763,2|0,1:2|0:0,0:0:0:0:
152,232,147641,1,10,0:0:0:0:
220,156,147812,1,2,0:0:0:0:
232,280,147984,5,2,1:2:0:0:
140,132,148155,1,2,0:0:0:0:
40,264,148326,2,0,P|20:300|12:340,1,80.9999975280763,10|2,0:0|0:0,0:0:0:0:
152,356,148669,1,0,1:0:0:0:
40,264,148841,1,2,1:2:0:0:
192,208,149012,1,8,0:0:0:0:
56,112,149184,5,2,0:0:0:0:
56,112,149269,1,2,0:0:0:0:
56,112,149355,2,0,P|76:76|84:36,1,80.9999975280763,6|0,1:2|0:0,0:0:0:0:
264,44,149698,2,0,P|224:35|189:16,1,80.9999975280763,10|0,0:0|0:0,0:0:0:0:
328,128,150041,2,0,P|308:164|300:204,1,80.9999975280763,2|0,1:2|0:0,0:0:0:0:
312,336,150384,1,10,0:0:0:0:
456,256,150555,1,2,0:0:0:0:
456,256,150641,1,2,0:0:0:0:
456,256,150726,1,2,1:2:0:0:
300,202,150898,6,0,P|264:182|224:174,1,80.9999975280763,2|10,0:0|0:0,0:0:0:0:
184,296,151241,1,0,0:0:0:0:
172,108,151412,2,0,P|152:144|144:184,1,80.9999975280763,2|2,1:2|1:2,0:0:0:0:
184,324,151755,1,8,0:0:0:0:
60,232,151926,1,2,0:0:0:0:
225,174,152098,2,0,P|264:182|300:202,1,80.9999975280763,0|2,1:0|0:0,0:0:0:0:
416,292,152441,2,0,B|428:236|428:236|456:208|456:208|472:144,1,161.999995056153,8|0,0:0|1:0,0:0:0:0:
504,280,152955,1,0,1:0:0:0:
384,160,153126,1,8,0:0:0:0:
296,328,153298,6,0,P|224:344|148:288,1,161.999995056153,6|2,1:2|0:0,0:0:0:0:
200,128,153812,1,10,0:0:0:0:
240,256,153984,1,0,0:0:0:0:
76,148,154155,1,2,1:2:0:0:
244,36,154326,2,0,B|328:36|300:84|404:88,1,161.999995056153,10|2,0:0|0:0,0:0:0:0:
472,296,154841,5,4,1:2:0:0:
357,254,155012,1,2,0:0:0:0:
464,191,155184,1,10,0:0:0:0:
364,339,155355,1,2,0:0:0:0:
338,172,155526,2,0,P|281:187|200:209,1,135,2|0,1:2|0:0,0:0:0:0:
171,221,155869,1,10,0:0:0:0:
71,265,156041,1,2,0:0:0:0:
114,131,156212,5,2,1:2:0:0:
71,265,156384,2,0,P|44:214|25:182,1,90,2|8,0:0|0:0,0:0:0:0:
60,33,156726,1,2,0:0:0:0:
113,166,156898,1,2,1:2:0:0:
0,116,157069,1,2,1:2:0:0:
146,49,157241,2,0,P|188:50|242:127,1,135,10|0,0:0|0:0,0:0:0:0:
242,154,157584,5,2,1:2:0:0:
331,113,157755,1,2,0:0:0:0:
418,66,157926,1,10,0:0:0:0:
456,220,158098,2,0,P|405:208|311:186,1,135,2|0,0:0|0:0,0:0:0:0:
302,218,158441,1,2,0:0:0:0:
404,132,158612,1,10,0:0:0:0:
394,284,158784,1,2,0:0:0:0:
221,192,158955,5,2,1:2:0:0:
282,323,159126,1,2,0:0:0:0:
136,339,159298,2,0,P|174:296|283:325,1,180,10|2,0:0|1:2,0:0:0:0:
128,216,159812,1,2,1:2:0:0:
211,361,159984,1,8,0:0:0:0:
224,178,160155,1,0,1:0:0:0:
51,288,160326,5,4,1:2:0:0:
44,198,160498,1,2,0:0:0:0:
34,108,160669,1,10,0:0:0:0:
172,191,160841,1,2,0:0:0:0:
51,288,161012,2,0,P|103:278|196:273,1,135,2|0,1:2|0:0,0:0:0:0:
216,280,161355,1,10,0:0:0:0:
338,344,161526,1,2,0:0:0:0:
391,178,161698,5,2,1:2:0:0:
454,300,161869,2,0,P|390:281|350:268,1,90,2|8,0:0|0:0,0:0:0:0:
279,129,162212,1,2,0:0:0:0:
409,195,162384,1,2,1:2:0:0:
272,273,162555,1,2,1:2:0:0:
364,127,162726,2,0,P|411:113|484:162,1,135,10|0,0:0|0:0,0:0:0:0:
409,195,163069,5,2,1:2:0:0:
364,127,163241,1,2,0:0:0:0:
319,56,163412,1,10,0:0:0:0:
267,180,163584,2,0,P|209:165|126:147,1,135,2|0,0:0|0:0,0:0:0:0:
107,142,163926,1,2,0:0:0:0:
42,272,164098,2,0,P|92:262|137:255,1,90,10|0,0:0|0:0,0:0:0:0:
254,367,164441,6,0,P|204:353|104:346,1,135,2|0,1:2|0:0,0:0:0:0:
89,335,164784,2,0,P|113:289|137:242,1,90,10|0,0:0|0:0,0:0:0:0:
254,367,165126,1,2,1:2:0:0:
279,160,165298,1,0,1:0:0:0:
279,160,165384,1,0,1:0:0:0:
279,159,165469,2,0,P|238:139|198:118,1,90,10|0,0:2|1:0,0:0:0:0:
294,64,165726,5,0,1:0:0:0:
294,64,165812,2,0,B|359:56|410:107|410:107|409:198|498:201,1,270,6|0,1:2|0:0,0:0:0:0:
487,119,166155,1,8,0:0:0:0:
352,216,166326,2,0,P|320:252|308:292,1,90,2|0,0:0|1:0,0:0:0:0:
184,352,166669,1,0,0:0:0:0:
308,291,166841,1,8,0:0:0:0:
192,216,167012,1,0,0:0:0:0:
300,376,167184,6,0,P|348:368|392:292,1,135,0|0,1:0|0:0,0:0:0:0:
436,236,167526,1,10,0:0:0:0:
384,80,167698,1,2,0:0:0:0:
384,80,167784,1,2,0:0:0:0:
384,80,167869,1,2,1:2:0:0:
264,192,168041,1,2,1:2:0:0:
436,236,168212,1,8,0:0:0:0:
468,107,168384,6,0,P|428:87|376:79,1,90,2|0,0:0|1:0,0:0:0:0:
264,192,168726,2,0,P|304:212|356:220,1,90,2|8,0:0|0:0,0:0:0:0:
288,84,169069,1,2,0:0:0:0:
264,192,169241,1,0,1:0:0:0:
148,100,169412,2,0,P|160:56|160:12,1,90,2|8,0:0|0:0,0:0:0:0:
16,64,169755,1,2,0:0:0:0:
88,196,169926,6,0,B|128:212|128:240|128:240|184:288,1,135,0|0,1:0|0:0,0:0:0:0:
240,332,170269,1,10,0:0:0:0:
356,224,170441,1,2,0:0:0:0:
356,224,170526,1,2,0:0:0:0:
356,224,170612,1,0,1:0:0:0:
392,376,170784,2,0,P|352:352|324:316,1,90,2|8,1:2|0:0,0:0:0:0:
476,200,171126,1,2,0:0:0:0:
312,80,171298,6,0,B|268:96|228:88|228:88|204:120|168:132|100:124,1,202.500007724762,4|0,1:2|0:0,0:0:0:0:
48,120,171641,1,8,0:0:0:0:
196,300,171812,2,0,P|204:252|196:212,1,90,2|0,0:0|1:0,0:0:0:0:
144,40,172155,1,0,0:0:0:0:
64,208,172326,1,8,0:0:0:0:
228,88,172498,1,0,0:0:0:0:
40,20,172669,6,0,P|16:72|16:152,1,135,0|0,1:0|0:0,0:0:0:0:
64,208,173012,1,10,0:0:0:0:
192,320,173184,1,2,0:0:0:0:
192,320,173269,1,2,0:0:0:0:
192,320,173355,1,2,1:2:0:0:
40,384,173526,2,0,P|48:340|72:296,1,90,2|8,1:2|0:0,0:0:0:0:
204,140,173869,5,2,0:0:0:0:
192,320,174041,1,4,1:2:0:0:
64,208,174212,1,2,0:0:0:0:
212,48,174384,2,0,B|260:60|260:60|276:76|276:76|344:92,1,135,8|0,0:0|0:0,0:0:0:0:
412,108,174726,1,4,1:2:0:0:
460,284,174898,1,8,3:0:0:0:
276,224,175069,1,0,1:0:0:0:
496,152,175241,1,12,0:0:0:0:
496,152,175584,5,2,0:0:0:0:
431,204,175755,1,2,0:0:0:0:
364,256,175926,1,2,0:0:0:0:
313,123,176098,5,2,0:0:0:0:
230,113,176269,1,2,0:0:0:0:
146,103,176440,1,2,0:0:0:0:
61,93,176612,1,2,0:0:0:0:
130,326,176784,6,0,B|197:308|259:347|259:347|225:274|276:212,1,270,6|0,1:0|0:0,0:0:0:0:
332,290,177126,1,10,0:1:0:0:
166,211,177298,2,0,P|163:156|164:103,1,107.999996704102,2|0,0:1|1:0,0:0:0:0:
356,14,177641,1,2,0:1:0:0:
163,103,177812,1,8,0:1:0:0:
356,237,177984,6,0,P|430:216|519:196,1,161.999995056153,2|0,0:1|0:0,0:0:0:0:
497,285,178326,1,2,0:1:0:0:
403,130,178498,1,10,0:1:0:0:
396,321,178669,2,0,P|341:324|284:314,1,107.999996704102,2|0,0:1|1:0,0:0:0:0:
321,147,179012,1,2,1:0:0:0:
497,285,179184,1,8,0:1:0:0:
464,62,179355,5,2,1:0:0:0:
464,62,179441,1,2,1:0:0:0:
464,62,179526,2,0,B|414:89|351:52|351:52|327:64|327:64|283:23|206:31,1,270,0|0,1:0|0:0,0:0:0:0:
249,110,179869,1,10,0:1:0:0:
57,89,180041,2,0,P|47:142|44:195,1,107.999996704102,2|0,0:1|1:0,0:0:0:0:
211,30,180384,1,2,0:1:0:0:
44,196,180555,1,8,0:1:0:0:
348,188,180726,6,0,P|293:153|166:243,1,215.999993408203,2|0,0:1|0:0,0:0:0:0:
42,384,181241,1,10,0:1:0:0:
190,300,181412,2,0,P|134:282|70:261,1,107.999996704102,2|0,0:1|1:0,0:0:0:0:
277,364,181755,1,2,1:0:0:0:
267,233,181926,1,8,0:1:0:0:
250,103,182098,1,2,0:1:0:0:
430,206,182269,5,4,1:2:0:0:
277,364,182441,1,2,0:1:0:0:
367,132,182612,2,0,P|429:111|532:216,1,215.999993408203,8|0,0:1|1:0,0:0:0:0:
250,103,183126,1,0,0:0:0:0:
430,206,183298,2,0,P|361:228|316:244,1,107.999996704102,8|0,0:1|0:0,0:0:0:0:
122,356,183641,6,0,B|167:322|166:286|166:286|125:253|138:210,1,161.999995056153,0|0,1:0|0:0,0:0:0:0:
223,212,183984,1,10,0:1:0:0:
53,315,184155,2,0,P|40:262|35:209,1,107.999996704102,2|0,0:1|1:0,0:0:0:0:
228,291,184498,1,2,1:0:0:0:
35,209,184669,1,8,0:1:0:0:
219,116,184841,1,2,0:1:0:0:
20,28,185012,5,0,1:0:0:0:
135,220,185184,1,2,0:1:0:0:
208,4,185355,1,12,0:1:0:0:
1,132,185526,1,0,0:0:0:0:
249,193,185698,1,0,1:0:0:0:
25,295,185869,1,0,1:0:0:0:
196,71,186041,1,8,0:1:0:0:
147,333,186212,1,0,0:0:0:0:
259,124,186384,6,0,P|323:111|429:88,1,161.999995056153,0|0,1:0|0:0,0:0:0:0:
503,83,186726,2,0,P|477:151|462:189,1,107.999996704102,8|0,0:1|0:0,0:0:0:0:
480,334,187069,1,0,1:0:0:0:
358,184,187241,1,0,1:0:0:0:
343,356,187412,6,0,L|375:304,1,53.9999983520508,8|0,0:1|1:0,0:0:0:0:
227,196,187584,2,0,L|252:258,1,53.9999983520508,10|0,0:1|1:0,0:0:0:0:
166,346,187755,6,0,B|128:308|80:300|80:300|68:248|68:248|24:216|20:140,1,270,6|0,1:0|0:0,0:0:0:0:
56,72,188098,1,10,0:1:0:0:
227,196,188269,1,2,0:1:0:0:
280,20,188441,1,0,1:0:0:0:
144,132,188612,1,2,0:1:0:0:
144,132,188698,1,2,0:1:0:0:
144,132,188784,1,8,0:1:0:0:
408,160,188955,6,0,P|364:128|312:116,1,107.999996704102,2|0,0:1|1:0,0:0:0:0:
260,312,189298,1,2,0:1:0:0:
312,116,189469,1,10,0:1:0:0:
424,292,189641,1,2,0:1:0:0:
227,196,189812,1,0,1:0:0:0:
408,160,189984,2,0,P|436:112|444:52,1,107.999996704102,2|8,1:1|0:1,0:0:0:0:
260,312,190326,6,0,B|196:308|144:248|144:248|120:320|52:344,1,270,2|0,0:1|0:0,0:0:0:0:
168,372,190669,1,0,0:0:0:0:
227,196,190841,1,10,0:1:0:0:
56,342,191012,1,2,0:1:0:0:
260,312,191184,1,0,1:0:0:0:
52,224,191355,2,0,P|24:176|20:124,1,107.999996704102,2|8,0:1|0:1,0:0:0:0:
172,32,191698,1,2,0:1:0:0:
227,196,191869,6,0,B|288:172|288:172|320:176|320:176|380:152,1,161.999995056153,0|0,1:0|0:0,0:0:0:0:
448,120,192212,1,10,0:1:0:0:
284,272,192384,1,2,0:1:0:0:
284,272,192469,1,2,0:1:0:0:
284,272,192555,1,0,1:0:0:0:
320,80,192726,1,2,1:1:0:0:
432,252,192898,1,8,0:1:0:0:
236,348,193069,6,0,P|200:304|188:256,1,107.999996704102,2|4,0:1|1:0,0:0:0:0:
220,76,193412,1,2,0:1:0:0:
4,176,193584,2,0,B|56:184|88:156|88:156|168:168,1,161.999995056153,8|0,0:1|0:0,0:0:0:0:
236,176,193926,1,0,1:0:0:0:
372,52,194098,1,0,0:0:0:0:
448,220,194269,1,8,0:1:0:0:
304,108,194441,1,0,0:0:0:0:
476,308,194612,6,0,P|420:304|352:228,1,161.999995056153,0|0,1:0|0:0,0:0:0:0:
384,152,194955,1,10,0:1:0:0:
272,304,195126,1,2,0:1:0:0:
272,304,195212,1,2,0:1:0:0:
272,304,195298,1,0,1:0:0:0:
199,120,195469,2,0,P|251:104|307:108,1,107.999996704102,2|8,1:1|0:1,0:0:0:0:
200,336,195812,6,0,P|148:352|92:348,1,107.999996704102,2|0,0:1|1:0,0:0:0:0:
12,192,196155,1,2,3:1:0:0:
95,348,196326,1,8,3:1:0:0:
124,148,196498,1,0,3:0:0:0:
0,328,196669,1,0,1:0:0:0:
216,208,196841,1,0,3:0:0:0:
32,60,197012,1,8,0:1:0:0:
12,192,197184,1,2,0:0:0:0:
12,192,197698,6,0,P|65:228|137:212,1,135.000005149842,2|2,0:1|0:1,0:0:0:0:
185,100,198212,2,0,L|209:164,1,67.5000025749208,2|2,0:1|0:1,0:0:0:0:
281,228,198555,1,2,0:1:0:0:
480,24,198726,6,0,B|437:34|420:97|420:97|379:60|303:78,1,202.500007724762,6|0,1:2|0:0,0:0:0:0:
338,161,199069,2,0,P|371:162|335:178,1,90,8|0,0:0|0:0,0:0:0:0:
495,103,199412,1,0,1:0:0:0:
425,262,199584,1,2,0:0:0:0:
325,73,199755,1,10,0:0:0:0:
469,176,199926,1,2,0:0:0:0:
292,274,200098,6,0,P|232:264|106:245,1,180,0|8,1:0|0:0,0:0:0:0:
69,113,200612,1,0,0:0:0:0:
179,79,200784,2,0,P|189:131|200:181,1,90,0|2,1:0|1:2,0:0:0:0:
244,31,201126,1,10,0:0:0:0:
196,167,201298,1,2,0:0:0:0:
124,17,201469,6,0,P|177:-3|245:32,1,135,0|0,1:0|0:0,0:0:0:0:
327,14,201812,2,0,P|318:61|309:106,1,90,8|0,0:0|0:0,0:0:0:0:
379,233,202155,1,0,1:0:0:0:
412,98,202326,1,2,0:0:0:0:
282,207,202498,1,8,0:0:0:0:
463,273,202669,1,2,0:0:0:0:
293,332,202841,6,0,B|243:358|194:336|194:336|168:295|110:308,1,180,0|8,1:0|0:0,0:0:0:0:
11,220,203355,1,0,0:0:0:0:
131,131,203526,2,0,P|123:177|113:232,1,90,0|2,1:0|1:2,0:0:0:0:
65,47,203869,1,8,0:0:0:0:
11,220,204041,1,2,0:0:0:0:
151,57,204212,6,0,B|220:32|267:74|267:74|313:68|321:12,1,202.500007724762,2|0,1:2|0:0,0:0:0:0:
398,90,204555,2,0,P|365:115|400:124,1,90,8|0,0:0|0:0,0:0:0:0:
263,300,204898,1,0,1:0:0:0:
229,216,205069,1,2,0:2:0:0:
197,132,205241,1,10,0:2:0:0:
365,213,205412,1,2,0:2:0:0:
210,360,205584,6,0,P|277:339|395:301,1,180,0|8,1:0|0:0,0:0:0:0:
229,216,206098,1,0,0:0:0:0:
365,213,206269,2,0,P|382:164|400:113,1,90,0|2,1:0|1:2,0:0:0:0:
475,222,206612,1,10,0:2:0:0:
265,191,206784,1,2,0:2:0:0:
451,28,206955,5,0,1:0:0:0:
241,26,207126,2,0,P|274:57|308:94,1,90,2|8,0:1|0:0,0:0:0:0:
301,276,207469,2,0,P|331:243|364:212,1,90,2|0,0:1|1:0,0:0:0:0:
144,109,207812,1,2,0:1:0:0:
186,300,207984,1,8,0:0:0:0:
295,135,208155,1,2,0:1:0:0:
47,211,208326,5,0,1:0:0:0:
167,358,208498,2,0,P|174:303|184:256,1,90,2|8,0:1|0:0,0:0:0:0:
42,124,208841,1,2,0:1:0:0:
65,321,209012,1,0,1:0:0:0:
195,104,209184,1,2,1:1:0:0:
316,272,209355,6,0,P|325:238|303:249,1,67.5,10|0,0:0|0:0,0:0:0:0:
371,171,209698,6,0,P|428:237|384:333,1,202.500007724762,6|0,1:2|0:0,0:0:0:0:
244,300,210041,2,0,P|225:258|237:216,1,90,10|0,0:2|0:0,0:0:0:0:
308,76,210384,1,2,1:2:0:0:
236,217,210555,1,0,0:0:0:0:
140,104,210726,2,0,P|188:104|228:120,1,90,10|0,0:2|0:0,0:0:0:0:
364,0,211069,6,0,P|388:64|408:136,1,135,2|0,1:2|0:0,0:0:0:0:
484,100,211412,2,0,P|471:56|457:13,1,90,10|0,0:0|0:0,0:0:0:0:
328,156,211755,1,2,1:2:0:0:
484,100,211926,1,0,1:0:0:0:
421,214,212098,2,0,P|421:170|405:126,1,90,10|0,0:2|0:0,0:0:0:0:
368,332,212441,6,0,B|320:300|296:348|224:304,1,135,2|0,1:2|0:0,0:0:0:0:
160,280,212784,2,0,P|138:321|102:352,1,90,10|0,0:0|0:0,0:0:0:0:
0,243,213126,1,2,1:2:0:0:
120,112,213298,1,0,0:0:0:0:
108,216,213469,2,0,P|68:192|40:160,1,90,10|0,0:2|0:0,0:0:0:0:
268,152,213812,6,0,P|357:164|448:176,2,180,0|8|0,1:0|0:0|1:0,0:0:0:0:
252,252,214669,1,0,1:0:0:0:
368,80,214841,1,10,0:0:0:0:
440,272,215012,1,0,0:0:0:0:
463,58,215184,6,0,P|380:5|283:31,1,202.500007724762,6|0,1:2|0:0,0:0:0:0:
368,80,215526,2,0,P|368:126|351:172,1,90,10|0,0:0|0:0,0:0:0:0:
248,296,215869,1,2,1:2:0:0:
353,167,216041,1,0,0:0:0:0:
368,284,216212,2,0,P|336:252|292:228,1,90,10|0,0:2|0:0,0:0:0:0:
207,47,216555,6,0,P|227:95|211:183,1,135,2|0,1:2|0:0,0:0:0:0:
184,248,216898,2,0,P|140:260|96:267,1,90,10|0,0:0|0:0,0:0:0:0:
24,112,217241,1,2,1:2:0:0:
96,267,217412,1,0,1:0:0:0:
96,148,217584,2,0,P|60:180|20:192,1,90,10|0,0:2|0:0,0:0:0:0:
196,72,217926,6,0,B|248:64|248:64|264:44|264:44|320:36,1,135,2|0,1:2|0:0,0:0:0:0:
392,64,218269,2,0,P|416:104|416:152,1,90,10|0,0:0|0:0,0:0:0:0:
400,312,218612,1,2,1:2:0:0:
417,146,218784,1,0,0:0:0:0:
504,240,218955,2,0,P|456:224|412:232,1,90,10|0,0:2|0:0,0:0:0:0:
216,324,219298,1,0,1:0:0:0:
216,324,219641,6,0,P|240:280|236:192,1,135.000005149842,2|2,0:1|1:0,0:0:0:0:
84,236,220155,2,0,L|156:248,1,67.5000025749208,2|2,0:1|0:1,0:0:0:0:
16,336,220498,1,2,1:0:0:0:
