osu file format v14

[General]
AudioFilename: audio.mp3
AudioLeadIn: 0
PreviewTime: 89003
Countdown: 0
SampleSet: Soft
StackLeniency: 0.5
Mode: 0
LetterboxInBreaks: 0
WidescreenStoryboard: 1

[Editor]
Bookmarks: 1500,23184,34155,45126,67069,89012,110955,121926,132726,154841,176784,198726,220926
DistanceSpacing: 0.4
BeatDivisor: 4
GridSize: 32
TimelineZoom: 1

[Metadata]
Title:New Genesis
TitleUnicode:新時代
Artist:Ado
ArtistUnicode:Ado
Creator:Andrea
Version:Kirishima-'s Extra
Source:ONE PIECE FILM RED
Tags:osuplayer111 Sekai Sekaii Sekai-nyan Kirishima- Mrgglock Baack toei animation japanese pop j-pop jpop anime movie Female Vocalist Vocal Monkey D Luffy モンキー D ルフィ Roronoa Zoro ロロノア ゾロ Nami ナミ Nico Robin ニコ ロビン Usopp ウソップ Sanji サンジ Tony Chopper トニーチョッパー Brook ブルック Franky フランキー Jinbe Jimbei ジンベエ Straw Hat Pirates 麦わらの一味 Mugiwara no Ichimi UTA ウタ New Genesis Insert Song 赤髪のシャンクス Red-Haired Shanks シャンクス Shin Jidai
BeatmapID:3796186
BeatmapSetID:1848011

[Difficulty]
HPDrainRate:5.5
CircleSize:4
OverallDifficulty:8.5
ApproachRate:9
SliderMultiplier:1.8
SliderTickRate:1

[Events]
//Background and Video events
0,0,"BG.jpg",0,0
Video,-54,"Video.mp4"
//Break Periods
//Storyboard Layer 0 (Background)
//Storyboard Layer 1 (Fail)
//Storyboard Layer 2 (Pass)
//Storyboard Layer 3 (Foreground)
//Storyboard Layer 4 (Overlay)
//Storyboard Sound Samples

[TimingPoints]
1500,512.820512820513,4,2,1,40,1,0
1500,-200,4,2,1,40,0,0
2012,517.241379310345,4,2,1,40,1,0
2270,-200,4,2,1,40,0,0
3046,444.444444444445,4,2,1,40,1,0
3268,588.235294117648,4,2,1,40,1,0
3268,-186.915887850467,4,2,1,40,0,0
3562,512.820512820513,4,2,1,40,1,0
3562,-200,4,2,1,40,0,0
3818,461.538461538462,4,2,1,40,1,0
3818,-200,4,2,1,40,0,0
4048,507.39957716702,4,2,1,40,1,0
4301,526.315789473685,4,2,1,40,1,0
4301,-200,4,2,1,40,0,0
4827,481.927710843374,4,2,1,40,1,0
5549,689.655172413792,4,2,1,40,1,0
5549,-200,4,2,1,40,0,0
6238,564.705882352941,4,2,1,40,1,0
6520,909.090909090909,4,2,1,40,1,0
6974,498.960498960499,4,2,1,40,1,0
6974,-200,4,2,1,40,0,0
7472,544.711756695415,4,2,1,40,1,0
8289,530.973451327434,4,2,1,40,1,0
8289,-200,4,2,1,40,0,0
8554,522.306855277476,4,2,1,40,1,0
8554,-196.850393700787,4,2,1,40,0,0
9598,561.40350877193,4,2,1,40,1,0
9598,-200,4,2,1,40,0,0
10159,620.15503875969,4,2,1,40,1,0
10159,-210.084033613445,4,2,1,40,0,0
10779,428.571428571429,4,2,1,40,1,0
10779,-200,4,2,1,40,0,0
11207,472.44094488189,4,2,1,40,1,0
11207,-200,4,2,1,40,0,0
12033,-200,4,2,1,5,0,0
12151,571.428571428572,4,2,1,40,1,0
12151,-200,4,2,1,40,0,0
13293,589.68058968059,4,2,1,40,1,0
13587,510.638297872341,4,2,1,40,1,0
14097,607.594936708861,4,2,1,40,1,0
14097,-200,4,2,1,40,0,0
14552,-200,4,2,1,5,0,0
14704,825.309491059147,4,2,1,40,1,0
14704,-200,4,2,1,40,0,0
15322,-200,4,2,1,5,0,0
15529,669.269380925823,4,2,1,40,1,0
15529,-200,4,2,1,40,0,0
16532,769.230769230769,4,2,1,20,1,0
16916,1034.48275862069,4,2,1,20,1,0
17433,666.666666666667,4,2,1,20,1,0
18099,705.882352941176,4,2,1,20,1,0
18804,652.173913043478,4,2,1,20,1,0
19458,440.04400440044,4,2,1,20,1,0
20778,481.347773766546,4,2,1,5,1,0
20778,-200,4,2,1,5,0,0
23184,342.857142857145,4,3,1,50,1,0
23184,-133.333333333333,4,3,1,50,0,0
28669,-66.6666666666667,4,3,1,50,0,0
29012,-111.111111111111,4,3,1,50,0,0
29955,-111.111111111111,4,3,1,5,0,0
30041,-111.111111111111,4,3,1,50,0,0
33812,-200,4,3,1,50,0,0
34069,-200,4,3,1,5,0,0
34155,-66.6666666666667,4,2,1,60,0,0
34412,-66.6666666666667,4,2,1,5,0,0
34498,-100,4,2,1,60,0,0
35784,-100,4,2,1,5,0,0
35869,-100,4,2,1,60,0,0
37155,-100,4,2,1,5,0,0
37241,-100,4,2,1,60,0,0
38184,-100,4,2,1,5,0,0
38269,-100,4,2,1,60,0,0
39898,-100,4,2,1,5,0,0
39984,-100,4,2,1,60,0,0
41269,-100,4,2,1,5,0,0
41355,-100,4,2,1,60,0,0
42641,-100,4,2,1,5,0,0
42726,-100,4,2,1,60,0,0
43669,-100,4,2,1,5,0,0
43755,-100,4,2,1,60,0,0
44012,-100,4,2,1,5,0,0
44098,-100,4,2,1,60,0,0
45126,-111.111111111111,4,2,1,55,0,0
56355,-111.111111111111,4,2,1,5,0,0
56441,-111.111111111111,4,2,1,55,0,0
67069,-100,4,2,1,60,0,0
68012,-100,4,2,1,5,0,0
68098,-100,4,2,1,60,0,0
69726,-100,4,2,1,5,0,0
69812,-100,4,2,1,60,0,0
70584,-100,4,2,1,5,0,0
70669,-100,4,2,1,60,0,0
73498,-100,4,2,1,5,0,0
73584,-100,4,2,1,60,0,0
75212,-100,4,2,1,5,0,0
75298,-100,4,2,1,60,0,0
76069,-100,4,2,1,5,0,0
76155,-100,4,2,1,60,0,0
76926,-100,4,2,1,5,0,0
77012,-100,4,2,1,60,0,0
78041,-50,4,2,1,60,0,0
78298,-50,4,2,1,5,0,0
78384,-100,4,2,1,60,0,0
83355,-66.6666666666667,4,2,1,60,0,0
83784,-66.6666666666667,4,2,1,5,0,0
83869,-100,4,2,1,60,0,0
86098,-66.6666666666667,4,2,1,60,0,0
86612,-100,4,2,1,60,0,0
86869,-100,4,2,1,5,0,0
86955,-100,4,2,1,60,0,0
87812,-100,4,2,1,65,0,0
89012,-50,4,2,1,75,0,1
89269,-50,4,2,1,5,0,1
89355,-83.3333333333333,4,2,1,75,0,1
90469,-83.3333333333333,4,2,1,5,0,1
90555,-83.3333333333333,4,2,1,75,0,1
91584,-50,4,2,1,75,0,1
92012,-50,4,2,1,5,0,1
92098,-83.3333333333333,4,2,1,75,0,1
96126,-83.3333333333333,4,2,1,5,0,1
96212,-83.3333333333333,4,2,1,75,0,1
98869,-83.3333333333333,4,2,1,5,0,1
98955,-83.3333333333333,4,2,1,75,0,1
99898,-83.3333333333333,4,2,1,75,0,0
99984,-50,4,2,1,75,0,1
100241,-50,4,2,1,5,0,1
100326,-83.3333333333333,4,2,1,75,0,1
101441,-83.3333333333333,4,2,1,5,0,1
101526,-83.3333333333333,4,2,1,75,0,1
102555,-50,4,2,1,75,0,1
102984,-50,4,2,1,5,0,1
103069,-83.3333333333333,4,2,1,75,0,1
107098,-83.3333333333333,4,2,1,5,0,1
107184,-83.3333333333333,4,2,1,75,0,1
109412,-133.333333333333,4,2,1,75,0,0
110955,-66.6666666666667,4,2,1,70,0,0
111212,-66.6666666666667,4,2,1,5,0,0
111298,-100,4,2,1,70,0,0
113955,-100,4,2,1,5,0,0
114041,-100,4,2,1,70,0,0
116441,-66.6666666666667,4,2,1,70,0,0
116698,-66.6666666666667,4,2,1,5,0,0
116784,-100,4,2,1,70,0,0
121584,-200,4,2,1,70,0,0
121841,-200,4,2,1,5,0,0
121926,-66.6666666666667,4,2,1,70,0,0
122184,-66.6666666666667,4,2,1,5,0,0
122269,-100,4,2,1,70,0,0
123555,-100,4,2,1,5,0,0
123641,-100,4,2,1,70,0,0
124926,-100,4,2,1,5,0,0
125012,-100,4,2,1,70,0,0
125955,-100,4,2,1,5,0,0
126041,-100,4,2,1,70,0,0
127412,-66.6666666666667,4,2,1,70,0,0
127669,-66.6666666666667,4,2,1,5,0,0
127755,-100,4,2,1,70,0,0
129041,-100,4,2,1,5,0,0
129126,-100,4,2,1,70,0,0
130412,-100,4,2,1,5,0,0
130498,-100,4,2,1,70,0,0
131441,-100,4,2,1,5,0,0
131526,-100,4,2,1,70,0,0
132726,-133.333333333333,4,2,1,60,0,0
132898,-133.333333333333,4,2,1,50,0,0
134441,-133.333333333333,4,2,1,60,0,0
135469,-111.111111111111,4,2,1,65,0,0
144126,-111.111111111111,4,2,1,5,0,0
144212,-111.111111111111,4,2,1,65,0,0
154841,-100,4,2,1,70,0,0
155784,-100,4,2,1,5,0,0
155869,-100,4,2,1,70,0,0
157498,-100,4,2,1,5,0,0
157584,-100,4,2,1,70,0,0
158355,-100,4,2,1,5,0,0
158441,-100,4,2,1,70,0,0
161269,-100,4,2,1,5,0,0
161355,-100,4,2,1,70,0,0
162984,-100,4,2,1,5,0,0
163069,-100,4,2,1,70,0,0
163841,-100,4,2,1,5,0,0
163926,-100,4,2,1,70,0,0
164698,-100,4,2,1,5,0,0
164784,-100,4,2,1,70,0,0
165812,-50,4,2,1,70,0,0
166069,-50,4,2,1,5,0,0
166155,-100,4,2,1,70,0,0
171126,-66.6666666666667,4,2,1,70,0,0
171555,-66.6666666666667,4,2,1,5,0,0
171641,-100,4,2,1,70,0,0
173869,-66.6666666666667,4,2,1,70,0,0
174384,-100,4,2,1,70,0,0
174641,-100,4,2,1,5,0,0
174726,-100,4,2,1,70,0,0
176441,-200,4,2,1,70,0,0
176784,-50,4,2,1,80,0,1
177041,-50,4,2,1,5,0,1
177126,-83.3333333333333,4,2,1,80,0,1
178241,-83.3333333333333,4,2,1,5,0,1
178326,-83.3333333333333,4,2,1,80,0,1
179355,-50,4,2,1,80,0,1
179784,-50,4,2,1,5,0,1
179869,-83.3333333333333,4,2,1,80,0,1
183898,-83.3333333333333,4,2,1,5,0,1
183984,-83.3333333333333,4,2,1,80,0,1
186384,-83.3333333333333,4,2,1,80,0,0
186641,-83.3333333333333,4,2,1,5,0,0
186726,-83.3333333333333,4,2,1,80,0,0
187755,-50,4,2,1,85,0,1
188012,-50,4,2,1,5,0,1
188098,-83.3333333333333,4,2,1,85,0,1
189212,-83.3333333333333,4,2,1,5,0,1
189298,-83.3333333333333,4,2,1,85,0,1
190326,-50,4,2,1,85,0,1
190755,-50,4,2,1,5,0,1
190841,-83.3333333333333,4,2,1,85,0,1
194869,-83.3333333333333,4,2,1,5,0,1
194955,-83.3333333333333,4,2,1,85,0,1
197184,-133.333333333333,4,2,1,85,0,0
198726,-66.6666666666667,4,2,1,75,0,0
198984,-66.6666666666667,4,2,1,5,0,0
199069,-100,4,2,1,75,0,0
201726,-100,4,2,1,5,0,0
201812,-100,4,2,1,75,0,0
204212,-66.6666666666667,4,2,1,75,0,0
204469,-66.6666666666667,4,2,1,5,0,0
204555,-100,4,2,1,75,0,0
209355,-200,4,2,1,75,0,0
209612,-200,4,2,1,5,0,0
209698,-66.6666666666667,4,2,1,75,0,0
209955,-66.6666666666667,4,2,1,5,0,0
210041,-100,4,2,1,75,0,0
211326,-100,4,2,1,5,0,0
211412,-100,4,2,1,75,0,0
212698,-100,4,2,1,5,0,0
212784,-100,4,2,1,75,0,0
213726,-100,4,2,1,5,0,0
213812,-100,4,2,1,75,0,0
215184,-66.6666666666667,4,2,1,75,0,0
215441,-66.6666666666667,4,2,1,5,0,0
215526,-100,4,2,1,75,0,0
216812,-100,4,2,1,5,0,0
216898,-100,4,2,1,75,0,0
218184,-100,4,2,1,5,0,0
218269,-100,4,2,1,75,0,0
219212,-100,4,2,1,5,0,0
219298,-133.333333333333,4,2,1,75,0,0
220498,-100,4,2,1,75,0,0
220926,-100,4,2,1,5,0,0

[Colours]
Combo1 : 128,255,255
Combo2 : 255,128,128
Combo3 : 170,170,213
Combo4 : 255,169,128

[HitObjects]
104,22,1500,6,0,P|94:65|80:108,1,90,2|2,0:0|0:0,0:0:0:0:
167,147,2270,2,0,P|176:190|190:233,1,90,2|2,0:0|0:0,0:0:0:0:
38,273,3268,2,0,P|82:282|124:296,1,90,2|2,0:0|0:0,0:0:0:0:
169,371,4048,1,2,0:0:0:0:
186,365,4301,2,0,P|207:358|229:353,1,45,2|2,0:0|0:0,0:0:0:0:
313,333,4827,1,2,0:0:0:0:
481,95,5429,5,0,0:0:0:0:
474,94,5549,2,0,P|429:84|387:70,1,90,2|2,0:0|0:0,0:0:0:0:
321,200,6520,1,2,0:0:0:0:
321,200,6974,2,0,P|363:186|408:177,1,90,2|2,0:0|0:0,0:0:0:0:
467,316,8289,5,2,0:0:0:0:
391,363,8554,1,2,0:0:0:0:
391,363,9076,2,0,P|369:355|347:349,1,45.9000002801514,2|2,0:0|0:0,0:0:0:0:
290,282,9598,1,2,0:0:0:0:
290,282,10159,2,0,P|157:318|23:352,1,275.400001680908,2|2,0:0|0:0,0:0:0:0:
321,200,13293,5,2,0:0:0:0:
248,102,13587,1,2,0:0:0:0:
248,102,14097,2,0,P|215:113|182:120,1,67.5,2|0,0:0|0:0,0:0:0:0:
108,188,14704,2,0,P|141:193|174:201,1,67.5,2|0,0:0|0:0,0:0:0:0:
256,192,15529,1,2,0:0:0:0:
256,192,15696,12,0,20778,0:0:0:0:
60,136,23184,6,0,P|91:146|125:153,1,67.5000025749208,4|0,1:2|0:0,0:0:0:0:
218,139,23526,1,0,1:0:0:0:
176,225,23698,2,0,P|142:231|110:242,1,67.5000025749208,2|0,0:0|1:0,0:0:0:0:
28,31,24041,2,0,P|92:51|158:65,1,135.000005149842,2|0,0:0|0:0,0:0:0:0:
218,139,24555,6,0,P|249:128|283:121,1,67.5000025749208,2|0,1:3|0:0,0:0:0:0:
375,137,24897,1,0,1:0:0:0:
272,205,25069,2,0,P|305:212|337:223,1,67.5000025749208,2|0,0:0|1:0,0:0:0:0:
475,178,25412,2,0,P|432:227|444:292,1,135.000005149842,2|0,0:0|0:0,0:0:0:0:
368,382,25926,6,0,P|361:348|351:317,1,67.5000025749208,2|0,1:3|0:0,0:0:0:0:
337,223,26268,1,0,1:0:0:0:
444,291,26441,2,0,P|450:257|461:225,1,67.5000025749208,2|0,0:0|1:0,0:0:0:0:
375,137,26784,1,0,0:0:0:0:
262,282,26955,2,0,P|255:248|244:216,1,67.5000025749208,2|0,1:3|0:0,0:0:0:0:
430,66,27298,6,0,P|396:59|364:48,1,67.5000025749208,2|2,1:2|0:2,0:0:0:0:
310,153,27641,2,0,P|342:142|376:137,1,67.5000025749208,0|10,1:0|0:0,0:0:0:0:
469,153,27984,1,0,1:0:0:0:
365,49,28156,1,10,0:0:0:0:
408,226,28326,1,4,1:3:0:0:
272,67,28498,1,0,0:0:0:0:
45,249,28669,6,0,B|5:234|-1:185|30:155|72:142|128:180|143:244|114:289,1,270,4|0,1:2|1:0,0:0:0:0:
185,370,29184,2,0,P|183:330|203:295,1,80.9999975280763,2|0,0:0|1:0,0:0:0:0:
263,152,29526,1,2,0:0:0:0:
293,227,29698,2,0,P|234:227|190:187,1,121.499996292114,0|0,1:0|0:0,0:0:0:0:
174,161,30041,6,0,P|185:122|194:82,1,80.9999975280763,2|0,1:3|0:0,0:0:0:0:
185,3,30384,1,0,1:0:0:0:
283,100,30555,2,0,P|271:61|262:21,1,80.9999975280763,2|0,0:0|1:0,0:0:0:0:
121,52,30898,1,2,0:0:0:0:
194,82,31069,1,0,1:0:0:0:
106,45,31241,1,0,0:0:0:0:
262,178,31412,6,0,P|301:179|336:159,1,80.9999975280763,2|0,1:3|0:0,0:0:0:0:
283,100,31755,1,0,1:0:0:0:
186,199,31926,2,0,P|205:234|239:254,1,80.9999975280763,2|0,0:0|1:0,0:0:0:0:
319,256,32269,1,8,0:0:0:0:
205,121,32441,1,8,1:3:0:0:
337,159,32612,1,4,0:0:0:0:
357,153,32697,1,4,0:0:0:0:
377,148,32783,1,4,1:3:0:0:
262,21,32955,6,0,P|274:60|283:100,1,80.9999975280763,2|0,0:0|1:0,0:0:0:0:
240,254,33298,1,0,0:0:0:0:
205,121,33469,1,2,1:3:0:0:
319,256,33641,1,0,0:0:0:0:
94,376,33812,6,0,P|94:350|108:372,1,67.5,8|0,0:1|0:0,0:0:0:0:
98,364,34155,6,0,B|73:309|114:271|122:273|130:275|171:235|146:183,1,202.500007724762,6|0,1:2|0:0,0:0:0:0:
161,192,34498,2,0,P|161:236|138:274,1,90,10|0,0:0|0:0,0:0:0:0:
37,91,34841,5,2,1:2:0:0:
2,257,35012,1,0,0:0:0:0:
42,73,35184,5,10,0:2:0:0:
75,211,35355,1,0,0:0:0:0:
47,55,35526,6,0,P|96:12|160:23,1,135,2|0,1:2|0:0,0:0:0:0:
176,31,35869,2,0,P|185:74|200:117,1,90,10|0,0:0|0:0,0:0:0:0:
291,13,36212,5,2,1:2:0:0:
275,149,36384,1,0,1:0:0:0:
385,69,36555,5,10,0:0:0:0:
354,152,36726,1,0,0:0:0:0:
497,246,36898,6,0,P|432:265|366:280,1,135,2|0,1:2|0:0,0:0:0:0:
349,284,37241,2,0,P|325:321|328:365,1,90,10|0,0:0|0:0,0:0:0:0:
182,231,37584,2,0,P|205:268|202:312,1,90,2|0,1:2|0:0,0:0:0:0:
325,95,37926,2,0,P|282:144|293:208,1,135,10|0,0:0|0:0,0:0:0:0:
297,225,38269,6,0,P|271:143|334:85,2,180,0|8|0,1:0|0:0|1:0,0:0:0:0:
430,295,39126,1,0,1:0:0:0:
349,164,39298,1,10,0:0:0:0:
439,310,39469,1,0,0:0:0:0:
502,99,39641,6,0,P|452:56|388:67,1,135,2|0,1:2|0:0,0:0:0:0:
374,78,39984,2,0,P|364:121|349:164,1,90,10|0,0:0|0:0,0:0:0:0:
378,360,40326,5,2,1:2:0:0:
284,210,40497,1,0,0:0:0:0:
259,359,40669,5,10,0:0:0:0:
206,219,40840,1,0,0:0:0:0:
22,340,41012,6,0,P|41:275|56:209,1,135,2|0,1:2|0:0,0:0:0:0:
61,192,41355,2,0,P|98:168|142:171,1,90,10|0,0:0|0:0,0:0:0:0:
276,66,41697,5,2,1:2:0:0:
206,219,41869,1,0,1:0:0:0:
338,118,42040,5,10,0:0:0:0:
286,227,42211,1,0,0:0:0:0:
404,160,42384,6,0,P|415:95|372:46,1,135,2|0,1:2|0:0,0:0:0:0:
343,37,42726,2,0,P|300:51|256:61,1,90,10|0,0:0|0:0,0:0:0:0:
196,174,43069,2,0,P|239:183|282:198,1,90,2|0,1:2|1:0,0:0:0:0:
139,38,43412,2,0,P|97:88|108:152,1,135,10|0,0:0|0:0,0:0:0:0:
117,169,43755,6,0,P|102:104|83:39,1,135,4|0,1:2|0:0,0:0:0:0:
77,22,44098,1,8,0:0:0:0:
11,133,44269,1,0,0:0:0:0:
71,6,44441,1,0,1:0:0:0:
153,241,44612,1,8,3:0:0:0:
159,257,44955,1,2,3:2:0:0:
381,36,45126,5,4,1:2:0:0:
426,101,45298,1,2,0:0:0:0:
314,184,45469,1,10,0:0:0:0:
347,108,45641,1,2,0:0:0:0:
393,174,45812,5,2,1:2:0:0:
268,119,45984,1,2,0:0:0:0:
426,101,46155,5,10,0:0:0:0:
299,45,46326,1,2,0:0:0:0:
385,258,46498,6,0,P|403:179|426:101,1,161.999995056153,2|10,1:2|0:0,0:0:0:0:
268,119,47012,2,0,P|287:154|321:174,1,80.9999975280763,2|0,0:0|1:0,0:0:0:0:
460,239,47355,2,0,P|420:238|385:258,1,80.9999975280763,2|8,1:2|0:0,0:0:0:0:
264,370,47698,5,2,0:0:0:0:
154,292,47869,1,0,1:0:0:0:
278,377,48041,1,2,0:0:0:0:
385,258,48212,5,10,0:0:0:0:
248,287,48384,1,2,0:0:0:0:
460,239,48555,5,2,1:2:0:0:
263,193,48727,1,2,0:0:0:0:
439,316,48898,5,10,0:0:0:0:
317,113,49069,1,2,0:0:0:0:
175,227,49241,6,0,B|83:243|118:170|27:187,1,161.999995056153,2|10,1:2|0:0,0:0:0:0:
156,149,49755,2,0,P|144:111|135:71,1,80.9999975280763,2|0,0:0|1:0,0:0:0:0:
46,265,50098,1,2,1:2:0:0:
61,105,50269,1,8,0:0:0:0:
175,227,50441,6,0,P|210:208|231:174,1,80.9999975280763,2|0,0:0|1:0,0:0:0:0:
98,204,50784,1,2,0:0:0:0:
173,347,50955,2,0,P|228:293|303:312,2,161.999995056153,8|0|8,0:0|1:0|0:0,0:0:0:0:
249,371,51812,1,0,0:0:0:0:
118,282,51984,1,0,1:0:0:0:
232,175,52155,5,2,0:0:0:0:
173,347,52326,1,10,0:0:0:0:
237,159,52498,2,0,P|276:150|315:138,1,80.9999975280763,2|0,0:0|1:0,0:0:0:0:
470,265,52841,1,2,1:2:0:0:
294,229,53012,1,8,0:0:0:0:
371,81,53184,6,0,P|391:115|391:155,1,80.9999975280763,2|0,0:0|1:0,0:0:0:0:
314,307,53526,2,0,P|392:282|471:265,1,161.999995056153,2|0,0:0|0:0,0:0:0:0:
296,126,54041,1,2,1:2:0:0:
231,226,54212,1,0,0:0:0:0:
387,89,54384,1,10,0:0:0:0:
452,188,54555,2,0,P|432:182|413:178,1,40.4999987640381,0|0,3:0|3:0,0:0:0:0:
259,58,54726,5,2,1:2:0:0:
307,205,54898,1,0,0:0:0:0:
255,43,55069,1,8,0:0:0:0:
312,221,55241,1,2,0:0:0:0:
355,0,55412,5,0,1:0:0:0:
172,115,55584,1,2,1:2:0:0:
413,178,55755,1,8,0:0:0:0:
230,293,55927,1,2,0:2:0:0:
463,69,56098,6,0,P|403:54|345:36,1,121.499996292114,0|0,1:2|0:0,0:0:0:0:
330,33,56441,5,10,0:0:0:0:
310,109,56613,1,2,0:0:0:0:
253,53,56784,1,2,1:2:0:0:
229,128,56956,1,2,0:0:0:0:
330,33,57126,5,10,0:0:0:0:
363,168,57298,1,2,0:0:0:0:
176,68,57469,5,2,1:2:0:0:
310,109,57641,1,2,0:0:0:0:
166,62,57812,1,10,0:0:0:0:
207,206,57984,2,0,P|216:166|229:128,1,80.9999975280763,2|0,0:0|1:0,0:0:0:0:
70,42,58326,2,0,P|82:80|91:120,1,80.9999975280763,2|8,1:2|0:0,0:0:0:0:
198,366,58670,5,2,0:0:0:0:
137,242,58841,1,0,1:0:0:0:
205,382,59013,1,2,0:0:0:0:
207,206,59184,5,10,0:0:0:0:
314,240,59356,1,2,0:0:0:0:
142,161,59527,5,2,1:2:0:0:
24,236,59699,1,2,0:0:0:0:
168,87,59870,5,10,0:0:0:0:
203,286,60041,1,2,0:0:0:0:
90,99,60212,5,2,1:2:0:0:
208,206,60384,1,2,0:0:0:0:
132,321,60555,1,10,0:0:0:0:
219,194,60726,2,0,P|258:192|293:213,1,80.9999975280763,2|0,0:0|1:0,0:0:0:0:
198,366,61070,1,2,1:2:0:0:
142,161,61241,1,8,0:0:0:0:
53,342,61412,6,0,P|92:329|132:321,1,80.9999975280763,2|0,0:0|1:0,0:0:0:0:
219,194,61756,1,2,0:0:0:0:
275,344,61926,2,0,B|367:360|332:287|423:304,2,161.999995056153,8|2|8,0:0|1:2|0:0,0:0:0:0:
403,382,62784,1,0,0:0:0:0:
295,266,62955,1,0,1:0:0:0:
381,145,63127,5,2,0:0:0:0:
437,203,63298,2,0,P|403:223|363:223,1,80.9999975280763,10|0,0:0|0:0,0:0:0:0:
290,34,63641,1,2,1:2:0:0:
458,125,63812,1,2,1:2:0:0:
275,25,63984,1,8,0:0:0:0:
203,173,64155,6,0,P|194:212|181:251,1,80.9999975280763,2|0,0:0|1:0,0:0:0:0:
117,78,64498,1,2,0:0:0:0:
270,109,64669,2,0,P|278:148|291:187,1,80.9999975280763,8|0,0:0|0:0,0:0:0:0:
207,329,65013,1,0,1:0:0:0:
86,207,65184,1,0,1:0:0:0:
193,94,65356,1,10,0:0:0:0:
300,299,65526,6,0,P|355:245|430:264,1,161.999995056153,6|2,1:2|1:2,0:0:0:0:
291,187,66041,2,0,P|256:166|216:167,1,80.9999975280763,10|2,0:2|0:0,0:0:0:0:
368,165,66384,1,2,1:2:0:0:
237,245,66555,1,10,0:0:0:0:
405,96,66726,1,0,1:0:0:0:
315,265,66898,1,0,1:0:0:0:
211,22,67069,1,4,1:2:0:0:
98,209,67241,5,2,0:0:0:0:
218,146,67412,1,10,0:0:0:0:
167,279,67584,1,2,0:0:0:0:
4,117,67755,2,0,P|69:101|134:82,1,135,2|0,1:2|0:0,0:0:0:0:
151,76,68098,5,10,0:0:0:0:
98,209,68269,1,2,0:0:0:0:
242,54,68441,1,2,1:2:0:0:
324,249,68612,2,0,P|281:234|237:223,1,90,2|8,0:0|0:0,0:0:0:0:
10,150,68955,5,2,0:0:0:0:
81,320,69126,1,2,1:2:0:0:
2,132,69298,1,2,1:2:0:0:
88,336,69469,2,0,P|152:347|201:304,1,135,10|0,0:0|0:0,0:0:0:0:
208,287,69812,5,2,1:2:0:0:
116,162,69983,1,2,0:0:0:0:
255,68,70155,1,10,0:0:0:0:
208,205,70326,2,0,P|192:139|173:74,1,135,2|0,0:0|0:0,0:0:0:0:
168,58,70669,1,2,0:0:0:0:
275,146,70840,1,10,0:0:0:0:
333,91,71012,1,2,0:0:0:0:
116,162,71184,5,2,1:2:0:0:
286,225,71355,1,2,0:0:0:0:
161,379,71526,2,0,P|187:293|208:206,1,180,10|2,0:0|1:2,0:0:0:0:
168,58,72041,1,2,1:2:0:0:
286,225,72212,2,0,P|330:228|367:205,1,90,8|0,0:0|0:0,0:0:0:0:
410,134,72555,1,4,1:2:0:0:
489,376,72726,5,2,0:0:0:0:
367,301,72897,1,10,0:0:0:0:
484,229,73069,1,2,0:0:0:0:
410,368,73241,2,0,P|346:379|297:336,1,135,2|0,1:2|0:0,0:0:0:0:
290,318,73583,5,10,0:0:0:0:
368,205,73754,1,2,0:0:0:0:
224,274,73926,1,2,1:2:0:0:
157,208,74098,2,0,P|146:251|131:294,1,90,2|8,0:0|0:0,0:0:0:0:
249,182,74440,5,2,0:0:0:0:
68,227,74611,1,2,1:2:0:0:
197,364,74783,1,2,1:2:0:0:
55,213,74955,2,0,P|39:147|20:82,1,135,10|0,0:0|0:0,0:0:0:0:
15,65,75297,5,2,1:2:0:0:
140,185,75468,1,2,0:0:0:0:
223,51,75640,1,10,0:0:0:0:
156,9,75812,2,0,P|145:73|188:122,1,135,2|0,0:0|0:0,0:0:0:0:
204,129,76154,1,2,0:0:0:0:
299,25,76326,2,0,P|302:69|279:106,1,90,10|0,0:0|0:0,0:0:0:0:
216,232,76669,6,0,P|264:188|329:199,1,135,2|0,1:2|0:0,0:0:0:0:
357,213,77012,2,0,P|367:256|382:299,1,90,10|0,0:0|0:0,0:0:0:0:
147,190,77355,1,2,1:2:0:0:
219,365,77526,1,0,1:0:0:0:
240,360,77612,1,0,1:0:0:0:
261,353,77698,2,0,P|272:309|287:267,1,90,10|0,0:0|1:0,0:0:0:0:
318,161,77955,5,0,1:0:0:0:
318,161,78041,2,0,B|303:121|254:115|224:146|211:188|249:244|313:259|358:230,1,270,6|0,1:2|0:0,0:0:0:0:
374,221,78384,1,8,0:0:0:0:
483,336,78555,1,2,0:0:0:0:
407,359,78726,2,0,B|385:312|421:277|428:278|435:280|472:246|449:198,1,180,0|8,1:0|0:0,0:0:0:0:
345,109,79241,1,0,0:0:0:0:
290,165,79412,6,0,P|327:188|371:184,1,90,0|0,1:0|0:0,0:0:0:0:
502,137,79755,1,10,0:0:0:0:
423,123,79926,1,2,0:0:0:0:
449,198,80098,1,2,1:2:0:0:
398,49,80269,2,0,P|360:25|316:29,1,90,2|8,1:2|0:0,0:0:0:0:
234,223,80612,1,2,0:0:0:0:
146,79,80784,5,0,1:0:0:0:
237,59,80955,2,0,P|222:101|211:145,1,90,2|8,0:0|0:0,0:0:0:0:
157,244,81298,2,0,P|146:200|131:157,1,90,2|0,0:0|1:0,0:0:0:0:
177,5,81641,1,2,0:0:0:0:
71,107,81812,1,8,0:0:0:0:
211,145,81984,1,2,0:0:0:0:
82,271,82155,2,0,P|71:227|56:184,1,90,0|0,1:0|0:0,0:0:0:0:
234,223,82498,5,10,0:0:0:0:
108,347,82669,2,0,P|63:350|26:327,1,90,2|0,0:0|1:0,0:0:0:0:
131,158,83012,1,2,1:2:0:0:
183,375,83184,1,8,0:0:0:0:
349,172,83355,6,0,P|370:199|376:232,1,67.5000025749208,2|2,0:0|0:0,0:0:0:0:
335,299,83526,2,0,P|251:301|295:230,1,202.500007724762,4|0,1:2|0:0,0:0:0:0:
414,301,83869,1,8,0:0:0:0:
271,153,84040,1,2,0:0:0:0:
422,57,84212,2,0,P|396:143|376:231,1,180,0|8,1:0|0:0,0:0:0:0:
327,97,84726,1,0,0:0:0:0:
266,239,84898,6,0,P|223:224|179:213,1,90,0|0,1:0|0:0,0:0:0:0:
146,75,85241,2,0,B|168:122|132:157|125:156|118:154|81:188|104:236,1,180,10|2,0:0|1:2,0:0:0:0:
247,316,85755,2,0,P|204:301|161:291,1,90,2|8,1:2|0:0,0:0:0:0:
52,31,86098,6,0,P|63:63|70:97,1,67.5000025749208,2|2,0:0|0:0,0:0:0:0:
104,236,86269,1,0,1:2:0:0:
128,10,86441,2,0,P|139:41|146:75,1,67.5000025749208,2|2,0:0|0:0,0:0:0:0:
180,214,86612,2,0,P|245:229|310:248,1,135,8|0,0:0|0:0,0:0:0:0:
327,253,86955,1,0,1:2:0:0:
197,136,87126,1,0,1:0:0:0:
319,23,87298,1,8,0:0:0:0:
399,294,87469,1,8,3:0:0:0:
399,294,87812,5,0,3:2:0:0:
330,174,87984,1,2,0:2:0:0:
327,253,88155,1,0,3:2:0:0:
398,215,88326,1,8,3:0:0:0:
187,19,88498,5,8,0:1:0:0:
400,136,88669,1,8,0:1:0:0:
260,210,88841,1,0,1:2:0:0:
40,91,89012,6,0,B|11:82|11:82|62:43|131:61|154:121|154:121|120:132|108:166,1,270,6|0,1:0|0:0,0:0:0:0:
182,196,89355,1,10,0:1:0:0:
144,340,89526,2,0,P|113:297|118:244,1,107.999996704102,2|0,0:1|1:1,0:0:0:0:
233,134,89869,1,2,0:1:0:0:
44,215,90041,1,8,0:1:0:0:
217,373,90212,6,0,P|294:350|373:331,1,161.999995056153,2|0,0:1|0:0,0:0:0:0:
394,328,90555,1,2,0:1:0:0:
260,210,90726,1,10,0:1:0:0:
424,126,90898,2,0,P|408:177|396:230,1,107.999996704102,2|0,0:1|1:1,0:0:0:0:
266,68,91241,1,2,1:1:0:0:
319,285,91412,1,8,0:1:0:0:
125,164,91584,6,0,P|124:208|149:246,1,90,2|0,0:1|0:0,0:0:0:0:
223,275,91755,2,0,B|247:251|247:251|116:286|116:286|130:341|188:349,1,270,0|0,1:1|0:0,0:0:0:0:
265,343,92098,1,10,0:1:0:0:
37,265,92269,2,0,P|42:212|11:169,1,107.999996704102,2|0,0:1|1:1,0:0:0:0:
182,12,92612,1,2,0:1:0:0:
125,164,92784,1,8,0:1:0:0:
290,263,92955,6,0,P|193:229|124:305,1,215.999993408203,2|0,0:1|0:1,0:0:0:0:
331,171,93469,1,10,0:1:0:0:
369,342,93641,2,0,P|380:289|397:237,1,107.999996704102,2|0,0:1|1:1,0:0:0:0:
244,134,93984,1,2,1:1:0:0:
425,77,94155,1,8,0:1:0:0:
254,235,94326,1,2,0:1:0:0:
444,363,94498,5,4,1:1:0:0:
331,171,94669,1,2,0:1:0:0:
454,382,94841,2,0,P|478:276|510:173,1,215.999993408203,8|0,0:1|1:1,0:0:0:0:
420,48,95355,1,0,1:0:0:0:
299,244,95526,2,0,P|351:248|394:217,1,107.999996704102,8|0,0:1|0:1,0:0:0:0:
183,32,95869,6,0,P|164:110|140:188,1,161.999995056153,0|0,1:1|0:0,0:0:0:0:
134,209,96212,1,10,0:1:0:0:
270,139,96384,2,0,P|282:192|299:244,1,107.999996704102,2|0,0:1|1:1,0:0:0:0:
58,154,96726,1,2,1:1:0:0:
115,302,96898,1,8,0:1:0:0:
50,133,97069,1,2,0:1:0:0:
221,320,97240,5,0,1:1:0:0:
299,243,97411,1,2,0:1:0:0:
434,336,97584,1,8,0:1:0:0:
512,259,97755,1,0,0:1:0:0:
317,384,97926,5,0,1:1:0:0:
197,204,98097,1,2,0:1:0:0:
384,273,98269,5,10,0:1:0:0:
501,120,98440,1,2,0:1:0:0:
272,274,98612,6,0,P|295:196|314:117,1,161.999995056153,0|0,1:1|0:0,0:0:0:0:
319,96,98955,2,0,P|362:65|415:70,1,107.999996704102,8|0,0:1|0:1,0:0:0:0:
222,337,99298,5,0,1:1:0:0:
201,331,99384,1,0,1:0:0:0:
180,324,99469,2,0,P|153:317|127:311,1,53.9999983520508,0|0,1:1|1:0,0:0:0:0:
61,230,99641,5,0,1:1:0:0:
82,225,99726,1,0,1:0:0:0:
103,220,99812,2,0,P|129:214|155:207,1,53.9999983520508,2|0,0:1|1:0,0:0:0:0:
264,91,99984,6,0,B|240:62|247:29|247:29|200:41|172:89|183:132|183:132|219:143|230:178,1,270,6|0,1:1|0:0,0:0:0:0:
236,198,100327,1,10,0:1:0:0:
127,311,100498,2,0,P|143:260|155:207,1,107.999996704102,2|0,0:1|1:0,0:0:0:0:
111,59,100841,1,2,0:1:0:0:
218,278,101013,1,8,0:1:0:0:
453,220,101184,6,0,P|397:165|322:182,1,161.999995056153,2|0,0:1|0:0,0:0:0:0:
305,196,101527,1,2,0:1:0:0:
438,11,101698,1,10,0:1:0:0:
470,85,101869,2,0,P|417:89|374:58,1,107.999996704102,2|0,0:1|1:0,0:0:0:0:
453,220,102213,1,2,1:0:0:0:
286,92,102384,1,8,0:1:0:0:
58,299,102555,6,0,P|102:299|139:275,1,90,2|0,0:1|1:0,0:0:0:0:
237,155,102726,2,0,B|207:131|207:96|207:96|178:205|178:205|224:233|218:277,1,270,0|0,1:0|0:0,0:0:0:0:
177,346,103070,1,10,0:1:0:0:
108,117,103241,2,0,P|96:170|80:222,1,107.999996704102,2|0,0:1|1:0,0:0:0:0:
258,347,103584,1,2,0:1:0:0:
58,299,103756,1,8,0:1:0:0:
185,205,103926,6,0,B|242:177|284:223|282:231|280:239|318:287|376:257,1,215.999993408203,2|0,0:1|0:0,0:0:0:0:
512,164,104441,1,10,0:1:0:0:
376,69,104612,2,0,P|345:112|350:165,1,107.999996704102,2|0,0:1|1:0,0:0:0:0:
497,282,104956,1,2,1:0:0:0:
423,133,105127,1,8,0:1:0:0:
265,203,105298,1,2,0:1:0:0:
423,380,105470,5,4,1:0:0:0:
248,295,105641,1,2,0:1:0:0:
431,162,105812,2,0,P|361:237|265:203,1,215.999993408203,8|0,0:1|1:0,0:0:0:0:
160,108,106327,1,0,0:0:0:0:
368,40,106498,2,0,P|351:92|340:145,1,107.999996704102,8|0,0:1|0:0,0:0:0:0:
135,241,106841,6,0,P|190:186|265:203,1,161.999995056153,0|0,1:0|0:0,0:0:0:0:
282,216,107184,1,10,0:1:0:0:
369,348,107355,2,0,P|421:352|464:321,1,107.999996704102,2|0,0:1|1:0,0:0:0:0:
488,143,107698,1,2,1:0:0:0:
321,285,107869,1,8,0:1:0:0:
504,129,108041,1,2,0:1:0:0:
266,93,108212,5,0,1:0:0:0:
316,190,108384,1,2,0:1:0:0:
358,68,108555,5,8,0:1:0:0:
234,239,108726,1,0,0:0:0:0:
290,1,108898,5,0,1:0:0:0:
401,233,109069,1,0,0:0:0:0:
198,25,109241,5,8,0:1:0:0:
114,128,109412,1,2,0:0:0:0:
114,128,109755,5,2,0:2:0:0:
118,140,109926,2,0,P|129:171|136:204,1,67.5000025749208,2|2,0:2|0:2,0:0:0:0:
198,295,110269,2,0,P|211:228|232:164,1,135.000005149842,2|2,0:2|0:2,0:0:0:0:
187,98,110784,1,2,0:2:0:0:
169,369,110955,6,0,B|224:394|262:353|260:345|258:337|298:296|350:321,1,202.500007724762,6|0,1:2|0:0,0:0:0:0:
350,338,111298,2,0,P|305:335|268:359,1,90,8|0,0:2|0:2,0:0:0:0:
198,295,111641,1,0,1:2:0:0:
410,161,111812,1,2,0:2:0:0:
491,234,111984,1,10,0:2:0:0:
305,136,112155,1,2,0:2:0:0:
446,21,112326,6,0,P|472:103|410:161,2,180,0|8|0,1:2|0:2|1:2,0:0:0:0:
491,234,113184,1,2,1:2:0:0:
396,83,113355,1,10,0:2:0:0:
444,316,113526,1,2,0:2:0:0:
202,234,113698,6,0,P|251:191|315:202,1,135,0|0,1:2|0:0,0:0:0:0:
342,218,114041,2,0,P|351:261|366:304,1,90,8|0,0:2|0:2,0:0:0:0:
410,161,114384,1,0,1:2:0:0:
273,270,114555,1,2,0:2:0:0:
443,338,114727,1,8,0:2:0:0:
342,218,114898,1,2,0:2:0:0:
224,377,115069,6,0,P|137:350|50:330,2,180,0|8|0,1:2|0:2|1:2,0:0:0:0:
366,304,115927,1,2,1:2:0:0:
173,230,116098,1,10,0:2:0:0:
367,92,116269,1,2,0:2:0:0:
99,258,116441,6,0,B|74:203|115:165|123:167|131:169|172:129|147:77,1,202.500007724762,6|0,1:2|0:0,0:0:0:0:
93,23,116784,2,0,P|69:60|72:104,1,90,8|0,0:2|0:2,0:0:0:0:
173,230,117127,1,0,1:2:0:0:
24,168,117298,1,2,0:2:0:0:
169,0,117470,1,10,0:2:0:0:
221,165,117641,1,2,0:2:0:0:
359,200,117812,6,0,B|312:178|277:214|278:221|280:228|246:265|198:242,2,180,0|8|0,1:2|0:2|1:2,0:0:0:0:
436,383,118670,1,2,1:2:0:0:
337,276,118841,1,10,0:2:0:0:
448,135,119012,1,2,0:2:0:0:
414,259,119184,1,0,1:2:0:0:
275,123,119355,6,0,P|319:113|361:98,1,90,2|10,0:1|0:2,0:0:0:0:
500,283,119698,2,0,P|458:268|414:259,1,90,2|0,0:1|1:2,0:0:0:0:
270,319,120041,1,2,0:1:0:0:
393,182,120213,1,10,0:2:0:0:
218,257,120384,1,2,0:1:0:0:
96,139,120555,1,0,1:2:0:0:
287,215,120726,6,0,P|310:177|307:133,1,90,2|8,0:1|0:0,0:0:0:0:
170,51,121069,1,2,0:1:0:0:
218,257,121241,1,0,1:2:0:0:
264,49,121412,1,0,1:0:0:0:
456,199,121584,2,0,P|422:198|393:181,1,67.5,10|0,0:2|0:0,0:0:0:0:
380,166,121926,6,0,P|451:231|424:324,1,202.500007724762,6|0,1:2|0:0,0:0:0:0:
411,336,122269,2,0,P|368:345|325:360,1,90,10|0,0:2|0:0,0:0:0:0:
138,199,122612,5,2,1:2:0:0:
238,374,122783,1,0,0:2:0:0:
202,152,122955,5,10,0:2:0:0:
174,330,123126,1,0,0:0:0:0:
272,114,123297,6,0,P|336:132|402:149,1,135,2|0,1:2|0:0,0:0:0:0:
420,153,123641,2,0,P|443:190|440:234,1,90,10|0,0:2|0:2,0:0:0:0:
408,357,123983,5,2,1:2:0:0:
360,220,124155,1,0,1:0:0:0:
317,379,124326,5,10,0:0:0:0:
256,276,124497,1,0,0:0:0:0:
61,381,124669,6,0,P|18:332|29:268,1,135,2|0,1:2|0:0,0:0:0:0:
39,252,125012,2,0,P|82:243|125:228,1,90,10|0,0:0|0:0,0:0:0:0:
232,363,125355,2,0,P|189:348|145:338,1,90,2|0,1:2|0:0,0:0:0:0:
232,147,125698,2,0,P|275:196|264:260,1,135,10|0,0:0|0:0,0:0:0:0:
256,276,126041,6,0,P|230:195|292:137,2,180,0|8|0,1:0|0:0|1:0,0:0:0:0:
164,136,126898,1,0,1:0:0:0:
307,214,127069,1,10,0:0:0:0:
223,82,127240,1,0,0:0:0:0:
102,366,127412,6,0,P|31:301|58:208,1,202.500007724762,6|0,1:2|0:0,0:0:0:0:
40,214,127755,2,0,P|16:252|19:296,1,90,10|0,0:0|0:0,0:0:0:0:
122,145,128097,5,2,1:2:0:0:
166,295,128268,1,0,0:0:0:0:
192,100,128440,5,10,0:0:0:0:
230,239,128611,1,0,0:0:0:0:
120,64,128784,6,0,P|169:21|233:32,1,135,2|0,1:2|0:0,0:0:0:0:
262,47,129126,2,0,P|271:90|286:133,1,90,10|0,0:0|0:0,0:0:0:0:
230,239,129468,5,2,1:2:0:0:
363,156,129640,1,0,1:0:0:0:
294,286,129811,5,10,0:0:0:0:
407,225,129984,1,0,0:0:0:0:
222,318,130155,6,0,P|157:299|91:282,1,135,2|0,1:2|0:0,0:0:0:0:
74,278,130498,2,0,P|50:240|53:196,1,90,10|0,0:0|0:0,0:0:0:0:
200,135,130841,2,0,P|203:179|179:216,1,90,2|0,1:2|0:0,0:0:0:0:
50,80,131184,2,0,P|99:37|163:48,1,135,10|0,0:0|0:0,0:0:0:0:
177,59,131526,6,0,P|89:39|3:13,2,180,2|8|0,1:2|0:0|1:0,0:0:0:0:
200,135,132384,1,8,0:0:0:0:
200,135,132726,6,0,P|265:114|331:100,1,135.000005149842,2|0,1:2|0:0,0:0:0:0:
414,39,133241,2,0,P|380:33|348:22,1,67.5000025749208,2|0,0:0|0:0,0:0:0:0:
395,117,133584,2,0,P|361:111|329:100,1,67.5000025749208,2|0,0:0|0:0,0:0:0:0:
382,196,133926,2,0,P|348:190|316:179,1,67.5000025749208,2|0,0:3|0:0,0:0:0:0:
255,129,134269,1,2,0:3:0:0:
457,167,134441,5,8,3:0:0:0:
361,355,134612,1,8,3:0:0:0:
382,196,134784,1,4,3:0:0:0:
506,297,134955,1,4,3:0:0:0:
371,275,135126,1,0,1:0:0:0:
444,246,135298,1,8,0:1:0:0:
225,380,135469,6,0,B|133:396|168:323|77:340,1,161.999995056153,6|2,1:2|0:2,0:0:0:0:
6,301,135984,1,10,0:2:0:0:
6,221,136156,1,2,0:2:0:0:
74,180,136327,1,2,1:2:0:0:
143,219,136499,1,2,0:2:0:0:
5,141,136670,5,10,0:2:0:0:
75,260,136841,1,2,0:2:0:0:
151,82,137012,5,2,1:2:0:0:
94,26,137184,2,0,P|74:60|74:100,1,80.9999975280763,2|10,0:2|0:2,0:0:0:0:
226,58,137526,2,0,P|206:23|171:3,1,80.9999975280763,2|0,0:2|1:0,0:0:0:0:
130,158,137870,1,2,1:2:0:0:
288,109,138041,1,10,0:0:0:0:
165,293,138212,6,0,P|177:254|186:214,1,80.9999975280763,2|2,0:0|1:2,0:0:0:0:
151,82,138556,1,0,0:0:0:0:
321,239,138726,2,0,P|267:183|288:109,2,161.999995056153,10|2|10,0:0|1:2|0:0,0:0:0:0:
399,223,139584,1,0,0:0:0:0:
345,164,139756,1,2,1:2:0:0:
372,295,139927,5,0,0:0:0:0:
423,147,140098,1,10,0:0:0:0:
321,239,140270,1,2,0:0:0:0:
370,89,140441,1,2,1:2:0:0:
474,207,140612,2,0,P|438:225|399:223,1,80.9999975280763,2|8,0:0|0:0,0:0:0:0:
271,26,140955,6,0,P|279:65|291:104,1,80.9999975280763,2|0,0:0|1:0,0:0:0:0:
148,249,141298,2,0,P|170:171|188:92,1,161.999995056153,2|2,0:0|0:0,0:0:0:0:
262,195,141813,1,0,1:0:0:0:
94,91,141984,1,0,0:0:0:0:
275,203,142155,1,8,0:0:0:0:
80,82,142326,2,0,P|85:101|90:121,1,40.4999987640381,2|2,0:0|0:0,0:0:0:0:
4,308,142498,5,0,1:0:0:0:
168,191,142670,1,0,0:0:0:0:
67,379,142841,1,8,0:0:0:0:
0,212,143013,1,0,0:0:0:0:
252,335,143184,5,0,1:0:0:0:
314,192,143355,2,0,P|294:198|275:203,1,40.4999987640381,0|0,1:0|1:0,0:0:0:0:
161,362,143527,1,8,0:0:0:0:
79,160,143698,1,2,0:0:0:0:
239,34,143869,6,0,P|221:92|207:151,1,121.499996292114,4|0,1:2|0:0,0:0:0:0:
202,167,144212,5,10,0:0:0:0:
138,210,144385,1,2,0:0:0:0:
208,247,144556,5,2,1:2:0:0:
141,290,144726,1,2,0:0:0:0:
275,203,144898,5,10,0:0:0:0:
132,130,145069,1,2,0:0:0:0:
212,326,145241,5,2,1:2:0:0:
69,253,145412,1,2,0:0:0:0:
226,333,145584,1,10,0:0:0:0:
349,222,145755,2,0,P|315:202|275:203,1,80.9999975280763,2|0,0:0|1:0,0:0:0:0:
302,356,146098,2,0,P|342:356|376:336,1,80.9999975280763,2|8,1:2|0:0,0:0:0:0:
484,190,146442,5,2,0:0:0:0:
427,244,146613,1,0,1:0:0:0:
503,265,146785,1,2,0:0:0:0:
406,166,146955,5,10,0:0:0:0:
446,320,147126,1,2,0:0:0:0:
463,111,147298,5,2,1:2:0:0:
369,300,147469,1,0,0:0:0:0:
387,88,147642,5,10,0:0:0:0:
503,265,147813,1,2,0:0:0:0:
445,37,147984,5,2,1:2:0:0:
349,222,148155,1,2,0:0:0:0:
453,23,148327,1,10,0:0:0:0:
484,145,148498,2,0,P|444:154|406:165,1,80.9999975280763,2|0,0:0|1:0,0:0:0:0:
277,83,148842,1,2,1:2:0:0:
427,244,149013,1,8,0:0:0:0:
369,300,149184,6,0,P|348:265|349:225,1,80.9999975280763,2|6,0:0|1:2,0:0:0:0:
406,165,149526,1,0,0:0:0:0:
389,378,149698,2,0,B|297:394|332:321|241:338,2,161.999995056153,10|2|10,0:0|1:2|0:0,0:0:0:0:
369,300,150556,1,0,0:0:0:0:
446,320,150726,1,2,1:2:0:0:
241,338,150899,5,2,0:0:0:0:
328,147,151069,2,0,P|336:186|348:225,1,80.9999975280763,10|0,0:0|0:0,0:0:0:0:
313,357,151413,1,2,1:2:0:0:
251,155,151584,1,2,1:2:0:0:
427,244,151756,1,8,0:0:0:0:
382,89,151926,6,0,P|347:68|307:69,1,80.9999975280763,2|0,0:0|1:0,0:0:0:0:
348,226,152270,1,2,0:0:0:0:
459,108,152441,2,0,P|459:67|438:33,1,80.9999975280763,8|0,0:0|0:0,0:0:0:0:
247,17,152785,1,0,1:0:0:0:
328,147,152956,1,0,1:0:0:0:
239,2,153126,1,8,0:0:0:0:
95,252,153298,6,0,P|150:198|225:217,1,161.999995056153,6|2,1:2|0:0,0:0:0:0:
364,335,153812,5,10,0:0:0:0:
170,274,153984,1,0,0:0:0:0:
328,147,154155,1,2,1:2:0:0:
181,377,154326,5,10,0:0:0:0:
352,241,154498,1,2,0:0:0:0:
194,367,154669,1,2,0:0:0:0:
247,99,154840,5,4,1:2:0:0:
352,241,155012,1,2,0:0:0:0:
218,190,155183,1,10,0:0:0:0:
321,347,155355,1,2,0:0:0:0:
422,206,155526,2,0,P|374:162|309:173,1,135,2|0,1:2|0:0,0:0:0:0:
296,186,155869,5,10,0:0:0:0:
208,295,156040,1,2,0:0:0:0:
101,136,156212,1,2,1:2:0:0:
222,58,156384,2,0,P|207:100|196:144,1,90,2|8,0:0|0:0,0:0:0:0:
294,266,156726,5,2,0:0:0:0:
357,112,156897,1,2,1:2:0:0:
286,284,157069,1,2,1:2:0:0:
364,96,157241,2,0,P|429:80|494:61,1,135,10|0,0:0|0:0,0:0:0:0:
511,55,157583,5,2,1:2:0:0:
339,20,157754,1,2,0:0:0:0:
481,153,157926,1,10,0:0:0:0:
299,257,158098,2,0,P|255:208|266:143,1,135,2|0,0:0|0:0,0:0:0:0:
277,129,158440,1,2,0:0:0:0:
203,279,158611,1,10,0:0:0:0:
333,185,158783,1,2,0:0:0:0:
472,377,158955,5,2,1:2:0:0:
299,257,159127,1,2,0:0:0:0:
431,169,159298,2,0,P|405:255|384:342,1,180,10|2,0:0|1:2,0:0:0:0:
333,185,159812,1,2,1:2:0:0:
225,339,159984,2,0,P|262:362|307:360,1,90,8|0,0:0|1:0,0:0:0:0:
431,169,160326,1,4,1:2:0:0:
279,72,160497,5,2,0:0:0:0:
333,185,160668,1,10,0:0:0:0:
187,51,160840,1,2,0:0:0:0:
93,243,161012,2,0,P|157:224|223:207,1,135,2|0,1:2|0:0,0:0:0:0:
240,203,161354,5,10,0:0:0:0:
117,137,161525,1,2,0:0:0:0:
263,280,161697,1,2,1:2:0:0:
67,329,161869,2,0,P|82:286|93:243,1,90,2|8,0:0|0:0,0:0:0:0:
187,99,162211,5,2,0:0:0:0:
48,177,162384,1,2,1:2:0:0:
120,57,162554,1,2,1:2:0:0:
240,203,162726,2,0,P|304:214|353:171,1,135,10|0,0:0|0:0,0:0:0:0:
360,154,163068,5,2,1:2:0:0:
393,290,163241,1,2,0:0:0:0:
282,136,163411,1,10,0:0:0:0:
404,304,163584,2,0,P|420:238|439:173,1,135,2|0,0:0|0:0,0:0:0:0:
445,157,163925,1,2,0:0:0:0:
290,232,164098,2,0,P|287:276|310:313,1,90,10|0,0:0|0:0,0:0:0:0:
439,376,164441,6,0,P|482:327|471:262,1,135,2|0,1:2|0:0,0:0:0:0:
453,238,164784,2,0,P|409:227|366:212,1,90,10|0,0:0|0:0,0:0:0:0:
267,51,165126,1,2,1:2:0:0:
23,164,165298,1,0,1:0:0:0:
28,185,165384,1,0,1:0:0:0:
33,206,165469,2,0,P|77:217|120:232,1,90,10|0,0:2|1:0,0:0:0:0:
234,123,165726,5,0,1:0:0:0:
218,113,165812,2,0,B|188:89|188:54|188:54|159:163|159:163|205:191|199:235,1,270,6|0,1:2|0:0,0:0:0:0:
157,303,166155,1,8,0:0:0:0:
80,162,166326,1,2,0:0:0:0:
134,379,166498,2,0,B|181:401|216:365|215:358|213:351|247:314|295:337,1,180,0|8,1:0|0:0,0:0:0:0:
438,227,167012,1,0,0:0:0:0:
312,137,167184,6,0,P|288:174|291:218,1,90,0|0,1:0|0:0,0:0:0:0:
454,384,167526,1,10,0:0:0:0:
295,337,167697,1,2,0:0:0:0:
366,194,167869,1,2,1:2:0:0:
511,329,168041,2,0,P|473:305|429:308,1,90,2|8,1:2|0:0,0:0:0:0:
312,137,168383,1,2,0:0:0:0:
453,51,168555,5,0,1:0:0:0:
362,30,168726,2,0,P|377:73|388:117,1,90,2|8,0:0|0:0,0:0:0:0:
442,215,169069,2,0,P|453:171|468:129,1,90,2|0,0:0|1:0,0:0:0:0:
288,61,169412,1,2,0:0:0:0:
366,194,169583,1,8,0:0:0:0:
453,51,169755,1,2,0:0:0:0:
357,210,169926,2,0,P|314:195|270:184,1,90,0|0,1:0|0:0,0:0:0:0:
79,221,170269,5,10,0:0:0:0:
216,330,170441,2,0,P|232:288|221:246,1,90,2|0,0:0|1:0,0:0:0:0:
3,246,170784,1,2,1:2:0:0:
116,357,170955,1,8,0:0:0:0:
114,151,171126,6,0,P|140:171|155:202,1,67.5000025749208,2|2,0:0|0:0,0:0:0:0:
49,312,171298,2,0,B|93:273|79:221|79:221|93:273|151:284,1,202.500007724762,4|0,1:2|0:0,0:0:0:0:
221,246,171640,1,8,0:0:0:0:
36,156,171811,1,2,0:0:0:0:
149,11,171984,2,0,P|176:92|114:151,1,180,0|8,1:0|0:0,0:0:0:0:
99,73,172497,1,0,0:0:0:0:
221,246,172669,6,0,P|263:231|307:220,1,90,0|0,1:0|0:0,0:0:0:0:
401,89,173012,2,0,P|313:67|227:41,1,180,10|2,0:0|1:2,0:0:0:0:
199,168,173526,2,0,P|242:153|286:143,1,90,2|8,1:2|0:0,0:0:0:0:
487,81,173869,6,0,P|477:112|470:145,1,67.5000025749208,2|2,0:0|0:0,0:0:0:0:
366,272,174040,1,4,1:2:0:0:
382,134,174212,2,0,P|393:166|400:200,1,67.5000025749208,2|2,0:0|0:0,0:0:0:0:
511,328,174384,2,0,P|462:371|397:360,1,135,8|0,0:0|0:0,0:0:0:0:
383,350,174726,1,4,1:2:0:0:
477,225,174897,1,8,3:0:0:0:
307,325,175069,1,0,1:0:0:0:
116,159,175240,1,12,0:0:0:0:
116,159,175583,5,2,0:0:0:0:
189,128,175755,1,2,0:0:0:0:
253,176,175926,1,2,0:0:0:0:
244,255,176097,1,2,0:0:0:0:
171,287,176269,1,2,0:0:0:0:
107,238,176441,1,2,0:0:0:0:
180,207,176612,1,2,0:0:0:0:
452,289,176784,6,0,B|492:274|498:225|467:195|425:182|369:220|354:284|383:329,1,270,6|0,1:0|0:0,0:0:0:0:
452,369,177126,1,10,0:1:0:0:
512,150,177298,2,0,P|459:137|408:121,1,107.999996704102,2|0,0:1|1:0,0:0:0:0:
265,179,177641,1,2,0:1:0:0:
444,48,177813,1,8,0:1:0:0:
388,197,177984,6,0,P|333:142|350:66,1,161.999995056153,2|0,0:1|0:0,0:0:0:0:
364,51,178327,1,2,0:1:0:0:
465,219,178498,1,10,0:1:0:0:
238,274,178669,2,0,P|269:231|265:179,1,107.999996704102,2|0,0:1|1:0,0:0:0:0:
444,48,179013,1,2,1:0:0:0:
342,266,179184,1,8,0:1:0:0:
87,105,179355,6,0,P|124:80|168:81,1,90,2|0,0:1|1:0,0:0:0:0:
282,117,179526,2,0,B|258:146|265:179|265:179|218:167|190:119|201:76|201:76|237:65|248:30,1,270,0|0,1:0|0:0,0:0:0:0:
175,1,179870,1,10,0:1:0:0:
343,169,180041,2,0,P|394:152|447:141,1,107.999996704102,2|0,0:1|1:0,0:0:0:0:
325,50,180384,1,2,0:1:0:0:
214,263,180556,1,8,0:1:0:0:
182,190,180726,6,0,B|239:162|281:208|279:216|277:224|315:272|373:242,1,215.999993408203,2|0,0:1|0:0,0:0:0:0:
282,117,181241,1,10,0:1:0:0:
214,263,181412,2,0,P|161:267|118:236,1,107.999996704102,2|0,0:1|1:0,0:0:0:0:
73,67,181756,1,2,1:0:0:0:
182,190,181927,1,8,0:1:0:0:
42,314,182098,1,2,0:1:0:0:
111,157,182270,5,4,1:2:0:0:
286,229,182441,1,2,0:1:0:0:
163,379,182612,2,0,P|128:282|203:213,1,215.999993408203,8|0,0:1|1:0,0:0:0:0:
42,314,183127,1,0,0:0:0:0:
6,129,183298,2,0,P|58:145|111:157,1,107.999996704102,8|0,0:1|0:0,0:0:0:0:
355,343,183641,6,0,P|299:289|224:306,1,161.999995056153,0|0,1:0|0:0,0:0:0:0:
208,320,183984,1,10,0:1:0:0:
413,174,184155,2,0,P|360:170|318:201,1,107.999996704102,2|0,0:1|1:0,0:0:0:0:
279,365,184498,1,2,1:0:0:0:
382,248,184669,1,8,0:1:0:0:
512,352,184840,1,2,0:1:0:0:
413,174,185012,1,0,1:0:0:0:
224,306,185184,5,2,0:1:0:0:
86,171,185355,1,12,0:1:0:0:
110,263,185526,1,0,0:0:0:0:
342,109,185697,1,0,1:0:0:0:
318,201,185868,1,0,1:0:0:0:
115,0,186041,1,8,0:1:0:0:
139,92,186212,1,0,0:0:0:0:
419,88,186384,6,0,P|363:33|288:50,1,161.999995056153,0|0,1:0|0:0,0:0:0:0:
273,65,186726,2,0,P|261:118|246:170,1,107.999996704102,8|0,0:1|0:0,0:0:0:0:
192,23,187070,1,0,1:0:0:0:
342,109,187241,1,0,1:0:0:0:
174,214,187412,2,0,P|167:187|160:161,1,53.9999983520508,8|0,0:1|1:0,0:0:0:0:
230,303,187584,2,0,P|236:277|244:251,1,53.9999983520508,10|0,0:1|1:0,0:0:0:0:
20,57,187755,6,0,B|-9:48|-9:48|42:9|111:27|134:87|134:87|100:98|88:132,1,270,6|0,1:0|0:0,0:0:0:0:
160,162,188099,1,10,0:1:0:0:
49,275,188269,2,0,P|19:232|25:180,1,107.999996704102,2|0,0:1|1:0,0:0:0:0:
212,101,188613,1,2,0:1:0:0:
98,212,188784,1,8,0:1:0:0:
287,354,188955,6,0,P|263:276|243:197,1,161.999995056153,2|0,0:1|0:0,0:0:0:0:
239,176,189299,1,2,0:1:0:0:
376,323,189470,1,10,0:1:0:0:
125,376,189641,2,0,P|141:324|153:272,1,107.999996704102,2|0,0:1|1:0,0:0:0:0:
337,183,189985,1,2,1:1:0:0:
210,374,190156,1,8,0:1:0:0:
92,87,190326,6,0,P|91:131|116:169,1,90,2|0,0:1|1:0,0:0:0:0:
190,198,190497,2,0,B|214:174|214:174|83:209|83:209|97:264|155:272,1,270,0|0,1:0|0:0,0:0:0:0:
233,266,190842,1,10,0:1:0:0:
56,382,191012,2,0,P|60:329|29:286,1,107.999996704102,2|0,0:1|1:0,0:0:0:0:
168,108,191355,1,2,0:1:0:0:
4,210,191526,1,8,0:1:0:0:
288,384,191698,6,0,P|312:278|344:175,1,215.999993408203,2|0,0:1|0:0,0:0:0:0:
150,346,192213,1,10,0:1:0:0:
179,137,192384,2,0,P|195:189|207:242,1,107.999996704102,2|0,0:1|1:0,0:0:0:0:
384,352,192726,1,2,1:1:0:0:
272,145,192899,1,8,0:1:0:0:
435,247,193070,1,2,0:1:0:0:
498,20,193242,5,4,1:0:0:0:
336,97,193413,1,2,0:1:0:0:
508,280,193584,2,0,B|536:223|490:181|482:183|474:185|426:147|456:89,1,215.999993408203,8|0,0:1|1:0,0:0:0:0:
357,233,194099,1,0,0:0:0:0:
272,50,194269,2,0,P|315:19|368:24,1,107.999996704102,8|0,0:1|0:0,0:0:0:0:
207,242,194612,6,0,P|187:163|163:85,1,161.999995056153,0|0,1:0|0:0,0:0:0:0:
158,64,194956,1,10,0:1:0:0:
308,201,195126,2,0,P|319:148|336:97,1,107.999996704102,2|0,0:1|1:0,0:0:0:0:
141,286,195470,1,2,1:1:0:0:
296,340,195641,1,8,0:1:0:0:
118,209,195813,1,2,0:1:0:0:
336,97,195984,5,0,1:0:0:0:
230,135,196156,1,2,3:1:0:0:
371,186,196327,5,8,3:1:0:0:
174,55,196498,1,0,3:0:0:0:
430,110,196670,5,0,1:0:0:0:
155,207,196841,1,0,3:0:0:0:
400,281,197012,5,8,0:1:0:0:
336,97,197184,1,2,0:0:0:0:
336,97,197698,6,0,P|324:161|367:210,1,135.000005149842,2|2,0:1|0:1,0:0:0:0:
467,156,198212,2,0,P|434:149|402:138,1,67.5000025749208,2|2,0:1|0:1,0:0:0:0:
334,283,198555,1,2,0:1:0:0:
171,213,198726,6,0,P|254:209|212:282,1,202.500007724762,6|0,1:2|0:0,0:0:0:0:
133,282,199069,2,0,P|100:253|90:210,1,90,8|0,0:0|0:0,0:0:0:0:
287,117,199412,1,0,1:0:0:0:
171,213,199583,1,2,0:0:0:0:
49,43,199755,1,10,0:0:0:0:
191,120,199926,1,2,0:0:0:0:
16,233,200098,6,0,B|-6:186|30:151|37:152|44:154|81:120|58:72,2,180,0|8|0,1:0|0:0|1:0,0:0:0:0:
40,381,200955,1,2,1:2:0:0:
92,212,201126,1,10,0:0:0:0:
0,311,201297,1,2,0:0:0:0:
185,361,201469,6,0,P|250:372|299:329,1,135,0|0,1:0|0:0,0:0:0:0:
304,312,201812,2,0,P|288:269|279:225,1,90,8|0,0:0|0:0,0:0:0:0:
338,83,202155,1,0,1:0:0:0:
219,175,202326,1,2,0:0:0:0:
352,72,202498,1,8,0:0:0:0:
166,116,202669,1,2,0:0:0:0:
358,210,202841,6,0,P|300:148|219:175,2,180,0|8|0,1:0|0:0|1:0,0:0:0:0:
395,334,203698,1,2,1:2:0:0:
280,225,203869,1,8,0:0:0:0:
434,116,204040,1,2,0:0:0:0:
180,12,204212,6,0,P|139:85|223:82,1,202.500007724762,2|0,1:2|0:0,0:0:0:0:
261,13,204555,2,0,P|294:42|304:85,1,90,8|0,0:0|0:0,0:0:0:0:
157,185,204898,1,0,1:0:0:0:
222,83,205069,1,2,0:2:0:0:
406,245,205241,1,10,0:2:0:0:
369,132,205412,1,2,0:2:0:0:
223,346,205584,6,0,P|136:319|49:299,2,180,0|8|0,1:0|0:0|1:0,0:0:0:0:
355,250,206441,1,2,1:2:0:0:
212,183,206612,1,10,0:2:0:0:
334,326,206783,1,2,0:2:0:0:
462,214,206955,1,0,1:0:0:0:
314,78,207126,6,0,P|305:122|289:164,1,90,2|8,0:1|0:0,0:0:0:0:
398,14,207469,2,0,P|406:58|422:100,1,90,2|0,0:1|1:0,0:0:0:0:
265,15,207812,1,2,0:1:0:0:
382,188,207984,1,8,0:0:0:0:
230,87,208155,1,2,0:1:0:0:
316,255,208326,1,0,1:0:0:0:
422,100,208498,6,0,P|384:76|340:79,1,90,2|8,0:1|0:0,0:0:0:0:
125,174,208840,1,2,0:1:0:0:
265,15,209012,1,0,1:0:0:0:
217,223,209183,1,2,1:1:0:0:
47,76,209355,2,0,P|81:75|110:58,1,67.5,10|0,0:0|0:0,0:0:0:0:
258,96,209698,6,0,B|200:85|186:33|186:33|200:85|156:124,1,202.500007724762,6|0,1:2|0:0,0:0:0:0:
84,156,210041,2,0,P|100:198|109:242,1,90,10|0,0:2|0:0,0:0:0:0:
71,370,210384,5,2,1:2:0:0:
187,259,210554,1,0,0:0:0:0:
148,384,210726,5,10,0:2:0:0:
257,299,210897,1,0,0:0:0:0:
452,362,211069,6,0,P|433:297|416:231,1,135,2|0,1:2|0:0,0:0:0:0:
412,214,211412,2,0,P|374:190|330:193,1,90,10|0,0:0|0:0,0:0:0:0:
187,259,211754,5,2,1:2:0:0:
257,163,211926,1,0,1:0:0:0:
126,207,212097,5,10,0:0:0:0:
189,120,212268,1,0,0:0:0:0:
254,304,212441,6,0,P|318:314|366:271,1,135,2|0,1:2|0:0,0:0:0:0:
373,253,212784,2,0,P|357:210|348:166,1,90,10|0,0:0|0:0,0:0:0:0:
212,96,213126,2,0,P|202:140|187:182,1,90,2|0,1:2|0:0,0:0:0:0:
427,86,213469,2,0,P|378:42|314:54,1,135,10|0,0:0|0:0,0:0:0:0:
301,66,213812,6,0,B|349:89|383:52|381:45|380:38|415:2|462:24,2,180,0|8|0,1:0|0:0|1:0,0:0:0:0:
169,19,214669,1,0,1:0:0:0:
274,197,214840,1,10,0:0:0:0:
77,39,215011,1,0,0:0:0:0:
35,276,215184,6,0,B|79:237|65:185|65:185|79:237|137:248,1,202.500007724762,6|0,1:2|0:0,0:0:0:0:
142,167,215526,2,0,P|185:180|211:216,1,90,10|0,0:0|0:0,0:0:0:0:
291,383,215868,5,2,1:2:0:0:
199,295,216041,1,0,0:0:0:0:
361,342,216211,5,10,0:0:0:0:
273,267,216384,1,0,0:0:0:0:
418,111,216555,6,0,P|461:160|450:224,1,135,2|0,1:2|0:0,0:0:0:0:
439,239,216898,2,0,P|394:248|352:263,1,90,10|0,0:0|0:0,0:0:0:0:
189,147,217241,5,2,1:2:0:0:
273,267,217412,1,0,1:0:0:0:
230,77,217584,5,10,0:0:0:0:
204,225,217755,1,0,0:0:0:0:
307,57,217926,6,0,P|371:75|437:92,1,135,2|0,1:2|0:0,0:0:0:0:
454,96,218269,2,0,P|477:133|474:177,1,90,10|0,0:0|0:0,0:0:0:0:
353,263,218612,2,0,P|349:218|373:181,1,90,2|0,1:2|0:0,0:0:0:0:
512,324,218955,2,0,P|462:367|398:355,1,135,10|0,0:0|0:0,0:0:0:0:
387,347,219298,1,0,1:0:0:0:
291,143,219641,6,0,P|226:163|160:177,1,135.000005149842,2|2,0:1|1:0,0:0:0:0:
171,266,220155,2,0,P|139:254|106:247,1,67.5000025749208,2|2,0:1|0:1,0:0:0:0:
8,47,220498,6,0,B|60:-2|161:26|113:99|207:84,1,225,2|0,1:0|0:0,0:0:0:0:
