osu file format v14

[General]
AudioFilename: audio.mp3
AudioLeadIn: 0
PreviewTime: 50720
Countdown: 0
SampleSet: Soft
StackLeniency: 0.4
Mode: 0
LetterboxInBreaks: 0
WidescreenStoryboard: 1

[Editor]
DistanceSpacing: 1
BeatDivisor: 4
GridSize: 32
TimelineZoom: 1.6

[Metadata]
Title:Kura Kura (TV Size)
TitleUnicode:クラクラ (TV Size)
Artist:Ado
ArtistUnicode:Ado
Creator:Smoke
Version:Normal
Source:SPY×FAMILY
Tags:スパイファミリー sxf spy x family season 2 2nd anime japanese opening op rock jrock j-rock pop j-pop jpop female vocals anya forger loid yor bond alevi Aurorance meiyo メイヨー 菅野よう子 yoko kanno seatbelts
BeatmapID:4331433
BeatmapSetID:2069873

[Difficulty]
HPDrainRate:3.5
CircleSize:3.2
OverallDifficulty:4.5
ApproachRate:6
SliderMultiplier:0.999999999999999
SliderTickRate:1

[Events]
//Background and Video events
Video,-141,"op.mp4"
0,0,"spy family.jpg",0,0
//Break Periods
//Storyboard Layer 0 (Background)
//Storyboard Layer 1 (Fail)
//Storyboard Layer 2 (Pass)
//Storyboard Layer 3 (Foreground)
//Storyboard Layer 4 (Overlay)
//Storyboard Sound Samples

[TimingPoints]
1422,320,4,2,1,70,1,0
5902,307.692307692308,4,2,1,70,1,0
5902,-100,4,2,1,70,0,0
6363,333.333333333333,4,2,1,70,1,0
6529,315.789473684211,4,2,1,70,1,0
6529,-90.9090909090909,4,2,1,75,0,0
7002,300,4,2,1,70,1,0
7002,-90.9090909090909,4,2,1,75,0,0
7452,387.096774193548,4,2,1,70,1,0
7452,-90.9090909090909,4,2,1,75,0,0
7645,319.148936170213,4,2,1,70,1,0
7645,-90.9090909090909,4,2,1,75,0,0
7804,319.148936170213,4,2,1,70,1,0
7804,-90.9090909090909,4,2,1,75,0,0
8112,-90.9090909090909,4,2,1,75,0,0
9074,-90.9090909090909,4,2,1,70,0,0
10357,310.880829015544,4,2,1,70,1,0
10357,-100,4,2,1,70,0,0
10978,336.134453781513,4,2,1,70,1,0
10978,-100,4,2,1,70,0,0
11314,319.148936170213,4,2,1,70,1,0
11314,-100,4,2,1,70,0,0
11633,319.148936170213,4,2,1,70,1,0
11633,-100,4,2,1,70,0,0
15143,314.13612565445,4,2,1,70,1,0
15143,-100,4,2,1,70,0,0
15457,319.148936170213,4,2,1,70,1,0
15457,-100,4,2,1,70,0,0
18010,337.078651685393,4,2,1,70,1,0
18010,-100,4,2,1,70,0,0
18347,315.789473684211,4,2,1,70,1,0
18347,-100,4,2,1,70,0,0
19294,315.789473684211,4,2,1,70,1,0
19294,-100,4,2,1,70,0,0
20557,321.71581769437,4,2,1,70,1,0
20557,-100,4,2,1,70,0,0
20709,-100,4,2,1,70,0,0
21519,-100,4,2,1,70,0,0
21843,319.148936170213,4,2,1,70,1,0
21843,-100,4,2,1,70,0,0
25672,319.148936170213,4,2,1,70,1,0
25672,-100,4,2,1,70,0,0
30771,-105.263157894737,4,2,1,65,0,0
32055,316.622691292876,4,2,1,70,1,0
32055,-105.263157894737,4,2,1,65,0,0
33321,323.886639676113,4,2,1,70,1,0
33321,-105.263157894737,4,2,1,65,0,0
34292,307.692307692308,4,2,1,70,1,0
34292,-105.263157894737,4,2,1,65,0,0
34599,322.58064516129,4,2,1,70,1,0
34599,-105.263157894737,4,2,1,65,0,0
35566,306.122448979592,4,2,1,70,1,0
35566,-105.263157894737,4,2,1,65,0,0
35872,323.450134770889,4,2,1,70,1,0
35872,-105.263157894737,4,2,1,65,0,0
37165,319.148936170213,4,2,1,70,1,0
37165,-105.263157894737,4,2,1,65,0,0
38269,-100,4,2,1,70,0,0
40343,-100,4,2,1,70,0,0
40994,319.148936170213,4,2,1,70,1,0
40994,-111.111111111111,4,2,1,50,0,0
46739,-111.111111111111,4,2,1,65,0,0
47211,-100,4,2,1,70,0,0
48494,-99.009900990099,4,2,1,70,0,0
48654,310.880829015544,4,2,1,70,1,0
48654,-100,4,2,1,70,0,0
48964,319.148936170213,4,2,1,70,1,0
48964,-100,4,2,1,70,0,0
49754,-100,4,2,1,70,0,0
49921,319.148936170213,4,2,1,70,1,0
49921,-100,4,2,1,70,0,0
50878,340.909090909091,4,2,1,70,1,0
50878,-100,4,2,1,70,0,0
51048,319.148936170213,4,2,1,70,1,0
51048,-90.9090909090909,4,2,1,80,0,0
51207,319.148936170213,4,2,1,70,1,0
51207,-90.9090909090909,4,2,1,80,0,0
54375,-90.9090909090909,4,2,1,80,0,0
54866,-90.9090909090909,4,2,1,80,0,0
55026,-90.9090909090909,4,2,1,80,0,0
56148,-90.9090909090909,4,2,1,80,0,0
56307,-90.9090909090909,4,2,1,80,0,0
61100,333.333333333333,4,2,1,70,1,0
61100,-90.9090909090909,4,2,1,80,0,0
61433,318.725099601594,4,2,1,70,1,0
61433,-90.9090909090909,4,2,1,80,0,0
70676,322.58064516129,4,2,1,70,1,0
70676,-90.9090909090909,4,2,1,80,0,0
71482,-111.111111111111,4,2,1,50,0,0
71643,319.148936170213,4,2,1,70,1,0
71643,-111.111111111111,4,2,1,50,0,0
72919,315.789473684211,4,2,1,70,1,0
72919,-111.111111111111,4,2,1,50,0,0
73708,-111.111111111111,4,2,1,65,0,0
74024,-90.9090909090909,4,2,1,80,0,0
74182,319.148936170213,4,2,1,70,1,0
74182,-90.9090909090909,4,2,1,80,0,0
76081,-90.9090909090909,4,2,1,80,0,0
76575,348.837209302326,4,2,1,70,1,0
76575,-111.111111111111,4,2,1,40,0,0
76923,319.148936170213,4,2,1,70,1,0
77082,319.148936170213,4,2,1,70,1,0
78039,315.789473684211,4,2,1,70,1,0
78039,-100,4,2,1,70,0,0
78670,320.427236315087,4,2,1,70,1,0
78670,-100,4,2,1,70,0,0
79310,320.427236315087,4,2,1,70,1,0
79310,-100,4,2,1,70,0,0
80591,319.148936170213,4,2,1,70,1,0
80591,-100,4,2,1,70,0,0
82505,314.13612565445,4,2,1,70,1,0
82505,-100,4,2,1,70,0,0
83133,325.20325203252,4,2,1,70,1,0
83133,-95.2380952380952,4,2,1,75,0,0
84433,306.122448979592,4,2,1,75,1,0
84433,-95.2380952380952,4,2,1,75,0,0
85045,319.148936170213,4,2,1,75,1,0
85045,-95.2380952380952,4,2,1,75,0,0
85683,325.20325203252,4,2,1,75,1,0
85683,-95.2380952380952,4,2,1,75,0,0
87146,310.077519379845,4,2,1,75,1,0
87146,-90.9090909090908,4,2,1,80,0,0
88076,319.148936170213,4,2,1,70,1,0
88076,-90.9090909090908,4,2,1,80,0,0

[Colours]
Combo1 : 58,133,224
Combo2 : 236,168,43
Combo3 : 61,224,237
Combo4 : 222,87,29

[HitObjects]
256,192,1422,12,8,5902,0:0:0:0:
69,269,6529,6,0,P|128:262|184:283,1,110.000003356934,6|8,3:1|0:0,0:0:0:0:
219,310,7002,2,0,P|278:317|334:296,1,110.000003356934,6|10,3:1|0:0,0:0:0:0:
372,271,7452,1,10,0:0:0:0:
372,271,7645,1,6,3:1:0:0:
434,182,7963,1,0,3:2:0:0:
434,182,8123,2,0,B|298:169|365:121|224:108,1,220.000006713867,6|0,3:1|0:0,0:0:0:0:
134,52,9080,6,0,P|125:112|117:160,1,110.000003356934,8|8,0:0|0:0,0:0:0:0:
69,187,9559,2,0,P|77:247|85:295,1,110.000003356934,8|8,0:0|0:0,0:0:0:0:
96,349,10038,2,0,P|125:358|166:358,1,55.0000016784668,8|8,0:0|2:0,0:0:0:0:
195,335,10357,5,4,3:1:0:0:
292,374,10667,1,10,0:0:0:0:
378,322,10978,1,2,3:2:0:0:
378,322,11146,1,0,3:2:0:0:
472,356,11473,6,0,P|496:312|490:248,1,99.9999999999999,10|2,0:0|3:2,0:0:0:0:
465,223,11952,1,8,0:0:0:0:
510,133,12271,2,0,P|505:87|499:30,1,99.9999999999999,0|0,3:2|3:2,0:0:0:0:
463,7,12750,1,0,1:2:0:0:
463,7,12909,5,0,3:2:0:0:
379,62,13228,1,8,0:0:0:0:
290,27,13547,1,2,3:2:0:0:
290,27,13707,1,0,3:2:0:0:
209,86,14026,6,0,P|164:80|99:100,1,99.9999999999999,10|2,0:0|3:2,0:0:0:0:
68,117,14505,1,10,0:0:0:0:
129,195,14824,2,0,L|189:202,1,50,0|0,3:2|1:2,0:0:0:0:
215,235,15143,2,0,L|275:228,1,50,8|0,0:0|1:2,0:0:0:0:
305,258,15457,5,4,3:2:0:0:
267,350,15776,1,10,0:0:0:0:
173,330,16095,1,2,3:2:0:0:
173,330,16254,1,0,3:2:0:0:
78,362,16574,6,0,P|54:318|60:254,1,99.9999999999999,10|2,0:0|3:2,0:0:0:0:
82,228,17052,1,8,0:0:0:0:
31,141,17371,2,0,P|39:93|48:36,1,99.9999999999999,2|2,3:2|3:2,0:0:0:0:
91,16,17850,1,0,1:2:0:0:
91,16,18010,5,0,3:2:0:0:
169,77,18347,1,10,0:0:0:0:
263,38,18662,1,2,3:2:0:0:
263,38,18820,1,0,3:2:0:0:
327,114,19136,6,0,L|443:99,1,99.9999999999999,10|2,0:0|3:2,0:0:0:0:
490,177,19767,2,0,L|483:230,1,50,2|0,1:2|3:2,0:0:0:0:
442,256,20083,2,0,L|449:309,1,50,2|8,1:2|0:0,0:0:0:0:
460,359,20399,1,2,1:2:0:0:
460,359,20557,6,0,P|414:340|349:341,1,99.9999999999999,6|10,3:1|0:0,0:0:0:0:
274,382,21200,1,2,3:2:0:0:
192,324,21522,2,0,L|130:331,1,50,0|10,1:2|0:0,0:0:0:0:
96,339,21843,5,2,0:0:0:0:
96,339,22002,1,2,3:2:0:0:
32,260,22321,1,2,1:2:0:0:
94,181,22640,2,0,L|151:187,2,50,2|2|2,1:2|3:2|1:2,0:0:0:0:
61,143,23119,6,0,P|58:120|68:93,1,50,2|2,3:2|3:2,0:0:0:0:
94,52,23438,1,10,0:2:0:0:
189,23,23757,1,2,3:2:0:0:
273,85,24077,1,2,0:2:0:0:
273,85,24236,6,0,B|335:79|310:103|374:97,1,99.9999999999999,10|2,0:2|3:2,0:0:0:0:
414,72,24715,1,10,0:2:0:0:
477,149,25034,1,0,3:2:0:0:
421,232,25353,2,0,L|360:239,1,50,0|0,3:2|1:2,0:0:0:0:
321,244,25672,5,4,3:2:0:0:
245,179,25991,1,10,0:0:0:0:
154,220,26311,1,2,3:2:0:0:
195,311,26630,2,0,L|249:319,1,50,2|10,1:2|0:0,0:0:0:0:
288,352,26949,5,2,0:0:0:0:
288,352,27108,1,2,3:2:0:0:
374,302,27428,1,2,1:2:0:0:
468,335,27747,2,0,P|477:361|479:396,2,50,2|2|2,1:2|3:2|1:2,0:0:0:0:
488,289,28225,6,0,L|496:230,1,50,2|2,3:2|3:2,0:0:0:0:
502,189,28545,1,10,0:2:0:0:
432,117,28864,2,0,L|381:120,1,50,2|2,3:2|3:2,0:0:0:0:
346,155,29183,2,0,L|295:152,1,50,2|10,0:2|0:2,0:0:0:0:
246,146,29502,5,2,3:2:0:0:
164,204,29821,1,10,0:2:0:0:
72,162,30140,2,0,L|63:218,1,50,10|8,0:2|3:3,0:0:0:0:
19,235,30460,2,0,L|28:291,1,50,10|0,3:3|3:2,0:0:0:0:
37,333,30779,6,0,P|83:318|141:330,1,94.9999974632263,4|8,3:1|0:0,0:0:0:0:
171,303,31257,2,0,P|217:318|276:311,1,94.9999974632263,4|0,3:1|3:2,0:0:0:0:
307,298,31736,1,12,3:2:0:0:
390,344,32055,5,0,3:2:0:0:
466,287,32371,1,2,3:2:0:0:
408,211,32688,2,0,L|350:215,2,47.4999987316131,10|2|2,3:3|3:2|3:2,0:0:0:0:
473,141,33321,6,0,P|434:120|379:121,1,94.9999974632263,6|8,3:2|0:0,0:0:0:0:
348,87,33806,2,0,P|309:108|254:107,1,94.9999974632263,4|0,3:1|3:2,0:0:0:0:
213,95,34292,1,12,3:2:0:0:
123,62,34599,6,0,L|132:6,2,47.4999987316131,2|10|10,3:2|0:2|0:2,0:0:0:0:
68,139,35244,2,0,P|65:168|77:205,1,47.4999987316131,2|10,3:2|0:2,0:0:0:0:
84,230,35566,1,10,0:2:0:0:
137,308,35872,6,0,P|186:311|233:291,1,94.9999974632263,6|8,3:2|0:0,0:0:0:0:
263,325,36357,2,0,P|312:322|359:342,1,94.9999974632263,6|0,3:1|3:2,0:0:0:0:
393,364,36842,1,14,3:2:0:0:
481,329,37165,5,10,3:2:0:0:
430,248,37484,1,10,3:3:0:0:
477,167,37803,1,10,3:3:0:0:
477,167,37962,1,2,3:2:0:0:
395,109,38282,6,0,P|346:113|291:117,1,99.9999999999999,6|2,3:2|3:2,0:0:0:0:
249,125,38760,1,10,0:0:0:0:
249,125,38920,1,6,3:2:0:0:
183,200,39239,1,6,3:2:0:0:
98,146,39558,6,0,P|88:103|112:40,1,99.9999999999999,6|10,3:2|0:0,0:0:0:0:
131,8,40037,2,0,L|192:15,1,50,2|2,0:0|3:2,0:0:0:0:
230,23,40356,1,10,3:3:0:0:
281,108,40675,1,10,0:0:0:0:
369,61,40994,6,0,B|450:62|416:104|494:103,1,134.999995880127,2|2,0:0|3:2,0:0:0:0:
507,145,41633,1,2,3:2:0:0:
446,211,41952,1,2,0:2:0:0:
488,290,42271,5,2,3:2:0:0:
422,352,42590,2,0,P|376:346|332:343,1,89.999997253418,2|2,0:2|3:2,0:0:0:0:
257,292,43228,2,0,L|202:297,1,44.999998626709,2|2,1:2|3:2,0:0:0:0:
174,320,43547,6,0,B|91:323|130:283|41:289,1,134.999995880127,2|2,3:2|3:2,0:0:0:0:
7,265,44186,1,2,3:2:0:0:
62,193,44505,1,2,0:2:0:0:
30,108,44824,5,2,3:2:0:0:
94,45,45143,2,0,P|141:40|189:59,1,89.999997253418,2|2,0:2|3:2,0:0:0:0:
257,100,45782,1,2,1:2:0:0:
209,176,46101,6,0,P|193:219|198:271,1,89.999997253418,2|8,3:2|0:2,0:0:0:0:
216,308,46579,1,2,3:2:0:0:
216,308,46739,2,0,L|274:312,1,44.999998626709,2|8,3:2|0:2,0:0:0:0:
346,363,47218,6,0,P|383:339|455:335,1,99.9999999999999,14|0,0:2|3:2,0:0:0:0:
473,296,47696,1,10,0:2:0:0:
405,222,48016,2,0,P|407:198|417:170,1,50,2|10,3:2|0:2,0:0:0:0:
439,131,48335,1,10,0:2:0:0:
439,131,48494,6,0,B|377:120|404:98|335:89,1,99.9999999999999,6|2,3:1|3:2,0:0:0:0:
300,105,48964,1,8,0:2:0:0:
219,46,49283,2,0,L|164:53,1,50,2|8,3:2|3:3,0:0:0:0:
123,61,49602,1,8,3:3:0:0:
123,61,49761,6,0,P|101:105|100:172,1,99.9999999999999,4|0,3:1|3:2,0:0:0:0:
121,198,50240,1,8,0:2:0:0:
83,292,50559,1,0,3:2:0:0:
83,292,50718,2,0,L|145:299,1,50,2|2,0:2|3:2,0:0:0:0:
176,330,51048,5,2,3:2:0:0:
261,260,51366,1,0,3:2:0:0:
261,260,51526,2,0,B|327:262|298:285|381:287,1,110.000003356934,14|0,0:0|3:2,0:0:0:0:
406,324,52004,2,0,L|467:318,1,55.0000016784668,2|8,3:2|0:2,0:0:0:0:
502,281,52324,5,2,3:2:0:0:
436,192,52643,1,2,3:2:0:0:
502,104,52962,2,0,L|498:39,1,55.0000016784668,2|2,3:2|0:0,0:0:0:0:
457,12,53281,1,2,3:2:0:0:
363,69,53600,5,0,3:2:0:0:
270,20,53919,1,0,3:2:0:0:
270,20,54079,2,0,B|204:22|233:45|150:47,1,110.000003356934,14|0,0:0|3:2,0:0:0:0:
121,81,54558,2,0,P|121:110|134:140,1,55.0000016784668,2|8,3:2|0:2,0:0:0:0:
166,175,54877,5,2,3:2:0:0:
90,255,55196,1,2,3:2:0:0:
163,337,55515,2,0,L|224:342,1,55.0000016784668,2|2,3:2|0:0,0:0:0:0:
272,346,55834,1,2,3:2:0:0:
354,273,56153,6,0,P|362:218|339:158,1,110.000003356934,6|2,3:2|3:2,0:0:0:0:
314,128,56632,1,10,0:2:0:0:
314,128,56792,1,2,3:2:0:0:
364,30,57111,2,0,P|389:38|426:40,1,55.0000016784668,2|10,3:2|0:2,0:0:0:0:
472,34,57430,6,0,P|475:93|480:148,1,110.000003356934,2|2,3:2|3:2,0:0:0:0:
486,202,57909,1,10,0:2:0:0:
486,202,58068,1,2,3:2:0:0:
409,280,58387,2,0,L|348:288,1,55.0000016784668,2|10,3:2|0:2,0:0:0:0:
311,322,58707,6,0,B|264:295|264:295|206:309,1,110.000003356934,6|2,3:2|3:2,0:0:0:0:
157,325,59185,1,10,0:2:0:0:
52,358,59504,2,0,L|45:300,1,55.0000016784668,2|2,3:2|3:2,0:0:0:0:
11,266,59824,1,10,0:2:0:0:
11,266,59983,6,0,P|18:224|28:150,1,110.000003356934,6|0,3:2|3:2,0:0:0:0:
35,102,60462,2,0,P|87:85|161:100,1,110.000003356934,12|0,0:2|3:2,0:0:0:0:
190,116,60941,2,0,L|256:112,1,55.0000016784668,10|10,3:2|3:2,0:0:0:0:
299,107,61266,5,2,3:2:0:0:
388,42,61592,1,2,3:2:0:0:
388,42,61751,2,0,B|390:108|413:79|415:162,1,110.000003356934,14|0,0:0|3:2,0:0:0:0:
458,180,62229,2,0,L|452:242,1,55.0000016784668,2|8,3:2|0:2,0:0:0:0:
447,289,62548,5,2,3:2:0:0:
354,349,62867,1,2,3:2:0:0:
263,285,63185,2,0,L|202:294,1,55.0000016784668,2|2,3:2|0:0,0:0:0:0:
154,305,63504,1,2,3:2:0:0:
56,254,63823,6,0,L|63:182,1,55.0000016784668,0|0,3:2|0:0,0:0:0:0:
100,160,64142,1,0,3:2:0:0:
100,160,64301,2,0,B|98:94|75:123|73:40,1,110.000003356934,14|0,0:0|3:2,0:0:0:0:
172,5,64938,1,8,0:2:0:0:
243,88,65257,6,0,P|270:98|306:98,1,55.0000016784668,6|2,3:2|3:2,0:0:0:0:
347,130,65576,1,10,0:0:0:0:
347,130,65735,2,0,P|382:116|419:119,1,55.0000016784668,6|0,3:2|0:2,0:0:0:0:
452,126,66054,1,10,0:0:0:0:
509,218,66373,6,0,P|488:270|489:334,1,110.000003356934,6|2,3:1|3:2,0:0:0:0:
447,360,66851,1,10,0:2:0:0:
447,360,67010,1,2,3:2:0:0:
349,309,67329,2,0,L|282:315,1,55.0000016784668,2|8,3:2|0:2,0:0:0:0:
239,322,67648,5,6,3:2:0:0:
136,362,67966,2,0,P|128:338|129:304,1,55.0000016784668,2|10,3:2|0:2,0:0:0:0:
139,254,68285,1,2,3:2:0:0:
226,188,68604,2,0,L|219:123,1,55.0000016784668,2|8,3:2|0:2,0:0:0:0:
187,88,68923,6,0,B|135:69|135:69|77:100,1,110.000003356934,6|2,3:2|3:2,0:0:0:0:
41,126,69401,1,10,0:2:0:0:
41,126,69560,2,0,P|17:177|26:253,1,110.000003356934,6|2,3:2|3:2,0:0:0:0:
37,286,70038,1,8,0:2:0:0:
37,286,70197,6,0,B|109:291|78:314|144:320,1,110.000003356934,6|0,3:1|3:2,0:0:0:0:
190,297,70676,1,8,0:2:0:0:
284,362,70998,1,8,3:3:0:0:
284,362,71159,2,0,L|340:357,1,55.0000016784668,10|14,3:3|3:3,0:0:0:0:
383,350,71482,5,6,3:2:0:0:
442,282,71802,2,0,L|432:187,1,89.999997253418,2|2,0:0|0:0,0:0:0:0:
406,96,72440,2,0,L|412:43,2,44.999998626709,2|0|2,0:0|0:0|0:0,0:0:0:0:
315,135,73076,2,0,P|277:147|222:142,1,89.999997253418,2|2,0:0|0:0,0:0:0:0:
178,57,73708,2,0,L|121:65,1,44.999998626709,2|10,3:2|0:0,0:0:0:0:
78,71,74024,6,0,B|51:120|51:120|74:179,1,110.000003356934,6|2,3:1|3:2,0:0:0:0:
96,218,74501,1,10,0:0:0:0:
96,218,74660,1,6,3:2:0:0:
50,318,74979,2,0,L|112:326,1,55.0000016784668,2|8,3:2|0:2,0:0:0:0:
146,360,75299,6,0,P|201:343|265:354,1,110.000003356934,6|10,3:2|0:2,0:0:0:0:
305,362,75777,1,10,3:2:0:0:
372,275,76096,2,0,P|363:202|293:229,1,165.0000050354,10|0,0:2|2:0,0:0:0:0:
295,223,78039,5,6,3:2:0:0:
209,275,78354,1,10,0:0:0:0:
153,199,78670,1,2,3:2:0:0:
153,199,78830,1,0,3:2:0:0:
52,204,79150,6,0,P|28:160|34:96,1,99.9999999999999,10|2,0:0|3:2,0:0:0:0:
54,68,79630,1,8,0:0:0:0:
137,13,79950,2,0,L|202:19,1,50,0|0,3:2|1:2,0:0:0:0:
223,52,80271,1,0,3:2:0:0:
313,9,80591,5,0,3:2:0:0:
373,88,80910,1,8,0:0:0:0:
470,55,81229,1,2,3:2:0:0:
470,55,81388,1,0,3:2:0:0:
501,149,81708,6,0,P|478:202|482:248,1,99.9999999999999,10|2,0:0|3:2,0:0:0:0:
494,291,82186,1,10,0:0:0:0:
407,342,82505,2,0,P|382:350|347:349,1,50,0|0,3:2|1:2,0:0:0:0:
320,317,82819,2,0,P|295:309|260:310,1,50,8|0,0:0|1:2,0:0:0:0:
220,321,83133,5,4,3:2:0:0:
149,243,83458,1,10,0:0:0:0:
224,169,83783,1,2,3:2:0:0:
224,169,83946,2,0,L|215:106,1,52.4999983978271,0|8,3:2|0:2,0:0:0:0:
207,65,84271,5,2,1:2:0:0:
114,14,84586,1,2,3:2:0:0:
25,70,84892,1,2,1:2:0:0:
25,70,85045,2,0,P|4:118|11:174,1,104.999996795654,2|2,3:2|3:2,0:0:0:0:
49,265,85683,5,0,3:2:0:0:
32,368,86008,2,0,L|98:363,1,52.4999983978271,10|0,0:0|1:2,0:0:0:0:
136,358,86333,2,0,P|165:315|168:252,1,104.999996795654,10|0,3:3|3:2,0:0:0:0:
154,212,86821,1,2,3:2:0:0:
237,138,87146,6,0,L|321:145,1,82.5000025177002,14|14,3:2|3:2,0:0:0:0:
361,73,87611,2,0,L|445:66,1,82.5000025177002,14|14,3:2|3:2,0:0:0:0:
502,122,88076,1,14,3:2:0:0:
