osu file format v14

[General]
AudioFilename: audio.mp3
AudioLeadIn: 0
PreviewTime: 53043
Countdown: 0
SampleSet: Soft
StackLeniency: 0.7
Mode: 0
LetterboxInBreaks: 1
WidescreenStoryboard: 0

[Editor]
DistanceSpacing: 0.9
BeatDivisor: 4
GridSize: 32
TimelineZoom: 1

[Metadata]
Title:Himawari
TitleUnicode:向日葵
Artist:Ado
ArtistUnicode:Ado
Creator:iljaaz
Version:Insane
Source:18/40〜ふたりなら夢も恋も〜
Tags:keqing zekk nanoya satonodiamond drama dorama jdrama j-drama female vocalist j-pop japan 18/40: Unbreakable Bond of Dreams 18 / 40 mewhan みゆはん様 40mP 40meter-p japanese pop Futari Nara Yume mo Koi mo
BeatmapID:4217898
BeatmapSetID:2024698

[Difficulty]
HPDrainRate:6
CircleSize:4
OverallDifficulty:8
ApproachRate:8.5
SliderMultiplier:2.3
SliderTickRate:1

[Events]
//Background and Video events
0,0,"himawari.jpg",0,0
Video,-98,"himawari.mp4"
//Break Periods
2,79295,83473
2,175295,184526
//Storyboard Layer 0 (Background)
//Storyboard Layer 1 (Fail)
//Storyboard Layer 2 (Pass)
//Storyboard Layer 3 (Foreground)
//Storyboard Layer 4 (Overlay)
//Storyboard Sound Samples

[TimingPoints]
780,631.578947368421,4,2,1,50,1,0
780,-142.857142857143,4,2,1,50,0,0
13411,-125,4,2,1,50,0,0
33622,-166.666666666667,4,2,1,60,0,0
43727,-125,4,2,1,70,0,0
53201,-100,4,2,1,80,0,0
53832,-76.9230769230769,4,2,1,90,0,1
63306,-125,4,2,1,90,0,1
63937,-76.9230769230769,4,2,1,90,0,1
74043,-76.9230769230769,4,2,1,70,0,0
84148,-125,4,2,1,70,0,0
104358,-142.857142857143,4,2,1,60,0,0
114464,-125,4,2,1,70,0,0
124569,-76.9230769230769,4,2,1,90,0,1
134043,-125,4,2,1,90,0,1
134674,-76.9230769230769,4,2,1,90,0,1
144779,-76.9230769230769,4,2,1,80,0,0
155516,-125,4,2,1,80,0,0
156464,-83.3333333333333,4,2,1,80,0,0
164990,-125,4,2,1,70,0,0
185201,-125,4,2,1,50,0,0
190253,-125,4,2,1,70,0,0
196569,-83.3333333333333,4,2,1,80,0,0
197832,-76.9230769230769,4,2,1,90,0,1
215516,-76.9230769230769,4,2,1,80,0,0
225622,-76.9230769230769,4,2,1,90,0,1
230674,-90.9090909090909,4,2,1,80,0,0
235727,-76.9230769230769,4,2,1,90,0,1
240779,-90.9090909090909,4,2,1,80,0,0
245832,-90.9090909090909,4,2,1,75,0,0
248358,-90.9090909090909,4,2,1,60,0,0
250885,-90.9090909090909,4,2,1,45,0,0
253411,-90.9090909090909,4,2,1,30,0,0
254043,-90.9090909090909,4,2,1,5,0,0

[Colours]
Combo1 : 249,254,186
Combo2 : 171,252,203
Combo3 : 175,221,254

[HitObjects]
417,268,464,5,2,0:0:0:0:
358,313,780,2,0,L|270:324,1,80.499997543335,2|0,0:0|0:0,0:0:0:0:
450,375,1411,5,2,0:0:0:0:
278,322,1727,2,0,B|370:311|349:373|453:359,1,160.99999508667,2|2,0:0|0:0,0:0:0:0:
512,221,2674,5,2,0:0:0:0:
417,268,2990,2,0,P|396:214|402:112,1,160.99999508667,2|0,0:0|0:0,0:0:0:0:
408,111,4253,5,2,0:0:0:0:
337,40,4569,1,2,0:0:0:0:
244,67,4885,1,2,0:0:0:0:
237,169,5201,2,0,L|246:256,1,80.499997543335,2|2,0:0|0:0,0:0:0:0:
54,127,5832,6,0,L|45:46,1,80.499997543335,2|0,0:0|0:0,0:0:0:0:
158,144,6464,1,2,0:0:0:0:
0,203,6780,6,0,P|33:247|138:254,1,160.99999508667,2|2,0:0|0:0,0:0:0:0:
316,179,7727,2,0,L|223:167,1,80.499997543335,2|0,0:0|0:0,0:0:0:0:
310,384,8358,6,0,P|341:339|529:341,1,241.499992630005,2|0,0:0|0:0,0:0:0:0:
417,355,9622,2,0,L|399:264,1,80.499997543335,2|0,0:0|0:0,0:0:0:0:
509,149,10253,2,0,L|489:236,1,80.499997543335,2|0,0:0|0:0,0:0:0:0:
401,276,10885,6,0,P|340:269|299:181,2,160.99999508667,2|0|0,0:0|0:0|0:0,0:0:0:0:
490,227,12780,1,2,0:0:0:0:
325,79,13411,6,0,L|223:95,1,92,2|0,1:2|0:0,0:0:0:0:
46,152,14043,2,0,P|24:100|45:14,1,138,10|0,0:0|0:0,0:0:0:0:
39,22,14674,2,0,L|134:41,1,92,2|0,0:0|0:3,0:0:0:0:
299,169,15306,2,0,P|302:216|278:268,1,92,10|0,0:0|1:2,0:0:0:0:
129,384,15937,6,0,L|143:286,1,92,2|0,1:2|0:0,0:0:0:0:
162,138,16569,2,0,P|87:176|22:174,1,138,10|0,0:0|0:0,0:0:0:0:
35,177,17201,2,0,P|91:190|125:218,1,92,2|0,0:0|1:0,0:0:0:0:
267,350,17832,2,0,P|314:347|361:315,1,92,10|0,0:0|0:0,0:0:0:0:
499,172,18464,6,0,L|402:154,1,92,2|0,1:2|0:0,0:0:0:0:
443,356,19095,2,0,L|426:257,1,92,10|0,2:2|2:2,0:2:0:0:
365,220,19569,1,2,0:0:0:0:
407,154,19727,2,0,P|415:98|373:22,1,138,2|0,0:0|0:0,0:0:0:0:
380,28,20358,2,0,L|285:45,1,92,10|0,0:0|1:2,0:0:0:0:
167,211,20990,6,0,P|102:206|61:134,1,138,2|0,1:2|0:0,0:0:0:0:
62,150,21622,2,0,L|80:56,1,92,10|0,0:0|0:0,0:0:0:0:
147,19,22095,1,2,0:0:0:0:
215,79,22253,2,0,P|230:122|233:174,1,92,2|0,0:0|1:0,0:0:0:0:
41,346,22885,6,0,P|82:295|151:300,1,138,10|0,0:0|0:0,0:0:0:0:
149,299,23516,2,0,P|165:255|164:200,1,92,4|0,1:0|0:0,0:0:0:0:
297,355,24148,2,0,L|202:373,1,92,10|0,0:0|0:0,0:0:0:0:
259,263,24622,1,2,0:0:0:0:
259,263,24779,6,0,P|287:308|413:328,1,184,2|10,0:0|0:2,0:0:0:0:
512,266,25727,1,2,1:2:0:0:
407,204,26043,2,0,P|394:159|400:109,1,92,2|0,1:2|0:0,0:0:0:0:
459,68,26516,1,2,0:0:0:0:
399,115,26674,2,0,P|356:112|316:87,1,92,10|0,0:0|0:0,0:0:0:0:
245,120,27148,1,2,0:0:0:0:
178,62,27306,6,0,P|128:72|65:192,1,184,2|8,1:2|0:0,0:0:0:0:
163,305,28253,1,2,0:0:0:0:
47,383,28569,6,0,P|56:342|61:289,1,92,2|0,1:2|0:0,0:0:0:0:
234,217,29201,2,0,P|188:209|144:197,1,92,10|0,0:0|0:0,0:0:0:0:
163,305,29674,1,2,0:0:0:0:
163,305,29832,2,0,P|221:315|340:383,1,184,2|10,0:0|0:0,0:0:0:0:
512,274,30779,1,2,1:2:0:0:
448,218,31095,6,0,P|405:230|354:233,1,92,2|0,1:2|0:0,0:0:0:0:
299,285,31569,1,2,0:0:0:0:
358,234,31727,2,0,P|386:270|401:326,1,92,10|0,0:0|0:0,0:0:0:0:
459,367,32201,1,2,0:0:0:0:
399,313,32358,2,0,P|401:229|437:157,1,138,2|8,1:2|3:0,0:0:0:0:
486,136,32990,1,8,3:0:0:0:
255,0,33622,6,0,L|243:114,1,103.499996841431,4|0,1:0|0:0,0:0:0:0:
234,176,34253,1,8,3:0:0:0:
141,180,34569,6,0,P|181:159|315:150,1,172.499994735718,8|0,1:3|2:3,2:3:0:0:
380,120,35516,2,0,P|383:157|371:198,1,68.9999978942872,8|0,1:3|0:0,0:0:0:0:
308,228,35990,5,8,3:0:0:0:
234,176,36148,2,0,P|231:246|250:321,1,137.999995788574,8|0,1:3|1:0,0:0:0:0:
398,384,37095,6,0,P|409:355|407:309,1,68.9999978942872,8|0,1:3|0:0,0:0:0:0:
308,228,37727,1,0,1:0:0:0:
439,151,38043,6,0,P|412:130|362:119,1,68.9999978942872,10|0,0:0|0:0,0:0:0:0:
308,150,38516,1,8,3:0:0:0:
308,228,38674,2,0,P|258:257|159:258,1,137.999995788574,8|8,1:3|1:3,0:0:0:0:
18,371,39622,5,8,1:3:0:0:
35,281,39937,2,0,L|47:200,1,68.9999978942872,2|0,0:0|0:0,0:0:0:0:
179,263,40569,6,0,L|192:343,1,68.9999978942872,8|2,1:3|0:0,0:0:0:0:
251,374,41043,1,2,0:3:0:0:
190,331,41201,2,0,L|210:174,1,137.999995788574,8|0,1:3|1:0,0:0:0:0:
15,7,42148,6,0,P|29:62|108:88,1,137.999995788574,8|8,1:3|0:3,0:0:0:0:
168,52,42937,1,2,0:0:0:0:
207,193,43095,1,10,0:0:0:0:
277,155,43253,1,8,3:0:0:0:
325,214,43411,1,8,3:0:0:0:
470,71,43727,6,0,L|307:92,1,138,4|0,1:0|0:0,0:0:0:0:
207,194,44358,2,0,P|196:240|197:290,1,92,10|0,0:0|0:0,0:0:0:0:
253,338,44832,1,2,0:0:0:0:
324,300,44990,2,0,L|435:285,1,92,2|0,1:2|1:2,0:0:0:0:
207,193,45622,5,10,0:0:0:0:
323,384,45937,1,2,0:0:0:0:
512,245,46253,6,0,P|470:202|341:191,1,184,4|8,1:0|0:0,0:0:0:0:
175,359,47201,1,2,0:0:0:0:
104,384,47358,1,2,0:0:0:0:
49,332,47516,2,0,P|48:289|64:240,2,92,2|0|8,1:2|1:0|0:0,0:0:0:0:
196,187,48464,5,2,0:3:0:0:
232,251,48622,1,2,0:0:0:0:
196,187,48780,2,0,P|144:171|111:81,1,138,2|0,1:2|0:0,0:0:0:0:
0,5,49411,2,0,L|97:22,1,92,10|0,0:0|0:0,0:0:0:0:
164,46,49885,1,2,0:0:0:0:
108,99,50043,2,0,L|3:115,1,92,2|0,1:2|1:2,0:0:0:0:
227,0,50674,5,10,0:0:0:0:
402,192,50990,1,2,1:2:0:0:
475,166,51148,1,2,0:0:0:0:
475,166,51306,2,0,P|490:124|478:50,1,92,4|0,1:0|1:0,0:0:0:0:
434,22,51780,1,2,0:0:0:0:
342,143,51937,5,10,0:0:0:0:
402,192,52095,1,8,3:0:0:0:
399,267,52253,1,8,1:3:0:0:
351,329,52411,1,0,1:0:0:0:
214,265,52569,5,12,0:0:0:0:
464,384,52885,5,2,1:2:0:0:
214,265,53201,6,0,P|141:276|62:346,1,172.5,12|0,0:0|0:0,0:0:0:0:
276,316,53832,6,0,P|290:280|291:219,1,74.7499965782167,4|0,1:0|0:0,0:0:0:0:
163,102,54148,2,0,L|177:192,1,74.7499965782167,2|0,0:2|0:0,0:0:0:0:
79,322,54464,2,0,P|152:276|235:265,1,149.499993156433,10|0,0:0|0:0,0:0:0:0:
276,316,54937,1,2,0:0:0:0:
304,149,55095,6,0,L|291:54,1,74.7499965782167,2|0,1:0|0:0,0:0:0:0:
401,220,55411,2,0,L|389:146,1,74.7499965782167,2|0,1:0|0:0,0:0:0:0:
493,277,55727,2,0,P|532:197|499:51,1,224.24998973465,10|0,2:1|0:0,0:0:0:0:
304,149,56358,6,0,L|292:230,1,74.7499965782167,6|2,1:2|0:0,0:0:0:0:
205,345,56674,1,2,0:0:0:0:
273,311,56832,1,2,0:0:0:0:
213,264,56990,2,0,P|134:249|84:192,1,149.499993156433,10|2,0:0|0:0,0:0:0:0:
20,251,57464,5,2,0:0:0:0:
146,130,57622,2,0,L|62:107,1,74.7499965782167,2|0,1:0|0:0,0:0:0:0:
296,193,57937,2,0,L|224:174,1,74.7499965782167,2|0,1:0|0:0,0:0:0:0:
426,224,58253,2,0,P|361:174|209:181,1,224.24998973465,10|0,2:1|0:0,0:0:0:0:
140,244,58885,6,0,L|153:326,1,74.7499965782167,6|0,1:2|0:0,0:0:0:0:
244,384,59201,1,2,0:0:0:0:
21,164,59516,6,0,P|23:86|70:38,1,149.499993156433,10|2,0:0|0:0,0:0:0:0:
139,65,59990,1,2,0:0:0:0:
223,173,60148,2,0,L|139:154,1,74.7499965782167,2|0,1:2|0:0,0:0:0:0:
304,52,60464,2,0,L|318:138,1,74.7499965782167,2|0,1:2|0:0,0:0:0:0:
427,225,60780,2,0,P|438:191|439:143,1,74.7499965782167,10|0,0:0|0:0,0:0:0:0:
512,65,61095,1,2,0:0:0:0:
449,17,61253,1,2,0:0:0:0:
402,78,61411,6,0,P|406:153|431:236,1,149.499993156433,6|8,1:2|1:3,0:0:0:0:
506,296,61885,1,2,0:0:0:0:
391,374,62043,5,14,0:0:0:0:
412,304,62201,1,2,0:3:0:0:
403,373,62358,1,8,3:0:0:0:
390,294,62516,1,2,0:0:0:0:
489,377,62674,6,0,P|414:343|251:335,1,224.24998973465,4|0,1:0|0:0,0:0:0:0:
137,369,63306,6,0,L|25:349,1,92,14|8,0:0|0:0,0:0:0:0:
191,303,63780,1,10,0:0:0:0:
112,177,63937,6,0,P|111:216|119:256,1,74.7499965782167,4|0,1:0|0:0,0:0:0:0:
273,331,64253,2,0,P|284:296|287:248,1,74.7499965782167,2|0,0:0|0:0,0:0:0:0:
433,136,64569,2,0,P|387:85|300:79,1,149.499993156433,10|0,0:0|0:0,0:0:0:0:
244,118,65043,1,2,0:0:0:0:
414,225,65201,6,0,L|498:212,1,74.7499965782167,2|0,1:0|0:0,0:0:0:0:
249,305,65516,2,0,L|333:292,1,74.7499965782167,2|0,1:0|0:0,0:0:0:0:
97,373,65832,2,0,P|164:356|213:218,1,224.24998973465,10|0,0:1|0:0,0:0:0:0:
72,44,66464,6,0,L|57:119,1,74.7499965782167,2|0,1:2|0:0,0:0:0:0:
112,177,66780,1,2,0:0:0:0:
0,244,66937,1,2,0:0:0:0:
0,244,67095,2,0,P|75:260|121:316,1,149.499993156433,10|2,0:0|0:0,0:0:0:0:
214,222,67569,1,2,0:0:0:0:
130,103,67727,6,0,L|45:119,1,74.7499965782167,2|0,1:0|0:0,0:0:0:0:
303,183,68043,2,0,L|218:199,1,74.7499965782167,2|0,1:0|0:0,0:0:0:0:
468,260,68358,2,0,P|392:276|300:387,1,224.24998973465,10|8,0:1|0:0,0:0:0:0:
120,313,68990,6,0,P|108:277|108:236,1,74.7499965782167,4|0,1:0|0:0,0:0:0:0:
149,176,69306,1,8,3:0:0:0:
300,384,69622,5,10,0:0:0:0:
120,313,69937,2,0,P|133:235|253:142,1,224.24998973465,4|0,1:0|0:0,0:0:0:0:
304,94,70569,2,0,P|316:125|315:174,1,74.7499965782167,2|0,1:2|0:0,0:0:0:0:
408,302,70885,5,10,0:0:0:0:
477,338,71043,1,8,0:3:0:0:
512,268,71201,2,0,L|495:185,1,74.7499965782167,8|0,1:3|0:0,0:0:0:0:
254,225,71516,6,0,P|182:227|128:140,1,149.499993156433,4|8,1:0|3:0,0:0:0:0:
132,173,72306,5,8,3:0:0:0:
79,122,72464,2,0,P|41:127|8:152,1,74.7499965782167,8|0,1:3|0:0,0:0:0:0:
85,240,72780,6,0,P|110:138|101:-2,1,224.24998973465,4|0,1:0|0:0,0:0:0:0:
105,19,73411,5,10,0:0:0:0:
186,83,73569,5,8,3:0:0:0:
267,92,73727,5,0,1:0:0:0:
320,76,73885,5,2,0:3:0:0:
339,61,74043,5,4,1:0:0:0:
256,192,74201,12,0,75306,1:0:0:0:
339,61,75622,6,0,L|348:137,1,74.7499965782167,2|0,1:2|0:0,0:0:0:0:
165,228,75937,2,0,L|173:153,1,74.7499965782167,10|0,0:2|0:0,0:0:0:0:
105,6,76253,2,0,P|175:24|236:92,1,149.499993156433,2|0,0:0|1:2,0:0:0:0:
256,192,76727,12,0,79095,1:0:0:0:
483,228,84148,6,0,P|404:217|364:161,1,138,4|0,1:2|0:0,0:0:0:0:
369,175,84780,2,0,L|386:75,1,92,10|0,0:0|0:0,0:0:0:0:
338,19,85253,1,2,0:0:0:0:
275,65,85411,2,0,P|232:80|173:81,2,92,2|0|8,1:2|1:2|0:0,0:0:0:0:
369,175,86358,1,2,0:0:0:0:
353,249,86516,1,2,0:0:0:0:
353,249,86674,6,0,P|295:215|195:208,1,138,2|0,1:2|0:0,0:0:0:0:
225,204,87306,2,0,L|211:300,1,92,10|0,0:0|0:0,0:0:0:0:
149,343,87780,1,2,0:0:0:0:
85,303,87937,1,2,1:2:0:0:
292,372,88253,1,2,1:2:0:0:
85,303,88569,2,0,P|79:234|124:154,1,138,10|0,0:0|0:0,0:0:0:0:
107,173,89201,6,0,L|94:70,1,92,2|0,1:2|0:0,0:0:0:0:
147,27,89674,1,2,0:0:0:0:
215,61,89832,2,0,P|267:77|324:75,1,92,10|0,0:0|0:0,0:0:0:0:
504,56,90464,1,2,1:2:0:0:
452,0,90622,1,2,0:0:0:0:
379,18,90780,2,0,P|379:68|407:131,1,92,2|8,1:2|0:0,0:0:0:0:
512,201,91411,1,2,0:0:0:0:
337,383,91727,6,0,L|358:245,1,138,2|0,1:2|0:0,0:0:0:0:
358,247,92358,2,0,L|259:267,1,92,10|0,0:0|0:0,0:0:0:0:
216,325,92832,1,2,0:0:0:0:
157,276,92990,2,0,P|157:219|185:169,1,92,2|0,1:2|1:0,0:0:0:0:
91,361,93622,2,0,P|150:323|235:332,1,138,10|0,0:0|0:0,0:0:0:0:
215,324,94253,6,0,L|322:306,1,92,4|0,1:2|0:0,0:0:0:0:
170,187,94885,2,0,L|74:164,1,92,10|0,0:0|0:0,0:0:0:0:
6,192,95358,1,2,0:0:0:0:
20,114,95516,2,0,P|51:80|143:96,1,138,2|0,1:2|0:0,0:0:0:0:
166,160,96148,1,10,0:0:0:0:
338,82,96464,1,2,0:0:0:0:
401,128,96622,1,2,0:0:0:0:
470,89,96780,6,0,P|468:45|452:-7,1,92,2|0,1:2|0:0,0:0:0:0:
324,163,97411,2,0,L|306:271,1,92,10|0,0:0|0:0,0:0:0:0:
365,311,97885,1,2,0:0:0:0:
365,311,98043,2,0,P|302:303|234:355,1,138,0|0,1:2|0:0,0:0:0:0:
162,249,98674,2,0,L|69:227,1,92,10|0,0:0|0:0,0:0:0:0:
0,200,99148,1,2,0:0:0:0:
73,228,99306,6,0,P|142:216|196:104,1,184,2|10,1:2|0:0,0:0:0:0:
332,17,100253,1,2,0:0:0:0:
409,0,100411,1,2,0:0:0:0:
470,46,100569,2,0,L|485:156,1,92,2|8,1:2|0:3,0:0:0:0:
437,199,101043,1,2,0:0:0:0:
512,312,101201,1,10,0:0:0:0:
434,298,101358,1,8,3:0:0:0:
398,365,101516,1,8,1:3:0:0:
395,370,101832,6,0,P|350:365|304:339,1,92,4|0,1:0|0:0,0:0:0:0:
263,280,102306,1,2,0:0:0:0:
185,329,102464,2,0,L|75:349,1,92,6|2,1:2|0:0,0:0:0:0:
241,182,103095,6,0,P|260:104|258:-12,1,184,4|0,1:0|0:0,0:0:0:0:
260,1,104358,6,0,P|260:44|272:90,2,80.499997543335,4|8|8,1:0|0:0|0:0,0:0:0:0:
62,134,105306,1,2,0:3:0:0:
87,139,105411,1,2,0:3:0:0:
110,144,105516,1,2,0:3:0:0:
132,150,105622,1,10,0:0:0:0:
256,254,105937,6,0,P|262:293|262:333,1,80.499997543335,10|10,0:0|0:0,0:0:0:0:
132,150,106569,1,2,0:3:0:0:
157,155,106674,1,2,0:3:0:0:
180,160,106779,1,2,0:3:0:0:
202,166,106885,1,10,0:0:0:0:
130,246,107201,1,10,0:0:0:0:
174,52,107516,1,10,0:0:0:0:
202,166,107832,5,2,0:3:0:0:
227,171,107937,1,2,0:3:0:0:
250,176,108042,1,2,0:3:0:0:
274,181,108148,2,0,P|315:170|373:163,1,80.499997543335,10|0,0:0|0:0,0:0:0:0:
413,117,108622,1,2,0:0:0:0:
202,166,108780,1,10,0:0:0:0:
180,160,108886,1,2,0:3:0:0:
157,155,108991,1,2,0:3:0:0:
132,150,109096,1,2,1:3:0:0:
110,144,109202,1,2,0:3:0:0:
87,139,109307,1,2,0:3:0:0:
61,134,109411,6,0,P|76:214|76:307,1,160.99999508667,4|8,1:0|0:0,0:0:0:0:
240,369,110358,1,2,0:3:0:0:
242,346,110464,1,2,0:3:0:0:
246,323,110569,1,2,0:3:0:0:
249,300,110674,1,10,0:2:0:0:
331,337,110990,1,10,0:0:0:0:
144,381,111306,1,10,0:0:0:0:
249,300,111622,5,2,0:3:0:0:
251,277,111728,1,2,0:3:0:0:
255,254,111833,1,2,0:3:0:0:
258,231,111938,1,10,0:2:0:0:
407,285,112253,2,0,P|422:330|421:378,1,80.499997543335,10|8,0:0|0:0,0:0:0:0:
258,231,112885,1,2,0:3:0:0:
260,208,112991,1,2,0:3:0:0:
264,185,113096,1,2,0:3:0:0:
267,161,113201,2,0,L|257:68,1,80.499997543335,10|8,0:0|3:0,0:0:0:0:
249,4,113832,5,10,0:0:0:0:
343,77,113990,1,8,3:0:0:0:
458,42,114148,1,2,1:2:0:0:
458,42,114464,6,0,P|431:129|439:236,1,184,4|8,1:2|0:0,0:0:0:0:
512,307,115411,1,2,0:0:0:0:
453,357,115569,1,2,0:0:0:0:
386,309,115727,2,0,L|291:289,1,92,2|0,1:2|1:0,0:0:0:0:
453,357,116358,5,10,0:0:0:0:
239,236,116674,1,2,0:0:0:0:
179,285,116832,1,2,0:0:0:0:
179,285,116990,2,0,P|123:291|10:366,1,184,2|10,1:2|0:0,0:0:0:0:
290,179,117937,5,2,0:0:0:0:
239,236,118095,1,2,0:0:0:0:
239,236,118253,2,0,L|262:83,1,138,2|0,1:2|0:0,0:0:0:0:
271,26,118885,5,10,0:0:0:0:
81,121,119201,1,2,0:0:0:0:
17,18,119516,6,0,P|68:10|144:69,1,138,2|0,1:2|0:0,0:0:0:0:
137,55,120148,2,0,P|179:80|241:82,1,92,10|0,0:0|0:0,0:0:0:0:
293,49,120622,1,2,0:0:0:0:
342,110,120780,2,0,P|392:130|438:214,1,138,6|0,1:2|0:0,0:0:0:0:
501,247,121411,1,10,0:0:0:0:
385,349,121727,1,2,0:0:0:0:
451,380,121885,1,2,0:0:0:0:
511,332,122043,1,10,0:0:0:0:
385,349,122358,5,10,0:0:0:0:
370,277,122516,1,2,0:0:0:0:
307,384,122674,1,10,0:0:0:0:
251,331,122832,1,8,3:0:0:0:
250,254,122990,1,0,3:0:0:0:
296,193,123148,1,2,1:2:0:0:
454,266,123306,1,14,0:0:0:0:
175,368,123622,5,2,1:2:0:0:
454,266,123937,5,14,0:0:0:0:
512,187,124095,1,8,3:0:0:0:
470,104,124253,1,2,1:2:0:0:
464,98,124569,6,0,L|377:114,1,74.7499965782167,4|0,1:0|0:0,0:0:0:0:
270,250,124885,2,0,P|260:220|258:172,1,74.7499965782167,2|0,0:0|0:0,0:0:0:0:
139,0,125201,2,0,P|215:1|279:59,1,149.499993156433,10|0,0:0|0:0,0:0:0:0:
310,113,125674,1,2,0:0:0:0:
244,250,125832,6,0,L|258:171,1,74.7499965782167,2|0,1:1|0:0,0:0:0:0:
134,305,126148,2,0,L|148:226,1,74.7499965782167,2|0,1:1|0:0,0:0:0:0:
23,375,126464,2,0,P|45:289|0:156,1,224.24998973465,10|0,2:1|0:0,0:0:0:0:
131,52,127095,6,0,P|96:65|44:73,1,74.7499965782167,6|0,1:2|0:0,0:0:0:0:
177,169,127411,1,2,0:0:0:0:
294,108,127569,1,2,0:0:0:0:
257,176,127727,2,0,P|287:240|283:322,1,149.499993156433,10|0,0:0|0:0,0:0:0:0:
238,380,128201,1,2,0:0:0:0:
434,261,128358,6,0,L|514:280,1,74.7499965782167,2|0,1:0|0:0,0:0:0:0:
257,176,128674,2,0,L|337:195,1,74.7499965782167,2|0,1:0|0:0,0:0:0:0:
94,92,128990,2,0,P|176:104|295:28,1,224.24998973465,10|0,2:1|0:0,0:0:0:0:
462,115,129622,6,0,P|439:185|435:277,1,149.499993156433,6|0,1:2|0:0,0:0:0:0:
475,326,130095,1,2,0:0:0:0:
355,336,130253,2,0,P|319:321|269:317,1,74.7499965782167,10|0,0:0|0:0,0:0:0:0:
228,263,130569,1,2,0:0:0:0:
115,358,130727,2,0,P|77:313|100:209,1,149.499993156433,2|0,0:0|0:0,0:0:0:0:
29,140,131201,6,0,L|109:123,1,74.7499965782167,2|0,1:2|2:2,2:2:0:0:
229,0,131516,2,0,P|228:40|209:82,1,74.7499965782167,10|0,0:0|0:0,0:0:0:0:
297,227,131832,1,2,0:0:0:0:
228,263,131990,1,2,0:0:0:0:
172,210,132148,6,0,P|181:127|224:62,1,149.499993156433,6|8,1:2|3:0,0:0:0:0:
328,22,132622,1,2,0:0:0:0:
391,127,132779,5,10,0:0:0:0:
316,152,132937,1,2,0:0:0:0:
411,206,133095,1,8,3:0:0:0:
411,206,133411,6,0,P|352:164|331:14,1,224.24998973465,4|0,1:2|0:0,0:0:0:0:
497,172,134043,6,0,P|497:219|482:265,1,92,14|8,0:0|0:0,0:0:0:0:
351,353,134516,1,10,0:0:0:0:
498,346,134674,6,0,L|427:325,1,74.7499965782167,6|0,1:2|0:0,0:0:0:0:
255,167,134990,2,0,L|271:241,1,74.7499965782167,2|0,0:0|0:0,0:0:0:0:
137,309,135306,2,0,P|69:326|19:386,1,149.499993156433,10|0,0:0|0:0,0:0:0:0:
167,234,135779,1,2,0:0:0:0:
115,179,135937,6,0,L|22:160,1,74.7499965782167,2|0,1:0|0:0,0:0:0:0:
272,138,136253,2,0,L|179:119,1,74.7499965782167,2|0,1:0|0:0,0:0:0:0:
397,108,136569,2,0,P|321:116|272:244,1,224.24998973465,14|0,0:0|0:0,0:0:0:0:
354,331,137201,6,0,P|366:296|364:246,1,74.7499965782167,6|0,1:2|0:0,0:0:0:0:
272,138,137516,1,2,0:0:0:0:
336,177,137674,1,2,0:0:0:0:
270,240,137832,2,0,P|247:168|296:20,1,224.24998973465,10|0,0:0|0:0,0:0:0:0:
397,108,138464,6,0,L|470:93,1,74.7499965782167,2|0,1:0|0:0,0:0:0:0:
270,240,138779,2,0,L|343:225,1,74.7499965782167,2|0,1:0|0:0,0:0:0:0:
137,381,139095,2,0,P|212:345|366:356,1,224.24998973465,14|2,0:0|0:0,0:0:0:0:
475,294,139727,6,0,P|486:263|488:200,1,74.7499965782167,10|0,0:0|0:0,0:0:0:0:
397,108,140043,1,8,3:0:0:0:
350,349,140358,5,10,0:0:0:0:
475,294,140674,2,0,P|477:193|372:100,1,224.24998973465,6|0,1:0|0:0,0:0:0:0:
252,0,141306,6,0,L|268:83,1,74.7499965782167,2|0,1:2|0:0,0:0:0:0:
191,183,141622,1,10,0:0:0:0:
124,227,141779,1,8,0:3:0:0:
68,169,141937,2,0,L|84:82,1,74.7499965782167,8|0,1:3|0:0,0:0:0:0:
264,231,142253,6,0,B|278:293|241:324|261:398,2,149.499993156433,4|0|12,1:0|1:0|0:0,0:0:0:0:
264,231,143201,5,2,0:0:0:0:
334,199,143358,1,8,0:0:0:0:
388,254,143516,2,0,L|376:332,1,74.7499965782167,10|0,0:0|0:0,0:0:0:0:
334,171,143832,2,0,P|374:162|412:138,1,74.7499965782167,8|0,1:3|0:0,0:0:0:0:
270,236,144148,6,0,P|211:196|127:179,1,149.499993156433,8|8,1:3|0:3,0:0:0:0:
71,224,144622,1,2,0:0:0:0:
184,47,144779,1,6,1:2:0:0:
184,47,145095,5,2,0:0:0:0:
131,102,145253,1,2,0:0:0:0:
58,76,145411,2,0,P|51:41|57:-1,1,74.7499965782167,10|0,0:0|0:0,0:0:0:0:
242,98,145727,2,0,P|240:138|224:182,1,74.7499965782167,2|2,0:0|0:0,0:0:0:0:
23,319,146043,6,0,P|78:265|171:268,1,149.499993156433,2|0,1:0|1:0,0:0:0:0:
204,311,146516,1,2,0:0:0:0:
310,220,146674,5,10,0:0:0:0:
382,245,146832,1,2,0:0:0:0:
457,229,146990,1,2,0:0:0:0:
512,179,147148,1,2,0:0:0:0:
447,76,147306,6,0,L|437:160,1,74.7499965782167,2|0,1:0|0:0,0:0:0:0:
348,372,147622,2,0,L|440:354,1,74.7499965782167,2|0,0:0|0:0,0:0:0:0:
512,283,147937,5,10,0:0:0:0:
380,245,148095,2,0,L|306:230,1,74.7499965782167,2|0,0:0|0:0,0:0:0:0:
160,157,148411,6,0,P|155:233|187:320,1,149.499993156433,2|0,0:0|1:0,0:0:0:0:
278,160,148885,1,2,1:0:0:0:
306,230,149043,2,0,P|330:153|310:46,1,149.499993156433,2|0,0:0|0:0,0:0:0:0:
200,0,149516,5,2,0:0:0:0:
220,74,149674,1,2,0:0:0:0:
128,22,149832,2,0,P|50:40|-3:116,1,149.499993156433,6|2,1:2|0:0,0:0:0:0:
70,180,150306,5,2,0:0:0:0:
0,249,150464,2,0,L|84:268,1,74.7499965782167,10|0,0:0|0:0,0:0:0:0:
176,331,150779,5,2,0:0:0:0:
245,242,150937,1,2,0:0:0:0:
176,331,151095,2,0,L|262:352,1,74.7499965782167,0|0,1:0|0:0,0:0:0:0:
72,265,151411,2,0,L|0:247,1,74.7499965782167,2|0,1:0|0:0,0:0:0:0:
119,384,151727,6,0,P|152:296|137:222,1,149.499993156433,10|2,0:0|0:0,0:0:0:0:
95,182,152201,1,0,0:0:0:0:
232,59,152358,5,4,1:0:0:0:
164,117,152516,1,10,0:0:0:0:
225,162,152674,1,2,0:0:0:0:
301,147,152832,1,2,0:0:0:0:
392,211,152990,6,0,P|406:249|408:304,1,74.7499965782167,14|0,0:0|0:0,0:0:0:0:
467,335,153306,1,2,0:0:0:0:
323,384,153464,1,10,0:0:0:0:
323,384,153622,2,0,L|334:296,1,74.7499965782167,2|0,1:0|0:0,0:0:0:0:
403,132,153937,1,10,1:3:0:0:
392,211,154095,1,0,1:0:0:0:
493,76,154253,2,0,L|504:-12,1,74.7499965782167,2|0,1:0|0:0,0:0:0:0:
320,159,154569,5,2,0:3:0:0:
276,165,154674,1,2,0:3:0:0:
235,147,154779,1,2,0:3:0:0:
217,108,154885,1,14,0:2:0:0:
217,108,155516,6,0,L|201:-2,1,92,6|2,0:0|0:0,0:0:0:0:
203,16,155990,1,8,0:3:0:0:
105,87,156148,1,2,1:0:0:0:
105,87,156464,6,0,P|132:165|130:303,1,206.999993682861,4|0,1:0|0:0,0:0:0:0:
120,384,157095,2,0,P|103:300|123:145,1,206.999993682861,4|0,1:0|0:0,0:0:0:0:
217,108,157727,1,10,0:0:0:0:
392,241,158043,5,10,0:0:0:0:
299,176,158201,2,0,P|332:172|382:152,1,68.9999978942872,6|0,1:2|0:0,0:0:0:0:
457,308,158516,2,0,P|359:273|228:259,1,206.999993682861,6|10,1:2|0:0,0:0:0:0:
223,191,159148,1,2,0:0:0:0:
257,259,159306,6,0,P|267:290|270:339,1,68.9999978942872,2|0,1:2|0:0,0:0:0:0:
365,161,159622,1,8,1:3:0:0:
338,86,159779,1,4,1:2:0:0:
338,86,160253,6,0,P|371:79|416:60,1,68.9999978942872,2|0,1:0|0:0,0:0:0:0:
454,12,160569,1,10,0:0:0:0:
365,161,160727,6,0,P|437:201|519:208,1,137.999995788574,2|2,0:1|3:3,0:0:0:0:
289,194,161201,6,0,P|293:232|310:278,1,68.9999978942872,2|0,3:1|0:0,0:0:0:0:
363,308,161516,1,2,0:0:0:0:
261,366,161674,1,2,3:0:0:0:
261,366,161832,2,0,L|180:347,1,68.9999978942872,10|0,0:0|1:0,0:0:0:0:
144,298,162148,1,0,1:0:0:0:
144,298,162306,1,0,1:0:0:0:
56,381,162464,2,0,P|52:306|92:226,1,137.999995788574,6|0,1:0|1:0,0:0:0:0:
0,82,163095,6,0,P|69:42|138:47,1,137.999995788574,14|0,0:0|0:0,0:0:0:0:
180,93,163569,1,10,0:0:0:0:
82,154,163727,2,0,L|66:67,2,68.9999978942872,2|2|8,1:0|0:3|3:0,0:0:0:0:
223,23,164358,6,0,P|258:18|301:4,1,68.9999978942872,2|0,1:2|0:0,0:0:0:0:
382,76,164674,1,2,0:0:0:0:
456,63,164832,1,2,0:0:0:0:
511,121,164990,2,0,P|501:168|501:213,2,92,4|2|2,1:2|0:0|1:2,0:0:0:0:
355,248,165937,5,8,3:0:0:0:
391,322,166095,1,8,3:0:0:0:
391,322,166253,2,0,P|345:330|291:357,1,92,2|0,1:2|0:0,0:0:0:0:
464,282,166885,5,10,0:0:0:0:
304,349,167201,1,2,0:0:0:0:
150,258,167516,2,0,P|133:203|148:107,1,138,4|0,1:2|0:0,0:0:0:0:
142,124,168148,2,0,L|237:107,1,92,0|8,1:0|3:0,0:0:0:0:
296,64,168622,1,2,0:3:0:0:
344,125,168779,2,0,P|347:175|336:224,1,92,0|0,1:0|1:0,0:0:0:0:
142,124,169411,5,10,0:0:0:0:
71,154,169569,1,8,3:0:0:0:
25,98,169727,1,0,1:0:0:0:
25,98,169885,1,0,1:0:0:0:
53,225,170043,5,14,0:0:0:0:
142,124,170358,1,2,0:0:0:0:
53,225,170674,5,0,1:2:0:0:
245,162,170990,1,2,0:0:0:0:
53,225,171306,5,2,1:2:0:0:
334,243,171622,1,10,0:0:0:0:
469,164,171937,5,10,0:0:0:0:
53,225,172253,1,10,0:0:0:0:
323,379,172569,6,0,P|337:313|331:228,1,138,14|0,0:0|0:0,0:0:0:0:
245,162,173201,1,14,0:0:0:0:
204,98,173358,1,0,1:0:0:0:
230,28,173516,1,8,1:3:0:0:
304,9,173674,1,2,1:2:0:0:
220,231,173832,1,12,0:0:0:0:
304,9,174464,6,0,P|327:72|329:152,1,138,2|0,0:0|0:0,0:0:0:0:
329,150,175095,1,6,0:0:0:0:
431,229,185201,6,0,L|332:215,1,92,6|0,1:2|0:0,0:0:0:0:
70,333,185832,2,0,L|227:308,1,138,10|0,0:0|0:0,0:0:0:0:
206,311,186464,2,0,P|219:268|217:205,1,92,2|2,0:0|0:0,0:0:0:0:
350,81,187095,2,0,P|335:128|344:228,1,138,10|0,0:0|0:0,0:0:0:0:
339,215,187727,6,0,L|438:196,1,92,2|2,1:2|0:0,0:0:0:0:
199,86,188358,2,0,L|91:65,1,92,10|0,0:0|0:0,0:0:0:0:
48,118,188832,1,2,0:0:0:0:
89,182,188990,1,2,1:2:0:0:
275,43,189306,1,2,1:2:0:0:
89,182,189622,2,0,P|90:258|110:330,1,138,10|0,0:0|0:0,0:0:0:0:
105,317,190253,6,0,P|149:328|203:374,1,92,4|8,1:0|3:0,0:0:0:0:
303,155,190885,1,10,0:0:0:0:
105,317,191201,6,0,P|180:311|261:229,1,184,6|8,1:2|3:0,0:0:0:0:
507,337,192148,1,10,0:0:0:0:
440,369,192306,1,10,0:3:0:0:
387,315,192464,1,2,1:2:0:0:
256,239,192779,6,0,P|218:217|154:217,1,92,6|0,1:2|1:0,0:0:0:0:
102,243,193253,1,2,0:0:0:0:
170,213,193411,2,0,P|185:148|182:62,1,138,10|0,0:0|0:0,0:0:0:0:
136,17,194043,5,10,0:0:0:0:
80,67,194201,1,10,0:0:0:0:
96,143,194358,1,2,1:2:0:0:
158,181,194516,1,8,3:0:0:0:
267,116,194674,5,10,0:0:0:0:
341,133,194832,5,8,3:0:0:0:
365,162,194990,5,0,1:0:0:0:
371,183,195148,5,0,1:0:0:0:
369,193,195306,5,12,0:0:0:0:
494,334,195937,5,10,0:0:0:0:
430,293,196095,1,8,3:0:0:0:
395,381,196253,5,2,1:2:0:0:
504,338,196411,1,8,1:3:0:0:
450,158,196569,6,0,P|429:227|431:299,1,137.999995788574,4|0,1:0|0:0,0:0:0:0:
512,220,197043,1,2,1:2:0:0:
348,86,197201,6,0,P|411:71|463:15,1,137.999995788574,10|8,0:0|0:0,0:0:0:0:
360,173,197674,1,10,0:0:0:0:
277,33,197832,6,0,P|269:69|269:120,1,74.7499965782167,4|0,1:0|0:0,0:0:0:0:
414,244,198148,2,0,L|329:262,1,74.7499965782167,2|0,0:0|0:0,0:0:0:0:
167,364,198464,2,0,P|177:284|262:246,1,149.499993156433,10|0,0:0|0:0,0:0:0:0:
272,182,198937,1,2,0:0:0:0:
340,259,199095,6,0,L|425:283,1,74.7499965782167,2|0,1:0|0:0,0:0:0:0:
200,161,199411,2,0,L|285:185,1,74.7499965782167,2|0,1:0|0:0,0:0:0:0:
65,58,199727,2,0,P|149:65|283:-7,1,224.24998973465,10|0,2:1|0:0,0:0:0:0:
367,92,200358,6,0,P|377:128|378:170,1,74.7499965782167,2|0,1:2|0:0,0:0:0:0:
261,261,200674,1,2,0:0:0:0:
512,215,200990,6,0,L|428:230,1,74.7499965782167,10|0,0:0|0:0,0:0:0:0:
300,137,201306,1,2,0:0:0:0:
241,187,201464,1,2,0:0:0:0:
261,260,201622,2,0,P|317:281|374:355,1,149.499993156433,2|0,1:2|1:2,0:0:0:0:
157,137,202253,2,0,L|68:157,1,74.7499965782167,10|0,0:0|0:0,0:0:0:0:
7,255,202569,1,0,0:0:0:0:
85,227,202727,5,10,0:0:0:0:
16,66,202885,2,0,P|1:103|3:148,1,74.7499965782167,10|0,0:0|0:0,0:0:0:0:
166,303,203201,2,0,P|189:227|172:125,1,149.499993156433,8|10,3:0|0:0,0:0:0:0:
116,65,203674,5,8,3:0:0:0:
215,4,203832,1,2,1:2:0:0:
287,96,203990,1,0,0:0:0:0:
287,96,204148,2,0,P|356:120|445:129,1,149.499993156433,6|0,1:2|0:0,0:0:0:0:
331,201,204622,1,2,0:0:0:0:
454,49,204779,6,0,P|473:126|479:215,1,149.499993156433,14|10,0:0|0:0,0:0:0:0:
366,86,205253,1,10,0:0:0:0:
258,218,205411,6,0,L|331:201,1,74.7499965782167,6|0,1:2|0:0,0:0:0:0:
150,302,205727,2,0,L|222:284,1,74.7499965782167,2|0,1:2|0:0,0:0:0:0:
418,321,206043,2,0,P|344:330|270:363,1,149.499993156433,8|2,0:0|1:2,0:0:0:0:
150,302,206516,1,2,0:0:0:0:
274,145,206674,6,0,L|258:218,1,74.7499965782167,10|0,0:1|0:0,0:0:0:0:
366,86,206990,2,0,L|348:158,1,74.7499965782167,2|0,1:2|0:0,0:0:0:0:
450,24,207306,2,0,P|453:106|518:239,1,224.24998973465,14|0,0:1|0:0,0:0:0:0:
348,157,207937,6,0,L|332:85,1,74.7499965782167,14|0,0:0|0:0,0:0:0:0:
275,289,208253,2,0,L|258:216,1,74.7499965782167,2|0,1:2|0:0,0:0:0:0:
78,25,208569,2,0,P|137:77|226:79,1,149.499993156433,10|2,0:0|1:2,0:0:0:0:
258,135,209043,1,0,0:0:0:0:
116,193,209201,6,0,L|22:209,1,74.7499965782167,10|0,0:1|0:0,0:0:0:0:
270,287,209516,2,0,L|176:303,1,74.7499965782167,10|0,0:2|0:0,0:0:0:0:
449,361,209832,1,10,0:2:0:0:
375,384,209990,1,10,0:0:0:0:
302,354,210148,1,8,3:0:0:0:
270,287,210306,1,0,1:0:0:0:
404,212,210464,6,0,L|487:233,1,74.7499965782167,4|0,1:2|0:0,0:0:0:0:
258,135,210779,2,0,P|243:102|242:62,1,74.7499965782167,2|0,1:2|0:0,0:0:0:0:
405,34,211095,6,0,P|404:76|380:119,1,74.7499965782167,10|0,0:0|0:0,0:0:0:0:
270,287,211411,2,0,P|343:240|491:234,1,224.24998973465,4|0,1:0|0:0,0:0:0:0:
390,105,212043,6,0,L|305:85,1,74.7499965782167,2|0,1:2|0:0,0:0:0:0:
172,227,212358,1,10,0:0:0:0:
103,250,212516,1,8,3:0:0:0:
48,194,212674,2,0,L|68:107,1,74.7499965782167,2|0,1:2|0:0,0:0:0:0:
256,235,212990,6,0,B|272:291|237:328|258:401,1,149.499993156433,4|0,1:0|1:2,0:0:0:0:
324,348,213464,1,2,0:0:0:0:
172,227,213622,2,0,P|173:140|234:101,1,149.499993156433,10|0,0:0|0:0,0:0:0:0:
273,51,214095,1,10,0:0:0:0:
387,174,214253,6,0,L|294:150,1,74.7499965782167,8|0,1:2|0:0,0:0:0:0:
181,234,214569,1,8,0:3:0:0:
181,234,214727,1,8,0:3:0:0:
140,165,214885,5,2,1:2:0:0:
216,164,215043,1,8,3:0:0:0:
255,232,215201,1,8,3:0:0:0:
221,301,215358,1,2,0:0:0:0:
176,91,215516,1,6,1:2:0:0:
256,192,215674,12,0,216779,1:0:0:0:
393,28,217095,6,0,L|377:128,1,74.7499965782167,2|0,1:2|0:0,0:0:0:0:
482,230,217411,2,0,P|446:244|398:245,1,74.7499965782167,10|0,0:0|0:0,0:0:0:0:
194,109,217727,2,0,P|242:163|315:175,1,149.499993156433,2|0,0:0|1:2,0:0:0:0:
256,192,218201,12,0,219306,1:0:0:0:
315,175,219622,6,0,L|203:198,1,74.7499965782167,2|0,1:2|0:0,0:0:0:0:
133,361,219937,2,0,P|119:328|116:279,1,74.7499965782167,10|0,0:0|0:0,0:0:0:0:
3,114,220253,2,0,P|98:140|129:192,1,149.499993156433,2|0,0:0|1:2,0:0:0:0:
256,192,220727,12,0,221832,1:0:0:0:
124,178,222148,6,0,L|137:95,1,74.7499965782167,2|0,1:2|0:0,0:0:0:0:
250,43,222464,2,0,L|238:129,1,74.7499965782167,10|0,0:0|0:0,0:0:0:0:
277,211,222779,1,2,0:0:0:0:
346,181,222937,1,2,0:0:0:0:
346,181,223095,2,0,P|384:255|371:356,1,149.499993156433,2|0,1:2|1:2,0:0:0:0:
153,247,223727,6,0,P|129:182|138:94,1,149.499993156433,14|0,0:0|0:0,0:0:0:0:
277,211,224201,1,2,0:0:0:0:
239,117,224358,6,0,L|321:97,1,74.7499965782167,10|0,0:0|1:0,0:0:0:0:
252,287,224674,2,0,L|233:369,1,74.7499965782167,0|8,1:0|3:0,0:0:0:0:
329,274,224990,5,10,0:0:0:0:
195,231,225148,1,2,0:0:0:0:
322,359,225306,5,2,0:3:0:0:
359,359,225411,1,2,0:3:0:0:
390,342,225516,1,2,0:3:0:0:
412,311,225622,6,0,P|416:274|426:220,1,74.7499965782167,4|0,1:2|0:0,0:0:0:0:
444,35,225937,2,0,P|478:52|516:67,1,74.7499965782167,2|0,0:0|0:0,0:0:0:0:
464,140,226253,2,0,P|384:148|335:212,1,149.499993156433,10|2,0:0|0:0,0:0:0:0:
276,234,226727,1,2,0:0:0:0:
159,107,226885,6,0,L|172:31,1,74.7499965782167,2|0,1:0|0:0,0:0:0:0:
193,253,227201,2,0,L|206:177,1,74.7499965782167,2|0,1:0|0:0,0:0:0:0:
242,367,227516,2,0,P|186:296|39:305,1,224.24998973465,10|0,2:1|0:0,0:0:0:0:
0,384,228148,6,0,L|86:367,1,74.7499965782167,2|0,1:2|0:0,0:0:0:0:
193,254,228464,2,0,P|191:214|180:179,1,74.7499965782167,2|0,0:0|0:0,0:0:0:0:
117,235,228779,5,10,0:0:0:0:
171,346,228937,2,0,P|205:361|252:367,1,74.7499965782167,2|2,0:0|0:0,0:0:0:0:
355,269,229253,1,2,0:0:0:0:
425,304,229411,6,0,L|444:383,1,74.7499965782167,2|0,1:0|0:0,0:0:0:0:
316,176,229727,2,0,L|335:255,1,74.7499965782167,2|0,1:0|0:0,0:0:0:0:
238,53,230043,2,0,P|276:127|443:150,1,224.24998973465,10|0,2:1|0:0,0:0:0:0:
465,115,230674,1,2,1:2:0:0:
465,115,230990,5,2,0:0:0:0:
405,61,231148,1,2,0:0:0:0:
347,113,231306,2,0,P|335:143|329:185,1,63.2500019302369,10|0,0:0|0:0,0:0:0:0:
276,232,231622,2,0,P|242:243|208:247,1,63.2500019302369,2|0,0:0|0:0,0:0:0:0:
145,217,231937,1,2,1:2:0:0:
294,384,232253,5,0,1:2:0:0:
318,343,232358,1,2,0:0:0:0:
362,320,232464,1,2,0:0:0:0:
406,321,232569,2,0,L|422:393,1,63.2500019302369,10|0,0:0|0:0,0:0:0:0:
276,232,232885,2,0,L|291:170,1,63.2500019302369,2|0,0:0|0:0,0:0:0:0:
145,285,233201,6,0,P|116:218|142:145,1,126.500003860474,2|0,1:2|1:0,0:0:0:0:
179,110,233674,1,2,0:0:0:0:
87,0,233832,6,0,L|97:62,1,63.2500019302369,14|0,0:0|0:0,0:0:0:0:
260,201,234148,2,0,L|191:181,1,63.2500019302369,10|0,0:0|0:0,0:0:0:0:
35,321,234464,6,0,P|123:310|152:268,1,126.500003860474,2|8,1:2|1:3,2:2:0:0:
298,94,235095,6,0,P|339:66|431:73,1,126.500003860474,10|8,0:0|0:3,0:0:0:0:
465,124,235569,1,2,0:0:0:0:
373,220,235727,6,0,L|386:140,1,74.7499965782167,4|0,1:2|0:0,0:0:0:0:
504,297,236043,2,0,L|421:313,1,74.7499965782167,2|0,0:0|0:0,0:0:0:0:
283,384,236358,2,0,P|253:303|279:221,1,149.499993156433,10|2,0:0|0:0,0:0:0:0:
324,194,236832,1,8,0:3:0:0:
170,119,236990,6,0,P|82:109|-3:-4,1,224.24998973465,4|0,1:0|0:0,0:0:0:0:
265,243,237622,6,0,P|193:265|144:350,1,149.499993156433,14|8,0:0|0:0,0:0:0:0:
324,194,238095,1,10,0:0:0:0:
267,112,238253,6,0,P|258:77|254:35,1,74.7499965782167,4|0,1:0|0:0,0:0:0:0:
413,169,238569,2,0,P|412:208|402:252,1,74.7499965782167,2|0,0:0|0:0,0:0:0:0:
353,95,238885,6,0,P|395:52|484:64,1,149.499993156433,10|0,0:0|0:0,0:0:0:0:
324,194,239358,1,2,0:0:0:0:
404,242,239516,6,0,L|480:227,1,74.7499965782167,2|0,1:1|0:0,0:0:0:0:
251,321,239832,2,0,L|327:306,1,74.7499965782167,2|0,1:1|0:0,0:0:0:0:
105,373,240148,2,0,P|185:350|188:191,1,224.24998973465,10|0,0:1|0:0,0:0:0:0:
158,169,240779,1,2,1:2:0:0:
273,80,241095,5,2,0:0:0:0:
215,30,241253,1,2,0:0:0:0:
142,57,241411,2,0,L|71:70,1,63.2500019302369,10|0,0:0|0:0,0:0:0:0:
236,149,241727,2,0,L|298:163,1,63.2500019302369,2|0,0:2|0:2,2:2:0:0:
132,288,242043,1,2,1:2:0:0:
7,153,242358,5,2,1:3:0:0:
31,151,242463,1,2,0:3:0:0:
55,158,242569,1,2,0:3:0:0:
74,173,242674,1,10,0:2:0:0:
132,288,242990,2,0,L|143:357,1,63.2500019302369,2|0,0:0|0:0,0:0:0:0:
57,297,243306,6,0,P|112:256|247:274,1,189.750005790711,4|0,1:0|0:0,0:0:0:0:
357,169,243937,1,14,0:0:0:0:
428,201,244095,1,2,0:0:0:0:
491,151,244253,5,10,0:0:0:0:
435,275,244411,1,2,1:2:0:0:
357,169,244569,6,0,P|349:141|359:90,1,63.2500019302369,0|0,1:2|0:0,0:0:0:0:
512,247,244885,2,0,P|511:281|498:322,1,63.2500019302369,2|0,1:2|0:0,0:0:0:0:
428,201,245201,5,2,1:2:0:0:
491,151,245358,1,2,0:3:0:0:
435,275,245516,1,10,0:0:0:0:
357,169,245674,1,8,0:3:0:0:
512,247,245832,1,4,1:0:0:0:
256,192,245990,12,0,253727,0:0:0:0:
