osu file format v14

[General]
AudioFilename: audio.mp3
AudioLeadIn: 0
PreviewTime: 11200
Countdown: 1
SampleSet: Soft
StackLeniency: 0.7
Mode: 0
LetterboxInBreaks: 0
WidescreenStoryboard: 0

[Editor]
DistanceSpacing: 1.3
BeatDivisor: 8
GridSize: 4
TimelineZoom: 1.4

[Metadata]
Title:Waiting Game
TitleUnicode:Waiting Game
Artist:Adium (feat Patricia Stone)
ArtistUnicode:Adium (feat Patricia Stone)
Creator:Command DDOS
Version:Insane
Source:
Tags:Adium (feat Patricia Stone) Waiting Game Command DDOS
BeatmapID:1380647
BeatmapSetID:651463

[Difficulty]
HPDrainRate:5
CircleSize:4.4
OverallDifficulty:5
ApproachRate:9.3
SliderMultiplier:2
SliderTickRate:1

[Events]
//Background and Video events
0,0,"155812-anime-geek-girl-nerd-space-starship-video-game.jpg",0,0
//Break Periods
//Storyboard Layer 0 (Background)
//Storyboard Layer 1 (Fail)
//Storyboard Layer 2 (Pass)
//Storyboard Layer 3 (Foreground)
//Storyboard Sound Samples

[TimingPoints]
0,800,4,2,0,30,1,0
0,-133.333333333333,4,2,0,30,0,0
11200,-100,4,2,0,100,0,0
38400,-66.6666666666667,4,2,0,100,0,0
83200,-100,4,2,0,100,0,0
110400,-66.6666666666667,4,2,0,100,0,0

[HitObjects]
104,136,0,6,0,P|76:248|344:192,1,525.000020027162
236,176,3200,1,0,0:0:0:0:
180,160,3400,1,0,0:0:0:0:
128,128,3600,1,0,0:0:0:0:
128,128,3800,1,0,0:0:0:0:
160,76,4000,6,0,P|204:56|208:56,1,37.5000014305115
252,48,4400,1,0,0:0:0:0:
308,68,4600,1,0,0:0:0:0:
352,108,4800,2,0,P|396:88|396:76,1,37.5000014305115
404,160,5200,5,0,0:0:0:0:
432,212,5400,1,0,0:0:0:0:
412,268,5600,2,0,L|400:320,2,37.5000014305115
360,236,6200,1,0,0:0:0:0:
300,244,6400,6,0,P|184:296|136:156,1,300.000011444092
180,132,8200,1,0,0:0:0:0:
240,140,8400,2,0,L|312:148,2,37.5000014305115
224,80,9000,1,0,0:0:0:0:
164,76,9200,2,0,L|116:76,2,37.5000014305115
204,120,9800,5,0,0:0:0:0:
264,136,10000,1,0,0:0:0:0:
324,140,10200,1,0,0:0:0:0:
362,185,10400,2,0,L|378:237,1,37.5000014305115
313,228,10800,1,0,0:0:0:0:
253,224,11000,1,0,0:0:0:0:
172,228,11200,6,0,L|168:292,2,50
172,228,11800,1,0,0:0:0:0:
148,195,11900,1,0,0:0:0:0:
138,156,12000,2,0,P|158:112|186:108,2,75
213,128,12800,6,0,P|281:176|293:240,1,150
230,288,13600,2,0,P|206:300|182:292,1,50
115,254,14000,1,0,0:0:0:0:
74,185,14200,1,0,0:0:0:0:
145,148,14400,2,0,P|133:88|93:104,1,100
264,128,15200,5,0,0:0:0:0:
347,264,15600,1,0,0:0:0:0:
362,104,16000,1,0,0:0:0:0:
215,39,16400,2,0,P|183:39|159:47,1,50
128,114,16800,2,0,P|132:162|92:210,1,100
261,231,17600,1,0,0:0:0:0:
238,72,18000,6,0,P|210:92|198:120,1,50
180,138,18300,1,0,0:0:0:0:
141,147,18400,2,0,P|93:175|89:227,1,100
242,249,19200,2,0,P|226:269|178:197,1,150
149,127,20000,2,0,P|229:91|245:99,1,100
273,161,20600,1,0,0:0:0:0:
244,235,20800,2,0,P|312:243|336:211,1,100
243,89,21600,5,0,0:0:0:0:
89,133,22000,1,0,0:0:0:0:
34,283,22400,2,0,P|42:339|114:279,2,200
107,140,24400,2,0,P|95:168|103:192,1,50
179,188,24800,2,0,L|211:188,2,25
196,265,25200,1,0,0:0:0:0:
275,264,25400,1,0,0:0:0:0:
352,246,25600,2,0,P|420:194|424:174,1,100
267,143,26400,6,0,P|183:167|231:243,2,200
398,234,28400,1,0,0:0:0:0:
399,74,28800,1,0,0:0:0:0:
319,70,29000,1,0,0:0:0:0:
159,83,29400,1,0,0:0:0:0:
110,146,29600,2,0,P|74:194|94:222,1,100
166,249,30200,1,0,0:0:0:0:
245,242,30400,6,0,P|281:258|285:270,1,50
337,206,30800,2,0,P|381:190|389:194,1,50
375,149,31100,1,0,0:0:0:0:
351,117,31200,2,0,P|287:93|247:105,1,100
123,187,32000,5,0,0:0:0:0:
260,268,32400,1,0,0:0:0:0:
202,118,32800,1,0,0:0:0:0:
317,228,33200,1,0,0:0:0:0:
317,68,33600,1,0,0:0:0:0:
323,227,34000,1,0,0:0:0:0:
191,136,34400,1,0,0:0:0:0:
231,290,34800,1,0,0:0:0:0:
102,194,35200,5,0,0:0:0:0:
230,98,35600,1,0,0:0:0:0:
309,97,35800,1,0,0:0:0:0:
363,155,36000,1,0,0:0:0:0:
291,297,36400,1,0,0:0:0:0:
211,294,36600,1,0,0:0:0:0:
146,247,36800,6,0,L|94:223,1,50
86,146,37200,1,0,0:0:0:0:
143,90,37400,1,0,0:0:0:0:
180,75,37500,1,0,0:0:0:0:
219,76,37600,2,0,L|283:68,1,50
288,147,38000,2,0,L|344:151,1,50
429,229,38400,6,0,P|388:260|344:260,1,75.0000028610231
252,224,38800,1,0,0:0:0:0:
136,191,39000,2,0,P|56:191|40:199,2,75.0000028610231
231,117,39600,1,0,0:0:0:0:
311,206,39800,1,0,0:0:0:0:
429,188,40000,2,0,P|453:160|445:120,1,75.0000028610231
327,122,40400,2,0,P|279:110|235:98,1,75.0000028610231
138,71,40800,1,0,0:0:0:0:
193,177,41000,1,0,0:0:0:0:
76,207,41200,2,0,P|56:263|64:291,1,75.0000028610231
163,277,41600,5,0,0:0:0:0:
211,298,41700,1,0,0:0:0:0:
262,309,41800,1,0,0:0:0:0:
311,292,41900,1,0,0:0:0:0:
323,241,42000,1,0,0:0:0:0:
286,203,42100,1,0,0:0:0:0:
235,190,42200,1,0,0:0:0:0:
182,183,42300,1,0,0:0:0:0:
140,150,42400,1,0,0:0:0:0:
135,97,42500,1,0,0:0:0:0:
176,64,42600,5,0,0:0:0:0:
227,73,42700,1,0,0:0:0:0:
274,95,42800,1,0,0:0:0:0:
306,136,42900,1,0,0:0:0:0:
322,185,43000,1,0,0:0:0:0:
320,237,43100,1,0,0:0:0:0:
311,288,43200,2,0,P|260:290|214:268,2,75.0000028610231
426,232,43800,5,0,0:0:0:0:
404,171,43900,1,0,0:0:0:0:
386,109,44000,2,0,L|446:109,2,37.5000014305115
326,134,44300,1,0,0:0:0:0:
284,182,44400,2,0,L|264:134,1,37.5000014305115
210,171,44600,2,0,L|214:119,1,37.5000014305115
207,69,44800,6,0,P|103:77|51:185,1,225.000008583069
173,210,45600,2,0,L|133:278,1,75.0000028610231
260,252,46000,2,0,L|192:308,1,75.0000028610231
149,182,46400,2,0,P|101:234|161:366,1,225.000008583069
188,240,47200,2,0,L|232:172,1,75.0000028610231
344,232,47600,2,0,L|364:156,1,75.0000028610231
485,122,48000,6,0,P|453:62|301:34,1,225.000008583069
293,157,48800,2,0,L|293:209,2,37.5000014305115
164,152,49200,2,0,L|156:92,2,37.5000014305115
235,257,49600,1,0,0:0:0:0:
362,254,49800,2,0,P|374:218|354:186,1,75.0000028610231
235,144,50200,2,0,L|240:108,1,37.5000014305115
300,85,50400,2,0,P|376:105|356:173,1,150.000005722046
114,141,51200,6,0,P|58:249|122:273,1,225.000008583069
241,226,52000,2,0,L|269:154,1,75.0000028610231
387,200,52400,2,0,L|423:280,1,75.0000028610231
466,149,52800,2,0,P|466:77|330:73,1,225.000008583069
244,145,53600,5,0,0:0:0:0:
180,152,53700,1,0,0:0:0:0:
117,165,53800,1,0,0:0:0:0:
61,279,54000,1,0,0:0:0:0:
124,271,54100,1,0,0:0:0:0:
187,263,54200,1,0,0:0:0:0:
306,219,54400,6,0,P|386:267|298:295,1,225.000008583069
178,278,55200,1,0,0:0:0:0:
114,270,55300,1,0,0:0:0:0:
50,262,55400,1,0,0:0:0:0:
65,135,55600,1,0,0:0:0:0:
128,139,55700,1,0,0:0:0:0:
191,142,55800,1,0,0:0:0:0:
312,102,56000,2,0,L|380:82,4,37.5000014305115
218,190,56600,5,0,0:0:0:0:
281,198,56700,1,0,0:0:0:0:
344,200,56800,2,0,L|328:248,2,37.5000014305115
399,231,57100,1,0,0:0:0:0:
451,267,57200,2,0,L|415:303,2,37.5000014305115
488,145,57600,6,0,P|400:129|239:86,1,225.000008583069
153,151,58400,1,0,0:0:0:0:
206,185,58500,1,0,0:0:0:0:
257,222,58600,1,0,0:0:0:0:
384,229,58800,1,0,0:0:0:0:
332,191,58900,1,0,0:0:0:0:
275,160,59000,1,0,0:0:0:0:
179,75,59200,6,0,P|275:31|379:99,1,225.000008583069
371,213,60000,2,0,L|335:245,2,37.5000014305115
249,251,60400,2,0,L|201:275,2,37.5000014305115
161,157,60800,2,0,P|85:245|125:349,1,225.000008583069
236,299,61600,1,0,0:0:0:0:
291,268,61700,1,0,0:0:0:0:
348,239,61800,1,0,0:0:0:0:
224,209,62000,1,0,0:0:0:0:
281,180,62100,1,0,0:0:0:0:
329,138,62200,1,0,0:0:0:0:
202,121,62400,5,0,0:0:0:0:
78,89,62600,1,0,0:0:0:0:
79,216,62800,1,0,0:0:0:0:
205,229,63000,1,0,0:0:0:0:
332,231,63200,2,0,P|392:279|404:287,1,75.0000028610231
325,168,63600,2,0,P|353:124|365:128,1,75.0000028610231
248,69,64000,6,0,B|348:73|348:73|284:161|284:161|332:161,1,225.000008583069
173,171,64800,2,0,L|85:147,1,75.0000028610231
194,238,65200,2,0,L|262:294,1,75.0000028610231
363,221,65600,2,0,P|419:137|347:145,1,225.000008583069
222,146,66400,2,0,L|142:110,1,75.0000028610231
275,76,66800,2,0,L|351:60,1,75.0000028610231
356,188,67200,6,0,P|340:292|268:236,1,225.000008583069
172,166,68000,2,0,L|88:182,1,75.0000028610231
214,125,68400,2,0,L|290:105,1,75.0000028610231
180,178,68800,1,0,0:0:0:0:
266,271,69000,1,0,0:0:0:0:
173,183,69200,1,0,0:0:0:0:
96,80,69400,1,0,0:0:0:0:
66,204,69600,5,0,0:0:0:0:
64,267,69700,1,0,0:0:0:0:
62,330,69800,1,0,0:0:0:0:
134,225,70000,1,0,0:0:0:0:
151,163,70100,1,0,0:0:0:0:
152,99,70200,1,0,0:0:0:0:
277,75,70400,2,0,L|361:51,1,75.0000028610231
412,165,70800,2,0,L|440:241,1,75.0000028610231
320,184,71200,6,0,P|212:200|252:304,1,225.000008583069
354,277,72000,1,0,0:0:0:0:
352,149,72200,2,0,P|312:113|288:113,1,75.0000028610231
229,111,72500,1,0,0:0:0:0:
165,120,72600,1,0,0:0:0:0:
114,158,72700,1,0,0:0:0:0:
55,182,72800,2,0,P|47:222|51:230,1,37.5000014305115
104,241,73000,2,0,P|96:277|92:277,1,37.5000014305115
169,270,73200,2,0,L|180:319,2,37.5000014305115
297,272,73600,1,0,0:0:0:0:
395,190,73800,6,0,L|383:130,1,37.5000014305115
370,91,74000,2,0,L|334:123,1,37.5000014305115
279,104,74200,1,0,0:0:0:0:
215,96,74300,1,0,0:0:0:0:
151,94,74400,2,0,L|127:142,1,37.5000014305115
78,159,74600,2,0,L|102:195,1,37.5000014305115
154,222,74800,2,0,L|138:262,1,37.5000014305115
203,265,75000,2,0,L|239:297,1,37.5000014305115
279,332,75200,2,0,L|323:288,1,37.5000014305115
362,277,75400,2,0,L|350:217,1,37.5000014305115
335,178,75600,6,0,L|423:190,1,75.0000028610231
304,114,76000,1,0,0:0:0:0:
244,92,76100,1,0,0:0:0:0:
183,72,76200,2,0,P|183:148|219:232,1,150.000005722046
333,189,76800,2,0,L|397:189,2,37.5000014305115
220,127,77200,2,0,L|168:115,2,37.5000014305115
347,119,77600,2,0,P|419:179|343:271,1,225.000008583069
244,207,78400,1,0,0:0:0:0:
132,144,78600,6,0,P|120:200|128:216,1,75.0000028610231
156,270,78900,1,0,0:0:0:0:
218,282,79000,1,0,0:0:0:0:
281,286,79100,1,0,0:0:0:0:
317,233,79200,2,0,P|333:189|329:173,1,37.5000014305115
299,144,79400,2,0,L|283:104,1,37.5000014305115
243,60,79600,2,0,P|190:63|173:65,2,37.5000014305115
138,133,80000,1,0,0:0:0:0:
138,133,80200,6,0,L|119:178,1,37.5000014305115
165,216,80400,2,0,L|188:264,1,37.5000014305115
125,282,80600,1,0,0:0:0:0:
64,261,80700,1,0,0:0:0:0:
54,197,80800,2,0,L|54:142,1,37.5000014305115
64,95,81000,2,0,L|119:79,1,37.5000014305115
163,71,81200,2,0,L|182:120,1,37.5000014305115
188,169,81400,2,0,L|142:173,1,37.5000014305115
87,177,81600,5,0,0:0:0:0:
87,177,81700,1,0,0:0:0:0:
41,222,81800,2,0,L|73:304,1,75.0000028610231
194,270,82200,1,0,0:0:0:0:
257,267,82300,1,0,0:0:0:0:
319,255,82400,1,0,0:0:0:0:
319,255,82500,1,0,0:0:0:0:
204,197,82700,1,0,0:0:0:0:
130,197,82800,2,0,L|128:155,1,37.5000014305115
182,125,83000,1,0,0:0:0:0:
245,121,83100,1,0,0:0:0:0:
287,119,83200,6,0,P|353:129|380:167,1,100
310,208,83800,2,0,L|293:234,1,25
266,199,84000,2,0,L|254:228,1,25
214,227,84200,1,0,0:0:0:0:
171,224,84300,1,0,0:0:0:0:
129,217,84400,2,0,P|117:176|120:152,1,50
187,120,84800,2,0,P|184:73|125:77,1,100
110,145,85400,5,0,0:0:0:0:
109,187,85500,1,0,0:0:0:0:
104,229,85600,2,0,P|142:300|220:301,1,150
204,221,86400,2,0,P|219:180|234:177,1,50
301,150,86800,2,0,P|294:127|285:118,1,25
252,116,87000,1,0,0:0:0:0:
209,119,87100,1,0,0:0:0:0:
169,133,87200,2,0,P|78:149|73:144,1,100
252,141,88000,6,0,P|291:156|293:166,1,50
215,196,88400,2,0,P|184:243|206:274,1,100
289,257,89000,1,0,0:0:0:0:
323,232,89100,1,0,0:0:0:0:
330,190,89200,1,0,0:0:0:0:
246,175,89400,1,0,0:0:0:0:
210,151,89500,1,0,0:0:0:0:
181,119,89600,2,0,P|146:113|135:129,1,50
110,201,90000,5,0,0:0:0:0:
110,243,90100,1,0,0:0:0:0:
127,281,90200,1,0,0:0:0:0:
160,307,90300,2,0,P|192:307|198:302,3,25
215,231,90800,2,0,P|245:218|264:226,1,50
325,168,91200,1,0,0:0:0:0:
261,111,91400,1,0,0:0:0:0:
176,119,91600,5,0,0:0:0:0:
145,148,91700,1,0,0:0:0:0:
134,189,91800,1,0,0:0:0:0:
122,229,91900,1,0,0:0:0:0:
102,266,92000,2,0,P|87:306|90:321,1,50
236,229,92600,1,0,0:0:0:0:
236,144,92800,6,0,P|285:145|324:187,1,100
366,250,93400,1,0,0:0:0:0:
408,246,93500,1,0,0:0:0:0:
424,206,93600,1,0,0:0:0:0:
352,160,93800,1,0,0:0:0:0:
267,156,94000,1,0,0:0:0:0:
102,199,94400,5,0,0:0:0:0:
100,241,94500,1,0,0:0:0:0:
110,282,94600,1,0,0:0:0:0:
156,210,94800,1,0,0:0:0:0:
158,167,94900,1,0,0:0:0:0:
152,124,95000,1,0,0:0:0:0:
222,171,95200,2,0,P|247:239|243:266,1,100
326,282,95800,1,0,0:0:0:0:
343,243,95900,1,0,0:0:0:0:
358,203,96000,2,0,P|337:176|303:217,1,100
167,318,96800,5,0,0:0:0:0:
151,278,96900,1,0,0:0:0:0:
147,235,97000,1,0,0:0:0:0:
220,191,97200,2,0,P|219:160|204:148,1,50
126,118,97600,1,0,0:0:0:0:
103,81,97700,1,0,0:0:0:0:
122,43,97800,1,0,0:0:0:0:
196,84,98000,1,0,0:0:0:0:
229,162,98200,1,0,0:0:0:0:
262,136,98300,1,0,0:0:0:0:
283,99,98400,1,0,0:0:0:0:
162,219,98800,5,0,0:0:0:0:
231,267,99000,1,0,0:0:0:0:
273,266,99100,1,0,0:0:0:0:
310,246,99200,2,0,P|326:218|314:196,1,50
238,181,99600,1,0,0:0:0:0:
161,218,99800,1,0,0:0:0:0:
141,255,99900,1,0,0:0:0:0:
132,296,100000,1,0,0:0:0:0:
55,258,100200,1,0,0:0:0:0:
75,175,100400,1,0,0:0:0:0:
244,191,100800,6,0,L|202:188,2,25
238,148,101100,1,0,0:0:0:0:
216,111,101200,2,0,P|182:89|178:94,1,50
153,164,101600,2,0,P|147:242|135:259,1,100
88,187,102200,1,0,0:0:0:0:
46,113,102400,6,0,L|102:100,1,50
135,113,102700,1,0,0:0:0:0:
176,124,102800,1,0,0:0:0:0:
217,134,102900,1,0,0:0:0:0:
258,141,103000,1,0,0:0:0:0:
300,147,103100,1,0,0:0:0:0:
291,188,103200,1,0,0:0:0:0:
281,229,103300,1,0,0:0:0:0:
272,270,103400,1,0,0:0:0:0:
229,269,103500,1,0,0:0:0:0:
188,256,103600,6,0,P|150:263|158:269,1,100
91,211,104200,1,0,0:0:0:0:
126,133,104400,2,0,P|153:132|168:158,1,50
239,192,104800,1,0,0:0:0:0:
246,107,105000,1,0,0:0:0:0:
246,192,105200,1,0,0:0:0:0:
305,253,105400,1,0,0:0:0:0:
339,277,105500,1,0,0:0:0:0:
379,290,105600,1,0,0:0:0:0:
318,131,106000,5,0,0:0:0:0:
290,98,106100,1,0,0:0:0:0:
284,55,106200,1,0,0:0:0:0:
221,112,106400,1,0,0:0:0:0:
172,182,106600,1,0,0:0:0:0:
123,112,106800,1,0,0:0:0:0:
99,147,106900,1,0,0:0:0:0:
106,231,107100,1,0,0:0:0:0:
114,272,107200,1,0,0:0:0:0:
196,291,107400,1,0,0:0:0:0:
238,285,107500,1,0,0:0:0:0:
281,211,107700,1,0,0:0:0:0:
295,171,107800,1,0,0:0:0:0:
318,89,108000,6,0,P|352:118|378:135,1,75
413,112,108400,2,0,P|429:145|426:167,1,50
344,174,108800,1,0,0:0:0:0:
114,122,110400,6,0,P|107:209|206:319,1,225.000008583069
258,205,111200,2,0,L|328:162,1,75.0000028610231
448,151,111600,2,0,L|366:105,1,75.0000028610231
255,129,112000,2,0,P|174:179|242:278,1,225.000008583069
319,189,112800,1,0,0:0:0:0:
382,181,112900,1,0,0:0:0:0:
441,203,113000,1,0,0:0:0:0:
417,328,113200,1,0,0:0:0:0:
357,306,113300,1,0,0:0:0:0:
345,243,113400,1,0,0:0:0:0:
264,143,113600,6,0,P|226:204|272:356,1,225.000008583069
348,253,114400,2,0,L|372:204,2,37.5000014305115
296,135,114800,2,0,L|266:90,2,37.5000014305115
201,251,115200,1,0,0:0:0:0:
122,123,115400,1,0,0:0:0:0:
201,251,115600,1,0,0:0:0:0:
122,123,115800,1,0,0:0:0:0:
252,197,116000,1,0,0:0:0:0:
380,274,116200,1,0,0:0:0:0:
395,200,116300,1,0,0:0:0:0:
370,129,116400,1,0,0:0:0:0:
122,123,116600,1,0,0:0:0:0:
169,265,116800,6,0,P|218:250|188:101,1,225.000008583069
73,177,117600,2,0,L|83:260,1,75.0000028610231
166,127,118000,2,0,L|84:83,1,75.0000028610231
212,192,118400,2,0,P|260:276|162:296,1,225.000008583069
64,186,119200,2,0,L|146:238,1,75.0000028610231
143,376,119600,2,0,L|100:312,1,75.0000028610231
236,248,120000,2,0,P|364:152|417:177,1,225.000008583069
313,286,120800,6,0,L|363:344,1,75.0000028610231
343,193,121200,2,0,L|346:245,1,37.5000014305115
279,192,121400,2,0,L|260:225,1,37.5000014305115
185,214,121600,2,0,P|139:158|149:143,1,75.0000028610231
247,126,122000,1,0,0:0:0:0:
361,162,122200,6,0,L|402:195,1,37.5000014305115
352,231,122400,1,0,0:0:0:0:
313,277,122500,1,0,0:0:0:0:
253,278,122600,2,0,L|214:253,1,37.5000014305115
165,236,122800,2,0,P|122:248|137:279,1,75.0000028610231
239,170,123200,6,0,P|340:162|316:248,1,225.000008583069
165,239,124000,2,0,L|102:292,1,75.0000028610231
135,139,124400,2,0,L|85:200,1,75.0000028610231
237,185,124800,2,0,P|278:130|158:107,1,225.000008583069
124,229,125600,2,0,L|82:302,1,75.0000028610231
236,303,126000,2,0,L|180:364,1,75.0000028610231
279,240,126400,2,0,B|321:160|344:84|344:84|279:60,1,225.000008583069
200,184,127200,2,0,L|168:261,1,75.0000028610231
112,114,127600,2,0,L|187:70,1,75.0000028610231
234,124,127900,5,0,0:0:0:0:
288,175,128000,1,0,0:0:0:0:
156,247,128200,1,0,0:0:0:0:
298,292,128400,1,0,0:0:0:0:
193,184,128600,1,0,0:0:0:0:
340,212,128800,1,0,0:0:0:0:
195,250,129000,1,0,0:0:0:0:
256,113,129200,1,0,0:0:0:0:
326,87,129300,1,0,0:0:0:0:
400,83,129400,1,0,0:0:0:0:
471,215,129600,2,0,P|361:240|240:201,1,225.000008583069
197,71,130400,6,0,L|167:158,1,75.0000028610231
315,96,130800,2,0,L|336:171,1,75.0000028610231
207,249,131200,2,0,B|147:241|132:258|154:307|227:330|307:260,1,225.000008583069
195,156,132000,1,0,0:0:0:0:
195,156,132100,1,0,0:0:0:0:
195,156,132200,1,0,0:0:0:0:
342,127,132400,1,0,0:0:0:0:
342,127,132500,1,0,0:0:0:0:
342,127,132600,1,0,0:0:0:0:
210,199,132800,2,0,B|97:253|97:185|68:263|172:336,1,225.000008583069
287,253,133600,6,0,L|361:259,1,75.0000028610231
335,111,134000,2,0,L|261:177,1,75.0000028610231
143,224,134400,1,0,0:0:0:0:
84,85,134600,1,0,0:0:0:0:
84,234,134800,1,0,0:0:0:0:
141,95,135000,6,0,L|187:82,1,37.5000014305115
221,144,135200,1,0,0:0:0:0:
221,144,135300,1,0,0:0:0:0:
216,218,135400,2,0,L|266:206,1,37.5000014305115
219,140,135600,1,0,0:0:0:0:
222,65,135700,2,0,P|267:43|285:46,1,37.5000014305115
394,95,136000,2,0,L|393:191,1,75.0000028610231
336,309,136400,2,0,L|355:230,1,75.0000028610231
208,194,136800,6,0,P|214:125|268:204,1,225.000008583069
128,169,137600,1,0,0:0:0:0:
101,316,137800,1,0,0:0:0:0:
91,166,138000,1,0,0:0:0:0:
166,295,138200,1,0,0:0:0:0:
190,146,138400,1,0,0:0:0:0:
224,212,138500,1,0,0:0:0:0:
270,270,138600,1,0,0:0:0:0:
363,153,138800,2,0,L|317:158,2,37.5000014305115
242,63,139200,2,0,L|190:68,1,37.5000014305115
137,102,139400,6,0,L|176:189,1,75.0000028610231
96,192,139700,1,0,0:0:0:0:
32,231,139800,2,0,L|66:268,1,37.5000014305115
132,263,140000,1,0,0:0:0:0:
206,264,140100,1,0,0:0:0:0:
280,265,140200,1,0,0:0:0:0:
354,268,140300,1,0,0:0:0:0:
428,266,140400,2,0,L|417:208,1,37.5000014305115
403,156,140600,2,0,L|332:157,1,37.5000014305115
289,155,140800,1,0,0:0:0:0:
214,154,140900,1,0,0:0:0:0:
64,154,141100,5,0,0:0:0:0:
71,228,141200,2,0,P|125:240|144:235,1,75.0000028610231
187,91,141600,2,0,P|263:80|257:215,1,225.000008583069
77,292,142400,2,0,L|34:366,1,75.0000028610231
235,243,142800,2,0,L|294:313,1,75.0000028610231
418,118,143200,2,0,P|340:38|219:58,1,225.000008583069
86,218,144000,5,0,0:0:0:0:
160,224,144100,1,0,0:0:0:0:
234,234,144200,1,0,0:0:0:0:
351,141,144400,1,0,0:0:0:0:
201,126,144600,1,0,0:0:0:0:
86,218,144800,1,0,0:0:0:0:
160,220,144900,1,0,0:0:0:0:
234,234,145000,1,0,0:0:0:0:
121,134,145200,1,0,0:0:0:0:
270,140,145400,1,0,0:0:0:0:
419,138,145600,1,0,0:0:0:0:
396,209,145700,1,0,0:0:0:0:
346,264,145800,6,0,L|293:264,1,37.5000014305115
263,203,146000,2,0,L|229:224,1,37.5000014305115
168,179,146200,2,0,L|132:210,1,37.5000014305115
68,179,146400,2,0,L|53:264,2,75.0000028610231
212,136,147000,1,0,0:0:0:0:
336,220,147200,1,0,0:0:0:0:
410,231,147300,1,0,0:0:0:0:
390,158,147400,2,0,P|339:118|296:105,1,75.0000028610231
182,146,147800,2,0,L|127:184,1,37.5000014305115
187,233,148000,1,0,0:0:0:0:
257,258,148100,1,0,0:0:0:0:
286,188,148200,6,0,L|253:168,1,37.5000014305115
279,97,148400,1,0,0:0:0:0:
335,47,148500,1,0,0:0:0:0:
401,81,148600,1,0,0:0:0:0:
420,153,148700,1,0,0:0:0:0:
376,213,148800,6,0,B|409:107|447:51|30:-13|-51:89|547:378|352:336|207:289|102:161,1,675.000025749208
205,131,150800,1,0,0:0:0:0:
300,111,151000,1,0,0:0:0:0:
351,193,151200,2,0,L|356:285,1,75.0000028610231
257,260,151600,1,0,0:0:0:0:
164,228,151800,1,0,0:0:0:0:
99,154,152000,6,0,B|150:109|280:135|290:138|289:119|178:72|98:74|74:67|74:67|62:110,1,375.000014305115
68,189,153200,2,0,B|146:324|146:324|299:245|299:245|376:356|376:356|396:121,1,675.000025749208
328,71,155200,6,0,B|391:273|391:273|270:252|272:252|91:236|91:236|338:147|338:147|154:99|23:310,1,1125.00004291535
139,290,158400,6,0,B|394:303|394:303|141:188|141:188|522:226|429:124|46:48,1,1125.00004291535
57,150,161600,2,0,B|81:353|81:353|136:160|136:160|223:305|223:305|231:138|231:138|334:321|337:328|343:149|349:123|349:33,1,1125.00004291535
422,107,164800,6,0,B|121:83|121:83|548:231|441:210|2:164|1:164|483:336,1,1125.00004291535
380,307,168000,2,0,B|283:317|228:312|183:295|140:258|115:213|96:173|78:133|68:95|72:69|95:48|151:17|232:21|294:23|343:26|386:41|413:52|441:76|459:116|467:167|464:209|443:224|400:237|365:245|319:249|279:244|244:231|219:212|191:193|187:159|194:135|228:111|275:108|287:108,1,1125.00004291535
256,192,171200,12,0,176000,0:0:0:0:
