osu file format v14

[General]
AudioFilename: audio.mp3
AudioLeadIn: 0
PreviewTime: 130102
Countdown: 0
SampleSet: Soft
StackLeniency: 0.7
Mode: 3
LetterboxInBreaks: 0
SpecialStyle: 0
WidescreenStoryboard: 1

[Editor]
Bookmarks: 34102,50102,66102,82102,98102,114102,130102,146102,161602,178102,198102
DistanceSpacing: 0.8
BeatDivisor: 4
GridSize: 16
TimelineZoom: 2.1

[Metadata]
Title:From Here (feat. Cae)
TitleUnicode:From Here (feat. Cae)
Artist:Adib Sin
ArtistUnicode:Adib Sin
Creator:Protastic101
Version:Transposition
Source:
Tags:acoustic guitar meowcaroni calm chill electronic funk Brisbane cute electronica eggshorty Pop English
BeatmapID:1847195
BeatmapSetID:883672

[Difficulty]
HPDrainRate:8
CircleSize:5
OverallDifficulty:7
ApproachRate:5
SliderMultiplier:1.4
SliderTickRate:1

[Events]
//Background and Video events
0,0,"Swirl.jpg",0,0
//Break Periods
//Storyboard Layer 0 (Background)
//Storyboard Layer 1 (Fail)
//Storyboard Layer 2 (Pass)
//Storyboard Layer 3 (Foreground)
//Storyboard Layer 4 (Overlay)
//Storyboard Sound Samples
Sample,2102,0,"G_Bb5.wav",80
Sample,2852,0,"G_Bb5.wav",80
Sample,3602,0,"G_Bb5.wav",80
Sample,4102,0,"G_G5.wav",80
Sample,4852,0,"G_G5.wav",80
Sample,5602,0,"G_G5.wav",80
Sample,6102,0,"G_F5.wav",80
Sample,6852,0,"G_F5.wav",80
Sample,7602,0,"G_F5.wav",80
Sample,8102,0,"G_Eb5.wav",80
Sample,8852,0,"G_Eb5.wav",80
Sample,9602,0,"G_Eb5.wav",80
Sample,10102,0,"G_Bb5.wav",80
Sample,10852,0,"G_Bb5.wav",80
Sample,11602,0,"G_Bb5.wav",80
Sample,12102,0,"G_G5.wav",80
Sample,12852,0,"G_G5.wav",80
Sample,13602,0,"G_G5.wav",80
Sample,14102,0,"G_F5.wav",80
Sample,14852,0,"G_F5.wav",80
Sample,15602,0,"G_F5.wav",80
Sample,16102,0,"G_Eb5.wav",80
Sample,16852,0,"G_Eb5.wav",80
Sample,17602,0,"G_Eb5.wav",80
Sample,18102,0,"G_Bb5.wav",80
Sample,20102,0,"G_G5.wav",80
Sample,22102,0,"G_F5.wav",80
Sample,26352,0,"G_F5.wav",80
Sample,26602,0,"G_Bb5.wav",80
Sample,26852,0,"G_C6.wav",80
Sample,27852,0,"G_C6.wav",80
Sample,28102,0,"G_D5.wav",80
Sample,28352,0,"G_F5.wav",80
Sample,28602,0,"G_Bb5.wav",80
Sample,28852,0,"G_C6.wav",80
Sample,29602,0,"G_Bb5.wav",80
Sample,30352,0,"G_D5.wav",80
Sample,30602,0,"G_F5.wav",80
Sample,30852,0,"G_Bb5.wav",80
Sample,31852,0,"G_Bb5.wav",80
Sample,32102,0,"G_Eb4.wav",80
Sample,32102,0,"G_Bb4.wav",80
Sample,32352,0,"G_Eb4.wav",80
Sample,32602,0,"G_F5.wav",80
Sample,32602,0,"G_Eb4.wav",80
Sample,32852,0,"G_Eb4.wav",80
Sample,33102,0,"G_Eb4.wav",80
Sample,33352,0,"G_Eb4.wav",80
Sample,48352,0,"G_Eb4.wav",80
Sample,48602,0,"G_Eb4.wav",80
Sample,48852,0,"G_Eb4.wav",80
Sample,50352,0,"G_D5.wav",80
Sample,50602,0,"G_F5.wav",80
Sample,50852,0,"G_C6.wav",80
Sample,52352,0,"G_D5.wav",80
Sample,52602,0,"G_F5.wav",80
Sample,53602,0,"G_F5.wav",80
Sample,54352,0,"G_D5.wav",80
Sample,54602,0,"G_F5.wav",80
Sample,54852,0,"G_Bb5.wav",80
Sample,56352,0,"G_D5.wav",80
Sample,56602,0,"G_F5.wav",80
Sample,57602,0,"G_F5.wav",80
Sample,58352,0,"G_D5.wav",80
Sample,58602,0,"G_F5.wav",80
Sample,58852,0,"G_C6.wav",80
Sample,60352,0,"G_D5.wav",80
Sample,60602,0,"G_F5.wav",80
Sample,61602,0,"G_F5.wav",80
Sample,62352,0,"G_D5.wav",80
Sample,62602,0,"G_F5.wav",80
Sample,62852,0,"G_Bb5.wav",80
Sample,64602,0,"G_F5.wav",80
Sample,65602,0,"G_F5.wav",80
Sample,65602,0,"(s)Bb6.wav",100
Sample,66602,0,"G_F5.wav",80
Sample,67602,0,"G_F5.wav",80
Sample,68602,0,"G_F5.wav",80
Sample,69352,0,"G_D5.wav",80
Sample,69602,0,"G_F5.wav",80
Sample,70602,0,"G_F5.wav",80
Sample,71602,0,"G_F5.wav",80
Sample,72352,0,"G_D5.wav",80
Sample,72602,0,"G_F5.wav",80
Sample,72852,0,"G_Bb5.wav",80
Sample,73352,0,"G_D5.wav",80
Sample,73602,0,"G_F5.wav",80
Sample,73852,0,"G_Bb5.wav",80
Sample,76352,0,"G_D5.wav",80
Sample,76602,0,"G_F5.wav",80
Sample,76852,0,"G_C6.wav",80
Sample,77352,0,"G_D5.wav",80
Sample,77602,0,"G_F5.wav",80
Sample,80602,0,"G_F5.wav",80
Sample,81602,0,"G_F5.wav",80
Sample,81602,0,"G_Bb6.wav",80
Sample,82102,0,"G_F6.wav",80
Sample,98102,0,"G_G5.wav",80
Sample,98852,0,"G_A5.wav",80
Sample,99352,0,"G_Bb5.wav",80
Sample,99852,0,"G_D5.wav",80
Sample,100352,0,"G_Eb5.wav",80
Sample,100852,0,"G_Eb5.wav",80
Sample,102102,0,"G_G5.wav",80
Sample,102852,0,"G_A5.wav",80
Sample,103352,0,"G_Bb5.wav",80
Sample,103852,0,"G_D6.wav",80
Sample,104352,0,"G_F5.wav",80
Sample,104852,0,"G_Eb5.wav",70
Sample,106102,0,"G_G5.wav",80
Sample,106852,0,"G_A5.wav",80
Sample,107352,0,"G_Bb5.wav",80
Sample,107852,0,"G_D5.wav",80
Sample,108352,0,"G_Eb5.wav",80
Sample,108852,0,"G_Eb5.wav",80
Sample,110102,0,"G_G5.wav",80
Sample,110852,0,"G_A5.wav",80
Sample,111352,0,"G_Bb5.wav",80
Sample,111852,0,"G_D6.wav",80
Sample,112352,0,"G_F5.wav",80
Sample,112852,0,"G_Eb5.wav",70
Sample,115602,0,"G_Bb5.wav",80
Sample,116102,0,"G_A5.wav",80
Sample,116852,0,"G_A5.wav",80
Sample,117602,0,"G_A5.wav",80
Sample,118102,0,"G_G5.wav",80
Sample,118852,0,"G_G5.wav",80
Sample,119602,0,"G_G5.wav",80
Sample,120102,0,"G_A5.wav",80
Sample,120852,0,"G_A5.wav",80
Sample,121602,0,"G_A5.wav",80
Sample,130852,0,"G_F6.wav",80
Sample,131102,0,"G_Bb5.wav",80
Sample,131852,0,"G_D6.wav",80
Sample,132102,0,"G_F6.wav",80
Sample,132852,0,"G_F6.wav",80
Sample,133102,0,"(s)F7.wav",100
Sample,134852,0,"G_F6.wav",80
Sample,135102,0,"G_Bb5.wav",80
Sample,135852,0,"G_D6.wav",80
Sample,136102,0,"G_F6.wav",80
Sample,136852,0,"G_F6.wav",80
Sample,137102,0,"G_Bb5.wav",80
Sample,137102,0,"(s)F7.wav",100
Sample,138102,0,"G_D6.wav",80
Sample,138477,0,"G_D6.wav",80
Sample,138852,0,"G_D6.wav",80
Sample,139102,0,"G_Bb5.wav",80
Sample,139227,0,"G_D6.wav",80
Sample,139852,0,"G_D6.wav",80
Sample,140102,0,"G_D6.wav",80
Sample,140102,0,"G_F6.wav",80
Sample,140477,0,"G_D6.wav",80
Sample,140852,0,"G_D6.wav",80
Sample,141102,0,"(s)F7.wav",100
Sample,141102,0,"G_Bb5.wav",80
Sample,141227,0,"G_D6.wav",80
Sample,141602,0,"G_D6.wav",80
Sample,142102,0,"G_D6.wav",80
Sample,142477,0,"G_D6.wav",80
Sample,142852,0,"G_D6.wav",80
Sample,143102,0,"G_Bb5.wav",80
Sample,143227,0,"G_D6.wav",80
Sample,143852,0,"G_D6.wav",80
Sample,144102,0,"G_D6.wav",80
Sample,147102,0,"G_Bb5.wav",80
Sample,148852,0,"G_Eb5.wav",80
Sample,149102,0,"G_Bb5.wav",80
Sample,149352,0,"G_G6.wav",80
Sample,151102,0,"G_Bb5.wav",80
Sample,152352,0,"G_G6.wav",80
Sample,152852,0,"G_Eb5.wav",80
Sample,152852,0,"G_G5.wav",80
Sample,153352,0,"G_G6.wav",80
Sample,156352,0,"G_G6.wav",80
Sample,156852,0,"G_Bb5.wav",80
Sample,156852,0,"G_Eb5.wav",80
Sample,157352,0,"G_G6.wav",80
Sample,160352,0,"G_F5.wav",80
Sample,160852,0,"G_Eb5.wav",80
Sample,160852,0,"G_G5.wav",80
Sample,162102,0,"G_G5.wav",80
Sample,164352,0,"G_Eb5.wav",80
Sample,167852,0,"G_Bb5.wav",80
Sample,168352,0,"G_F5.wav",80
Sample,172352,0,"G_Eb5.wav",80
Sample,176352,0,"G_F5.wav",80

[TimingPoints]
2102,500,4,2,1,30,1,0
34102,-100,4,2,1,60,0,0
50102,-100,4,2,1,60,0,1
82102,-100,4,2,1,30,0,0
114102,-100,4,2,1,60,0,0
130102,-100,4,2,1,60,0,1
161602,-100,4,1,1,30,0,0

[HitObjects]
51,192,2102,128,0,2602:0:0:0:80:G_D6.wav
358,192,2602,128,0,3102:0:0:0:80:G_Bb4.wav
51,192,2852,128,0,3352:0:0:0:80:G_D6.wav
460,192,3102,128,0,3852:0:0:0:80:G_F5.wav
358,192,3352,128,0,3852:0:0:0:80:G_Bb4.wav
51,192,3602,128,0,3852:0:0:0:80:G_D6.wav
460,192,4102,128,0,4602:0:0:0:80:G_Bb5.wav
153,192,4352,128,0,5102:0:0:0:80:G_D5.wav
256,192,4602,128,0,5102:0:0:0:80:G_Bb4.wav
460,192,4852,128,0,5352:0:0:0:80:G_Bb5.wav
51,192,5102,128,0,5852:0:0:0:80:G_D5.wav
256,192,5352,128,0,5852:0:0:0:80:G_Bb4.wav
460,192,5602,128,0,5852:0:0:0:80:G_Bb5.wav
358,192,5852,1,0,0:0:0:0:
153,192,6102,128,0,6602:0:0:0:80:G_A5.wav
358,192,6352,128,0,7102:0:0:0:80:G_C5.wav
460,192,6602,128,0,7102:0:0:0:80:G_Bb4.wav
153,192,6852,128,0,7352:0:0:0:80:G_A5.wav
256,192,7102,128,0,7852:0:0:0:80:G_C5.wav
460,192,7352,128,0,7852:0:0:0:80:G_Bb4.wav
153,192,7602,128,0,7852:0:0:0:80:G_A5.wav
51,192,7852,1,0,0:0:0:0:
256,192,8102,128,0,8602:0:0:0:80:G_G5.wav
51,192,8352,128,0,9102:0:0:0:80:G_Bb4.wav
460,192,8602,128,0,9102:0:0:0:80:G_Bb4.wav
256,192,8852,128,0,9352:0:0:0:80:G_G5.wav
153,192,9102,128,0,9852:0:0:0:80:G_Bb4.wav
460,192,9352,128,0,9852:0:0:0:80:G_Bb4.wav
256,192,9602,128,0,9852:0:0:0:80:G_G5.wav
51,192,9852,1,0,0:0:0:0:
153,192,10102,128,0,10602:0:0:0:80:G_D6.wav
358,192,10352,128,0,11102:0:0:0:80:G_F5.wav
460,192,10602,128,0,11102:0:0:0:80:G_Bb4.wav
153,192,10852,128,0,11352:0:0:0:80:G_D6.wav
51,192,11102,128,0,11852:0:0:0:80:G_F5.wav
460,192,11352,128,0,11852:0:0:0:80:G_Bb4.wav
153,192,11602,128,0,11852:0:0:0:80:G_D6.wav
256,192,11852,1,0,0:0:0:0:
51,192,12102,128,0,12602:0:0:0:80:G_Bb5.wav
460,192,12352,128,0,13102:0:0:0:80:G_D5.wav
358,192,12602,128,0,13102:0:0:0:80:G_Bb4.wav
51,192,12852,128,0,13352:0:0:0:80:G_Bb5.wav
153,192,13102,128,0,13852:0:0:0:80:G_D5.wav
358,192,13352,128,0,13852:0:0:0:80:G_Bb4.wav
51,192,13602,128,0,13852:0:0:0:80:G_Bb5.wav
256,192,13852,1,0,0:0:0:0:
460,192,14102,128,0,14602:0:0:0:80:G_A5.wav
51,192,14352,128,0,15102:0:0:0:80:G_C5.wav
256,192,14602,128,0,15102:0:0:0:80:G_Bb4.wav
460,192,14852,128,0,15352:0:0:0:80:G_A5.wav
153,192,15102,128,0,15852:0:0:0:80:G_C5.wav
51,192,15352,128,0,15852:0:0:0:80:G_Bb4.wav
460,192,15602,128,0,15852:0:0:0:80:G_A5.wav
358,192,15852,1,0,0:0:0:0:
153,192,16102,128,0,16602:0:0:0:80:G_G5.wav
460,192,16352,128,0,17102:0:0:0:80:G_Bb4.wav
358,192,16602,128,0,17102:0:0:0:80:G_Bb4.wav
153,192,16852,128,0,17352:0:0:0:80:G_G5.wav
51,192,17102,128,0,17602:0:0:0:80:G_Bb4.wav
460,192,17352,128,0,18102:0:0:0:80:G_Bb4.wav
153,192,17602,128,0,18102:0:0:0:80:G_G5.wav
256,192,17852,128,0,18102:0:0:0:0:
358,192,18102,128,0,18602:0:0:0:80:G_D6.wav
51,192,18102,128,0,18852:0:0:0:80:G_D5.wav
153,192,18352,128,0,18852:0:0:0:80:G_F5.wav
256,192,18602,128,0,18852:0:0:0:80:G_Bb5.wav
358,192,18852,128,0,19352:0:0:0:80:G_C6.wav
51,192,19352,128,0,20102:0:0:0:80:G_F5.wav
358,192,19602,128,0,19852:0:0:0:80:G_Bb5.wav
256,192,19852,128,0,20102:0:0:0:80:G_C6.wav
460,192,20102,128,0,20602:0:0:0:80:G_Bb5.wav
153,192,20102,128,0,20852:0:0:0:80:G_D5.wav
256,192,20352,128,0,20852:0:0:0:80:G_F5.wav
358,192,20602,128,0,20852:0:0:0:80:G_Bb5.wav
460,192,20852,128,0,21352:0:0:0:80:G_C6.wav
153,192,21352,128,0,22102:0:0:0:80:G_F5.wav
460,192,21602,128,0,21852:0:0:0:80:G_Bb5.wav
358,192,21852,128,0,22102:0:0:0:80:G_C6.wav
51,192,22102,128,0,22602:0:0:0:80:G_A5.wav
256,192,22102,128,0,22852:0:0:0:80:G_Bb4.wav
460,192,22352,128,0,22852:0:0:0:80:G_D5.wav
358,192,22602,128,0,22852:0:0:0:80:G_F5.wav
51,192,22852,128,0,23352:0:0:0:80:G_Bb5.wav
256,192,23352,128,0,24102:0:0:0:80:G_D5.wav
51,192,23602,128,0,23852:0:0:0:80:G_F5.wav
358,192,23852,128,0,24102:0:0:0:80:G_Bb5.wav
153,192,24102,128,0,24602:0:0:0:80:G_G5.wav
51,192,24102,128,0,24852:0:0:0:80:G_Bb4.wav
460,192,24352,128,0,24852:0:0:0:80:G_D5.wav
358,192,24602,128,0,24852:0:0:0:80:G_F5.wav
153,192,24852,128,0,25352:0:0:0:80:G_Bb5.wav
51,192,25352,128,0,26102:0:0:0:80:G_D5.wav
153,192,25602,128,0,25852:0:0:0:80:G_F5.wav
358,192,25852,128,0,26102:0:0:0:80:G_Bb5.wav
256,192,26102,128,0,26352:0:0:0:80:G_D5.wav
153,192,26352,128,0,26602:0:0:0:100:(s)G6.wav
358,192,26602,128,0,26852:0:0:0:100:(s)Bb6.wav
460,192,26852,128,0,27102:0:0:0:100:(s)F7.wav
51,192,27102,128,0,27602:0:0:0:100:D7.wav
256,192,27352,128,0,28102:0:0:0:80:G_F5.wav
153,192,27602,128,0,28102:0:0:0:80:G_Bb5.wav
358,192,27852,128,0,28102:0:0:0:100:(s)D7.wav
460,192,28102,128,0,28352:0:0:0:100:(s)Bb7.wav
153,192,28352,128,0,28602:0:0:0:100:(s)A7.wav
358,192,28602,128,0,28852:0:0:0:100:(s)F7.wav
51,192,28852,128,0,28977:0:0:0:100:(s)D7.wav
358,192,29102,1,0,0:0:0:100:(s)F7.wav
256,192,29133,128,0,29227:0:0:0:100:(s)G7.wav
460,192,29352,128,0,30102:0:0:0:80:G_F5.wav
153,192,29602,128,0,30102:0:0:0:100:F7.wav
358,192,29852,128,0,30102:0:0:0:80:G_C6.wav
256,192,30102,128,0,30352:0:0:0:80:G_Bb4.wav
51,192,30352,128,0,30602:0:0:0:100:(s)F6.wav
256,192,30602,128,0,30852:0:0:0:100:(s)G6.wav
358,192,30852,128,0,31102:0:0:0:100:(s)D7.wav
153,192,31102,128,0,31602:0:0:0:100:Bb6.wav
358,192,31352,128,0,32102:0:0:0:80:G_D5.wav
256,192,31602,128,0,32102:0:0:0:80:G_F5.wav
51,192,31852,128,0,31977:0:0:0:100:(s)G6.wav
460,192,32102,128,0,32352:1:0:0:100:(s)Eb7.wav
51,192,32352,1,0,0:0:0:80:G_D5.wav
358,192,32602,128,0,32852:1:0:0:100:(s)D7.wav
153,192,32852,1,0,0:0:0:80:G_Bb5.wav
256,192,33102,128,0,33352:1:0:0:100:(s)C7.wav
358,192,33352,1,0,0:0:0:80:G_D5.wav
153,192,33602,128,0,33852:1:0:0:100:(s)Bb6.wav
51,192,34102,128,2,34852:0:0:0:0:
460,192,34102,128,0,34477:0:0:0:80:G_Bb4.wav
358,192,34102,128,4,34352:0:0:0:0:
153,192,34352,128,0,34852:0:0:0:80:G_D5.wav
256,192,34602,128,0,34852:0:0:0:80:G_F5.wav
358,192,34852,1,2,0:0:0:0:
460,192,34852,1,0,0:0:0:80:G_C6.wav
153,192,35102,1,8,0:0:0:0:
256,192,35102,1,0,0:0:0:0:
51,192,35102,1,0,0:0:0:0:
460,192,35352,128,0,36352:0:0:0:80:G_D5.wav
358,192,35602,128,0,36352:0:0:0:80:G_F5.wav
256,192,35852,128,0,36352:0:0:0:80:G_C6.wav
51,192,36352,128,0,36852:0:0:0:80:G_D5.wav
460,192,36602,128,0,36852:0:0:0:80:G_F5.wav
153,192,36602,1,2,0:0:0:0:
358,192,36852,128,0,37102:0:0:0:80:G_C6.wav
153,192,36977,1,0,0:0:0:0:
256,192,37102,1,8,0:0:0:0:
51,192,37102,1,0,0:0:0:0:
460,192,37102,1,0,0:0:0:0:
153,192,37352,128,0,37852:0:0:0:80:G_D5.wav
460,192,37602,128,0,38102:0:0:0:80:G_F5.wav
358,192,37602,1,2,0:0:0:0:
51,192,37852,128,0,38102:0:0:0:0:
358,192,37852,1,8,1:0:0:0:
153,192,38102,128,0,38477:0:0:0:80:G_Bb4.wav
256,192,38102,128,2,38352:0:0:0:0:
460,192,38352,128,0,38852:0:0:0:80:G_D5.wav
51,192,38602,128,0,38852:0:0:0:80:G_F5.wav
358,192,38852,128,0,39102:0:0:0:80:G_Bb5.wav
153,192,38852,1,2,0:0:0:0:
256,192,39102,1,8,0:0:0:0:
51,192,39102,1,0,0:0:0:0:
460,192,39102,1,0,0:0:0:0:
153,192,39352,128,0,40352:0:0:0:80:G_D5.wav
460,192,39602,128,0,40352:0:0:0:80:G_F5.wav
51,192,39852,128,0,40352:0:0:0:80:G_Bb5.wav
256,192,40352,128,0,41102:0:0:0:80:G_D5.wav
460,192,40602,1,2,0:0:0:0:
358,192,40602,128,0,40852:0:0:0:80:G_F5.wav
153,192,40852,128,0,41102:0:0:0:80:G_Bb5.wav
51,192,41102,1,0,0:0:0:0:
460,192,41102,1,0,0:0:0:0:
358,192,41102,1,8,0:0:0:0:
51,192,41352,128,0,42102:0:0:0:80:G_D5.wav
460,192,41602,128,0,42102:0:0:0:80:G_F5.wav
153,192,41602,1,2,0:0:0:0:
256,192,41852,128,0,42102:0:0:0:80:G_Bb5.wav
358,192,42102,128,0,42477:0:0:0:80:G_G6.wav
153,192,42102,128,2,42352:0:0:0:0:
51,192,42352,128,0,42852:0:0:0:80:G_D5.wav
460,192,42477,128,0,42852:0:0:0:80:G_D6.wav
256,192,42602,128,0,43102:0:0:0:80:G_F5.wav
153,192,42852,128,0,43102:0:0:0:80:G_C6.wav
358,192,42852,1,2,0:0:0:0:
51,192,43102,1,0,0:0:0:0:
358,192,43102,1,8,0:0:0:0:
460,192,43102,1,0,0:0:0:0:
460,192,43352,128,0,44102:1:0:0:80:G_D5.wav
51,192,43477,1,0,1:0:0:0:
51,192,43602,128,0,44102:1:0:0:80:G_F5.wav
358,192,43852,128,0,44102:1:0:0:80:G_C6.wav
153,192,44102,128,0,44477:0:0:0:80:G_A6.wav
460,192,44352,128,0,44852:0:0:0:80:G_D5.wav
358,192,44477,128,0,44852:0:0:0:80:G_F6.wav
256,192,44602,128,0,44852:0:0:0:80:G_F5.wav
51,192,44602,1,2,0:0:0:0:
51,192,44852,128,0,45102:0:0:0:80:G_C6.wav
358,192,44977,1,0,0:0:0:0:
256,192,45102,1,0,0:0:0:0:
460,192,45102,1,0,0:0:0:0:
153,192,45102,1,8,0:0:0:0:
51,192,45352,128,0,46102:1:0:0:80:G_D5.wav
358,192,45477,1,0,1:0:0:0:
358,192,45602,128,0,46102:1:0:0:80:G_F5.wav
460,192,45602,1,2,0:0:0:0:
153,192,45852,128,0,46102:1:0:0:0:
256,192,45852,1,8,1:0:0:0:
460,192,46102,128,0,46477:0:0:0:80:G_G6.wav
256,192,46102,128,2,46352:0:0:0:0:
153,192,46352,128,0,46602:0:0:0:80:G_D5.wav
358,192,46477,128,0,46852:0:0:0:80:G_D6.wav
51,192,46602,128,0,47102:0:0:0:80:G_F5.wav
256,192,46852,128,0,47102:0:0:0:80:G_Bb5.wav
460,192,46852,1,2,0:0:0:0:
153,192,47102,1,0,0:0:0:0:
358,192,47102,1,0,0:0:0:0:
460,192,47102,1,8,0:0:0:0:
153,192,47352,128,0,48102:1:0:0:80:G_D5.wav
460,192,47477,1,0,1:0:0:0:
460,192,47602,128,0,48102:1:0:0:80:G_F5.wav
358,192,47852,128,0,48102:1:0:0:80:G_Bb5.wav
51,192,48102,1,0,0:0:0:80:G_Eb4.wav
460,192,48352,128,0,48977:0:0:0:80:G_D5.wav
256,192,48602,128,0,48977:0:0:0:80:G_F5.wav
51,192,48602,1,2,0:0:0:0:
51,192,48852,128,0,48977:0:0:0:80:G_Bb5.wav
460,192,49102,1,0,0:0:0:0:
256,192,49102,1,8,0:0:0:0:
51,192,49102,1,0,0:0:0:0:
153,192,49352,1,0,0:0:0:0:
153,192,49602,128,0,49727:1:0:0:0:
358,192,50102,5,2,0:0:0:0:
460,192,50102,1,4,0:0:0:0:
51,192,50102,1,0,0:0:0:0:
153,192,50352,128,0,50602:1:0:0:100:(s)G6.wav
256,192,50602,128,0,50852:1:0:0:100:(s)Bb6.wav
358,192,50852,128,0,51102:0:0:0:100:(s)F7.wav
460,192,50852,128,2,51352:0:0:0:0:
153,192,51102,128,0,51602:0:0:0:100:D7.wav
51,192,51102,1,8,0:0:0:0:
256,192,51102,1,0,0:0:0:0:
358,192,51352,1,0,1:0:0:80:G_D5.wav
51,192,51602,128,2,51727:0:0:0:0:
256,192,51602,128,0,51727:1:0:0:80:G_F5.wav
460,192,51852,128,0,52352:1:0:0:80:G_C6.wav
358,192,51852,128,0,51977:0:0:0:100:(s)D7.wav
256,192,52102,128,0,52352:0:0:0:100:(s)Bb7.wav
358,192,52352,128,0,52602:0:0:0:100:(s)A7.wav
153,192,52352,1,2,0:0:0:0:
51,192,52602,128,0,52852:1:0:0:100:(s)F7.wav
153,192,52602,1,2,0:0:0:0:
460,192,52852,128,0,53352:1:0:0:80:G_C6.wav
256,192,52852,128,0,52977:0:0:0:100:(s)D7.wav
256,192,53102,1,0,0:0:0:100:(s)F7.wav
358,192,53102,1,8,0:0:0:0:
153,192,53133,128,0,53227:0:0:0:100:(s)G7.wav
51,192,53352,1,0,1:0:0:80:G_D5.wav
51,192,53602,128,0,54102:1:0:0:100:F7.wav
460,192,53602,1,2,0:0:0:0:
460,192,53852,1,8,1:0:0:0:
256,192,53852,1,0,0:0:0:0:
153,192,54102,1,2,0:0:0:0:
358,192,54102,1,0,0:0:0:0:
256,192,54352,128,0,54602:1:0:0:100:(s)G6.wav
460,192,54602,128,0,54852:1:0:0:100:(s)Bb6.wav
51,192,54852,128,0,55102:0:0:0:100:(s)F7.wav
358,192,54852,128,2,55352:0:0:0:0:
153,192,55102,128,0,55602:0:0:0:100:D7.wav
256,192,55102,1,8,0:0:0:0:
460,192,55102,1,0,0:0:0:0:
51,192,55352,1,0,1:0:0:80:G_D5.wav
256,192,55602,128,2,55727:0:0:0:0:
460,192,55602,128,0,55727:1:0:0:80:G_F5.wav
358,192,55852,128,0,56352:1:0:0:80:G_Bb5.wav
51,192,55852,128,0,55977:0:0:0:100:(s)D7.wav
460,192,56102,128,0,56352:0:0:0:100:(s)Bb7.wav
51,192,56352,128,0,56602:0:0:0:100:(s)A7.wav
256,192,56352,1,2,0:0:0:0:
153,192,56602,128,0,56852:1:0:0:100:(s)F7.wav
256,192,56602,1,2,0:0:0:0:
358,192,56852,128,0,57352:1:0:0:80:G_Bb5.wav
460,192,56852,128,0,56977:0:0:0:100:(s)D7.wav
153,192,57102,1,8,0:0:0:0:
256,192,57102,1,0,0:0:0:100:(s)F7.wav
51,192,57133,128,0,57227:0:0:0:100:(s)G7.wav
256,192,57352,1,0,1:0:0:80:G_D5.wav
460,192,57352,1,2,0:0:0:0:
51,192,57602,1,2,0:0:0:0:
460,192,57602,128,0,58102:1:0:0:100:F7.wav
153,192,57727,1,0,1:0:0:0:
358,192,57852,1,0,1:0:0:80:G_Bb5.wav
51,192,58102,1,2,0:0:0:0:
153,192,58102,1,4,0:0:0:0:
256,192,58102,1,0,0:0:0:0:
358,192,58352,128,0,58602:1:0:0:100:(s)G6.wav
51,192,58602,128,0,58852:1:0:0:100:(s)Bb6.wav
460,192,58852,128,0,59102:0:0:0:100:(s)F7.wav
153,192,58852,128,2,59352:0:0:0:0:
358,192,59102,128,0,59602:0:0:0:100:D7.wav
256,192,59102,1,8,0:0:0:0:
51,192,59102,1,0,0:0:0:0:
460,192,59352,1,0,1:0:0:80:G_D5.wav
256,192,59602,128,2,59727:0:0:0:0:
51,192,59602,128,0,59727:1:0:0:80:G_F5.wav
460,192,59852,128,0,59977:1:0:0:100:(s)D7.wav
153,192,59852,128,0,60352:1:0:0:80:G_C6.wav
256,192,60102,128,0,60352:0:0:0:100:(s)Bb7.wav
460,192,60352,128,0,60602:0:0:0:100:(s)A7.wav
358,192,60602,128,0,60852:1:0:0:100:(s)F7.wav
51,192,60602,1,2,0:0:0:0:
153,192,60852,128,0,61352:1:0:0:80:G_C6.wav
256,192,60852,128,0,60977:0:0:0:100:(s)D7.wav
51,192,61102,1,8,0:0:0:0:
358,192,61102,1,0,0:0:0:100:(s)F7.wav
460,192,61133,128,0,61227:0:0:0:100:(s)G7.wav
256,192,61352,1,0,1:0:0:80:G_D5.wav
358,192,61602,128,0,62102:1:0:0:100:F7.wav
51,192,61602,1,2,0:0:0:0:
256,192,61852,1,0,0:0:0:0:
51,192,61852,1,8,1:0:0:0:
153,192,62102,1,2,0:0:0:0:
460,192,62102,1,0,0:0:0:0:
256,192,62352,128,0,62602:1:0:0:100:(s)F6.wav
358,192,62602,128,0,62852:1:0:0:100:(s)G6.wav
153,192,62852,128,0,63102:0:0:0:100:(s)D7.wav
51,192,62852,128,2,63352:0:0:0:0:
460,192,63102,128,0,63602:0:0:0:100:Bb6.wav
256,192,63102,1,8,0:0:0:0:
358,192,63102,1,0,0:0:0:0:
153,192,63352,1,0,1:0:0:80:G_D5.wav
256,192,63602,128,0,63727:1:0:0:80:G_F5.wav
358,192,63602,128,2,63727:0:0:0:0:
153,192,63852,128,0,63977:1:0:0:100:(s)G6.wav
51,192,63852,128,0,64352:1:0:0:80:G_Bb5.wav
460,192,64102,128,0,64352:0:0:0:100:(s)Eb7.wav
256,192,64352,128,0,65102:0:0:0:80:G_D5.wav
358,192,64602,128,0,64852:1:0:0:100:(s)D7.wav
460,192,64602,1,2,0:0:0:0:
51,192,64852,128,0,65352:1:0:0:80:G_Bb5.wav
153,192,65102,128,0,65352:0:0:0:100:(s)C7.wav
358,192,65102,1,8,0:0:0:0:
460,192,65102,1,0,0:0:0:0:
256,192,65352,1,0,1:0:0:80:G_D5.wav
460,192,65352,1,2,0:0:0:0:
358,192,65602,1,2,0:0:0:0:
153,192,65602,128,2,65852:1:0:0:0:
460,192,65727,1,2,1:0:0:0:
51,192,65852,1,2,1:0:0:0:
256,192,65852,1,0,0:0:0:80:G_Bb5.wav
460,192,65977,1,2,1:0:0:0:
153,192,66102,1,2,0:0:0:0:
358,192,66102,1,4,0:0:0:0:
256,192,66102,128,0,66602:0:0:0:100:D7.wav
460,192,66352,128,0,67102:1:0:0:80:G_D5.wav
51,192,66602,128,0,66852:1:0:0:100:(s)C7.wav
358,192,66852,128,0,67102:1:0:0:80:G_C6.wav
153,192,66852,1,2,0:0:0:0:
51,192,67102,1,0,0:0:0:0:
153,192,67102,1,8,0:0:0:0:
256,192,67102,128,0,67602:0:0:0:100:D7.wav
460,192,67352,128,0,68102:1:0:0:80:G_D5.wav
51,192,67602,128,0,67852:1:0:0:100:(s)C7.wav
153,192,67602,1,2,0:0:0:0:
358,192,67852,128,0,68102:1:0:0:80:G_C6.wav
153,192,68102,128,0,68227:0:0:0:100:(s)G7.wav
256,192,68352,1,2,0:0:0:0:
51,192,68352,128,0,69102:1:0:0:80:G_D5.wav
256,192,68602,128,0,68727:1:0:0:100:(s)F7.wav
460,192,68602,128,2,68852:0:0:0:0:
153,192,68852,128,0,69102:1:0:0:80:G_C6.wav
460,192,69102,128,0,69352:0:0:0:100:(s)D7.wav
358,192,69102,1,0,0:0:0:0:
256,192,69102,1,8,0:0:0:0:
153,192,69352,128,0,69602:1:0:0:100:(s)C7.wav
358,192,69602,128,0,69852:1:0:0:100:(s)Bb6.wav
51,192,69602,128,2,70102:0:0:0:0:
256,192,69852,128,0,70102:1:0:0:0:
153,192,70102,1,2,0:0:0:0:
460,192,70102,128,0,70602:0:0:0:100:D7.wav
256,192,70352,128,0,70852:1:0:0:80:G_D5.wav
358,192,70602,128,0,70852:1:0:0:100:(s)C7.wav
51,192,70852,128,0,71352:1:0:0:80:G_Bb5.wav
153,192,70852,1,2,0:0:0:0:
256,192,71102,1,8,0:0:0:0:
358,192,71102,1,0,0:0:0:0:
460,192,71102,128,0,71602:0:0:0:100:D7.wav
153,192,71352,128,0,72352:1:0:0:80:G_D5.wav
358,192,71602,128,0,71852:1:0:0:100:(s)C7.wav
51,192,71602,128,2,72352:0:0:0:0:
256,192,71852,128,0,72352:1:0:0:80:G_Bb5.wav
460,192,72352,128,0,72477:1:0:0:100:(s)G6.wav
358,192,72602,128,0,72727:0:0:0:100:(s)Bb6.wav
153,192,72602,128,2,73102:0:0:0:0:
460,192,72852,1,0,0:0:0:100:(s)C7.wav
256,192,72914,128,0,73102:1:0:0:100:(s)D7.wav
460,192,73102,1,8,0:0:0:0:
51,192,73102,1,0,0:0:0:0:
358,192,73102,1,0,0:0:0:0:
51,192,73352,128,2,73602:0:0:0:0:
153,192,73352,128,0,73477:0:0:0:100:(s)G6.wav
460,192,73602,128,0,73977:1:0:0:100:(s)Bb6.wav
358,192,73602,1,2,0:0:0:0:
153,192,73727,1,0,1:0:0:0:
256,192,73852,128,0,73977:1:0:0:100:(s)C7.wav
51,192,73977,1,0,1:0:0:0:
256,192,74102,1,2,0:0:0:0:
460,192,74102,1,4,0:0:0:0:
358,192,74102,128,0,74852:0:0:0:80:G_F5.wav
51,192,74352,128,0,74852:1:0:0:80:G_D5.wav
153,192,74602,128,0,74852:1:0:0:80:G_F5.wav
460,192,74852,128,0,75352:1:0:0:80:G_A5.wav
256,192,74852,128,2,75102:0:0:0:0:
51,192,75102,1,0,0:0:0:0:
358,192,75102,128,0,75352:0:0:0:80:G_Bb5.wav
153,192,75102,1,8,0:0:0:0:
256,192,75352,128,0,76102:1:0:0:80:G_A5.wav
153,192,75602,128,0,76102:1:0:0:80:G_F5.wav
460,192,75602,128,2,75852:0:0:0:0:
358,192,75852,128,0,76102:1:0:0:80:G_D5.wav
51,192,76102,1,0,0:0:0:0:
358,192,76352,128,2,76477:0:0:0:0:
460,192,76352,128,0,76852:1:0:0:100:(s)G6.wav
153,192,76602,128,0,76727:0:0:0:100:(s)Bb6.wav
51,192,76602,128,2,77102:0:0:0:0:
358,192,76852,1,0,0:0:0:100:(s)C7.wav
256,192,76914,128,0,77102:1:0:0:100:(s)D7.wav
358,192,77102,1,8,0:0:0:0:
460,192,77102,1,0,0:0:0:0:
153,192,77102,1,0,0:0:0:0:
51,192,77352,128,0,77477:1:0:0:100:(s)G6.wav
358,192,77602,128,0,77852:1:0:0:100:(s)Bb6.wav
153,192,77602,128,2,78102:0:0:0:0:
256,192,77852,128,0,78102:1:0:0:100:(s)C7.wav
358,192,78102,128,0,78602:0:0:0:100:Bb6.wav
460,192,78102,128,2,78352:0:0:0:0:
51,192,78352,128,0,78852:1:0:0:80:G_D5.wav
256,192,78602,128,0,79102:1:0:0:80:G_F5.wav
460,192,78852,128,0,79102:1:0:0:80:G_Bb5.wav
153,192,78852,1,2,0:0:0:0:
51,192,79102,1,0,0:0:0:0:
153,192,79102,1,0,0:0:0:0:
358,192,79102,1,8,0:0:0:0:
256,192,79352,128,0,80102:1:0:0:80:G_D5.wav
358,192,79602,128,0,80102:1:0:0:80:G_F5.wav
153,192,79602,1,2,0:0:0:0:
51,192,79852,128,0,80102:1:0:0:80:G_Bb5.wav
460,192,80102,128,0,80352:0:0:0:100:(s)Eb7.wav
153,192,80352,128,0,81102:1:0:0:80:G_D5.wav
256,192,80602,128,0,80852:1:0:0:100:(s)D7.wav
358,192,80602,1,2,0:0:0:0:
51,192,80852,128,0,81102:1:0:0:80:G_Bb5.wav
358,192,81102,128,0,81352:0:0:0:100:(s)C7.wav
460,192,81102,1,0,0:0:0:0:
256,192,81102,1,8,0:0:0:0:
51,192,81352,128,0,82102:1:0:0:80:G_D5.wav
153,192,81352,128,2,81602:0:0:0:0:
460,192,81602,128,0,81852:1:0:0:100:(s)Bb6.wav
256,192,81602,128,2,81727:0:0:0:0:
358,192,81727,128,0,81852:1:0:0:80:G_D6.wav
153,192,81852,128,0,82102:1:0:0:80:G_F6.wav
256,192,81977,128,0,82102:1:0:0:80:G_A6.wav
358,192,82102,128,2,82352:0:0:0:0:
460,192,82102,1,0,1:0:0:80:G_Bb6.wav
51,192,82352,128,0,82602:0:0:0:80:G_Bb5.wav
358,192,82602,128,0,82852:0:0:0:80:G_F6.wav
51,192,82852,128,0,83102:0:0:0:80:G_Bb5.wav
358,192,83102,128,0,83352:0:0:0:80:G_F6.wav
51,192,83352,128,0,83602:0:0:0:80:G_Bb5.wav
358,192,83602,128,0,83852:0:0:0:80:G_F6.wav
51,192,83852,128,0,84102:0:0:0:80:G_Bb5.wav
358,192,84102,128,0,84352:0:0:0:80:G_F6.wav
51,192,84352,128,0,84602:0:0:0:80:G_Bb5.wav
358,192,84602,128,0,84852:0:0:0:80:G_F6.wav
51,192,84852,128,0,85102:0:0:0:80:G_Bb5.wav
358,192,85102,128,0,85352:0:0:0:80:G_F6.wav
51,192,85352,128,0,85602:0:0:0:80:G_Bb5.wav
460,192,85602,128,0,85852:0:0:0:80:G_G6.wav
51,192,85852,128,0,86102:0:0:0:80:G_Bb5.wav
153,192,86102,128,0,86352:0:0:0:80:G_F6.wav
358,192,86352,128,0,86602:0:0:0:80:G_Bb5.wav
153,192,86602,128,0,86852:0:0:0:80:G_F6.wav
358,192,86852,128,0,87102:0:0:0:80:G_Bb5.wav
153,192,87102,128,0,87352:0:0:0:80:G_F6.wav
358,192,87352,128,0,87602:0:0:0:80:G_Bb5.wav
153,192,87602,128,0,87852:0:0:0:80:G_F6.wav
358,192,87852,128,0,88102:0:0:0:80:G_Bb5.wav
153,192,88102,128,0,88352:0:0:0:80:G_F6.wav
358,192,88352,128,0,88602:0:0:0:80:G_Bb5.wav
153,192,88602,128,0,88852:0:0:0:80:G_F6.wav
358,192,88852,128,0,89102:0:0:0:80:G_Bb5.wav
153,192,89102,128,0,89352:0:0:0:80:G_F6.wav
358,192,89352,128,0,89602:0:0:0:80:G_Bb5.wav
256,192,89602,128,0,89977:0:0:0:80:G_D6.wav
51,192,90102,128,0,90352:0:0:0:80:G_F6.wav
460,192,90352,128,0,90602:0:0:0:80:G_Bb5.wav
51,192,90602,128,0,90852:0:0:0:80:G_F6.wav
460,192,90852,128,0,91102:0:0:0:80:G_Bb5.wav
51,192,91102,128,0,91352:0:0:0:80:G_F6.wav
460,192,91352,128,0,91602:0:0:0:80:G_Bb5.wav
51,192,91602,128,0,91852:0:0:0:80:G_F6.wav
460,192,91852,128,0,92102:0:0:0:80:G_Bb5.wav
51,192,92102,128,0,92352:0:0:0:80:G_F6.wav
460,192,92352,128,0,92602:0:0:0:80:G_Bb5.wav
51,192,92602,128,0,92852:0:0:0:80:G_F6.wav
460,192,92852,128,0,93102:0:0:0:80:G_Bb5.wav
51,192,93102,128,0,93352:0:0:0:80:G_F6.wav
460,192,93352,128,0,93602:0:0:0:80:G_Bb5.wav
358,192,93602,128,0,93852:0:0:0:80:G_G6.wav
51,192,93852,128,0,94102:0:0:0:80:G_Bb5.wav
460,192,94102,128,0,94352:0:0:0:80:G_F6.wav
256,192,94352,128,0,94602:0:0:0:80:G_Bb5.wav
460,192,94602,128,0,94852:0:0:0:80:G_F6.wav
256,192,94852,128,0,95102:0:0:0:80:G_Bb5.wav
460,192,95102,128,0,95352:0:0:0:80:G_F6.wav
256,192,95352,128,0,95602:0:0:0:80:G_Bb5.wav
460,192,95602,128,0,95852:0:0:0:80:G_F6.wav
256,192,95852,128,0,96102:0:0:0:80:G_Bb5.wav
460,192,96102,128,0,96352:0:0:0:80:G_F6.wav
256,192,96352,128,0,96602:0:0:0:80:G_Bb5.wav
460,192,96602,128,0,96852:0:0:0:80:G_F6.wav
256,192,96852,128,0,97102:0:0:0:80:G_Bb5.wav
460,192,97102,128,0,97352:0:0:0:80:G_F6.wav
256,192,97352,128,0,97602:0:0:0:80:G_Bb5.wav
51,192,97602,128,0,97977:0:0:0:80:G_D6.wav
358,192,98102,128,8,98352:1:0:0:0:
460,192,98102,128,0,98352:0:0:0:80:G_Bb5.wav
153,192,98352,1,4,1:0:0:0:
153,192,98602,1,8,1:0:0:0:
460,192,98602,1,0,0:0:0:0:
51,192,98852,128,0,99102:0:0:0:80:G_C6.wav
256,192,98852,128,4,99102:1:0:0:0:
358,192,99102,1,8,1:0:0:0:
153,192,99102,1,0,0:0:0:0:
256,192,99352,128,0,99602:0:0:0:80:G_D6.wav
358,192,99352,128,4,99602:1:0:0:0:
51,192,99602,1,8,1:0:0:0:
153,192,99602,1,0,0:0:0:0:
460,192,99852,128,0,100102:0:0:0:80:G_A5.wav
51,192,99852,128,4,100102:1:0:0:0:
256,192,100102,1,8,1:0:0:0:
358,192,100102,1,0,0:0:0:0:
256,192,100352,128,4,100602:1:0:0:0:
460,192,100352,128,0,100602:0:0:0:80:G_Bb5.wav
358,192,100602,1,8,1:0:0:0:
51,192,100602,1,0,0:0:0:0:
256,192,100852,128,4,101602:1:0:0:0:
460,192,100852,128,0,101602:0:0:0:80:G_Bb5.wav
153,192,101102,1,8,1:0:0:0:
51,192,101102,1,0,0:0:0:0:
51,192,101352,1,4,1:0:0:0:
153,192,101602,1,8,1:0:0:0:
358,192,101602,1,0,0:0:0:0:
51,192,101727,1,4,1:0:0:0:
256,192,101727,1,0,0:0:0:0:
358,192,101852,1,0,0:0:0:0:
460,192,101852,1,8,1:0:0:0:
51,192,101977,1,4,1:0:0:0:
153,192,101977,1,0,0:0:0:0:
460,192,102102,128,0,102352:0:0:0:80:G_Bb5.wav
358,192,102102,128,8,102352:1:0:0:0:
256,192,102352,1,4,1:0:0:0:
256,192,102602,1,8,1:0:0:0:
51,192,102602,1,0,0:0:0:0:
153,192,102852,128,4,103102:1:0:0:0:
460,192,102852,128,0,103102:0:0:0:80:G_C6.wav
358,192,103102,1,8,1:0:0:0:
256,192,103102,1,0,0:0:0:0:
460,192,103352,128,0,103602:0:0:0:80:G_D6.wav
358,192,103352,128,4,103602:1:0:0:0:
51,192,103602,1,8,1:0:0:0:
153,192,103602,1,0,0:0:0:0:
51,192,103852,128,4,104102:1:0:0:0:
256,192,103852,128,0,104102:0:0:0:80:G_F6.wav
358,192,104102,1,8,1:0:0:0:
460,192,104102,1,0,0:0:0:0:
51,192,104352,128,0,104602:0:0:0:80:G_A5.wav
358,192,104352,128,4,104602:1:0:0:0:
153,192,104602,1,8,1:0:0:0:
460,192,104602,1,0,0:0:0:0:
153,192,104852,128,4,105602:1:0:0:0:
256,192,104852,128,0,105602:0:0:0:80:G_G5.wav
460,192,105102,1,8,1:0:0:0:
358,192,105102,1,0,0:0:0:0:
460,192,105352,1,4,1:0:0:0:
358,192,105602,1,8,1:0:0:0:
51,192,105602,1,0,0:0:0:0:
460,192,106102,128,0,106352:0:0:0:80:G_Bb5.wav
358,192,106102,128,8,106352:1:0:0:0:
51,192,106352,1,4,1:0:0:0:
51,192,106602,1,8,1:0:0:0:
460,192,106602,1,0,0:0:0:0:
256,192,106852,128,4,107102:1:0:0:0:
358,192,106852,128,0,107102:0:0:0:80:G_C6.wav
153,192,107102,1,8,1:0:0:0:
51,192,107102,1,0,0:0:0:0:
153,192,107352,128,4,107602:1:0:0:0:
460,192,107352,128,0,107602:0:0:0:80:G_D6.wav
358,192,107602,1,8,1:0:0:0:
256,192,107602,1,0,0:0:0:0:
358,192,107852,128,4,108102:1:0:0:0:
51,192,107852,128,0,108102:0:0:0:80:G_A5.wav
153,192,108102,1,8,1:0:0:0:
256,192,108102,1,0,0:0:0:0:
153,192,108352,128,4,108602:1:0:0:0:
358,192,108352,128,0,108602:0:0:0:80:G_Bb5.wav
460,192,108602,1,8,1:0:0:0:
51,192,108602,1,0,0:0:0:0:
153,192,108852,128,0,109602:0:0:0:80:G_Bb5.wav
358,192,108852,128,4,109602:1:0:0:0:
256,192,109102,1,8,1:0:0:0:
460,192,109102,1,0,0:0:0:0:
256,192,109352,1,4,1:0:0:0:
51,192,109602,1,8,1:0:0:0:
460,192,109602,1,0,0:0:0:0:
256,192,109727,1,4,1:0:0:0:
358,192,109727,1,0,0:0:0:0:
51,192,109852,1,0,0:0:0:0:
153,192,109852,1,8,1:0:0:0:
358,192,109977,1,4,1:0:0:0:
460,192,109977,1,0,0:0:0:0:
51,192,110102,128,0,110352:0:0:0:80:G_Bb5.wav
153,192,110102,128,8,110352:1:0:0:0:
358,192,110352,1,4,1:0:0:0:
358,192,110602,1,8,1:0:0:0:
51,192,110602,1,0,0:0:0:0:
153,192,110852,128,4,111102:1:0:0:0:
460,192,110852,128,0,111102:0:0:0:80:G_C6.wav
256,192,111102,1,8,1:0:0:0:
51,192,111102,1,0,0:0:0:0:
358,192,111352,128,0,111602:0:0:0:80:G_D6.wav
256,192,111352,128,4,111602:1:0:0:0:
51,192,111602,1,8,1:0:0:0:
153,192,111602,1,0,0:0:0:0:
51,192,111852,128,4,112102:1:0:0:0:
460,192,111852,128,0,112102:0:0:0:80:G_F6.wav
358,192,112102,1,8,1:0:0:0:
256,192,112102,1,0,0:0:0:0:
358,192,112352,128,4,112602:1:0:0:0:
51,192,112352,128,0,112602:0:0:0:80:G_A5.wav
153,192,112602,1,8,1:0:0:0:
460,192,112602,1,0,0:0:0:0:
153,192,112852,128,4,113602:1:0:0:0:
256,192,112852,128,0,113602:0:0:0:80:G_G5.wav
460,192,113102,5,8,1:0:0:0:
51,192,113102,1,0,0:0:0:0:
460,192,113352,1,4,1:0:0:0:
358,192,113477,1,0,0:0:0:0:
51,192,113602,1,8,1:0:0:0:
460,192,113602,1,0,0:0:0:0:
256,192,113768,1,0,0:0:0:0:
460,192,114102,5,6,0:0:0:0:
358,192,114102,1,0,1:0:0:80:G_Bb5.wav
51,192,114227,1,0,1:0:0:0:
358,192,114352,1,0,1:0:0:0:
51,192,114477,1,0,1:0:0:0:
358,192,114602,1,0,1:0:0:0:
460,192,114602,1,2,0:0:0:0:
51,192,114727,1,0,1:0:0:0:
358,192,114852,1,0,1:0:0:80:G_Bb5.wav
51,192,114977,1,0,1:0:0:0:
256,192,115102,1,4,1:0:0:0:
153,192,115102,1,2,0:0:0:0:
256,192,115352,1,4,1:0:0:0:
153,192,115602,1,12,1:0:0:0:
460,192,115602,128,2,115852:0:0:0:0:
153,192,115852,1,4,1:0:0:0:
51,192,116102,1,4,1:0:0:0:
358,192,116102,128,2,116352:0:0:0:0:
51,192,116352,1,4,1:0:0:0:
358,192,116602,1,2,0:0:0:0:
153,192,116602,1,12,1:0:0:0:
358,192,116852,128,4,117102:1:0:0:0:
460,192,117102,1,4,1:0:0:0:
256,192,117102,1,2,0:0:0:0:
460,192,117352,1,4,1:0:0:0:
153,192,117602,1,12,1:0:0:0:
358,192,117602,128,2,117852:0:0:0:0:
153,192,117852,1,4,1:0:0:0:
51,192,118102,128,4,118352:1:0:0:0:
460,192,118102,1,2,0:0:0:0:
460,192,118352,1,4,1:0:0:0:
256,192,118477,1,0,0:0:0:0:
51,192,118602,1,12,1:0:0:0:
358,192,118602,1,2,0:0:0:0:
51,192,118852,128,4,119102:1:0:0:0:
256,192,119102,1,2,0:0:0:0:
153,192,119102,1,4,1:0:0:0:
153,192,119352,1,4,1:0:0:0:
460,192,119602,1,12,1:0:0:0:
51,192,119602,128,2,119852:0:0:0:0:
460,192,119852,1,4,1:0:0:0:
51,192,120102,1,4,1:0:0:0:
358,192,120102,128,2,120352:0:0:0:0:
51,192,120352,1,4,1:0:0:0:
460,192,120477,1,0,0:0:0:0:
256,192,120602,1,2,0:0:0:0:
358,192,120602,1,12,1:0:0:0:
358,192,120852,128,4,121102:1:0:0:0:
153,192,121102,1,4,1:0:0:0:
460,192,121102,1,2,0:0:0:0:
358,192,121227,1,0,1:0:0:0:
153,192,121352,1,4,1:0:0:0:
460,192,121477,1,0,1:0:0:0:
256,192,121602,1,12,1:0:0:0:
51,192,121602,1,2,0:0:0:0:
460,192,121852,1,0,0:0:0:0:
358,192,121852,1,8,0:0:0:0:
153,192,121977,1,0,0:0:0:0:
256,192,121977,1,8,0:0:0:0:
51,192,122102,1,4,0:0:0:0:
460,192,122102,1,2,0:0:0:0:
358,192,122102,1,0,1:0:0:80:G_Bb5.wav
153,192,122227,1,0,1:0:0:0:
256,192,122352,1,0,1:0:0:0:
51,192,122477,1,0,1:0:0:0:
358,192,122477,1,8,0:0:0:0:
153,192,122602,1,0,1:0:0:0:
460,192,122602,1,2,0:0:0:0:
256,192,122727,1,0,1:0:0:0:
153,192,122852,1,0,1:0:0:80:G_Bb5.wav
460,192,122852,1,8,0:0:0:0:
358,192,122977,1,0,1:0:0:0:
256,192,123102,1,2,0:0:0:0:
51,192,123102,1,0,1:0:0:0:
153,192,123227,1,8,0:0:0:0:
460,192,123227,1,0,1:0:0:0:
358,192,123352,1,8,0:0:0:0:
256,192,123477,1,0,1:0:0:0:
51,192,123602,1,2,0:0:0:0:
153,192,123602,1,0,1:0:0:80:G_Bb5.wav
460,192,123852,1,0,0:0:0:0:
358,192,123977,1,0,0:0:0:0:
256,192,123977,1,8,0:0:0:0:
51,192,124102,1,0,0:0:0:80:G_A5.wav
153,192,124102,1,2,0:0:0:0:
256,192,124352,1,0,0:0:0:0:
153,192,124477,1,0,0:0:0:0:
358,192,124477,1,8,0:0:0:0:
51,192,124602,1,0,0:0:0:0:
460,192,124602,1,2,0:0:0:0:
256,192,124852,1,8,0:0:0:0:
358,192,124852,1,0,0:0:0:80:G_A5.wav
460,192,125102,1,0,0:0:0:0:
153,192,125102,1,2,0:0:0:0:
358,192,125227,1,8,0:0:0:0:
51,192,125227,1,0,0:0:0:0:
256,192,125352,1,8,0:0:0:0:
460,192,125602,1,2,0:0:0:0:
358,192,125602,1,0,0:0:0:80:G_A5.wav
256,192,125727,1,8,0:0:0:0:
153,192,125852,1,8,0:0:0:0:
51,192,125852,1,0,0:0:0:0:
460,192,125977,1,8,0:0:0:0:
358,192,126102,1,0,0:0:0:80:G_G5.wav
256,192,126102,1,2,0:0:0:0:
51,192,126352,1,0,0:0:0:0:
460,192,126477,1,0,0:0:0:0:
256,192,126477,1,8,0:0:0:0:
153,192,126602,1,2,0:0:0:0:
358,192,126602,1,0,0:0:0:0:
51,192,126852,1,0,0:0:0:80:G_G5.wav
256,192,126852,1,8,0:0:0:0:
358,192,127102,1,2,0:0:0:0:
460,192,127102,1,0,0:0:0:0:
51,192,127227,1,0,0:0:0:0:
153,192,127227,1,8,0:0:0:0:
256,192,127352,1,8,0:0:0:0:
460,192,127602,1,0,0:0:0:80:G_G5.wav
51,192,127602,1,2,0:0:0:0:
153,192,127852,1,0,0:0:0:0:
256,192,127852,1,8,0:0:0:0:
358,192,127977,1,8,0:0:0:0:
460,192,128102,1,2,0:0:0:0:
153,192,128102,1,0,0:0:0:0:
51,192,128352,1,0,0:0:0:0:
153,192,128477,1,0,0:0:0:0:
460,192,128477,1,2,0:0:0:0:
358,192,128602,1,0,0:0:0:0:
153,192,128852,1,0,0:0:0:0:
460,192,128852,1,2,0:0:0:0:
358,192,129102,5,0,0:0:0:0:
153,192,129227,1,0,0:0:0:0:
460,192,129227,1,2,0:0:0:0:
51,192,129352,1,0,0:0:0:0:
460,192,129477,1,0,0:0:0:0:
256,192,129602,128,0,129727:1:0:0:0:
51,192,130102,5,2,0:0:0:0:
460,192,130102,128,4,130352:0:0:0:0:
358,192,130102,1,0,0:0:0:80:G_F6.wav
256,192,130352,128,0,130602:0:0:0:100:(s)G6.wav
153,192,130477,128,0,130602:0:0:0:80:G_F6.wav
358,192,130602,128,0,130852:0:0:0:100:(s)Bb6.wav
51,192,130602,1,8,3:0:0:0:
460,192,130602,1,0,0:0:0:0:
256,192,130727,128,0,130852:0:0:0:80:G_Bb5.wav
153,192,130852,128,0,131102:0:0:0:100:(s)F7.wav
51,192,131102,128,0,131602:0:0:0:100:D7.wav
256,192,131102,128,2,131227:0:0:0:0:
358,192,131227,128,0,131352:0:0:0:80:G_F6.wav
460,192,131352,128,0,131477:0:0:0:80:G_D6.wav
256,192,131477,128,0,131602:0:0:0:80:G_D6.wav
460,192,131602,128,0,131852:0:0:0:0:
358,192,131602,128,0,131852:0:0:0:80:G_F6.wav
153,192,131602,128,8,131727:3:0:0:0:
256,192,131852,128,0,132102:0:0:0:100:(s)D7.wav
51,192,131977,128,0,132102:0:0:0:80:G_D6.wav
358,192,132102,128,0,132352:0:0:0:100:(s)Bb7.wav
153,192,132102,1,2,0:0:0:0:
153,192,132352,128,0,132602:0:0:0:100:(s)A7.wav
460,192,132477,128,0,132602:0:0:0:80:G_F6.wav
256,192,132602,128,0,132852:0:0:0:100:(s)F7.wav
51,192,132602,1,8,3:0:0:0:
358,192,132602,1,0,0:0:0:0:
51,192,132852,128,0,133602:0:0:0:100:(s)D7.wav
256,192,133102,1,2,0:0:0:0:
460,192,133133,128,0,133227:0:0:0:100:(s)G7.wav
358,192,133227,128,0,133352:0:0:0:80:G_F6.wav
153,192,133352,128,0,133477:0:0:0:80:G_D6.wav
256,192,133477,128,0,133602:0:0:0:80:G_D6.wav
153,192,133602,128,0,134102:0:0:0:100:F7.wav
460,192,133602,128,0,133852:0:0:0:80:G_F6.wav
358,192,133602,128,8,133852:3:0:0:0:
51,192,133852,128,0,134102:0:0:0:80:G_D6.wav
460,192,133977,128,0,134102:0:0:0:80:G_D6.wav
358,192,134102,1,2,0:0:0:0:
256,192,134102,128,0,134352:0:0:0:80:G_F6.wav
460,192,134352,128,0,134602:0:0:0:100:(s)G6.wav
51,192,134477,128,0,134602:0:0:0:80:G_F6.wav
256,192,134602,1,0,0:0:0:0:
358,192,134602,1,8,3:0:0:0:
153,192,134602,128,0,134852:0:0:0:100:(s)Bb6.wav
51,192,134727,128,0,134852:0:0:0:80:G_Bb5.wav
358,192,134852,128,0,135102:0:0:0:100:(s)F7.wav
460,192,135102,128,0,135602:0:0:0:100:D7.wav
256,192,135102,128,2,135227:0:0:0:0:
51,192,135227,128,0,135352:0:0:0:80:G_F6.wav
358,192,135352,128,0,135477:0:0:0:80:G_D6.wav
153,192,135477,128,0,135602:0:0:0:80:G_D6.wav
256,192,135602,128,0,135852:0:0:0:80:G_F6.wav
51,192,135602,128,0,135727:0:0:0:0:
358,192,135602,128,8,135852:3:0:0:0:
51,192,135852,128,0,136102:0:0:0:100:(s)D7.wav
153,192,135977,128,0,136102:0:0:0:80:G_D6.wav
460,192,136102,1,2,0:0:0:0:
358,192,136102,128,0,136352:0:0:0:100:(s)Bb7.wav
153,192,136352,128,0,136602:0:0:0:100:(s)A7.wav
358,192,136477,128,0,136602:0:0:0:80:G_F6.wav
256,192,136602,128,0,136852:0:0:0:100:(s)F7.wav
51,192,136602,1,0,0:0:0:0:
460,192,136602,1,8,3:0:0:0:
358,192,136852,128,0,137602:0:0:0:100:(s)D7.wav
256,192,137102,1,2,0:0:0:0:
51,192,137133,128,0,137227:0:0:0:100:(s)G7.wav
460,192,137227,128,0,137352:0:0:0:80:G_F6.wav
153,192,137352,128,0,137477:0:0:0:80:G_D6.wav
256,192,137477,128,0,137602:0:0:0:80:G_D6.wav
51,192,137602,128,0,137852:0:0:0:80:G_F6.wav
460,192,137602,128,8,137852:3:0:0:0:
153,192,137602,128,0,138102:0:0:0:100:F7.wav
358,192,137852,128,0,138102:0:0:0:80:G_D6.wav
256,192,137977,128,0,138102:0:0:0:80:G_D6.wav
51,192,138102,128,0,138352:0:0:0:80:G_F6.wav
460,192,138102,128,2,138227:0:0:0:0:
460,192,138352,128,0,138602:0:0:0:100:(s)G6.wav
51,192,138477,128,0,138602:0:0:0:80:G_F6.wav
256,192,138602,1,8,3:0:0:0:
358,192,138602,1,0,0:0:0:0:
153,192,138602,128,0,138852:0:0:0:100:(s)Bb6.wav
460,192,138727,128,0,138852:0:0:0:80:G_Bb5.wav
256,192,138852,128,0,139102:0:0:0:100:(s)F7.wav
51,192,138852,128,0,139102:0:0:0:80:G_F6.wav
460,192,139102,128,2,139227:0:0:0:0:
358,192,139102,128,0,139602:0:0:0:100:D7.wav
51,192,139227,128,0,139477:0:0:0:80:G_F6.wav
153,192,139352,128,0,139477:0:0:0:80:G_D6.wav
256,192,139477,128,0,139602:0:0:0:80:G_D6.wav
153,192,139602,1,8,3:0:0:0:
460,192,139602,128,0,139852:0:0:0:80:G_F6.wav
51,192,139602,128,0,139852:0:0:0:80:G_D6.wav
256,192,139852,128,0,140102:0:0:0:100:(s)D7.wav
358,192,139977,128,0,140102:0:0:0:80:G_D6.wav
153,192,140102,128,0,140352:0:0:0:100:(s)Bb7.wav
460,192,140102,128,2,140227:0:0:0:0:
460,192,140352,128,0,140602:0:0:0:100:(s)A7.wav
153,192,140477,128,0,140602:0:0:0:80:G_F6.wav
358,192,140602,128,0,140852:0:0:0:100:(s)F7.wav
256,192,140602,1,8,3:0:0:0:
51,192,140602,1,0,0:0:0:0:
256,192,140852,128,0,141602:0:0:0:80:G_F6.wav
153,192,140852,128,0,141102:0:0:0:100:(s)D7.wav
51,192,141102,1,2,0:0:0:0:
460,192,141133,128,0,141227:0:0:0:100:(s)G7.wav
153,192,141227,128,0,141477:0:0:0:80:G_F6.wav
358,192,141352,128,0,141477:0:0:0:80:G_D6.wav
51,192,141477,128,0,141602:0:0:0:80:G_D6.wav
460,192,141602,128,0,142102:0:0:0:100:F7.wav
153,192,141602,128,0,141852:0:0:0:80:G_F6.wav
358,192,141602,128,8,141852:3:0:0:0:
256,192,141852,128,0,142102:0:0:0:80:G_C6.wav
358,192,142102,128,0,142352:0:0:0:80:G_F6.wav
153,192,142102,128,2,142227:0:0:0:0:
153,192,142352,128,0,142602:0:0:0:100:(s)F6.wav
358,192,142477,128,0,142602:0:0:0:80:G_F6.wav
460,192,142602,128,0,142852:0:0:0:100:(s)G6.wav
51,192,142602,1,8,3:0:0:0:
256,192,142602,1,0,0:0:0:0:
153,192,142727,128,0,142852:0:0:0:80:G_Bb5.wav
358,192,142852,128,0,143102:0:0:0:100:(s)D7.wav
51,192,142852,128,0,143102:0:0:0:80:G_F6.wav
460,192,143102,128,0,143602:0:0:0:100:Bb6.wav
256,192,143102,128,2,143227:0:0:0:0:
358,192,143227,128,0,143477:0:0:0:80:G_F6.wav
51,192,143352,128,0,143477:0:0:0:80:G_D6.wav
153,192,143477,128,0,143602:0:0:0:80:G_D6.wav
51,192,143602,128,0,143852:0:0:0:80:G_D6.wav
358,192,143602,128,0,143852:0:0:0:80:G_F6.wav
256,192,143602,128,8,143852:3:0:0:0:
460,192,143852,128,0,144102:0:0:0:100:(s)G6.wav
51,192,144102,1,2,0:0:0:0:
153,192,144102,128,0,144352:0:0:0:100:(s)Eb7.wav
358,192,144352,1,0,0:0:0:0:
51,192,144477,1,2,0:0:0:0:
153,192,144477,1,0,0:0:0:80:G_D6.wav
256,192,144602,128,0,144852:0:0:0:100:(s)D7.wav
358,192,144727,1,0,0:0:0:0:
51,192,144852,1,2,0:0:0:0:
153,192,144852,128,0,145602:0:0:0:80:G_D6.wav
460,192,145102,128,0,145352:0:0:0:100:(s)C7.wav
256,192,145352,128,0,145602:0:0:0:0:
51,192,145477,128,0,145602:0:0:0:0:
358,192,145602,1,0,1:0:0:100:(s)Bb6.wav
153,192,145727,1,0,1:0:0:0:
460,192,145852,1,0,1:0:0:0:
256,192,145977,1,0,1:0:0:0:
51,192,146102,128,0,146602:0:0:0:100:D7.wav
358,192,146102,128,4,146352:0:0:0:0:
153,192,146102,128,2,146477:0:0:0:0:
460,192,146352,128,0,146477:0:0:0:80:G_G6.wav
256,192,146477,128,0,146602:0:0:0:80:G_F6.wav
358,192,146602,128,0,146727:0:0:0:0:
460,192,146602,128,0,146727:0:0:0:100:(s)C7.wav
153,192,146602,1,8,3:0:0:0:
256,192,146727,128,0,146852:0:0:0:80:G_D6.wav
153,192,146852,128,0,147102:0:0:0:80:G_F6.wav
51,192,147102,128,0,147602:0:0:0:100:D7.wav
358,192,147102,128,2,147227:0:0:0:0:
460,192,147227,128,0,147352:0:0:0:80:G_F6.wav
256,192,147352,128,0,147477:0:0:0:80:G_D6.wav
153,192,147477,128,0,147602:0:0:0:80:G_D6.wav
256,192,147602,1,8,3:0:0:0:
460,192,147602,128,0,147727:0:0:0:100:(s)C7.wav
358,192,147602,128,0,147727:0:0:0:80:G_F6.wav
153,192,147852,1,0,0:0:0:0:
358,192,147914,1,0,0:0:0:0:
153,192,147977,1,0,0:0:0:0:
358,192,148039,1,0,0:0:0:0:
460,192,148102,128,0,148352:0:0:0:100:(s)G7.wav
51,192,148102,128,2,148227:0:0:0:0:
153,192,148352,128,0,148602:0:0:0:80:G_G6.wav
358,192,148477,128,0,148602:0:0:0:80:G_F6.wav
51,192,148602,1,8,3:0:0:0:
460,192,148602,1,0,0:0:0:0:
256,192,148602,128,0,148727:0:0:0:100:(s)F7.wav
358,192,148727,1,0,0:0:0:0:
51,192,148852,128,0,149602:0:0:0:80:G_Bb5.wav
358,192,149102,128,0,149227:0:0:0:100:(s)D7.wav
460,192,149102,128,2,149352:0:0:0:0:
256,192,149227,128,0,149352:0:0:0:80:G_D6.wav
153,192,149352,128,0,149477:0:0:0:100:(s)C7.wav
358,192,149477,128,0,149602:0:0:0:0:
256,192,149602,1,0,0:0:0:80:G_F6.wav
153,192,149602,1,8,3:0:0:0:
460,192,149602,128,0,149852:0:0:0:100:(s)Bb6.wav
51,192,149852,1,0,0:0:0:0:
358,192,149914,1,0,0:0:0:0:
51,192,149977,1,0,0:0:0:0:
358,192,150039,1,0,0:0:0:0:
153,192,150102,1,2,0:0:0:0:
256,192,150102,128,0,150602:0:0:0:100:D7.wav
51,192,150352,128,0,150477:0:0:0:80:G_G6.wav
358,192,150477,128,0,150602:0:0:0:80:G_F6.wav
460,192,150602,1,8,3:0:0:0:
153,192,150602,128,0,150727:0:0:0:100:(s)C7.wav
51,192,150602,128,0,150727:0:0:0:0:
256,192,150727,128,2,150852:0:0:0:80:G_D6.wav
460,192,150852,128,0,151102:0:0:0:80:G_F6.wav
256,192,151102,128,0,151602:0:0:0:100:D7.wav
358,192,151102,128,2,151227:0:0:0:0:
51,192,151227,128,0,151352:0:0:0:80:G_F6.wav
153,192,151352,128,0,151477:0:0:0:80:G_D6.wav
460,192,151477,128,0,151602:0:0:0:80:G_D6.wav
51,192,151602,128,0,151727:0:0:0:80:G_F6.wav
153,192,151602,128,0,151727:0:0:0:100:(s)C7.wav
358,192,151602,1,8,3:0:0:0:
460,192,151852,1,0,0:0:0:0:
51,192,151914,1,0,0:0:0:0:
460,192,151977,1,0,0:0:0:0:
51,192,152039,1,0,0:0:0:0:
153,192,152102,1,0,0:0:0:0:
256,192,152102,1,2,0:0:0:0:
460,192,152352,128,0,152602:0:0:0:100:(s)G6.wav
51,192,152477,128,0,152602:0:0:0:80:G_F6.wav
153,192,152602,1,0,0:0:0:0:
358,192,152602,1,8,3:0:0:0:
256,192,152602,128,0,152727:0:0:0:100:(s)Bb6.wav
51,192,152727,1,0,0:0:0:0:
460,192,152852,1,0,0:0:0:100:(s)C7.wav
358,192,152914,128,0,153602:0:0:0:100:(s)D7.wav
51,192,153102,1,2,0:0:0:0:
256,192,153102,128,0,153227:0:0:0:80:G_Bb5.wav
153,192,153227,128,0,153352:0:0:0:80:G_D6.wav
256,192,153352,128,0,153477:0:0:0:100:(s)G6.wav
460,192,153477,128,0,153602:0:0:0:0:
256,192,153602,1,8,3:0:0:0:
153,192,153602,1,0,0:0:0:80:G_F6.wav
51,192,153602,128,0,153852:0:0:0:100:(s)Bb6.wav
460,192,153852,1,0,0:0:0:100:(s)C7.wav
153,192,153914,1,0,0:0:0:0:
460,192,153977,1,0,0:0:0:0:
153,192,154039,1,0,0:0:0:0:
51,192,154102,1,2,0:0:0:0:
256,192,154102,128,0,154352:0:0:0:100:(s)Bb6.wav
460,192,154352,128,0,154477:0:0:0:80:G_G6.wav
153,192,154477,128,0,154602:0:0:0:80:G_F6.wav
460,192,154602,1,0,0:0:0:0:
256,192,154602,1,8,3:0:0:0:
51,192,154602,1,0,0:0:0:0:
358,192,154727,128,0,154852:0:0:0:80:G_D6.wav
153,192,154852,128,0,155102:0:0:0:80:G_F6.wav
51,192,155102,1,2,0:0:0:0:
460,192,155102,128,0,155227:0:0:0:80:G_Bb5.wav
358,192,155227,128,0,155352:0:0:0:80:G_F6.wav
153,192,155352,128,0,155477:0:0:0:80:G_D6.wav
256,192,155477,128,0,155602:0:0:0:80:G_D6.wav
358,192,155602,1,8,3:0:0:0:
460,192,155602,1,0,0:0:0:0:
51,192,155602,128,0,155852:0:0:0:80:G_F6.wav
153,192,155852,1,0,0:0:0:0:
358,192,155914,1,0,0:0:0:0:
153,192,155977,1,0,0:0:0:0:
358,192,156039,1,0,0:0:0:0:
460,192,156102,1,0,0:0:0:0:
256,192,156102,1,2,0:0:0:0:
51,192,156352,128,0,156602:0:0:0:100:(s)G6.wav
153,192,156477,128,0,156602:0:0:0:80:G_F6.wav
358,192,156602,1,8,3:0:0:0:
460,192,156602,1,0,0:0:0:0:
256,192,156602,128,0,156727:0:0:0:100:(s)Bb6.wav
153,192,156727,1,0,0:0:0:0:
460,192,156852,1,0,0:0:0:100:(s)C7.wav
51,192,156914,128,0,157602:0:0:0:100:(s)D7.wav
256,192,157102,1,2,0:0:0:0:
358,192,157102,128,0,157227:0:0:0:80:G_Bb5.wav
460,192,157227,128,0,157352:0:0:0:80:G_D6.wav
153,192,157352,128,0,157477:0:0:0:100:(s)G6.wav
358,192,157477,128,0,157602:0:0:0:0:
460,192,157602,1,0,0:0:0:80:G_F6.wav
153,192,157602,1,8,3:0:0:0:
256,192,157602,128,0,157852:0:0:0:100:(s)Bb6.wav
51,192,157852,1,0,0:0:0:100:(s)C7.wav
460,192,157914,1,0,0:0:0:0:
51,192,157977,1,0,0:0:0:0:
460,192,158039,1,0,0:0:0:0:
358,192,158102,1,2,0:0:0:0:
153,192,158102,128,0,158352:0:0:0:100:(s)Bb6.wav
256,192,158352,128,0,158477:0:0:0:80:G_G6.wav
460,192,158477,128,0,158602:0:0:0:80:G_F6.wav
358,192,158602,1,0,0:0:0:0:
153,192,158602,1,8,3:0:0:0:
51,192,158602,1,0,0:0:0:0:
256,192,158727,128,0,158852:0:0:0:80:G_D6.wav
51,192,158852,128,0,159102:0:0:0:80:G_F6.wav
358,192,159102,128,2,159227:0:0:0:0:
153,192,159102,1,0,0:0:0:80:G_Bb5.wav
256,192,159227,128,0,159352:0:0:0:80:G_F6.wav
460,192,159352,128,0,159602:0:0:0:80:G_D6.wav
153,192,159477,128,0,159602:0:0:0:80:G_D6.wav
358,192,159602,1,0,0:0:0:0:
51,192,159602,1,0,0:0:0:80:G_F6.wav
256,192,159602,1,8,3:0:0:0:
153,192,159852,1,0,0:0:0:0:
460,192,159914,1,0,0:0:0:0:
153,192,159977,1,0,0:0:0:0:
460,192,160039,1,0,0:0:0:0:
51,192,160102,1,0,0:0:0:80:G_F6.wav
358,192,160102,1,2,0:0:0:0:
460,192,160352,128,0,160477:0:0:0:80:G_A5.wav
358,192,160477,1,2,0:0:0:0:
51,192,160477,1,0,0:0:0:80:G_F6.wav
51,192,160852,1,2,0:0:0:0:
358,192,160852,128,0,161602:0:0:0:80:G_F6.wav
460,192,162102,128,0,162852:1:0:0:80:G_Bb5.wav
51,192,162102,128,4,162602:0:2:0:0:
358,192,162352,128,0,162852:1:0:0:80:G_G6.wav
256,192,162602,128,0,162852:1:0:0:80:G_F6.wav
153,192,162852,128,0,163102:0:0:0:80:G_C6.wav
51,192,162852,128,0,163102:0:0:0:80:G_A5.wav
256,192,163102,128,0,163602:1:0:0:80:G_F6.wav
358,192,163352,128,0,163602:1:0:0:80:G_D6.wav
460,192,163352,128,0,163602:0:0:0:80:G_Bb5.wav
153,192,163602,128,0,164102:1:0:0:80:G_F6.wav
51,192,163852,128,0,164102:0:0:0:80:G_F5.wav
256,192,163852,128,0,164102:0:0:0:80:G_A5.wav
460,192,164102,128,0,164352:1:0:0:0:
153,192,164352,128,0,164602:0:0:0:80:G_G6.wav
358,192,164352,128,0,164602:1:0:0:80:G_Bb5.wav
51,192,164602,128,0,164852:1:0:0:80:G_F6.wav
153,192,164852,128,0,165602:0:0:0:80:G_Eb5.wav
358,192,164852,128,0,165602:0:0:0:80:G_Bb5.wav
51,192,165102,128,0,165602:1:0:0:80:G_Bb5.wav
256,192,165352,128,0,165602:1:0:0:80:G_G6.wav
460,192,165602,128,0,166102:1:0:0:80:G_F6.wav
51,192,166102,128,0,166852:0:0:0:80:G_G5.wav
153,192,166102,128,0,166602:1:0:0:80:G_Bb5.wav
256,192,166352,128,0,166852:1:0:0:80:G_G6.wav
358,192,166602,128,0,166852:1:0:0:80:G_F6.wav
460,192,166852,128,0,167102:0:0:0:80:G_A5.wav
153,192,166852,128,0,167102:0:0:0:80:G_C6.wav
256,192,167102,128,0,167602:1:0:0:80:G_F6.wav
51,192,167352,128,0,167602:0:0:0:80:G_Bb5.wav
358,192,167352,128,0,167602:1:0:0:80:G_D6.wav
460,192,167602,128,0,168102:1:0:0:80:G_F6.wav
153,192,167852,128,0,168102:0:0:0:80:G_F6.wav
256,192,167852,128,0,168102:0:0:0:80:G_D6.wav
51,192,168102,128,0,168602:1:0:0:0:
358,192,168352,128,0,168602:0:0:0:80:G_G6.wav
256,192,168352,128,0,168602:1:0:0:80:G_A5.wav
153,192,168602,128,0,168852:1:0:0:80:G_F6.wav
460,192,168852,128,0,169602:0:0:0:80:G_G5.wav
51,192,168852,128,0,169602:0:0:0:80:G_Eb5.wav
358,192,169102,128,0,169602:1:0:0:80:G_Bb5.wav
153,192,169352,128,0,169602:1:0:0:80:G_G6.wav
256,192,169602,128,0,170102:1:0:0:80:G_F6.wav
358,192,170102,128,0,170602:1:0:0:80:G_Bb5.wav
460,192,170102,128,0,170852:0:0:0:80:G_G5.wav
51,192,170352,128,0,170602:1:0:0:80:G_G6.wav
256,192,170602,128,0,170852:1:0:0:80:G_F6.wav
153,192,170852,128,0,171102:0:0:0:80:G_C6.wav
51,192,170852,128,0,171102:0:0:0:80:G_A5.wav
460,192,171102,128,0,171602:1:0:0:80:G_F6.wav
358,192,171352,128,0,171602:1:0:0:80:G_D6.wav
256,192,171352,128,0,171602:0:0:0:80:G_Bb5.wav
51,192,171602,128,0,172102:1:0:0:80:G_F6.wav
153,192,171852,128,0,172102:0:0:0:80:G_A5.wav
256,192,171852,128,0,172102:0:0:0:80:G_F5.wav
358,192,172102,128,0,172352:1:0:0:0:
153,192,172352,128,0,172602:1:0:0:80:G_G6.wav
460,192,172352,128,0,172602:0:0:0:80:G_Bb5.wav
51,192,172602,128,0,173602:1:0:0:80:G_F6.wav
153,192,172852,128,0,173602:0:0:0:80:G_Eb5.wav
460,192,172852,128,0,173602:0:0:0:80:G_Bb5.wav
358,192,173102,128,0,173352:1:0:0:80:G_Bb5.wav
256,192,173352,128,0,173602:1:0:0:80:G_G6.wav
358,192,173602,128,0,174102:1:0:0:80:G_F6.wav
51,192,174102,128,0,174852:1:0:0:80:G_G5.wav
460,192,174102,128,0,174602:0:0:0:80:G_Bb5.wav
153,192,174352,128,0,174602:1:0:0:80:G_G6.wav
358,192,174602,128,0,174852:1:0:0:80:G_F6.wav
256,192,174852,128,0,175102:0:0:0:80:G_A5.wav
153,192,174852,128,0,175102:0:0:0:80:G_C6.wav
460,192,175102,128,0,175602:1:0:0:80:G_F6.wav
358,192,175352,128,0,175602:1:0:0:80:G_D6.wav
51,192,175352,128,0,175602:0:0:0:80:G_Bb5.wav
153,192,175602,128,0,176102:1:0:0:80:G_F6.wav
256,192,175852,128,0,176102:0:0:0:80:G_D6.wav
460,192,175852,128,0,176102:0:0:0:80:G_F6.wav
358,192,176102,128,0,176602:1:0:0:0:
51,192,176352,128,0,176602:0:0:0:80:G_A5.wav
153,192,176352,128,0,176602:1:0:0:80:G_G6.wav
256,192,176602,128,0,176852:1:0:0:80:G_F6.wav
358,192,176852,128,0,177602:0:0:0:80:G_Eb5.wav
460,192,176852,128,0,177602:0:0:0:80:G_G5.wav
153,192,177102,128,0,177602:1:0:0:80:G_Bb5.wav
51,192,177352,128,0,177602:1:0:0:80:G_G6.wav
256,192,177602,128,0,178102:1:0:0:80:G_F6.wav
51,192,178102,128,0,178602:0:0:0:80:G_D5.wav
256,192,178352,128,0,178852:0:0:0:80:G_F5.wav
460,192,178602,128,0,179102:1:0:0:80:G_Bb5.wav
51,192,178852,128,0,179352:0:0:0:80:G_D5.wav
256,192,179102,128,0,179602:0:0:0:80:G_F5.wav
460,192,179352,128,0,179852:1:0:0:80:G_Bb5.wav
51,192,179602,128,0,180102:0:0:0:80:G_D5.wav
256,192,179852,128,0,180102:0:0:0:80:G_F5.wav
358,192,180102,128,0,180602:0:0:0:80:G_Eb5.wav
256,192,180352,128,0,180852:0:0:0:80:G_F5.wav
153,192,180602,128,0,181102:1:0:0:80:G_Bb5.wav
358,192,180852,128,0,181352:0:0:0:80:G_Eb5.wav
256,192,181102,128,0,181602:0:0:0:80:G_F5.wav
153,192,181352,128,0,181852:1:0:0:80:G_Bb5.wav
358,192,181602,128,0,182102:0:0:0:80:G_Eb5.wav
256,192,181852,128,0,182102:0:0:0:80:G_F5.wav
460,192,182102,128,0,182602:0:0:0:80:G_D5.wav
256,192,182352,128,0,182852:0:0:0:80:G_F5.wav
51,192,182602,128,0,183102:1:0:0:80:G_Bb5.wav
460,192,182852,128,0,183352:0:0:0:80:G_D5.wav
256,192,183102,128,0,183602:0:0:0:80:G_F5.wav
51,192,183352,128,0,183852:1:0:0:80:G_Bb5.wav
460,192,183602,128,0,184102:0:0:0:80:G_D5.wav
256,192,183852,128,0,184102:0:0:0:80:G_F5.wav
358,192,184102,128,0,184602:0:0:0:80:G_C5.wav
256,192,184352,128,0,184852:0:0:0:80:G_F5.wav
153,192,184602,128,0,185102:1:0:0:80:G_A5.wav
358,192,184852,128,0,185352:0:0:0:80:G_C5.wav
256,192,185102,128,0,185602:0:0:0:80:G_F5.wav
153,192,185352,128,0,185852:1:0:0:80:G_A5.wav
358,192,185602,128,0,186102:0:0:0:80:G_C5.wav
256,192,185852,128,0,186102:0:0:0:80:G_F5.wav
51,192,186102,128,0,186602:0:0:0:80:G_D5.wav
358,192,186352,128,0,186852:0:0:0:80:G_F5.wav
256,192,186602,128,0,187102:1:0:0:80:G_Bb5.wav
51,192,186852,128,0,187352:0:0:0:80:G_D5.wav
358,192,187102,128,0,187602:0:0:0:80:G_F5.wav
256,192,187352,128,0,187852:1:0:0:80:G_Bb5.wav
51,192,187602,128,0,188102:0:0:0:80:G_D5.wav
358,192,187852,128,0,188102:0:0:0:80:G_F5.wav
460,192,188102,128,0,188602:0:0:0:80:G_Eb5.wav
153,192,188352,128,0,188852:0:0:0:80:G_F5.wav
256,192,188602,128,0,189102:1:0:0:80:G_Bb5.wav
460,192,188852,128,0,189352:0:0:0:80:G_Eb5.wav
153,192,189102,128,0,189602:0:0:0:80:G_F5.wav
256,192,189352,128,0,189852:1:0:0:80:G_Bb5.wav
460,192,189602,128,0,190102:0:0:0:80:G_Eb5.wav
153,192,189852,128,0,190102:0:0:0:80:G_F5.wav
51,192,190102,128,0,190602:0:0:0:80:G_D5.wav
358,192,190352,128,0,190852:0:0:0:80:G_F5.wav
460,192,190602,128,0,191102:1:0:0:80:G_Bb5.wav
51,192,190852,128,0,191352:0:0:0:80:G_D5.wav
358,192,191102,128,0,191602:0:0:0:80:G_F5.wav
460,192,191352,128,0,191852:1:0:0:80:G_Bb5.wav
51,192,191602,128,0,192102:0:0:0:80:G_D5.wav
358,192,191852,128,0,192102:0:0:0:80:G_F5.wav
460,192,192102,128,0,192602:0:0:0:80:G_C5.wav
51,192,192352,128,0,192852:0:0:0:80:G_F5.wav
256,192,192602,128,0,193102:1:0:0:80:G_A5.wav
460,192,192852,128,0,193352:0:0:0:80:G_C5.wav
51,192,193102,128,0,193602:0:0:0:80:G_F5.wav
256,192,193352,128,0,193852:1:0:0:80:G_A5.wav
460,192,193602,128,0,194102:0:0:0:80:G_C5.wav
51,192,193852,128,0,194102:0:0:0:80:G_F5.wav
358,192,194102,1,0,0:0:0:80:G_Bb4.wav
153,192,194164,1,0,0:0:0:80:G_C5.wav
256,192,194227,1,0,0:0:0:80:G_D5.wav
460,192,194289,1,0,0:0:0:80:G_F5.wav
51,192,194320,1,0,0:0:0:80:G_Bb5.wav
