osu file format v14

[General]
AudioFilename: audio.mp3
AudioLeadIn: 0
PreviewTime: 130102
Countdown: 0
SampleSet: Soft
StackLeniency: 0.7
Mode: 3
LetterboxInBreaks: 0
SpecialStyle: 0
WidescreenStoryboard: 1

[Editor]
Bookmarks: 34102,50102,66102,82102,98102,114102,130102,146102,161602,178102,198102
DistanceSpacing: 0.8
BeatDivisor: 4
GridSize: 16
TimelineZoom: 1.5

[Metadata]
Title:From Here (feat. Cae)
TitleUnicode:From Here (feat. Cae)
Artist:Adib Sin
ArtistUnicode:Adib Sin
Creator:Protastic101
Version:Normal
Source:
Tags:acoustic guitar meowcaroni calm chill electronic funk Brisbane cute electronica eggshorty Pop English
BeatmapID:2465301
BeatmapSetID:883672

[Difficulty]
HPDrainRate:7
CircleSize:5
OverallDifficulty:6
ApproachRate:5
SliderMultiplier:1.4
SliderTickRate:1

[Events]
//Background and Video events
0,0,"Swirl.jpg",0,0
//Break Periods
//Storyboard Layer 0 (Background)
//Storyboard Layer 1 (Fail)
//Storyboard Layer 2 (Pass)
//Storyboard Layer 3 (Foreground)
//Storyboard Layer 4 (Overlay)
//Storyboard Sound Samples
Sample,2102,0,"G_Bb5.wav",80
Sample,2852,0,"G_Bb5.wav",80
Sample,3602,0,"G_Bb5.wav",80
Sample,4102,0,"G_G5.wav",80
Sample,4852,0,"G_G5.wav",80
Sample,5602,0,"G_G5.wav",80
Sample,6102,0,"G_F5.wav",80
Sample,6852,0,"G_F5.wav",80
Sample,7602,0,"G_F5.wav",80
Sample,8102,0,"G_Eb5.wav",80
Sample,8852,0,"G_Eb5.wav",80
Sample,9602,0,"G_Eb5.wav",80
Sample,10102,0,"G_Bb5.wav",80
Sample,10852,0,"G_Bb5.wav",80
Sample,11602,0,"G_Bb5.wav",80
Sample,12102,0,"G_G5.wav",80
Sample,12852,0,"G_G5.wav",80
Sample,13602,0,"G_G5.wav",80
Sample,14102,0,"G_F5.wav",80
Sample,14852,0,"G_F5.wav",80
Sample,15602,0,"G_F5.wav",80
Sample,16102,0,"G_Eb5.wav",80
Sample,16852,0,"G_Eb5.wav",80
Sample,17602,0,"G_Eb5.wav",80
Sample,32102,0,"G_Eb4.wav",80
Sample,32602,0,"G_Eb4.wav",80
Sample,33102,0,"G_Eb4.wav",80
Sample,48352,0,"G_Eb4.wav",80
Sample,48602,0,"G_Eb4.wav",80
Sample,48852,0,"G_Eb4.wav",80
Sample,50852,0,"(s)F7.wav",100
Sample,52352,0,"(s)A7.wav",100
Sample,52602,0,"(s)F7.wav",100
Sample,54852,0,"(s)F7.wav",100
Sample,56352,0,"(s)A7.wav",100
Sample,56602,0,"(s)F7.wav",100
Sample,58852,0,"(s)F7.wav",100
Sample,60602,0,"(s)F7.wav",100
Sample,62852,0,"(s)D7.wav",100
Sample,64602,0,"(s)D7.wav",100
Sample,65602,0,"(s)Bb6.wav",100
Sample,66102,0,"D7.wav",100
Sample,68602,0,"(s)F7.wav",100
Sample,70102,0,"D7.wav",100
Sample,72602,0,"(s)Bb6.wav",100
Sample,73352,0,"(s)G6.wav",100
Sample,73602,0,"(s)Bb6.wav",100
Sample,74852,0,"G_A5.wav",80
Sample,75602,0,"G_F5.wav",80
Sample,76352,0,"(s)G6.wav",100
Sample,76602,0,"(s)Bb6.wav",100
Sample,77602,0,"(s)Bb6.wav",100
Sample,78102,0,"Bb6.wav",100
Sample,80602,0,"(s)D7.wav",100
Sample,80602,0,"G_F5.wav",80
Sample,81352,0,"G_D5.wav",80
Sample,81602,0,"G_Bb6.wav",80
Sample,82102,0,"G_Bb6.wav",80
Sample,98102,0,"G_G5.wav",80
Sample,98852,0,"G_A5.wav",80
Sample,99352,0,"G_Bb5.wav",80
Sample,99852,0,"G_D5.wav",80
Sample,100352,0,"G_Eb5.wav",80
Sample,100852,0,"G_Eb5.wav",80
Sample,102102,0,"G_G5.wav",80
Sample,102852,0,"G_A5.wav",80
Sample,103352,0,"G_Bb5.wav",80
Sample,103852,0,"G_D6.wav",80
Sample,104352,0,"G_F5.wav",80
Sample,104852,0,"G_Eb5.wav",70
Sample,106102,0,"G_G5.wav",80
Sample,106852,0,"G_A5.wav",80
Sample,107352,0,"G_Bb5.wav",80
Sample,107852,0,"G_D5.wav",80
Sample,108352,0,"G_Eb5.wav",80
Sample,108852,0,"G_Eb5.wav",80
Sample,110102,0,"G_G5.wav",80
Sample,110852,0,"G_A5.wav",80
Sample,111352,0,"G_Bb5.wav",80
Sample,111852,0,"G_D6.wav",80
Sample,112352,0,"G_F5.wav",80
Sample,112852,0,"G_Eb5.wav",70
Sample,115602,0,"G_Bb5.wav",80
Sample,116102,0,"G_A5.wav",80
Sample,117602,0,"G_A5.wav",80
Sample,118102,0,"G_G5.wav",80
Sample,119602,0,"G_G5.wav",80
Sample,120102,0,"G_A5.wav",80
Sample,121602,0,"G_A5.wav",80
Sample,122852,0,"G_Bb5.wav",80
Sample,124852,0,"G_A5.wav",80
Sample,126852,0,"G_G5.wav",80
Sample,133602,0,"G_F6.wav",80
Sample,137602,0,"G_F6.wav",80
Sample,138102,0,"G_D6.wav",80
Sample,138477,0,"G_D6.wav",80
Sample,138852,0,"G_D6.wav",80
Sample,139227,0,"G_D6.wav",80
Sample,139602,0,"G_D6.wav",80
Sample,140102,0,"G_D6.wav",80
Sample,140477,0,"G_D6.wav",80
Sample,140852,0,"G_D6.wav",80
Sample,141227,0,"G_D6.wav",80
Sample,141602,0,"G_D6.wav",80
Sample,142102,0,"G_D6.wav",80
Sample,142477,0,"G_D6.wav",80
Sample,142852,0,"G_D6.wav",80
Sample,143227,0,"G_D6.wav",80
Sample,143602,0,"G_D6.wav",80
Sample,147102,0,"G_Bb5.wav",80
Sample,147602,0,"G_F6.wav",80
Sample,149102,0,"G_Bb5.wav",80
Sample,149352,0,"G_G6.wav",80
Sample,149602,0,"G_F6.wav",80
Sample,151102,0,"G_F6.wav",80
Sample,151602,0,"G_F6.wav",80
Sample,153602,0,"G_F6.wav",80
Sample,157352,0,"G_G6.wav",80
Sample,157602,0,"G_F6.wav",80
Sample,162102,0,"G_Bb5.wav",80

[TimingPoints]
2102,500,4,2,1,30,1,0
34102,-100,4,2,1,60,0,0
50102,-100,4,2,1,60,0,1
82102,-100,4,2,1,30,0,0
114102,-100,4,2,1,60,0,0
130102,-100,4,2,1,60,0,1
161602,-100,4,1,1,30,0,0
178102,-100,4,2,1,30,0,0

[HitObjects]
358,192,2102,128,0,2602:0:0:0:80:G_D6.wav
358,192,2852,128,0,3352:0:0:0:80:G_D6.wav
256,192,3352,1,0,0:0:0:80:G_Bb4.wav
358,192,3602,128,0,3852:0:0:0:80:G_D6.wav
256,192,4102,128,0,4602:0:0:0:80:G_Bb5.wav
256,192,4852,128,0,5352:0:0:0:80:G_Bb5.wav
153,192,5352,1,0,0:0:0:80:G_Bb4.wav
256,192,5602,128,0,5852:0:0:0:80:G_Bb5.wav
153,192,6102,128,0,6602:0:0:0:80:G_A5.wav
153,192,6852,128,0,7352:0:0:0:80:G_A5.wav
51,192,7352,1,0,0:0:0:80:G_Bb4.wav
153,192,7602,128,0,7852:0:0:0:80:G_A5.wav
51,192,8102,128,0,8602:0:0:0:80:G_G5.wav
51,192,8852,128,0,9352:0:0:0:80:G_G5.wav
460,192,9352,1,0,0:0:0:80:G_Bb4.wav
51,192,9602,128,0,9852:0:0:0:80:G_G5.wav
358,192,10102,128,0,10602:0:0:0:80:G_D6.wav
358,192,10852,128,0,11352:0:0:0:80:G_D6.wav
256,192,11352,1,0,0:0:0:80:G_Bb4.wav
358,192,11602,128,0,11852:0:0:0:80:G_D6.wav
256,192,12102,128,0,12602:0:0:0:80:G_Bb5.wav
256,192,12852,128,0,13352:0:0:0:80:G_Bb5.wav
153,192,13352,1,0,0:0:0:80:G_Bb4.wav
256,192,13602,128,0,13852:0:0:0:80:G_Bb5.wav
153,192,14102,128,0,14602:0:0:0:80:G_A5.wav
153,192,14852,128,0,15352:0:0:0:80:G_A5.wav
51,192,15352,1,0,0:0:0:80:G_Bb4.wav
153,192,15602,128,0,15852:0:0:0:80:G_A5.wav
51,192,16102,128,0,16602:0:0:0:80:G_G5.wav
51,192,16852,128,0,17352:0:0:0:80:G_G5.wav
460,192,17352,1,0,0:0:0:80:G_Bb4.wav
51,192,17602,128,0,17852:0:0:0:80:G_G5.wav
460,192,18102,128,0,18602:0:0:0:80:G_D5.wav
358,192,18352,128,0,18602:0:0:0:80:G_F5.wav
256,192,18602,128,0,19352:0:0:0:80:G_Bb5.wav
51,192,18852,128,0,19352:0:0:0:80:G_C6.wav
153,192,19352,128,0,19602:0:0:0:80:G_F5.wav
358,192,19602,128,0,19852:0:0:0:80:G_Bb5.wav
51,192,19852,128,0,20102:0:0:0:80:G_C6.wav
460,192,20102,128,0,20602:0:0:0:80:G_D5.wav
358,192,20352,128,0,20602:0:0:0:80:G_F5.wav
256,192,20602,128,0,21352:0:0:0:80:G_Bb5.wav
51,192,20852,128,0,21352:0:0:0:80:G_C6.wav
153,192,21352,128,0,21602:0:0:0:80:G_F5.wav
460,192,21602,128,0,21852:0:0:0:80:G_Bb5.wav
358,192,21852,128,0,22102:0:0:0:80:G_C6.wav
51,192,22102,128,0,22602:0:0:0:80:G_Bb4.wav
153,192,22352,128,0,22602:0:0:0:80:G_D5.wav
358,192,22602,128,0,23352:0:0:0:80:G_F5.wav
460,192,22852,128,0,23352:0:0:0:80:G_Bb5.wav
256,192,23352,128,0,23602:0:0:0:80:G_D5.wav
153,192,23602,128,0,23852:0:0:0:80:G_F5.wav
460,192,23852,128,0,24102:0:0:0:80:G_Bb5.wav
51,192,24102,128,0,24602:0:0:0:80:G_Bb4.wav
153,192,24352,128,0,24602:0:0:0:80:G_D5.wav
358,192,24602,128,0,25352:0:0:0:80:G_F5.wav
460,192,24852,128,0,25352:0:0:0:80:G_Bb5.wav
256,192,25352,128,0,25602:0:0:0:80:G_D5.wav
153,192,25602,128,0,25852:0:0:0:80:G_F5.wav
460,192,25852,128,0,26102:0:0:0:80:G_Bb5.wav
51,192,26102,1,0,0:0:0:0:
153,192,26352,128,0,26602:0:0:0:100:(s)G6.wav
256,192,26602,128,0,26852:0:0:0:100:(s)Bb6.wav
460,192,26852,128,0,27102:0:0:0:100:(s)F7.wav
358,192,27102,128,0,27602:0:0:0:100:D7.wav
358,192,27852,1,0,0:0:0:100:(s)D7.wav
153,192,28102,128,0,28352:0:0:0:100:(s)Bb7.wav
51,192,28352,128,0,28602:0:0:0:100:(s)A7.wav
358,192,28602,128,0,28852:0:0:0:100:(s)F7.wav
256,192,28852,1,0,0:0:0:100:(s)D7.wav
153,192,29102,1,0,0:0:0:100:(s)G7.wav
460,192,29602,128,0,30102:0:0:0:100:F7.wav
51,192,30352,128,0,30602:0:0:0:100:(s)F6.wav
153,192,30602,128,0,30852:0:0:0:100:(s)G6.wav
460,192,30852,128,0,31102:0:0:0:100:(s)D7.wav
256,192,31102,128,0,31602:0:0:0:100:Bb6.wav
51,192,31852,1,0,0:0:0:100:(s)G6.wav
153,192,32102,128,0,32352:0:0:0:100:(s)Eb7.wav
358,192,32352,1,0,0:0:0:80:G_Eb4.wav
256,192,32602,128,0,32852:0:0:0:100:(s)D7.wav
153,192,32852,1,0,0:0:0:80:G_Eb4.wav
460,192,33102,128,0,33352:0:0:0:100:(s)C7.wav
51,192,33352,1,0,0:0:0:80:G_Eb4.wav
358,192,33602,128,0,33852:0:0:0:100:(s)Bb6.wav
460,192,34102,1,6,0:0:0:0:
153,192,34102,128,0,34852:0:0:0:80:G_Bb4.wav
256,192,34352,128,0,34852:0:0:0:80:G_D5.wav
358,192,34602,128,0,34852:0:0:0:80:G_F5.wav
460,192,34852,1,2,0:0:0:0:
51,192,34852,1,0,0:0:0:80:G_C6.wav
153,192,35102,1,0,0:0:0:0:
256,192,35102,1,8,0:0:0:0:
460,192,35352,128,0,35602:0:0:0:80:G_D5.wav
358,192,35602,128,0,35852:0:0:0:80:G_F5.wav
256,192,35852,128,0,36352:0:0:0:80:G_C6.wav
51,192,36352,128,0,36602:0:0:0:80:G_D5.wav
153,192,36602,128,0,36852:0:0:0:80:G_F5.wav
358,192,36602,1,2,0:0:0:0:
256,192,36852,128,0,37102:0:0:0:80:G_C6.wav
358,192,37102,1,8,0:0:0:0:
460,192,37102,1,0,0:0:0:0:
153,192,37352,128,0,37602:0:0:0:80:G_D5.wav
460,192,37602,128,0,37852:0:0:0:80:G_F5.wav
256,192,37602,1,2,0:0:0:0:
256,192,37852,128,8,38102:1:0:0:0:
358,192,38102,1,2,0:0:0:0:
51,192,38102,128,0,38852:0:0:0:80:G_Bb4.wav
460,192,38352,128,0,38852:0:0:0:80:G_D5.wav
153,192,38602,128,0,38852:0:0:0:80:G_F5.wav
256,192,38852,1,2,0:0:0:0:
358,192,38852,1,0,0:0:0:80:G_Bb5.wav
153,192,39102,1,8,0:0:0:0:
51,192,39102,1,0,0:0:0:0:
256,192,39352,128,0,39602:0:0:0:80:G_D5.wav
358,192,39602,128,0,39852:0:0:0:80:G_F5.wav
460,192,39852,128,0,40352:0:0:0:80:G_Bb5.wav
153,192,40352,128,0,40602:0:0:0:80:G_D5.wav
51,192,40602,128,0,40852:0:0:0:80:G_F5.wav
460,192,40602,1,2,0:0:0:0:
358,192,40852,128,0,41102:0:0:0:80:G_Bb5.wav
256,192,41102,1,0,0:0:0:0:
460,192,41102,1,8,0:0:0:0:
51,192,41352,128,0,41602:0:0:0:80:G_D5.wav
256,192,41602,128,0,41852:0:0:0:80:G_F5.wav
153,192,41602,1,2,0:0:0:0:
460,192,41852,128,0,42102:0:0:0:80:G_Bb5.wav
153,192,42102,1,2,0:0:0:0:
358,192,42102,128,0,42852:0:0:0:80:G_G6.wav
51,192,42352,128,0,42852:0:0:0:80:G_D5.wav
256,192,42602,128,0,42852:0:0:0:80:G_F5.wav
153,192,42852,1,2,0:0:0:0:
460,192,42852,1,0,0:0:0:80:G_C6.wav
256,192,43102,1,8,0:0:0:0:
358,192,43102,1,0,0:0:0:0:
51,192,43352,1,0,1:0:0:80:G_D5.wav
460,192,43602,1,0,1:0:0:80:G_F5.wav
460,192,43852,128,0,44352:1:0:0:80:G_C6.wav
153,192,44352,128,0,44602:0:0:0:80:G_D5.wav
51,192,44602,1,2,0:0:0:0:
358,192,44602,128,0,44852:0:0:0:80:G_F5.wav
256,192,44852,128,0,45102:0:0:0:80:G_C6.wav
51,192,45102,1,8,0:0:0:0:
460,192,45102,1,0,0:0:0:0:
460,192,45352,128,0,45602:1:0:0:80:G_D5.wav
256,192,45602,128,0,45852:1:0:0:80:G_F5.wav
51,192,45602,1,2,0:0:0:0:
51,192,45852,128,8,46102:1:0:0:0:
358,192,46102,1,2,0:0:0:0:
153,192,46102,128,0,46852:0:0:0:80:G_G6.wav
256,192,46352,128,0,46852:0:0:0:80:G_D5.wav
51,192,46602,128,0,46852:0:0:0:80:G_F5.wav
358,192,46852,1,2,0:0:0:0:
460,192,46852,1,0,0:0:0:80:G_Bb5.wav
51,192,47102,1,0,0:0:0:0:
256,192,47102,1,8,0:0:0:0:
153,192,47352,1,0,1:0:0:80:G_D5.wav
358,192,47602,1,0,1:0:0:80:G_F5.wav
358,192,47852,128,0,48102:1:0:0:80:G_Bb5.wav
51,192,48102,1,0,0:0:0:80:G_Eb4.wav
51,192,48352,1,0,0:0:0:80:G_D5.wav
460,192,48602,1,0,0:0:0:80:G_F5.wav
153,192,48602,1,2,0:0:0:0:
460,192,48852,1,0,0:0:0:80:G_Bb5.wav
153,192,49102,1,8,0:0:0:0:
358,192,49102,1,0,0:0:0:0:
51,192,49602,1,0,1:0:0:0:
460,192,50102,1,4,0:0:0:0:
358,192,50102,1,2,0:0:0:0:
153,192,50352,128,0,50602:1:0:0:100:(s)G6.wav
51,192,50602,128,0,50852:1:0:0:100:(s)Bb6.wav
256,192,50852,128,2,51102:0:0:0:0:
460,192,51102,128,0,51602:0:0:0:100:D7.wav
153,192,51102,1,8,0:0:0:0:
153,192,51602,1,2,0:0:0:0:
51,192,51602,1,0,1:0:0:0:
460,192,51852,1,0,1:0:0:100:(s)D7.wav
358,192,52102,128,0,52352:0:0:0:100:(s)Bb7.wav
51,192,52352,128,2,52602:0:0:0:0:
153,192,52602,128,2,52852:0:0:0:0:
256,192,52852,1,0,1:0:0:100:(s)D7.wav
460,192,53102,1,0,0:0:0:100:(s)G7.wav
153,192,53102,1,8,0:0:0:0:
358,192,53602,128,0,54102:1:0:0:100:F7.wav
51,192,53602,1,2,0:0:0:0:
51,192,53852,1,8,1:0:0:0:
153,192,54102,1,2,0:0:0:0:
256,192,54352,128,0,54602:1:0:0:100:(s)G6.wav
460,192,54602,128,0,54852:1:0:0:100:(s)Bb6.wav
358,192,54852,128,2,55102:0:0:0:0:
256,192,55102,1,8,0:0:0:0:
51,192,55102,128,0,55602:0:0:0:100:D7.wav
153,192,55602,1,0,1:0:0:0:
358,192,55602,1,2,0:0:0:0:
51,192,55852,1,0,1:0:0:100:(s)D7.wav
256,192,56102,128,0,56352:0:0:0:100:(s)Bb7.wav
460,192,56352,128,2,56602:0:0:0:0:
358,192,56602,128,2,56852:0:0:0:0:
51,192,56852,1,0,1:0:0:100:(s)D7.wav
256,192,57102,1,8,0:0:0:0:
153,192,57102,1,0,0:0:0:100:(s)G7.wav
460,192,57352,1,2,0:0:0:0:
51,192,57602,1,0,1:0:0:100:F7.wav
460,192,57602,128,2,58102:0:0:0:0:
51,192,57852,1,0,1:0:0:0:
153,192,58102,128,2,58352:0:0:0:0:
256,192,58102,1,4,0:0:0:0:
358,192,58352,128,0,58602:1:0:0:100:(s)G6.wav
51,192,58602,128,0,58852:1:0:0:100:(s)Bb6.wav
460,192,58852,128,2,59102:0:0:0:0:
256,192,59102,128,0,59602:0:0:0:100:D7.wav
51,192,59102,1,8,0:0:0:0:
358,192,59602,1,2,0:0:0:0:
460,192,59602,1,0,1:0:0:0:
256,192,59852,1,0,1:0:0:100:(s)D7.wav
153,192,60102,128,0,60352:0:0:0:100:(s)Bb7.wav
358,192,60352,128,0,60602:0:0:0:100:(s)A7.wav
460,192,60602,128,2,60852:0:0:0:0:
51,192,60852,1,0,1:0:0:100:(s)D7.wav
153,192,61102,1,0,0:0:0:100:(s)G7.wav
358,192,61102,1,8,0:0:0:0:
51,192,61602,128,0,62102:0:0:0:100:F7.wav
460,192,61602,1,2,0:0:0:0:
460,192,61852,1,8,1:0:0:0:
153,192,62102,1,2,0:0:0:0:
460,192,62352,128,0,62602:1:0:0:100:(s)F6.wav
256,192,62602,128,0,62852:1:0:0:100:(s)G6.wav
358,192,62852,128,2,63102:0:0:0:0:
153,192,63102,128,0,63602:0:0:0:100:Bb6.wav
460,192,63102,1,8,0:0:0:0:
256,192,63602,1,0,1:0:0:0:
358,192,63602,1,2,0:0:0:0:
51,192,63852,1,0,1:0:0:100:(s)G6.wav
460,192,64102,128,0,64352:0:0:0:100:(s)Eb7.wav
256,192,64602,128,2,64852:0:0:0:0:
51,192,65102,128,0,65352:1:0:0:100:(s)C7.wav
153,192,65102,1,8,0:0:0:0:
460,192,65352,1,2,0:0:0:0:
358,192,65602,128,2,65852:0:0:0:0:
153,192,65602,1,2,1:0:0:0:
153,192,65852,1,2,1:0:0:0:
460,192,66102,1,0,0:0:0:100:D7.wav
51,192,66102,128,6,66602:0:0:0:0:
256,192,66602,128,0,66852:1:0:0:100:(s)C7.wav
358,192,66852,1,2,0:0:0:0:
51,192,67102,128,0,67602:0:0:0:100:D7.wav
358,192,67102,1,8,0:0:0:0:
256,192,67602,128,0,67852:1:0:0:100:(s)C7.wav
153,192,67602,1,2,0:0:0:0:
460,192,68102,1,0,0:0:0:100:(s)G7.wav
153,192,68352,1,2,0:0:0:0:
153,192,68602,1,2,0:0:0:0:
460,192,69102,128,0,69352:0:0:0:100:(s)D7.wav
51,192,69102,1,8,0:0:0:0:
358,192,69352,128,0,69602:1:0:0:100:(s)C7.wav
256,192,69602,128,0,69852:1:0:0:100:(s)Bb6.wav
153,192,69602,1,2,0:0:0:0:
153,192,70102,128,2,70602:0:0:0:0:
460,192,70602,128,0,70852:1:0:0:100:(s)C7.wav
256,192,70852,1,2,0:0:0:0:
153,192,71102,128,0,71602:0:0:0:100:D7.wav
256,192,71102,1,8,0:0:0:0:
460,192,71602,128,0,71852:1:0:0:100:(s)C7.wav
358,192,71602,1,2,0:0:0:0:
51,192,72352,1,0,1:0:0:100:(s)G6.wav
153,192,72602,1,2,0:0:0:0:
256,192,72852,128,0,73102:1:0:0:100:(s)D7.wav
358,192,73102,1,8,0:0:0:0:
460,192,73102,1,0,0:0:0:0:
51,192,73352,1,2,0:0:0:0:
51,192,73602,128,2,73852:0:0:0:0:
153,192,73852,128,0,74102:1:0:0:100:(s)C7.wav
460,192,74102,1,6,0:0:0:0:
256,192,74102,128,0,74352:0:0:0:80:G_F5.wav
358,192,74352,128,0,74602:1:0:0:80:G_D5.wav
256,192,74602,128,0,74852:1:0:0:80:G_F5.wav
460,192,74852,128,2,75102:0:0:0:0:
51,192,75102,128,0,75352:0:0:0:80:G_Bb5.wav
153,192,75102,1,8,0:0:0:0:
460,192,75352,128,0,75602:1:0:0:80:G_A5.wav
153,192,75602,128,2,75852:0:0:0:0:
256,192,75852,128,0,76352:1:0:0:80:G_D5.wav
460,192,76352,1,2,0:0:0:0:
460,192,76602,1,2,0:0:0:0:
51,192,76852,128,0,77102:1:0:0:100:(s)D7.wav
153,192,77102,1,0,0:0:0:0:
358,192,77102,1,8,0:0:0:0:
256,192,77352,1,0,1:0:0:100:(s)G6.wav
460,192,77602,128,2,77852:0:0:0:0:
153,192,77852,128,0,78102:1:0:0:100:(s)C7.wav
460,192,78102,128,2,78602:0:0:0:0:
358,192,78602,1,0,1:0:0:0:
153,192,78852,1,2,0:0:0:0:
153,192,79102,1,8,0:0:0:0:
51,192,79102,1,0,0:0:0:0:
460,192,79352,1,0,1:0:0:0:
256,192,79602,1,2,0:0:0:0:
51,192,80102,128,0,80352:0:0:0:100:(s)Eb7.wav
256,192,80352,1,0,1:0:0:80:G_D5.wav
256,192,80602,128,2,80852:0:0:0:0:
460,192,80852,1,0,1:0:0:80:G_Bb5.wav
51,192,81102,5,8,0:0:0:0:
460,192,81102,128,0,81352:0:0:0:100:(s)C7.wav
153,192,81352,1,2,0:0:0:0:
153,192,81602,128,2,81852:0:0:0:0:
358,192,81602,1,0,1:0:0:100:(s)Bb6.wav
358,192,81852,1,0,1:0:0:80:G_F6.wav
256,192,82102,1,2,0:0:0:0:
51,192,82102,128,0,82352:0:0:0:80:G_F6.wav
358,192,82352,1,0,0:0:0:80:G_Bb5.wav
51,192,82602,128,0,82852:0:0:0:80:G_F6.wav
358,192,82852,1,0,0:0:0:80:G_Bb5.wav
51,192,83102,128,0,83352:0:0:0:80:G_F6.wav
358,192,83352,1,0,0:0:0:80:G_Bb5.wav
51,192,83602,128,0,83852:0:0:0:80:G_F6.wav
358,192,83852,1,0,0:0:0:80:G_Bb5.wav
51,192,84102,128,0,84352:0:0:0:80:G_F6.wav
358,192,84352,1,0,0:0:0:80:G_Bb5.wav
51,192,84602,128,0,84852:0:0:0:80:G_F6.wav
358,192,84852,1,0,0:0:0:80:G_Bb5.wav
51,192,85102,128,0,85352:0:0:0:80:G_F6.wav
358,192,85352,1,0,0:0:0:80:G_Bb5.wav
153,192,85602,128,0,85852:0:0:0:80:G_G6.wav
358,192,85852,1,0,0:0:0:80:G_Bb5.wav
460,192,86102,128,0,86352:0:0:0:80:G_F6.wav
256,192,86352,1,0,0:0:0:80:G_Bb5.wav
460,192,86602,128,0,86852:0:0:0:80:G_F6.wav
256,192,86852,1,0,0:0:0:80:G_Bb5.wav
460,192,87102,128,0,87352:0:0:0:80:G_F6.wav
256,192,87352,1,0,0:0:0:80:G_Bb5.wav
460,192,87602,128,0,87852:0:0:0:80:G_F6.wav
256,192,87852,1,0,0:0:0:80:G_Bb5.wav
460,192,88102,128,0,88352:0:0:0:80:G_F6.wav
256,192,88352,1,0,0:0:0:80:G_Bb5.wav
460,192,88602,128,0,88852:0:0:0:80:G_F6.wav
256,192,88852,1,0,0:0:0:80:G_Bb5.wav
460,192,89102,128,0,89352:0:0:0:80:G_F6.wav
256,192,89352,1,0,0:0:0:80:G_Bb5.wav
51,192,89602,128,0,89852:0:0:0:80:G_D6.wav
358,192,90102,128,0,90352:0:0:0:80:G_F6.wav
153,192,90352,1,0,0:0:0:80:G_Bb5.wav
358,192,90602,128,0,90852:0:0:0:80:G_F6.wav
153,192,90852,1,0,0:0:0:80:G_Bb5.wav
358,192,91102,128,0,91352:0:0:0:80:G_F6.wav
153,192,91352,1,0,0:0:0:80:G_Bb5.wav
358,192,91602,128,0,91852:0:0:0:80:G_F6.wav
153,192,91852,1,0,0:0:0:80:G_Bb5.wav
358,192,92102,128,0,92352:0:0:0:80:G_F6.wav
153,192,92352,1,0,0:0:0:80:G_Bb5.wav
358,192,92602,128,0,92852:0:0:0:80:G_F6.wav
153,192,92852,1,0,0:0:0:80:G_Bb5.wav
358,192,93102,128,0,93352:0:0:0:80:G_F6.wav
153,192,93352,1,0,0:0:0:80:G_Bb5.wav
256,192,93602,128,0,93852:0:0:0:80:G_G6.wav
153,192,93852,1,0,0:0:0:80:G_Bb5.wav
51,192,94102,128,0,94352:0:0:0:80:G_F6.wav
460,192,94352,1,0,0:0:0:80:G_Bb5.wav
51,192,94602,128,0,94852:0:0:0:80:G_F6.wav
460,192,94852,1,0,0:0:0:80:G_Bb5.wav
51,192,95102,128,0,95352:0:0:0:80:G_F6.wav
460,192,95352,1,0,0:0:0:80:G_Bb5.wav
51,192,95602,128,0,95852:0:0:0:80:G_F6.wav
460,192,95852,1,0,0:0:0:80:G_Bb5.wav
51,192,96102,128,0,96352:0:0:0:80:G_F6.wav
460,192,96352,1,0,0:0:0:80:G_Bb5.wav
51,192,96602,128,0,96852:0:0:0:80:G_F6.wav
460,192,96852,1,0,0:0:0:80:G_Bb5.wav
51,192,97102,128,0,97352:0:0:0:80:G_F6.wav
460,192,97352,1,0,0:0:0:80:G_Bb5.wav
256,192,97602,128,0,97852:0:0:0:80:G_D6.wav
51,192,98102,128,0,98477:0:0:0:80:G_Bb5.wav
358,192,98102,128,8,98477:1:0:0:0:
153,192,98852,128,0,99102:0:0:0:80:G_C6.wav
358,192,98852,128,4,99102:1:0:0:0:
256,192,99352,128,4,99602:1:0:0:0:
51,192,99352,128,0,99602:0:0:0:80:G_D6.wav
358,192,99852,128,4,100102:1:0:0:0:
460,192,99852,128,0,100102:0:0:0:80:G_A5.wav
153,192,100352,128,0,100602:0:0:0:80:G_Bb5.wav
256,192,100352,128,4,100602:1:0:0:0:
153,192,100852,128,0,101602:0:0:0:80:G_Bb5.wav
256,192,100852,128,4,101602:1:0:0:0:
460,192,101602,1,8,1:0:0:0:
460,192,101852,1,8,1:0:0:0:
460,192,102102,128,8,102477:1:0:0:0:
51,192,102102,128,0,102477:0:0:0:80:G_Bb5.wav
153,192,102852,128,0,103102:0:0:0:80:G_C6.wav
358,192,102852,128,4,103102:1:0:0:0:
256,192,103352,128,4,103602:1:0:0:0:
153,192,103352,128,0,103602:0:0:0:80:G_D6.wav
358,192,103852,128,4,104102:1:0:0:0:
460,192,103852,128,0,104102:0:0:0:80:G_F6.wav
51,192,104352,128,0,104602:0:0:0:80:G_A5.wav
153,192,104352,128,4,104602:1:0:0:0:
256,192,104852,128,0,105602:0:0:0:80:G_G5.wav
358,192,104852,128,4,105602:1:0:0:0:
153,192,105602,1,8,1:0:0:0:
51,192,106102,128,0,106477:0:0:0:80:G_Bb5.wav
256,192,106102,128,8,106477:1:0:0:0:
358,192,106852,128,4,107102:1:0:0:0:
256,192,106852,128,0,107102:0:0:0:80:G_C6.wav
153,192,107352,128,0,107602:0:0:0:80:G_D6.wav
256,192,107352,128,4,107602:1:0:0:0:
153,192,107852,128,4,108102:1:0:0:0:
460,192,107852,128,0,108102:0:0:0:80:G_A5.wav
51,192,108352,128,4,108602:1:0:0:0:
460,192,108352,128,0,108602:0:0:0:80:G_Bb5.wav
51,192,108852,128,4,109602:1:0:0:0:
460,192,108852,128,0,109602:0:0:0:80:G_Bb5.wav
256,192,109602,1,8,1:0:0:0:
256,192,109852,1,8,1:0:0:0:
256,192,110102,128,8,110477:1:0:0:0:
358,192,110102,128,0,110477:0:0:0:80:G_Bb5.wav
153,192,110852,128,4,111102:1:0:0:0:
51,192,110852,128,0,111102:0:0:0:80:G_C6.wav
256,192,111352,128,4,111602:1:0:0:0:
460,192,111352,128,0,111602:0:0:0:80:G_D6.wav
153,192,111852,128,4,112102:1:0:0:0:
460,192,111852,128,0,112102:0:0:0:80:G_F6.wav
51,192,112352,128,0,112602:0:0:0:80:G_A5.wav
256,192,112352,128,4,112602:1:0:0:0:
153,192,112852,128,4,113602:1:0:0:0:
358,192,112852,128,0,113602:0:0:0:80:G_G5.wav
256,192,113602,1,8,1:0:0:0:
51,192,113768,1,0,0:0:0:0:
460,192,114102,1,6,0:0:0:0:
256,192,114102,128,0,114352:1:0:0:80:G_Bb5.wav
460,192,114352,1,0,1:0:0:0:
51,192,114602,1,2,0:0:0:0:
256,192,114602,1,0,1:0:0:0:
256,192,114852,128,0,115102:1:0:0:80:G_Bb5.wav
460,192,115102,1,4,1:0:0:0:
153,192,115102,1,2,0:0:0:0:
51,192,115602,1,2,0:0:0:0:
256,192,115602,128,12,115852:1:0:0:0:
153,192,116102,128,4,116352:1:0:0:0:
358,192,116102,1,2,0:0:0:0:
51,192,116602,1,12,1:0:0:0:
460,192,116602,1,2,0:0:0:0:
153,192,116852,128,0,117102:0:0:0:80:G_A5.wav
256,192,117102,1,4,1:0:0:0:
358,192,117102,1,2,0:0:0:0:
153,192,117602,128,12,117852:1:0:0:0:
51,192,117602,1,2,0:0:0:0:
358,192,118102,128,4,118352:1:0:0:0:
460,192,118102,1,2,0:0:0:0:
153,192,118602,1,12,1:0:0:0:
256,192,118602,1,2,0:0:0:0:
358,192,118852,128,0,119102:0:0:0:80:G_G5.wav
51,192,119102,1,4,1:0:0:0:
460,192,119102,1,2,0:0:0:0:
358,192,119602,128,12,119852:1:0:0:0:
256,192,119602,1,2,0:0:0:0:
460,192,120102,128,4,120352:1:0:0:0:
153,192,120102,1,2,0:0:0:0:
256,192,120602,1,2,0:0:0:0:
51,192,120602,1,12,1:0:0:0:
460,192,120852,128,0,121102:0:0:0:80:G_A5.wav
358,192,121102,1,4,1:0:0:0:
153,192,121102,1,2,0:0:0:0:
358,192,121352,1,4,1:0:0:0:
460,192,121602,128,12,121852:1:0:0:0:
51,192,121602,1,2,0:0:0:0:
256,192,121852,1,8,0:0:0:0:
256,192,122102,1,0,0:0:0:80:G_Bb5.wav
153,192,122102,1,6,0:0:0:0:
460,192,122477,1,8,0:0:0:0:
358,192,122602,1,2,0:0:0:0:
51,192,122602,1,0,0:0:0:0:
153,192,122852,1,8,0:0:0:0:
256,192,123102,1,0,0:0:0:0:
358,192,123102,1,2,0:0:0:0:
256,192,123352,1,8,0:0:0:0:
51,192,123602,1,0,0:0:0:80:G_Bb5.wav
153,192,123602,1,2,0:0:0:0:
256,192,123977,1,8,0:0:0:0:
358,192,124102,1,2,0:0:0:0:
460,192,124102,1,0,0:0:0:80:G_A5.wav
256,192,124477,1,8,0:0:0:0:
358,192,124602,1,2,0:0:0:0:
460,192,124602,1,0,0:0:0:0:
153,192,124852,1,8,0:0:0:0:
51,192,125102,1,0,0:0:0:0:
256,192,125102,1,2,0:0:0:0:
51,192,125352,1,8,0:0:0:0:
460,192,125602,1,0,0:0:0:80:G_A5.wav
153,192,125602,1,2,0:0:0:0:
460,192,125852,1,8,0:0:0:0:
460,192,126102,1,0,0:0:0:80:G_G5.wav
256,192,126102,1,2,0:0:0:0:
358,192,126477,1,8,0:0:0:0:
51,192,126602,1,0,0:0:0:0:
153,192,126602,1,2,0:0:0:0:
256,192,126852,1,8,0:0:0:0:
358,192,127102,1,0,0:0:0:0:
153,192,127102,1,2,0:0:0:0:
358,192,127352,1,8,0:0:0:0:
51,192,127602,1,0,0:0:0:80:G_G5.wav
256,192,127602,1,2,0:0:0:0:
153,192,127852,1,8,0:0:0:0:
153,192,128102,1,2,0:0:0:0:
460,192,128102,1,0,0:0:0:0:
153,192,128477,1,2,0:0:0:0:
460,192,128477,1,0,0:0:0:0:
153,192,128852,1,2,0:0:0:0:
460,192,128852,1,0,0:0:0:0:
153,192,129227,1,2,0:0:0:0:
460,192,129227,1,0,0:0:0:0:
256,192,129602,1,0,1:0:0:0:
460,192,130102,1,4,0:0:0:0:
51,192,130102,1,2,0:0:0:0:
153,192,130352,128,0,130602:0:0:0:100:(s)G6.wav
256,192,130602,1,8,3:0:0:0:
358,192,130602,128,0,130852:0:0:0:100:(s)Bb6.wav
51,192,130852,128,0,131102:0:0:0:100:(s)F7.wav
153,192,131102,1,2,0:0:0:0:
460,192,131102,128,0,131602:0:0:0:100:D7.wav
256,192,131352,1,0,0:0:0:80:G_D6.wav
51,192,131602,1,0,0:0:0:80:G_F6.wav
256,192,131602,1,8,3:0:0:0:
460,192,131852,1,0,0:0:0:100:(s)D7.wav
153,192,132102,128,0,132352:0:0:0:100:(s)Bb7.wav
358,192,132102,1,2,0:0:0:0:
256,192,132352,128,0,132602:0:0:0:100:(s)A7.wav
51,192,132602,128,0,132852:0:0:0:100:(s)F7.wav
460,192,132602,1,8,3:0:0:0:
153,192,132852,1,0,0:0:0:100:(s)D7.wav
256,192,133102,1,2,0:0:0:0:
460,192,133102,1,0,0:0:0:100:(s)G7.wav
358,192,133352,1,0,0:0:0:80:G_D6.wav
358,192,133602,128,0,134102:0:0:0:100:F7.wav
51,192,133602,1,8,3:0:0:0:
153,192,134102,1,2,0:0:0:0:
256,192,134102,1,0,0:0:0:0:
51,192,134352,128,0,134602:0:0:0:100:(s)G6.wav
256,192,134602,128,0,134852:0:0:0:100:(s)Bb6.wav
358,192,134602,1,8,3:0:0:0:
460,192,134852,128,0,135102:0:0:0:100:(s)F7.wav
153,192,135102,1,2,0:0:0:0:
358,192,135102,128,0,135602:0:0:0:100:D7.wav
51,192,135352,1,0,0:0:0:80:G_D6.wav
51,192,135602,1,8,3:0:0:0:
460,192,135602,1,0,0:0:0:80:G_F6.wav
358,192,135852,1,0,0:0:0:100:(s)D7.wav
153,192,136102,128,0,136352:0:0:0:100:(s)Bb7.wav
51,192,136102,1,2,0:0:0:0:
460,192,136352,128,0,136602:0:0:0:100:(s)A7.wav
256,192,136602,128,0,136852:0:0:0:100:(s)F7.wav
51,192,136602,1,8,3:0:0:0:
358,192,136852,1,0,0:0:0:100:(s)D7.wav
153,192,137102,1,2,0:0:0:0:
460,192,137102,1,0,0:0:0:100:(s)G7.wav
51,192,137352,1,0,0:0:0:80:G_D6.wav
51,192,137602,128,0,138102:0:0:0:100:F7.wav
358,192,137602,1,8,3:0:0:0:
460,192,138102,128,0,138477:0:0:0:80:G_F6.wav
256,192,138102,1,2,0:0:0:0:
153,192,138477,1,0,0:0:0:80:G_F6.wav
358,192,138602,1,0,0:0:0:0:
51,192,138602,1,8,3:0:0:0:
153,192,138852,128,0,139102:0:0:0:80:G_F6.wav
256,192,139102,1,0,0:0:0:0:
358,192,139102,1,2,0:0:0:0:
460,192,139227,1,0,0:0:0:80:G_F6.wav
460,192,139602,128,0,139852:0:0:0:80:G_F6.wav
51,192,139602,1,8,3:0:0:0:
153,192,139852,1,0,0:0:0:0:
256,192,140102,1,2,0:0:0:0:
358,192,140102,128,0,140477:0:0:0:80:G_F6.wav
51,192,140477,1,0,0:0:0:80:G_F6.wav
153,192,140602,1,8,3:0:0:0:
460,192,140602,1,0,0:0:0:0:
51,192,140852,128,0,141102:0:0:0:80:G_F6.wav
256,192,141102,1,2,0:0:0:0:
460,192,141102,1,0,0:0:0:0:
153,192,141227,1,0,0:0:0:80:G_F6.wav
358,192,141602,1,8,3:0:0:0:
51,192,141602,128,0,141852:0:0:0:80:G_F6.wav
460,192,141852,128,0,142102:0:0:0:80:G_C6.wav
256,192,142102,128,0,142477:0:0:0:80:G_F6.wav
153,192,142102,1,2,0:0:0:0:
358,192,142477,1,0,0:0:0:80:G_F6.wav
460,192,142602,1,0,0:0:0:0:
51,192,142602,1,8,3:0:0:0:
358,192,142852,128,0,143102:0:0:0:80:G_F6.wav
460,192,143102,1,0,0:0:0:0:
153,192,143102,1,2,0:0:0:0:
256,192,143227,1,0,0:0:0:80:G_F6.wav
256,192,143602,128,0,143852:0:0:0:80:G_F6.wav
358,192,143602,1,8,3:0:0:0:
51,192,144102,1,2,0:0:0:0:
460,192,144102,128,0,144352:0:0:0:80:G_D6.wav
51,192,144477,1,2,0:0:0:0:
256,192,144477,128,0,144727:0:0:0:80:G_D6.wav
51,192,144852,1,2,0:0:0:0:
460,192,144852,128,0,145102:0:0:0:80:G_D6.wav
256,192,145602,1,0,1:0:0:0:
256,192,145852,1,0,1:0:0:0:
153,192,146102,128,6,146602:0:0:0:0:
358,192,146102,1,0,0:0:0:100:D7.wav
460,192,146477,1,0,0:0:0:80:G_F6.wav
51,192,146602,128,0,146852:0:0:0:100:(s)C7.wav
256,192,146602,1,8,3:0:0:0:
153,192,147102,128,0,147602:0:0:0:100:D7.wav
460,192,147102,128,2,147352:0:0:0:0:
358,192,147352,128,0,147602:0:0:0:80:G_D6.wav
51,192,147602,128,0,147852:0:0:0:100:(s)C7.wav
460,192,147602,128,8,147852:3:0:0:0:
256,192,147852,1,0,0:0:0:0:
256,192,148102,128,0,148352:0:0:0:100:(s)G7.wav
460,192,148102,1,2,0:0:0:0:
51,192,148477,1,0,0:0:0:80:G_F6.wav
153,192,148602,1,0,0:0:0:100:(s)F7.wav
358,192,148602,128,8,148852:3:0:0:0:
256,192,149102,128,0,149352:0:0:0:100:(s)D7.wav
460,192,149102,128,2,149352:0:0:0:0:
153,192,149352,128,0,149602:0:0:0:100:(s)C7.wav
51,192,149602,128,0,149852:0:0:0:100:(s)Bb6.wav
460,192,149602,128,8,149852:3:0:0:0:
358,192,149852,1,0,0:0:0:0:
358,192,150102,1,2,0:0:0:0:
51,192,150102,128,0,150602:0:0:0:100:D7.wav
153,192,150477,1,0,0:0:0:80:G_F6.wav
460,192,150602,128,0,150852:0:0:0:100:(s)C7.wav
256,192,150602,1,8,3:0:0:0:
51,192,151102,128,0,151602:0:0:0:100:D7.wav
153,192,151102,128,2,151352:0:0:0:0:
358,192,151352,128,0,151602:0:0:0:80:G_D6.wav
460,192,151602,128,8,151852:3:0:0:0:
153,192,151602,128,0,151852:0:0:0:100:(s)C7.wav
256,192,151852,1,0,0:0:0:0:
256,192,152102,1,2,0:0:0:0:
51,192,152102,1,0,0:0:0:0:
460,192,152352,1,0,0:0:0:100:(s)G6.wav
153,192,152602,1,8,3:0:0:0:
358,192,152602,1,0,0:0:0:100:(s)Bb6.wav
256,192,152852,128,0,153102:0:0:0:100:(s)D7.wav
460,192,153102,1,2,0:0:0:0:
358,192,153102,128,0,153352:0:0:0:0:
51,192,153352,128,0,153602:0:0:0:100:(s)G6.wav
358,192,153602,128,0,153852:0:0:0:100:(s)Bb6.wav
256,192,153602,1,8,3:0:0:0:
153,192,153852,128,0,154102:0:0:0:100:(s)C7.wav
460,192,154102,1,2,0:0:0:0:
256,192,154102,128,0,154477:0:0:0:100:(s)Bb6.wav
358,192,154477,1,0,0:0:0:80:G_F6.wav
153,192,154602,1,8,3:0:0:0:
51,192,154602,1,0,0:0:0:0:
460,192,154852,128,0,155102:0:0:0:80:G_F6.wav
153,192,155102,1,2,0:0:0:0:
256,192,155102,128,0,155352:0:0:0:80:G_F6.wav
358,192,155352,128,0,155602:0:0:0:80:G_D6.wav
256,192,155602,128,0,155852:0:0:0:80:G_F6.wav
51,192,155602,1,8,3:0:0:0:
460,192,155852,1,0,0:0:0:0:
460,192,156102,1,0,0:0:0:0:
358,192,156102,1,2,0:0:0:0:
153,192,156352,128,0,156602:0:0:0:100:(s)G6.wav
256,192,156602,1,8,3:0:0:0:
51,192,156602,1,0,0:0:0:100:(s)Bb6.wav
153,192,156852,128,0,157602:0:0:0:100:(s)D7.wav
358,192,157102,128,0,157352:0:0:0:80:G_Bb5.wav
51,192,157102,1,2,0:0:0:0:
460,192,157352,128,0,157602:0:0:0:100:(s)G6.wav
256,192,157602,128,8,157852:3:0:0:0:
358,192,157602,1,0,0:0:0:100:(s)Bb6.wav
51,192,157852,128,0,158102:0:0:0:100:(s)C7.wav
358,192,158102,1,2,0:0:0:0:
460,192,158102,128,0,158477:0:0:0:100:(s)Bb6.wav
256,192,158477,1,0,0:0:0:80:G_F6.wav
153,192,158602,1,8,3:0:0:0:
358,192,158602,1,0,0:0:0:0:
51,192,158852,128,0,159102:0:0:0:80:G_F6.wav
460,192,159102,1,2,0:0:0:0:
358,192,159102,128,0,159352:0:0:0:80:G_Bb5.wav
153,192,159352,128,0,159602:0:0:0:80:G_D6.wav
358,192,159602,128,0,159852:0:0:0:80:G_F6.wav
256,192,159602,1,8,3:0:0:0:
51,192,159852,1,0,0:0:0:0:
460,192,160102,1,2,0:0:0:0:
51,192,160102,1,0,0:0:0:80:G_F6.wav
51,192,160477,1,0,0:0:0:80:G_F6.wav
460,192,160477,1,2,0:0:0:0:
460,192,160852,128,2,161602:0:0:0:0:
51,192,160852,1,0,0:0:0:80:G_F6.wav
153,192,162102,128,4,163102:2:0:0:0:
460,192,162352,128,0,163102:0:0:0:80:G_G6.wav
256,192,162602,128,0,163102:0:0:0:80:G_F6.wav
358,192,163102,128,0,163352:0:0:0:80:G_F6.wav
51,192,163352,128,0,163602:0:0:0:80:G_D6.wav
358,192,163602,128,0,164102:0:0:0:80:G_F6.wav
153,192,164102,128,0,164852:0:0:0:0:
460,192,164352,128,0,164852:0:0:0:80:G_G6.wav
256,192,164602,128,0,164852:0:0:0:80:G_F6.wav
153,192,165102,128,0,166102:0:0:0:80:G_Bb5.wav
460,192,165352,128,0,166102:0:0:0:80:G_G6.wav
256,192,165602,128,0,166102:0:0:0:80:G_F6.wav
51,192,166102,128,0,167102:0:0:0:80:G_Bb5.wav
256,192,166352,128,0,167102:0:0:0:80:G_G6.wav
460,192,166602,128,0,167102:0:0:0:80:G_F6.wav
153,192,167102,128,0,167352:0:0:0:80:G_F6.wav
358,192,167352,128,0,167602:0:0:0:80:G_D6.wav
153,192,167602,128,0,168102:0:0:0:80:G_F6.wav
51,192,168102,128,0,168852:0:0:0:0:
256,192,168352,128,0,168852:0:0:0:80:G_G6.wav
460,192,168602,128,0,168852:0:0:0:80:G_F6.wav
51,192,169102,128,0,170102:0:0:0:80:G_Bb5.wav
256,192,169352,128,0,170102:0:0:0:80:G_G6.wav
460,192,169602,128,0,170102:0:0:0:80:G_F6.wav
358,192,170102,128,0,171102:0:0:0:80:G_Bb5.wav
153,192,170352,128,0,171102:0:0:0:80:G_G6.wav
256,192,170602,128,0,171102:0:0:0:80:G_F6.wav
51,192,171102,128,0,171352:0:0:0:80:G_F6.wav
460,192,171352,128,0,171602:0:0:0:80:G_D6.wav
51,192,171602,128,0,172102:0:0:0:80:G_F6.wav
358,192,172102,128,0,172852:0:0:0:0:
153,192,172352,128,0,172852:0:0:0:80:G_G6.wav
256,192,172602,128,0,172852:0:0:0:80:G_F6.wav
358,192,173102,128,0,174102:0:0:0:80:G_Bb5.wav
153,192,173352,128,0,174102:0:0:0:80:G_G6.wav
256,192,173602,128,0,174102:0:0:0:80:G_F6.wav
460,192,174102,128,0,175102:0:0:0:80:G_Bb5.wav
51,192,174352,128,0,175102:0:0:0:80:G_G6.wav
153,192,174602,128,0,175102:0:0:0:80:G_F6.wav
256,192,175102,128,0,175352:0:0:0:80:G_F6.wav
358,192,175352,128,0,175602:0:0:0:80:G_D6.wav
256,192,175602,128,0,176102:0:0:0:80:G_F6.wav
460,192,176102,128,0,176852:0:0:0:0:
51,192,176352,128,0,176852:0:0:0:80:G_G6.wav
153,192,176602,128,0,176852:0:0:0:80:G_F6.wav
460,192,177102,128,0,178102:0:0:0:80:G_Bb5.wav
51,192,177352,128,0,178102:0:0:0:80:G_G6.wav
153,192,177602,128,0,178102:0:0:0:80:G_F6.wav
358,192,178102,128,0,178352:0:0:0:80:G_D5.wav
256,192,178352,128,0,178602:0:0:0:80:G_F5.wav
153,192,178602,1,0,0:0:0:80:G_Bb5.wav
358,192,178852,128,0,179102:0:0:0:80:G_D5.wav
256,192,179102,128,0,179352:0:0:0:80:G_F5.wav
153,192,179352,1,0,0:0:0:80:G_Bb5.wav
358,192,179602,128,0,179852:0:0:0:80:G_D5.wav
256,192,179852,128,0,180102:0:0:0:80:G_F5.wav
51,192,180102,128,0,180352:0:0:0:80:G_Eb5.wav
256,192,180352,128,0,180602:0:0:0:80:G_F5.wav
460,192,180602,1,0,0:0:0:80:G_Bb5.wav
51,192,180852,128,0,181102:0:0:0:80:G_Eb5.wav
256,192,181102,128,0,181352:0:0:0:80:G_F5.wav
460,192,181352,1,0,0:0:0:80:G_Bb5.wav
51,192,181602,128,0,181852:0:0:0:80:G_Eb5.wav
256,192,181852,128,0,182102:0:0:0:80:G_F5.wav
153,192,182102,128,0,182352:0:0:0:80:G_D5.wav
358,192,182352,128,0,182602:0:0:0:80:G_F5.wav
256,192,182602,1,0,0:0:0:80:G_Bb5.wav
153,192,182852,128,0,183102:0:0:0:80:G_D5.wav
358,192,183102,128,0,183352:0:0:0:80:G_F5.wav
256,192,183352,1,0,0:0:0:80:G_Bb5.wav
153,192,183602,128,0,183852:0:0:0:80:G_D5.wav
358,192,183852,128,0,184102:0:0:0:80:G_F5.wav
51,192,184102,128,0,184352:0:0:0:80:G_C5.wav
256,192,184352,128,0,184602:0:0:0:80:G_F5.wav
153,192,184602,1,0,0:0:0:80:G_A5.wav
51,192,184852,128,0,185102:0:0:0:80:G_C5.wav
256,192,185102,128,0,185352:0:0:0:80:G_F5.wav
153,192,185352,1,0,0:0:0:80:G_A5.wav
51,192,185602,128,0,185852:0:0:0:80:G_C5.wav
256,192,185852,128,0,186102:0:0:0:80:G_F5.wav
460,192,186102,128,0,186352:0:0:0:80:G_D5.wav
51,192,186352,128,0,186602:0:0:0:80:G_F5.wav
153,192,186602,1,0,0:0:0:80:G_Bb5.wav
460,192,186852,128,0,187102:0:0:0:80:G_D5.wav
51,192,187102,128,0,187352:0:0:0:80:G_F5.wav
153,192,187352,1,0,0:0:0:80:G_Bb5.wav
460,192,187602,128,0,187852:0:0:0:80:G_D5.wav
51,192,187852,128,0,188102:0:0:0:80:G_F5.wav
460,192,188102,128,0,188352:0:0:0:80:G_Eb5.wav
256,192,188352,128,0,188602:0:0:0:80:G_F5.wav
358,192,188602,1,0,0:0:0:80:G_Bb5.wav
460,192,188852,128,0,189102:0:0:0:80:G_Eb5.wav
256,192,189102,128,0,189352:0:0:0:80:G_F5.wav
358,192,189352,1,0,0:0:0:80:G_Bb5.wav
460,192,189602,128,0,189852:0:0:0:80:G_Eb5.wav
256,192,189852,128,0,190102:0:0:0:80:G_F5.wav
358,192,190102,128,0,190352:0:0:0:80:G_D5.wav
51,192,190352,128,0,190602:0:0:0:80:G_F5.wav
460,192,190602,1,0,0:0:0:80:G_Bb5.wav
358,192,190852,128,0,191102:0:0:0:80:G_D5.wav
51,192,191102,128,0,191352:0:0:0:80:G_F5.wav
460,192,191352,1,0,0:0:0:80:G_Bb5.wav
358,192,191602,128,0,191852:0:0:0:80:G_D5.wav
51,192,191852,128,0,192102:0:0:0:80:G_F5.wav
153,192,192102,128,0,192352:0:0:0:80:G_C5.wav
460,192,192352,128,0,192602:0:0:0:80:G_F5.wav
256,192,192602,1,0,0:0:0:80:G_A5.wav
153,192,192852,128,0,193102:0:0:0:80:G_C5.wav
460,192,193102,128,0,193352:0:0:0:80:G_F5.wav
256,192,193352,1,0,0:0:0:80:G_A5.wav
153,192,193602,128,0,193852:0:0:0:80:G_C5.wav
460,192,193852,128,0,194102:0:0:0:80:G_F5.wav
51,192,194102,1,0,0:0:0:80:G_Bb4.wav
153,192,194227,1,0,0:0:0:80:G_D5.wav
256,192,194320,1,0,0:0:0:80:G_Bb5.wav
