osu file format v14

[General]
AudioFilename: audio.mp3
AudioLeadIn: 0
PreviewTime: 130102
Countdown: 0
SampleSet: Soft
StackLeniency: 0.7
Mode: 3
LetterboxInBreaks: 0
SpecialStyle: 0
WidescreenStoryboard: 1

[Editor]
Bookmarks: 34102,50102,66102,82102,98102,114102,130102,146102,161602,178102,198102
DistanceSpacing: 0.8
BeatDivisor: 4
GridSize: 16
TimelineZoom: 1.8

[Metadata]
Title:From Here (feat. Cae)
TitleUnicode:From Here (feat. Cae)
Artist:Adib Sin
ArtistUnicode:Adib Sin
Creator:Protastic101
Version:Easy
Source:
Tags:acoustic guitar meowcaroni calm chill electronic funk Brisbane cute electronica eggshorty Pop English
BeatmapID:2475600
BeatmapSetID:883672

[Difficulty]
HPDrainRate:6.5
CircleSize:5
OverallDifficulty:5.5
ApproachRate:5
SliderMultiplier:1.4
SliderTickRate:1

[Events]
//Background and Video events
0,0,"Swirl.jpg",0,0
//Break Periods
//Storyboard Layer 0 (Background)
//Storyboard Layer 1 (Fail)
//Storyboard Layer 2 (Pass)
//Storyboard Layer 3 (Foreground)
//Storyboard Layer 4 (Overlay)
//Storyboard Sound Samples
Sample,2102,0,"G_Bb5.wav",80
Sample,2852,0,"G_Bb5.wav",80
Sample,3602,0,"G_Bb5.wav",80
Sample,4102,0,"G_G5.wav",80
Sample,4852,0,"G_G5.wav",80
Sample,5602,0,"G_G5.wav",80
Sample,6102,0,"G_F5.wav",80
Sample,6852,0,"G_F5.wav",80
Sample,7602,0,"G_F5.wav",80
Sample,8102,0,"G_Eb5.wav",80
Sample,8852,0,"G_Eb5.wav",80
Sample,9602,0,"G_Eb5.wav",80
Sample,10102,0,"G_Bb5.wav",80
Sample,10852,0,"G_Bb5.wav",80
Sample,11602,0,"G_Bb5.wav",80
Sample,12102,0,"G_G5.wav",80
Sample,12852,0,"G_G5.wav",80
Sample,13602,0,"G_G5.wav",80
Sample,14102,0,"G_F5.wav",80
Sample,14852,0,"G_F5.wav",80
Sample,15602,0,"G_F5.wav",80
Sample,16102,0,"G_Eb5.wav",80
Sample,16852,0,"G_Eb5.wav",80
Sample,17602,0,"G_Eb5.wav",80
Sample,34852,0,"G_C6.wav",80
Sample,35852,0,"G_C6.wav",80
Sample,38852,0,"G_Bb5.wav",80
Sample,46102,0,"G_G6.wav",80
Sample,48602,0,"G_Eb4.wav",80
Sample,50852,0,"(s)F7.wav",100
Sample,52352,0,"(s)A7.wav",100
Sample,52602,0,"(s)F7.wav",100
Sample,53602,0,"F7.wav",100
Sample,54852,0,"(s)F7.wav",100
Sample,56352,0,"(s)A7.wav",100
Sample,56602,0,"(s)F7.wav",100
Sample,57602,0,"(s)F7.wav",100
Sample,58852,0,"(s)F7.wav",100
Sample,60602,0,"(s)F7.wav",100
Sample,61602,0,"F7.wav",100
Sample,62852,0,"(s)D7.wav",100
Sample,64602,0,"(s)D7.wav",100
Sample,65602,0,"(s)Bb6.wav",100
Sample,67602,0,"(s)C7.wav",100
Sample,68602,0,"(s)F7.wav",100
Sample,69602,0,"(s)Bb6.wav",100
Sample,70102,0,"D7.wav",100
Sample,71602,0,"(s)C7.wav",100
Sample,72602,0,"(s)Bb6.wav",100
Sample,73352,0,"(s)G6.wav",100
Sample,73602,0,"(s)Bb6.wav",100
Sample,74852,0,"G_A5.wav",80
Sample,75602,0,"G_F5.wav",80
Sample,76352,0,"(s)G6.wav",100
Sample,76602,0,"(s)Bb6.wav",100
Sample,77602,0,"(s)Bb6.wav",100
Sample,78102,0,"Bb6.wav",100
Sample,80602,0,"(s)D7.wav",100
Sample,81602,0,"G_Bb6.wav",80
Sample,81602,0,"(s)Bb6.wav",100
Sample,82102,0,"G_Bb6.wav",80
Sample,98102,0,"G_G5.wav",80
Sample,98102,0,"G_Bb5.wav",80
Sample,98852,0,"G_A5.wav",80
Sample,98852,0,"G_C6.wav",80
Sample,99352,0,"G_Bb5.wav",80
Sample,99352,0,"G_D6.wav",80
Sample,99852,0,"G_D5.wav",80
Sample,99852,0,"G_A5.wav",80
Sample,100352,0,"G_Eb5.wav",80
Sample,100352,0,"G_Bb5.wav",80
Sample,100852,0,"G_Eb5.wav",80
Sample,100852,0,"G_Bb5.wav",80
Sample,102102,0,"G_G5.wav",80
Sample,102102,0,"G_Bb5.wav",80
Sample,102852,0,"G_C6.wav",80
Sample,102852,0,"G_A5.wav",80
Sample,103352,0,"G_Bb5.wav",80
Sample,103352,0,"G_D6.wav",80
Sample,103852,0,"G_F6.wav",80
Sample,103852,0,"G_D6.wav",80
Sample,104352,0,"G_A5.wav",80
Sample,104352,0,"G_F5.wav",80
Sample,104852,0,"G_G5.wav",80
Sample,104852,0,"G_Eb5.wav",70
Sample,106102,0,"G_Bb5.wav",80
Sample,106102,0,"G_G5.wav",80
Sample,106852,0,"G_C6.wav",80
Sample,106852,0,"G_A5.wav",80
Sample,107352,0,"G_Bb5.wav",80
Sample,107352,0,"G_D6.wav",80
Sample,107852,0,"G_A5.wav",80
Sample,107852,0,"G_D5.wav",80
Sample,108352,0,"G_Bb5.wav",80
Sample,108352,0,"G_Eb5.wav",80
Sample,108852,0,"G_Bb5.wav",80
Sample,108852,0,"G_Eb5.wav",80
Sample,110102,0,"G_G5.wav",80
Sample,110102,0,"G_Bb5.wav",80
Sample,110852,0,"G_A5.wav",80
Sample,110852,0,"G_C6.wav",80
Sample,111352,0,"G_Bb5.wav",80
Sample,111352,0,"G_D6.wav",80
Sample,111852,0,"G_F6.wav",80
Sample,111852,0,"G_D6.wav",80
Sample,112352,0,"G_A5.wav",80
Sample,112352,0,"G_F5.wav",80
Sample,112852,0,"G_Eb5.wav",70
Sample,112852,0,"G_G5.wav",80
Sample,115602,0,"G_Bb5.wav",80
Sample,116102,0,"G_A5.wav",80
Sample,117602,0,"G_A5.wav",80
Sample,118102,0,"G_G5.wav",80
Sample,119602,0,"G_G5.wav",80
Sample,120102,0,"G_A5.wav",80
Sample,121602,0,"G_A5.wav",80
Sample,122102,0,"G_Bb5.wav",80
Sample,122852,0,"G_Bb5.wav",80
Sample,123602,0,"G_Bb5.wav",80
Sample,124102,0,"G_A5.wav",80
Sample,124852,0,"G_A5.wav",80
Sample,125602,0,"G_A5.wav",80
Sample,126102,0,"G_G5.wav",80
Sample,126852,0,"G_G5.wav",80
Sample,127602,0,"G_G5.wav",80
Sample,131102,0,"D7.wav",100
Sample,132102,0,"(s)Bb7.wav",100
Sample,133102,0,"(s)G7.wav",100
Sample,135102,0,"D7.wav",100
Sample,136102,0,"(s)Bb7.wav",100
Sample,137102,0,"(s)G7.wav",100
Sample,139102,0,"D7.wav",100
Sample,140102,0,"(s)Bb7.wav",100
Sample,141102,0,"(s)G7.wav",100
Sample,143102,0,"Bb6.wav",100
Sample,144102,0,"(s)Eb7.wav",100
Sample,147102,0,"D7.wav",100
Sample,148102,0,"(s)G7.wav",100
Sample,149102,0,"(s)D7.wav",100
Sample,150102,0,"D7.wav",100
Sample,151102,0,"D7.wav",100
Sample,154102,0,"(s)Bb6.wav",100
Sample,158102,0,"(s)Bb6.wav",100
Sample,160102,0,"G_F6.wav",80
Sample,160477,0,"G_F6.wav",80
Sample,160852,0,"G_F6.wav",80

[TimingPoints]
2102,500,4,2,1,30,1,0
34102,-100,4,2,1,60,0,0
50102,-100,4,2,1,60,0,1
82102,-100,4,2,1,30,0,0
114102,-100,4,2,1,60,0,0
130102,-100,4,2,1,60,0,1
161602,-100,4,1,1,30,0,0
178102,-100,4,2,1,30,0,0

[HitObjects]
51,192,2102,5,0,0:0:0:80:G_D6.wav
51,192,2852,1,0,0:0:0:80:G_D6.wav
51,192,3602,1,0,0:0:0:80:G_D6.wav
358,192,4102,1,0,0:0:0:80:G_Bb5.wav
358,192,4852,1,0,0:0:0:80:G_Bb5.wav
358,192,5602,1,0,0:0:0:80:G_Bb5.wav
153,192,6102,1,0,0:0:0:80:G_A5.wav
153,192,6852,1,0,0:0:0:80:G_A5.wav
153,192,7602,1,0,0:0:0:80:G_A5.wav
460,192,8102,1,0,0:0:0:80:G_G5.wav
460,192,8852,1,0,0:0:0:80:G_G5.wav
460,192,9602,1,0,0:0:0:80:G_G5.wav
51,192,10102,1,0,0:0:0:80:G_D6.wav
51,192,10852,1,0,0:0:0:80:G_D6.wav
51,192,11602,1,0,0:0:0:80:G_D6.wav
358,192,12102,1,0,0:0:0:80:G_Bb5.wav
358,192,12852,1,0,0:0:0:80:G_Bb5.wav
358,192,13602,1,0,0:0:0:80:G_Bb5.wav
153,192,14102,1,0,0:0:0:80:G_A5.wav
153,192,14852,1,0,0:0:0:80:G_A5.wav
153,192,15602,1,0,0:0:0:80:G_A5.wav
460,192,16102,1,0,0:0:0:80:G_G5.wav
460,192,16852,1,0,0:0:0:80:G_G5.wav
460,192,17602,1,0,0:0:0:80:G_G5.wav
51,192,18102,1,0,0:0:0:80:G_D5.wav
153,192,18352,1,0,0:0:0:80:G_F5.wav
256,192,18602,1,0,0:0:0:80:G_Bb5.wav
358,192,18852,128,0,19602:0:0:0:80:G_C6.wav
460,192,19602,1,0,0:0:0:80:G_Bb5.wav
51,192,20102,1,0,0:0:0:80:G_D5.wav
153,192,20352,1,0,0:0:0:80:G_F5.wav
256,192,20602,1,0,0:0:0:80:G_Bb5.wav
358,192,20852,128,0,21602:0:0:0:80:G_C6.wav
460,192,21602,1,0,0:0:0:80:G_Bb5.wav
153,192,22102,1,0,0:0:0:80:G_Bb4.wav
460,192,22352,1,0,0:0:0:80:G_D5.wav
51,192,22602,1,0,0:0:0:80:G_F5.wav
256,192,22852,128,0,23602:0:0:0:80:G_Bb5.wav
358,192,23602,1,0,0:0:0:80:G_F5.wav
153,192,24102,1,0,0:0:0:80:G_Bb4.wav
460,192,24352,1,0,0:0:0:80:G_D5.wav
51,192,24602,1,0,0:0:0:80:G_F5.wav
256,192,24852,128,0,25602:0:0:0:80:G_Bb5.wav
358,192,25602,1,0,0:0:0:80:G_F5.wav
51,192,26352,1,0,0:0:0:100:(s)G6.wav
256,192,26602,1,0,0:0:0:100:(s)Bb6.wav
460,192,26852,1,0,0:0:0:100:(s)F7.wav
153,192,27102,128,0,27602:0:0:0:100:D7.wav
153,192,27852,1,0,0:0:0:100:(s)D7.wav
460,192,28102,1,0,0:0:0:100:(s)Bb7.wav
358,192,28352,1,0,0:0:0:100:(s)A7.wav
256,192,28602,1,0,0:0:0:100:(s)F7.wav
51,192,28852,1,0,0:0:0:100:(s)D7.wav
460,192,29102,1,0,0:0:0:100:(s)G7.wav
358,192,29602,128,0,30102:0:0:0:100:F7.wav
153,192,30352,1,0,0:0:0:100:(s)F6.wav
256,192,30602,1,0,0:0:0:100:(s)G6.wav
460,192,30852,1,0,0:0:0:100:(s)D7.wav
51,192,31102,128,0,31602:0:0:0:100:Bb6.wav
153,192,31852,1,0,0:0:0:100:(s)G6.wav
358,192,32102,1,0,0:0:0:100:(s)Eb7.wav
256,192,32602,1,0,0:0:0:100:(s)D7.wav
153,192,33102,1,0,0:0:0:100:(s)C7.wav
51,192,33602,1,0,0:0:0:100:(s)Bb6.wav
256,192,34102,1,2,0:0:0:0:
460,192,34102,128,4,34602:0:0:0:0:
358,192,34852,1,2,0:0:0:0:
51,192,35102,1,0,0:0:0:0:
153,192,35102,1,8,0:0:0:0:
460,192,35852,1,2,0:0:0:0:
358,192,36602,1,2,0:0:0:0:
256,192,36852,1,0,0:0:0:80:G_C6.wav
51,192,37102,1,8,0:0:0:0:
460,192,37102,1,0,0:0:0:0:
358,192,37602,1,2,0:0:0:0:
153,192,37852,1,8,1:0:0:0:
358,192,38102,1,2,0:0:0:0:
51,192,38102,128,0,38602:0:0:0:0:
256,192,38852,1,2,0:0:0:0:
358,192,39102,1,8,0:0:0:0:
460,192,39102,1,0,0:0:0:0:
51,192,39852,1,0,0:0:0:80:G_Bb5.wav
256,192,40602,1,2,0:0:0:0:
256,192,41102,1,8,0:0:0:0:
358,192,41102,1,0,0:0:0:0:
51,192,41602,1,2,0:0:0:0:
51,192,42102,1,2,0:0:0:0:
256,192,42102,1,0,0:0:0:80:G_G6.wav
460,192,42477,1,0,0:0:0:80:G_D6.wav
153,192,42852,1,2,0:0:0:0:
51,192,43102,1,8,0:0:0:0:
460,192,43102,1,0,0:0:0:0:
256,192,43352,1,0,1:0:0:0:
256,192,43852,1,0,1:0:0:0:
460,192,44102,1,0,0:0:0:80:G_A6.wav
51,192,44602,1,2,0:0:0:0:
153,192,45102,1,8,0:0:0:0:
358,192,45102,1,0,0:0:0:0:
51,192,45602,1,2,0:0:0:0:
460,192,45852,1,8,1:0:0:0:
51,192,46102,1,2,0:0:0:0:
358,192,46477,1,0,0:0:0:80:G_D6.wav
256,192,46852,1,2,0:0:0:0:
153,192,47102,1,8,0:0:0:0:
460,192,47102,1,0,0:0:0:0:
51,192,47352,1,0,1:0:0:0:
51,192,47852,1,0,1:0:0:0:
460,192,48102,1,0,0:0:0:80:G_Eb4.wav
256,192,48602,1,2,0:0:0:0:
153,192,49102,1,8,0:0:0:0:
358,192,49102,1,0,0:0:0:0:
460,192,49602,1,0,1:0:0:0:
51,192,50102,1,4,0:0:0:0:
153,192,50102,1,2,0:0:0:0:
256,192,50352,1,0,1:0:0:100:(s)G6.wav
460,192,50602,1,0,1:0:0:100:(s)Bb6.wav
153,192,50852,1,2,0:0:0:0:
256,192,51102,1,8,0:0:0:0:
358,192,51102,128,0,51602:0:0:0:100:D7.wav
153,192,51602,1,2,0:0:0:0:
51,192,52352,1,2,0:0:0:0:
51,192,52602,1,2,0:0:0:0:
358,192,53102,1,8,0:0:0:0:
460,192,53102,1,0,0:0:0:100:(s)G7.wav
51,192,53602,128,2,54102:0:0:0:0:
460,192,54102,1,2,0:0:0:0:
358,192,54352,1,0,1:0:0:100:(s)G6.wav
51,192,54602,1,0,1:0:0:100:(s)Bb6.wav
460,192,54852,1,2,0:0:0:0:
256,192,55102,1,8,0:0:0:0:
153,192,55102,128,0,55602:0:0:0:100:D7.wav
460,192,55602,1,2,0:0:0:0:
358,192,56352,1,2,0:0:0:0:
358,192,56602,1,2,0:0:0:0:
51,192,57102,1,0,0:0:0:100:(s)G7.wav
153,192,57102,1,8,0:0:0:0:
256,192,57352,1,2,0:0:0:0:
256,192,57602,128,2,58102:0:0:0:0:
51,192,58102,1,2,0:0:0:0:
460,192,58102,1,4,0:0:0:0:
153,192,58352,1,0,1:0:0:100:(s)G6.wav
358,192,58602,1,0,1:0:0:100:(s)Bb6.wav
51,192,58852,1,2,0:0:0:0:
460,192,59102,128,0,59602:0:0:0:100:D7.wav
153,192,59102,1,8,0:0:0:0:
51,192,59602,1,2,0:0:0:0:
358,192,60602,1,2,0:0:0:0:
460,192,61102,1,0,0:0:0:100:(s)G7.wav
256,192,61102,1,8,0:0:0:0:
358,192,61602,128,2,62102:0:0:0:0:
153,192,62102,1,2,0:0:0:0:
460,192,62352,1,0,1:0:0:100:(s)F6.wav
256,192,62602,1,0,1:0:0:100:(s)G6.wav
153,192,62852,1,2,0:0:0:0:
460,192,63102,1,8,0:0:0:0:
51,192,63102,128,0,63602:0:0:0:100:Bb6.wav
153,192,63602,1,2,0:0:0:0:
460,192,64102,1,0,0:0:0:100:(s)Eb7.wav
256,192,64602,1,2,0:0:0:0:
153,192,65102,1,8,0:0:0:0:
460,192,65102,1,0,0:0:0:100:(s)C7.wav
256,192,65352,1,2,0:0:0:0:
256,192,65602,1,2,0:0:0:0:
51,192,65852,1,2,1:0:0:0:
358,192,66102,1,6,0:0:0:0:
460,192,66102,128,0,66602:0:0:0:100:D7.wav
153,192,66602,1,0,1:0:0:100:(s)C7.wav
256,192,66852,1,2,0:0:0:0:
460,192,67102,128,0,67602:0:0:0:100:D7.wav
358,192,67102,1,8,0:0:0:0:
153,192,67602,1,2,0:0:0:0:
358,192,68102,1,0,0:0:0:100:(s)G7.wav
51,192,68352,1,2,0:0:0:0:
51,192,68602,1,2,0:0:0:0:
153,192,69102,1,0,0:0:0:100:(s)D7.wav
256,192,69102,1,8,0:0:0:0:
460,192,69352,1,0,1:0:0:100:(s)C7.wav
51,192,69602,1,2,0:0:0:0:
153,192,70102,128,2,70602:0:0:0:0:
460,192,70602,1,0,1:0:0:100:(s)C7.wav
256,192,70852,1,2,0:0:0:0:
153,192,71102,128,0,71602:0:0:0:100:D7.wav
51,192,71102,1,8,0:0:0:0:
460,192,71602,1,2,0:0:0:0:
256,192,72602,1,2,0:0:0:0:
153,192,73102,1,8,0:0:0:0:
358,192,73102,1,0,0:0:0:0:
460,192,73352,1,2,0:0:0:0:
460,192,73602,1,2,0:0:0:0:
51,192,73852,1,0,1:0:0:100:(s)C7.wav
358,192,74102,1,0,0:0:0:80:G_F5.wav
256,192,74102,1,6,0:0:0:0:
153,192,74852,1,2,0:0:0:0:
460,192,75102,1,8,0:0:0:0:
256,192,75102,128,0,75602:0:0:0:80:G_Bb5.wav
153,192,75602,1,2,0:0:0:0:
51,192,75852,128,0,76352:1:0:0:80:G_D5.wav
358,192,76352,1,2,0:0:0:0:
358,192,76602,1,2,0:0:0:0:
153,192,76852,1,0,1:0:0:100:(s)D7.wav
256,192,77102,1,8,0:0:0:0:
51,192,77102,1,0,0:0:0:0:
358,192,77602,1,2,0:0:0:0:
460,192,78102,1,2,0:0:0:0:
460,192,78852,1,2,0:0:0:0:
256,192,79102,1,8,0:0:0:0:
153,192,79102,128,0,79602:0:0:0:0:
460,192,79602,1,2,0:0:0:0:
51,192,80102,1,0,0:0:0:100:(s)Eb7.wav
358,192,80602,1,2,0:0:0:0:
153,192,81102,1,8,0:0:0:0:
460,192,81102,1,0,0:0:0:100:(s)C7.wav
358,192,81352,1,2,0:0:0:0:
358,192,81602,1,2,0:0:0:0:
256,192,81852,1,0,1:0:0:80:G_F6.wav
51,192,82102,128,0,82602:0:0:0:80:G_F6.wav
460,192,82602,128,0,83102:0:0:0:80:G_F6.wav
51,192,83102,128,0,83602:0:0:0:80:G_F6.wav
460,192,83602,128,0,84102:0:0:0:80:G_F6.wav
51,192,84102,128,0,84602:0:0:0:80:G_F6.wav
460,192,84602,128,0,85102:0:0:0:80:G_F6.wav
51,192,85102,128,0,85602:0:0:0:80:G_F6.wav
256,192,85602,128,0,86102:0:0:0:80:G_G6.wav
153,192,86102,128,0,86602:0:0:0:80:G_F6.wav
358,192,86602,128,0,87102:0:0:0:80:G_F6.wav
153,192,87102,128,0,87602:0:0:0:80:G_F6.wav
358,192,87602,128,0,88102:0:0:0:80:G_F6.wav
153,192,88102,128,0,88602:0:0:0:80:G_F6.wav
358,192,88602,128,0,89102:0:0:0:80:G_F6.wav
153,192,89102,128,0,89602:0:0:0:80:G_F6.wav
51,192,89602,128,0,90102:0:0:0:80:G_D6.wav
460,192,90102,128,0,90602:0:0:0:80:G_F6.wav
256,192,90602,128,0,91102:0:0:0:80:G_F6.wav
460,192,91102,128,0,91602:0:0:0:80:G_F6.wav
256,192,91602,128,0,92102:0:0:0:80:G_F6.wav
460,192,92102,128,0,92602:0:0:0:80:G_F6.wav
256,192,92602,128,0,93102:0:0:0:80:G_F6.wav
460,192,93102,128,0,93602:0:0:0:80:G_F6.wav
358,192,93602,128,0,94102:0:0:0:80:G_G6.wav
256,192,94102,128,0,94602:0:0:0:80:G_F6.wav
51,192,94602,128,0,95102:0:0:0:80:G_F6.wav
256,192,95102,128,0,95602:0:0:0:80:G_F6.wav
51,192,95602,128,0,96102:0:0:0:80:G_F6.wav
256,192,96102,128,0,96602:0:0:0:80:G_F6.wav
51,192,96602,128,0,97102:0:0:0:80:G_F6.wav
256,192,97102,128,0,97602:0:0:0:80:G_F6.wav
153,192,97602,128,0,98102:0:0:0:80:G_D6.wav
460,192,98102,128,8,98352:1:0:0:0:
51,192,98852,128,4,99102:1:0:0:0:
358,192,99352,128,4,99602:1:0:0:0:
256,192,99852,128,4,100102:1:0:0:0:
153,192,100352,128,4,100602:1:0:0:0:
153,192,100852,128,4,101602:1:0:0:0:
51,192,101602,1,8,1:0:0:0:
460,192,101852,1,8,1:0:0:0:
358,192,102102,128,8,102352:1:0:0:0:
153,192,102852,128,4,103102:1:0:0:0:
256,192,103352,128,4,103602:1:0:0:0:
460,192,103852,128,4,104102:1:0:0:0:
358,192,104352,128,4,104602:1:0:0:0:
51,192,104852,128,4,105602:1:0:0:0:
153,192,105602,1,8,1:0:0:0:
358,192,106102,128,8,106352:1:0:0:0:
153,192,106852,128,4,107102:1:0:0:0:
460,192,107352,128,4,107602:1:0:0:0:
51,192,107852,128,4,108102:1:0:0:0:
256,192,108352,128,4,108602:1:0:0:0:
256,192,108852,128,4,109602:1:0:0:0:
358,192,109602,1,8,1:0:0:0:
153,192,109852,1,8,1:0:0:0:
460,192,110102,128,8,110352:1:0:0:0:
51,192,110852,128,4,111102:1:0:0:0:
256,192,111352,128,4,111602:1:0:0:0:
358,192,111852,128,4,112102:1:0:0:0:
256,192,112352,128,4,112602:1:0:0:0:
153,192,112852,128,4,113602:1:0:0:0:
460,192,113602,1,8,1:0:0:0:
51,192,114102,1,6,0:0:0:0:
153,192,114102,128,0,114602:1:0:0:80:G_Bb5.wav
358,192,114602,1,2,0:0:0:0:
153,192,114852,1,0,1:0:0:80:G_Bb5.wav
256,192,115102,1,2,0:0:0:0:
153,192,115602,128,2,116102:0:0:0:0:
51,192,116102,128,2,116602:0:0:0:0:
460,192,116602,1,2,0:0:0:0:
51,192,116852,1,0,0:0:0:80:G_A5.wav
358,192,117102,1,2,0:0:0:0:
51,192,117602,128,2,118102:0:0:0:0:
256,192,118102,128,2,118602:0:0:0:0:
153,192,118602,1,2,0:0:0:0:
256,192,118852,1,0,0:0:0:80:G_G5.wav
460,192,119102,1,2,0:0:0:0:
256,192,119602,128,2,120102:0:0:0:0:
358,192,120102,128,2,120602:0:0:0:0:
51,192,120602,1,2,0:0:0:0:
358,192,120852,1,0,0:0:0:80:G_A5.wav
256,192,121102,1,2,0:0:0:0:
460,192,121352,1,0,0:0:0:0:
51,192,121602,1,2,0:0:0:0:
51,192,121852,1,8,0:0:0:0:
256,192,122102,1,2,0:0:0:0:
153,192,122102,128,4,122602:0:0:0:0:
358,192,122602,1,2,0:0:0:0:
460,192,122852,1,8,0:0:0:0:
256,192,123102,1,2,0:0:0:0:
256,192,123352,1,8,0:0:0:0:
153,192,123602,128,2,124102:0:0:0:0:
51,192,124102,128,2,124602:0:0:0:0:
358,192,124602,1,2,0:0:0:0:
153,192,124852,1,8,0:0:0:0:
460,192,125102,1,2,0:0:0:0:
460,192,125352,1,8,0:0:0:0:
256,192,125602,1,2,0:0:0:0:
256,192,125852,1,8,0:0:0:0:
256,192,126102,128,2,126602:0:0:0:0:
153,192,126602,1,2,0:0:0:0:
51,192,126852,1,8,0:0:0:0:
358,192,127102,1,2,0:0:0:0:
358,192,127352,1,8,0:0:0:0:
256,192,127602,1,2,0:0:0:0:
256,192,127852,1,8,0:0:0:0:
460,192,128102,1,2,0:0:0:0:
460,192,128477,1,2,0:0:0:0:
460,192,128852,1,2,0:0:0:0:
460,192,129227,1,2,0:0:0:0:
256,192,129602,1,0,1:0:0:0:
51,192,130102,1,4,0:0:0:0:
153,192,130102,1,2,0:0:0:0:
460,192,130352,1,0,0:0:0:100:(s)G6.wav
256,192,130602,1,8,3:0:0:0:
51,192,130602,1,0,0:0:0:100:(s)Bb6.wav
358,192,130852,1,0,0:0:0:100:(s)F7.wav
153,192,131102,128,2,131602:0:0:0:0:
358,192,131602,1,8,3:0:0:0:
460,192,131602,1,0,0:0:0:0:
153,192,131852,1,0,0:0:0:80:(s)D7.wav
256,192,132102,1,2,0:0:0:0:
51,192,132352,1,0,0:0:0:100:(s)A7.wav
358,192,132602,1,8,3:0:0:0:
153,192,132602,1,0,0:0:0:100:(s)F7.wav
460,192,132852,1,0,0:0:0:100:(s)D7.wav
256,192,133102,1,2,0:0:0:0:
153,192,133602,1,8,3:0:0:0:
51,192,133602,128,0,134102:0:0:0:100:F7.wav
460,192,134102,1,2,0:0:0:0:
358,192,134352,1,0,0:0:0:100:(s)G6.wav
256,192,134602,1,8,3:0:0:0:
51,192,134602,1,0,0:0:0:100:(s)Bb6.wav
153,192,134852,1,0,0:0:0:100:(s)F7.wav
460,192,135102,128,2,135602:0:0:0:0:
358,192,135602,1,8,3:0:0:0:
51,192,135602,1,0,0:0:0:0:
460,192,135852,1,0,0:0:0:100:(s)D7.wav
153,192,136102,1,2,0:0:0:0:
256,192,136352,1,0,0:0:0:100:(s)A7.wav
460,192,136602,1,0,0:0:0:100:(s)F7.wav
358,192,136602,1,8,3:0:0:0:
153,192,136852,1,0,0:0:0:100:(s)D7.wav
51,192,137102,1,2,0:0:0:0:
256,192,137602,128,0,138102:0:0:0:100:F7.wav
358,192,137602,1,8,3:0:0:0:
51,192,138102,1,2,0:0:0:0:
51,192,138352,1,0,0:0:0:100:(s)G6.wav
153,192,138602,1,8,3:0:0:0:
460,192,138602,1,0,0:0:0:100:(s)Bb6.wav
460,192,138852,1,0,0:0:0:100:(s)F7.wav
358,192,139102,128,2,139602:0:0:0:0:
256,192,139602,1,8,3:0:0:0:
51,192,139602,1,0,0:0:0:0:
358,192,139852,1,0,0:0:0:100:(s)D7.wav
153,192,140102,1,2,0:0:0:0:
153,192,140352,1,0,0:0:0:100:(s)A7.wav
256,192,140602,1,0,0:0:0:100:(s)F7.wav
358,192,140602,1,8,3:0:0:0:
256,192,140852,1,0,0:0:0:100:(s)D7.wav
460,192,141102,1,2,0:0:0:0:
153,192,141602,128,0,142102:0:0:0:100:F7.wav
51,192,141602,1,8,3:0:0:0:
358,192,142102,1,2,0:0:0:0:
358,192,142352,1,0,0:0:0:100:(s)F6.wav
51,192,142602,1,0,0:0:0:100:(s)G6.wav
460,192,142602,1,8,3:0:0:0:
51,192,142852,1,0,0:0:0:100:(s)D7.wav
256,192,143102,128,2,143602:0:0:0:0:
358,192,143602,1,8,3:0:0:0:
460,192,143602,1,0,0:0:0:0:
153,192,143852,1,0,0:0:0:100:(s)G6.wav
51,192,144102,1,2,0:0:0:0:
460,192,144602,1,0,0:0:0:100:(s)D7.wav
153,192,145102,1,0,0:0:0:100:(s)C7.wav
256,192,145602,128,0,146102:1:0:0:100:(s)Bb6.wav
51,192,146102,128,0,146602:0:0:0:100:D7.wav
358,192,146102,1,6,0:0:0:0:
153,192,146602,1,0,0:0:0:100:(s)C7.wav
460,192,146602,1,8,3:0:0:0:
51,192,147102,128,2,147602:0:0:0:0:
460,192,147602,1,8,3:0:0:0:
153,192,147602,128,0,148102:0:0:0:100:(s)C7.wav
358,192,148102,1,2,0:0:0:0:
51,192,148602,1,8,3:0:0:0:
256,192,148602,128,0,149102:0:0:0:100:(s)F7.wav
153,192,149102,1,2,0:0:0:0:
460,192,149352,1,0,0:0:0:100:(s)C7.wav
358,192,149602,1,8,3:0:0:0:
256,192,149602,128,0,150102:0:0:0:100:(s)Bb6.wav
358,192,150102,128,2,150602:0:0:0:0:
51,192,150602,1,0,0:0:0:100:(s)C7.wav
153,192,150602,1,8,3:0:0:0:
358,192,151102,128,2,151602:0:0:0:0:
153,192,151602,1,8,3:0:0:0:
51,192,151602,128,0,152102:0:0:0:100:(s)C7.wav
460,192,152102,1,2,0:0:0:0:
153,192,152352,1,0,0:0:0:100:(s)G6.wav
256,192,152602,1,0,0:0:0:100:(s)Bb6.wav
358,192,152602,1,8,3:0:0:0:
153,192,152852,1,0,0:0:0:100:(s)D7.wav
460,192,153102,1,2,0:0:0:0:
256,192,153352,1,0,0:0:0:100:(s)G6.wav
51,192,153602,1,0,0:0:0:100:(s)Bb6.wav
358,192,153602,1,8,3:0:0:0:
153,192,153852,1,0,0:0:0:100:(s)C7.wav
460,192,154102,1,2,0:0:0:0:
256,192,154602,1,8,3:0:0:0:
51,192,154602,1,0,0:0:0:0:
358,192,155102,1,2,0:0:0:0:
460,192,155602,1,8,3:0:0:0:
153,192,155602,128,0,156102:0:0:0:0:
51,192,156102,1,2,0:0:0:0:
460,192,156352,1,0,0:0:0:100:(s)G6.wav
256,192,156602,1,0,0:0:0:100:(s)Bb6.wav
358,192,156602,1,8,3:0:0:0:
153,192,156852,1,0,0:0:0:80:(s)D7.wav
460,192,157102,1,2,0:0:0:0:
51,192,157352,1,0,0:0:0:100:(s)G6.wav
153,192,157602,1,0,0:0:0:100:(s)Bb6.wav
358,192,157602,1,8,3:0:0:0:
256,192,157852,1,0,0:0:0:100:(s)C7.wav
51,192,158102,1,2,0:0:0:0:
358,192,158602,1,8,3:0:0:0:
460,192,158602,1,0,0:0:0:0:
153,192,159102,1,2,0:0:0:0:
51,192,159602,1,8,3:0:0:0:
256,192,159602,128,0,160102:0:0:0:0:
358,192,160102,1,2,0:0:0:0:
358,192,160477,1,2,0:0:0:0:
358,192,160852,128,2,161602:0:0:0:0:
51,192,162102,1,4,0:2:0:0:
460,192,162352,1,0,0:0:0:80:G_G6.wav
153,192,162602,128,0,163102:0:0:0:80:G_F6.wav
358,192,163102,1,0,0:0:0:80:G_F6.wav
256,192,163352,1,0,0:0:0:80:G_D6.wav
358,192,163602,128,0,164352:0:0:0:80:G_F6.wav
460,192,164352,1,0,0:0:0:80:G_G6.wav
153,192,164602,128,0,165102:0:0:0:80:G_F6.wav
51,192,165102,1,0,0:0:0:80:G_Bb5.wav
460,192,165352,1,0,0:0:0:80:G_G6.wav
153,192,165602,128,0,166102:0:0:0:80:G_F6.wav
256,192,166352,1,0,0:0:0:80:G_G6.wav
460,192,166602,128,0,167102:0:0:0:80:G_F6.wav
153,192,167102,1,0,0:0:0:80:G_F6.wav
51,192,167352,1,0,0:0:0:80:G_D6.wav
153,192,167602,128,0,168352:0:0:0:80:G_F6.wav
256,192,168352,1,0,0:0:0:80:G_G6.wav
460,192,168602,128,0,169102:0:0:0:80:G_F6.wav
358,192,169102,1,0,0:0:0:80:G_Bb5.wav
256,192,169352,1,0,0:0:0:80:G_G6.wav
460,192,169602,128,0,170102:0:0:0:80:G_F6.wav
51,192,170352,1,0,0:0:0:80:G_G6.wav
256,192,170602,128,0,171102:0:0:0:80:G_F6.wav
358,192,171102,1,0,0:0:0:80:G_F6.wav
153,192,171352,1,0,0:0:0:80:G_D6.wav
358,192,171602,128,0,172352:0:0:0:80:G_F6.wav
51,192,172352,1,0,0:0:0:80:G_G6.wav
256,192,172602,128,0,173102:0:0:0:80:G_F6.wav
460,192,173102,1,0,0:0:0:80:G_Bb5.wav
51,192,173352,1,0,0:0:0:80:G_G6.wav
256,192,173602,128,0,174102:0:0:0:80:G_F6.wav
358,192,174352,1,0,0:0:0:80:G_G6.wav
51,192,174602,128,0,175102:0:0:0:80:G_F6.wav
153,192,175102,1,0,0:0:0:80:G_F6.wav
256,192,175352,1,0,0:0:0:80:G_D6.wav
153,192,175602,128,0,176352:0:0:0:80:G_F6.wav
358,192,176352,1,0,0:0:0:80:G_G6.wav
51,192,176602,128,0,177102:0:0:0:80:G_F6.wav
460,192,177102,1,0,0:0:0:80:G_Bb5.wav
358,192,177352,1,0,0:0:0:80:G_G6.wav
51,192,177602,128,0,178102:0:0:0:80:G_F6.wav
256,192,178602,1,0,0:0:0:80:G_Bb5.wav
256,192,179352,128,0,180102:0:0:0:80:G_Bb5.wav
358,192,180602,1,0,0:0:0:80:G_Bb5.wav
358,192,181352,128,0,182102:0:0:0:80:G_Bb5.wav
51,192,182602,1,0,0:0:0:80:G_Bb5.wav
51,192,183352,128,0,184102:0:0:0:80:G_Bb5.wav
153,192,184602,1,0,0:0:0:80:G_A5.wav
153,192,185352,128,0,186102:0:0:0:80:G_A5.wav
460,192,186602,1,0,0:0:0:80:G_Bb5.wav
460,192,187352,128,0,188102:0:0:0:80:G_Bb5.wav
256,192,188602,1,0,0:0:0:80:G_Bb5.wav
256,192,189352,128,0,190102:0:0:0:80:G_Bb5.wav
153,192,190602,1,0,0:0:0:80:G_Bb5.wav
153,192,191352,128,0,192102:0:0:0:80:G_Bb5.wav
51,192,192602,1,0,0:0:0:80:G_A5.wav
51,192,193352,128,0,194102:0:0:0:80:G_A5.wav
358,192,194102,1,0,0:0:0:80:G_Bb4.wav
153,192,194320,1,0,0:0:0:80:G_Bb5.wav
