osu file format v14

[General]
AudioFilename: audio.mp3
AudioLeadIn: 0
PreviewTime: 130000
Countdown: 1
SampleSet: Soft
StackLeniency: 0.7
Mode: 0
LetterboxInBreaks: 0
WidescreenStoryboard: 0

[Editor]
Bookmarks: 2000,18000,26000,34000,42000,50000,66000,74000,82000,90000,98000,114000,122000,130000,146000,162000,178000,194000,204000
DistanceSpacing: 1
BeatDivisor: 4
GridSize: 4
TimelineZoom: 1

[Metadata]
Title:From Here (Ft Cae)
TitleUnicode:From Here (Ft Cae)
Artist:Adib Sin
ArtistUnicode:Adib Sin
Creator:Majii
Version:Easy
Source:
Tags:chill electronic
BeatmapID:1579435
BeatmapSetID:749911

[Difficulty]
HPDrainRate:2
CircleSize:2.5
OverallDifficulty:1
ApproachRate:2
SliderMultiplier:0.5
SliderTickRate:1

[Events]
//Background and Video events
0,0,"58888280_p0.png",0,0
//Break Periods
2,82200,88440
2,162000,176440
//Storyboard Layer 0 (Background)
//Storyboard Layer 1 (Fail)
//Storyboard Layer 2 (Pass)
//Storyboard Layer 3 (Foreground)
//Storyboard Sound Samples

[TimingPoints]
2000,500,4,1,0,70,1,0
34000,-66.6666666666667,4,3,0,75,0,0
50000,-58.8235294117647,4,3,0,75,0,0
66000,-50,4,1,0,100,0,1
82000,-100,4,2,0,75,0,0
114000,-66.6666666666667,4,3,0,75,0,0
122000,-58.8235294117647,4,1,0,75,0,0
146000,-50,4,1,0,100,0,1
162000,-50,4,1,0,75,0,0
178000,-133.333333333333,4,2,0,40,0,0

[HitObjects]
256,336,2000,6,0,P|232:272|236:232,1,100,2|0,0:0|0:0,0:0:0:0:
332,256,3500,1,0,0:0:0:0:
434,290,4000,2,0,P|433:240|412:196,1,100,2|0,0:0|0:0,0:0:0:0:
344,124,5500,1,0,0:0:0:0:
204,80,6000,6,0,L|148:80,1,50,2|0,0:0|0:0,0:0:0:0:
204,168,7000,2,0,L|256:168,1,50,2|0,0:0|0:0,0:0:0:0:
344,124,8000,2,0,P|356:172|336:224,1,100,2|0,0:0|0:0,0:0:0:0:
254,168,9500,1,0,0:0:0:0:
82,64,10000,6,0,P|128:48|176:60,1,100,2|0,0:0|0:0,0:0:0:0:
134,152,11500,1,0,0:0:0:0:
87,243,12000,2,0,P|135:255|182:240,1,100,2|0,0:0|0:0,0:0:0:0:
254,168,13500,1,0,0:0:0:0:
338,306,14000,6,0,L|288:306,1,50,2|0,0:0|0:0,0:0:0:0:
338,218,15000,2,0,L|388:218,1,50,2|0,0:0|0:0,0:0:0:0:
250,262,16000,2,0,P|238:214|258:162,1,100,2|0,0:0|0:0,0:0:0:0:
338,218,17500,1,0,0:0:0:0:
354,70,18000,6,0,B|354:126|354:126|338:174|338:174|338:222,1,150,2|0,0:0|0:0,0:0:0:0:
190,201,20000,2,0,B|233:201|233:201|281:217|281:217|337:217,1,150,2|0,0:0|0:0,0:0:0:0:
172,105,22000,2,0,P|171:156|196:209,1,100,2|0,0:0|0:0,0:0:0:0:
220,28,23500,1,0,0:0:0:0:
360,128,24000,6,0,L|304:128,1,50,2|0,0:0|0:0,0:0:0:0:
360,216,25000,2,2,L|420:216,1,50,2|0,0:0|0:0,0:0:0:0:
272,264,26000,6,0,P|256:217|268:169,1,100,2|0,0:0|0:0,0:0:0:0:
340,100,27500,1,0,0:0:0:0:
415,169,28000,2,0,P|427:217|412:264,1,100,2|0,0:0|0:0,0:0:0:0:
340,336,29500,1,0,0:0:0:0:
236,208,30000,6,0,P|283:195|330:211,1,100,2|0,0:0|0:0,0:0:0:0:
280,300,31500,1,0,0:0:0:0:
188,340,32000,2,0,P|140:352|93:336,1,100,2|0,0:0|0:0,0:0:0:0:
24,264,33500,1,0,0:0:0:0:
120,96,34000,6,0,L|120:12,1,75.0000028610231,4|0,0:0|0:0,0:0:0:0:
48,168,35000,2,0,P|124:192|196:168,1,150.000005722046,8|0,0:0|0:0,0:0:0:0:
120,296,36500,2,0,L|120:221,2,75.0000028610231,0|8|0,0:0|0:0|0:0,0:0:0:0:
256,288,38000,6,0,L|336:320,1,75.0000028610231,4|0,0:0|0:0,0:0:0:0:
404,240,39000,2,0,P|428:316|404:388,1,150.000005722046,8|0,0:0|0:0,0:0:0:0:
332,316,40500,2,0,L|408:308,2,75.0000028610231,0|8|0,0:0|0:0|0:0,0:0:0:0:
256,176,42000,6,0,L|263:250,1,75.0000028610231,4|0,0:0|0:0,0:0:0:0:
192,292,43000,2,0,P|268:268|340:292,1,150.000005722046,8|0,0:0|0:0,0:0:0:0:
384,208,44500,2,0,P|416:240|428:280,1,75.0000028610231,0|8,0:0|0:0,0:0:0:0:
304,168,45500,1,0,0:0:0:0:
136,140,46000,6,0,L|216:140,1,75.0000028610231,4|0,0:0|0:0,0:0:0:0:
76,64,47000,2,0,P|100:140|76:212,1,150.000005722046,8|0,0:0|0:0,0:0:0:0:
141,140,48500,2,0,L|216:140,1,75.0000028610231,0|8,0:0|0:0,0:0:0:0:
44,140,49500,1,2,0:0:0:0:
168,44,50000,6,0,P|216:40|256:48,1,85.0000016212464,4|0,0:0|0:0,0:0:0:0:
339,153,51000,2,0,P|298:160|256:156,1,85.0000016212464,8|4,0:0|0:0,0:0:0:0:
152,148,52000,2,4,L|104:176,2,42.5000008106232,2|4|4,0:0|0:0|0:0,0:0:0:0:
148,260,53000,2,0,L|220:215,1,85.0000016212464,8|0,0:0|0:0,0:0:0:0:
332,127,54000,6,0,P|336:175|328:215,1,85.0000016212464,4|0,0:0|0:0,0:0:0:0:
222,298,55000,2,0,P|215:256|219:214,1,85.0000016212464,8|4,0:0|0:0,0:0:0:0:
228,111,56000,2,0,L|200:63,2,42.5000008106232,2|4|4,0:0|0:0|0:0,0:0:0:0:
116,107,57000,2,0,L|160:179,1,85.0000016212464,8|0,0:0|0:0,0:0:0:0:
332,289,58000,6,0,P|284:293|244:285,1,85.0000016212464,4|0,0:0|0:0,0:0:0:0:
160,179,59000,2,0,P|201:172|243:176,1,85.0000016212464,8|4,0:0|0:0,0:0:0:0:
348,185,60000,2,0,L|396:157,2,42.5000008106232,2|4|4,0:0|0:0|0:0,0:0:0:0:
352,73,61000,2,0,L|279:117,1,85.0000016212464,8|0,0:0|0:0,0:0:0:0:
107,8,62000,6,0,P|155:4|195:12,1,85.0000016212464,4|0,0:0|0:0,0:0:0:0:
279,117,63000,2,0,P|237:123|195:119,1,85.0000016212464,8|4,0:0|0:0,0:0:0:0:
91,112,64000,2,0,L|43:140,2,42.5000008106232,2|4|4,0:0|0:0|0:0,0:0:0:0:
87,224,65000,2,0,L|159:179,1,85.0000016212464
240,68,66000,6,2,P|204:48|136:48,1,100
308,124,67000,2,0,P|344:144|412:144,2,100,2|8|2,0:0|0:0|0:0,0:0:0:0:
372,48,68500,1,2,0:0:0:0:
417,194,69000,2,0,L|401:146,2,50,10|6|6,0:0|0:0|0:0,0:0:0:0:
272,316,70000,6,0,P|308:336|376:336,1,100,2|2,0:0|0:0,0:0:0:0:
344,240,71000,2,0,P|364:204|364:136,1,100,2|2,0:0|0:0,0:0:0:0:
268,168,72000,2,0,L|200:168,2,50,0|0|2,0:0|0:0|0:0,0:0:0:0:
268,68,73000,2,0,L|328:68,2,50,2|0|2,0:0|0:0|0:0,0:0:0:0:
96,72,74000,6,0,P|20:120|12:240,1,200,0|8,0:0|0:0,0:0:0:0:
44,316,75500,1,0,0:0:0:0:
160,264,76000,2,0,P|128:200|88:176,1,100,0|2,0:0|0:0,0:0:0:0:
64,92,77000,2,0,L|108:52,2,50,10|0|2,0:0|0:0|0:0,0:0:0:0:
332,92,78000,6,0,P|284:16|164:8,1,200,0|8,0:0|0:0,0:0:0:0:
100,60,79500,1,0,0:0:0:0:
136,152,80000,2,2,P|200:120|224:80,1,100
264,8,81000,2,0,L|328:16,2,50,2|0|2,0:0|0:0|0:0,0:0:0:0:
404,32,82000,1,2,0:0:0:0:
256,192,90000,12,0,97500,0:0:0:0:
80,136,98000,5,4,0:0:0:0:
180,124,98500,2,0,L|240:116,2,50
256,60,100000,2,0,P|256:116|276:164,1,100,4|0,0:0|0:0,0:0:0:0:
364,196,101500,1,0,0:0:0:0:
400,92,102000,2,0,L|344:100,1,50,4|0,0:0|0:0,0:0:0:0:
260,144,103000,2,0,L|204:152,1,50
136,216,104000,2,0,L|80:224,2,50,4|0|0,0:0|0:0|0:0,0:0:0:0:
208,288,105500,1,0,0:0:0:0:
384,212,106000,5,4,0:0:0:0:
292,176,106500,2,0,L|284:116,2,50
228,100,108000,2,0,P|284:100|332:80,1,100,4|0,0:0|0:0,0:0:0:0:
404,20,109500,1,0,0:0:0:0:
264,16,110000,2,0,L|272:72,1,50,4|0,0:0|0:0,0:0:0:0:
316,156,111000,2,0,L|324:212,1,50
388,280,112000,2,0,L|396:336,2,50,4|0|0,0:0|0:0|0:0,0:0:0:0:
372,180,113500,1,0,0:0:0:0:
256,40,114000,6,0,P|228:48|192:80,1,75.0000028610231,2|0,0:0|0:0,0:0:0:0:
160,184,115000,1,0,0:0:0:0:
160,184,115500,1,0,0:0:0:0:
272,196,116000,2,0,P|307:207|334:233,1,75.0000028610231
388,316,117000,2,0,P|415:341|450:353,1,75.0000028610231
432,224,118000,6,0,P|457:196|469:161,2,75.0000028610231
328,268,119500,1,0,0:0:0:0:
228,220,120000,2,0,P|202:192|190:157,2,75.0000028610231
328,116,121500,1,0,0:0:0:0:
96,96,122000,6,0,B|124:136|188:156|188:156|196:192|228:220,1,170.000003242493,2|0,0:0|0:0,0:0:0:0:
256,76,123500,1,0,0:0:0:0:
416,96,124000,2,0,B|388:136|324:156|324:156|316:192|284:220,1,170.000003242493,2|0,0:0|0:0,0:0:0:0:
256,288,125500,1,0,0:0:0:0:
256,188,126000,6,0,L|256:16,1,170.000003242493,2|0,0:0|0:0,0:0:0:0:
256,288,127500,1,0,0:0:0:0:
152,272,128000,2,8,L|84:308,2,63.7500012159348
256,116,129500,1,2,0:0:0:0:
312,288,130000,6,0,L|224:288,1,85.0000016212464,0|8,0:0|0:0,0:0:0:0:
136,244,131000,2,0,P|124:288|133:327,1,85.0000016212464,0|8,0:0|0:0,0:0:0:0:
227,288,132000,2,0,L|288:288,2,42.5000008106232,0|0|8,0:0|0:0|0:0,0:0:0:0:
264,192,133000,2,0,B|312:192|312:192|352:180,1,85.0000016212464,0|8,0:0|0:0,0:0:0:0:
461,284,134000,6,0,L|376:284,1,85.0000016212464,0|8,0:0|0:0,0:0:0:0:
284,244,135000,2,0,P|272:288|281:327,1,85.0000016212464,0|8,0:0|0:0,0:0:0:0:
420,284,136000,2,0,L|368:284,2,42.5000008106232,0|0|8,0:0|0:0|0:0,0:0:0:0:
420,156,137000,2,0,B|420:108|420:108|408:68,1,85.0000016212464,0|8,0:0|0:0,0:0:0:0:
208,207,138000,6,0,L|208:122,1,85.0000016212464,0|8,0:0|0:0,0:0:0:0:
248,30,139000,2,0,P|204:18|165:27,1,85.0000016212464,0|8,0:0|0:0,0:0:0:0:
208,166,140000,2,0,L|208:114,2,42.5000008106232,0|0|8,0:0|0:0|0:0,0:0:0:0:
336,166,141000,2,0,B|384:166|384:166|424:154,1,85.0000016212464,0|8,0:0|0:0,0:0:0:0:
256,296,142000,6,0,L|168:296,1,85.0000016212464,0|8,0:0|0:0,0:0:0:0:
356,336,143000,2,0,P|368:292|359:253,1,85.0000016212464,0|8,0:0|0:0,0:0:0:0:
164,76,144000,6,2,L|164:168,1,85.0000016212464
256,276,145000,2,2,L|256:188,1,85.0000016212464
256,48,146000,6,0,P|184:48|144:68,1,100,2|8,0:0|0:0,0:0:0:0:
213,268,147000,2,0,P|228:221|224:172,1,100,2|8,0:0|0:0,0:0:0:0:
24,212,148000,2,0,B|76:200|76:200|128:212,1,100,2|8,0:0|0:0,0:0:0:0:
72,88,149000,2,0,L|72:32,2,50,2|2|8,0:0|0:0|0:0,0:0:0:0:
30,309,150000,6,0,P|102:309|142:289,1,100,2|8,0:0|0:0,0:0:0:0:
72,88,151000,2,0,P|57:135|61:184,1,100,2|8,0:0|0:0,0:0:0:0:
242,133,152000,2,0,L|182:133,2,50,0|0|8,0:0|0:0|0:0,0:0:0:0:
214,269,153000,2,0,L|214:325,2,50,2|2|8,0:0|0:0|0:0,0:0:0:0:
260,164,154000,6,0,P|304:196|312:260,1,100,2|8,0:0|0:0,0:0:0:0:
184,276,155000,2,0,L|280:212,1,100,2|8,0:0|0:0,0:0:0:0:
148,172,156000,2,0,L|90:211,2,50,2|2|8,0:0|0:0|0:0,0:0:0:0:
256,100,157000,1,0,0:0:0:0:
256,100,157500,1,8,0:0:0:0:
204,296,158000,6,0,P|256:316|316:296,1,100,2|8,0:0|0:0,0:0:0:0:
260,216,159000,1,0,0:0:0:0:
260,216,159500,1,8,0:0:0:0:
256,40,160000,6,8,L|256:124,2,75
256,332,161500,1,2,0:0:0:0:
104,64,178000,6,0,B|140:120|204:104,1,112.500004291535,2|0,0:0|0:0,0:0:0:0:
260,188,180000,2,0,B|316:152|300:88,1,112.500004291535,2|0,0:0|0:0,0:0:0:0:
428,212,182000,2,0,L|324:160,1,112.500004291535,2|0,0:0|0:0,0:0:0:0:
316,64,184000,2,0,P|260:84|232:132,1,112.500004291535,2|0,0:0|0:0,0:0:0:0:
120,272,186000,6,0,P|176:252|204:204,1,112.500004291535,2|0,0:0|0:0,0:0:0:0:
272,340,188000,2,0,B|232:292|232:292|184:260,1,112.500004291535,2|0,0:0|0:0,0:0:0:0:
340,176,190000,2,0,L|260:264,1,112.500004291535,2|0,0:0|0:0,0:0:0:0:
224,160,192000,2,0,L|299:76,1,112.500004291535,2|0,0:0|0:0,0:0:0:0:
256,192,194000,12,0,198000,0:0:0:0:
