osu file format v14

[General]
AudioFilename: audio.mp3
AudioLeadIn: 0
PreviewTime: 54689
Countdown: 0
SampleSet: Soft
StackLeniency: 0.5
Mode: 0
LetterboxInBreaks: 0
WidescreenStoryboard: 1

[Editor]
Bookmarks: 7118,13975,27689,41403,48261,55118,68832,96261
DistanceSpacing: 0.9
BeatDivisor: 4
GridSize: 16
TimelineZoom: 2

[Metadata]
Title:WAP x Toxic
TitleUnicode:WAP x Toxic
Artist:Adamusic
ArtistUnicode:Adamusic
Creator:- ascended -
Version:Normal
Source:
Tags:mildly accurate mildly_accurate ma cardi b cardi_b megan thee stallion britney spears female vocals wet ass pussy -ascended- -_ascended_- english pop hiphop hip hop hip-hop rap novelty meme mash up mashup mash-up adam wright wapxtoxic waptoxic toxicwap toxicxwap wapxic
BeatmapID:2831929
BeatmapSetID:1369551

[Difficulty]
HPDrainRate:4
CircleSize:3.4
OverallDifficulty:4
ApproachRate:5.2
SliderMultiplier:1.3
SliderTickRate:1

[Events]
//Background and Video events
0,0,"based.jpg",0,0
//Break Periods
2,13746,14519
2,117032,125948
2,130746,132162
//Storyboard Layer 0 (Background)
//Storyboard Layer 1 (Fail)
//Storyboard Layer 2 (Pass)
//Storyboard Layer 3 (Foreground)
//Storyboard Layer 4 (Overlay)
//Storyboard Sound Samples

[TimingPoints]
261,428.571428571429,4,2,1,55,1,0
7171,-100,4,2,1,5,0,0
7225,-100,4,2,1,55,0,0
10600,-100,4,2,1,5,0,0
10653,-100,4,2,1,55,0,0
32403,-100,4,2,1,60,0,0
53403,-100,4,2,1,30,0,0
55118,-90.9090909090909,4,2,1,75,0,1
68832,-90.9090909090909,4,2,1,55,0,0
70546,-100,4,2,1,50,0,0
80832,-100,4,2,1,35,0,0
82546,-100,4,2,1,55,0,0
94546,-100,4,2,1,30,0,0
96261,-90.9090909090909,4,2,1,75,0,1
109975,-90.9090909090909,4,2,1,70,0,1
116832,-90.9090909090909,4,2,1,40,0,0
118171,-90.9090909090909,4,2,1,5,0,0
118225,-90.9090909090909,4,2,1,40,0,0
119028,-90.9090909090909,4,2,1,5,0,0
119082,-90.9090909090909,4,2,1,40,0,0
119886,-90.9090909090909,4,2,1,5,0,0
119939,-90.9090909090909,4,2,1,40,0,0
120743,-90.9090909090909,4,2,1,5,0,0
120797,-90.9090909090909,4,2,1,40,0,0
127118,-100,4,2,1,45,0,0
133332,-100,4,2,1,60,0,0
133975,-90.9090909090909,4,2,1,75,0,1
137832,-90.9090909090909,4,2,2,75,0,1
138046,-90.9090909090909,4,2,1,75,0,1
138261,-90.9090909090909,4,2,1,75,0,1
142546,-100,4,2,1,40,0,0

[Colours]
Combo1 : 183,183,183
Combo2 : 255,138,255
Combo3 : 234,234,234
Combo4 : 177,100,255

[HitObjects]
405,345,261,6,0,L|416:212,1,130,2|10,3:2|0:2,0:0:0:0:
425,161,903,1,2,3:2:0:0:
425,161,1118,1,2,0:2:0:0:
359,63,1546,2,0,P|319:86|295:87,1,65,10|2,0:2|0:2,0:0:0:0:
251,55,1975,6,2,B|120:40|251:59|120:43,3,130,2|10|2|10,3:2|0:2|0:2|0:2,0:0:0:0:
76,150,3689,38,0,B|152:144|112:201|191:195,1,130,2|10,3:2|0:2,0:0:0:0:
243,168,4332,1,2,3:2:0:0:
243,168,4546,1,2,0:2:0:0:
332,244,4975,2,0,P|372:221|396:220,1,65,10|2,0:2|0:2,0:0:0:0:
442,245,5403,6,2,B|457:114|438:245|454:114,3,130,2|10|2|10,3:2|0:2|0:2|0:2,0:0:0:0:
362,42,7118,37,2,3:2:0:0:
299,140,7546,2,0,L|307:205,1,65,10|2,0:2|3:2,0:0:0:0:
314,262,7975,1,2,0:2:0:0:
209,313,8403,2,0,L|201:248,1,65,10|2,0:2|0:2,0:0:0:0:
194,190,8832,6,2,B|63:175|194:194|63:178,3,130,2|10|2|10,3:2|0:2|0:2|0:2,0:0:0:0:
20,149,10332,1,2,0:2:0:0:
20,149,10546,37,2,3:2:0:0:
66,41,10975,2,0,P|93:20|129:10,1,65,10|2,0:2|3:2,0:0:0:0:
166,49,11403,1,2,0:2:0:0:
279,27,11832,2,0,P|306:48|342:58,1,65,10|2,0:2|0:2,0:0:0:0:
384,24,12261,6,2,B|515:9|384:28|515:12,3,130,2|10|2|10,3:2|0:2|0:2|0:2,0:0:0:0:
413,341,15689,38,0,P|367:292|302:290,1,130,2|10,3:2|0:2,0:0:0:0:
267,330,16332,1,2,3:2:0:0:
267,330,16546,2,0,P|257:257|241:199,1,130,2|10,0:2|0:2,0:0:0:0:
192,96,17403,6,0,P|146:145|81:147,1,130,2|10,3:2|0:2,0:0:0:0:
46,107,18046,1,2,3:2:0:0:
46,107,18261,1,2,0:2:0:0:
6,217,18689,1,10,0:2:0:0:
70,314,19118,38,0,L|202:307,1,130,2|10,3:2|0:2,0:0:0:0:
258,302,19761,1,0,3:0:0:0:
258,302,19975,1,2,0:2:0:0:
368,340,20403,2,0,L|371:274,1,65,10|2,0:2|0:2,0:0:0:0:
376,216,20832,5,2,3:2:0:0:
295,130,21261,2,0,P|250:150|238:168,2,65,10|2|2,0:2|3:2|0:2,0:0:0:0:
351,27,22118,2,0,P|305:9|283:13,2,65,10|2|2,0:2|0:2|3:2,0:0:0:0:
461,66,22975,38,0,P|451:106|451:148,1,65,10|2,0:2|3:2,0:0:0:0:
452,187,23403,2,0,P|497:169|519:173,2,65,2|2|10,0:2|0:2|0:2,0:0:0:0:
415,232,24046,1,2,0:2:0:0:
415,232,24261,6,0,P|369:214|347:218,1,65,2|2,3:2|0:2,0:0:0:0:
312,256,24689,2,0,L|318:322,2,65,10|2|2,0:2|3:2|0:2,0:0:0:0:
197,232,25546,2,0,L|203:298,1,65,10|2,0:2|0:2,0:0:0:0:
206,355,25975,38,2,B|75:340|206:359|75:343,3,130,2|10|2|10,3:2|0:2|0:2|0:2,0:0:0:0:
37,232,27689,6,0,P|48:173|109:158,1,130,2|10,3:2|0:2,0:0:0:0:
151,117,28332,1,2,3:2:0:0:
151,117,28546,2,0,B|211:148|182:201|241:222,1,130,2|10,0:2|0:2,0:0:0:0:
344,198,29403,38,0,P|353:140|395:69,1,130,2|10,3:2|0:2,0:0:0:0:
445,60,30046,1,2,3:2:0:0:
445,60,30261,1,2,0:2:0:0:
483,168,30689,2,0,L|473:242,1,65,10|2,0:2|0:2,0:0:0:0:
484,290,31118,6,0,P|431:308|376:310,1,97.5,2|2,3:2|0:2,0:0:0:0:
318,361,31761,2,0,P|300:308|298:253,1,97.5,2|2,3:2|0:2,0:0:0:0:
325,183,32403,2,0,L|325:115,1,65,10|0,0:2|0:0,0:0:0:0:
324,59,32832,37,2,3:2:0:0:
213,19,33261,2,0,P|184:40|177:68,1,65,10|2,0:2|3:2,0:0:0:0:
193,123,33689,2,0,P|115:120|89:185,1,130,2|10,0:2|0:2,0:0:0:0:
63,271,34546,5,2,3:2:0:0:
163,331,34975,2,0,L|171:267,2,65,10|2|2,0:2|3:2|0:2,0:0:0:0:
278,308,35832,2,0,L|270:244,2,65,10|2|2,0:2|0:2|3:2,0:0:0:0:
387,350,36689,38,0,L|395:286,1,65,10|2,0:2|3:2,0:0:0:0:
429,237,37118,2,0,P|469:247|491:277,2,65,2|2|10,0:2|0:2|0:2,0:0:0:0:
391,192,37761,1,2,0:2:0:0:
391,192,37975,6,0,L|383:128,1,65,2|2,3:2|0:2,0:0:0:0:
375,69,38403,2,0,P|399:47|430:42,2,65,10|2|2,0:2|3:2|0:2,0:0:0:0:
263,106,39261,2,0,P|223:96|201:66,1,65,10|2,0:2|0:2,0:0:0:0:
173,31,39689,38,2,B|158:162|177:31|161:162,3,130,2|10|2|10,3:2|0:2|0:2|0:2,0:0:0:0:
203,269,41403,21,6,3:2:0:0:
107,336,41832,2,0,P|68:312|61:283,1,65,10|2,0:2|3:2,0:0:0:0:
25,249,42261,2,0,P|22:281|11:311,2,65,2|2|10,0:2|0:2|0:2,0:0:0:0:
21,194,42903,1,2,0:2:0:0:
21,194,43118,5,2,3:2:0:0:
68,87,43546,2,0,L|137:97,1,65,10|2,0:2|3:2,0:0:0:0:
190,104,43975,2,0,L|200:35,2,65,2|2|10,0:2|0:2|0:2,0:0:0:0:
252,113,44618,1,2,0:2:0:0:
252,113,44832,38,0,B|323:75|312:157|401:137,1,130,2|10,3:2|0:2,0:0:0:0:
472,186,45689,2,0,P|479:147|489:111,2,65,2|2|10,0:2|0:2|0:2,0:0:0:0:
443,237,46332,1,2,0:2:0:0:
443,237,46546,6,0,P|450:268|456:300,2,65,2|2|10,3:2|0:2|0:2,0:0:0:0:
388,214,47189,1,2,3:2:0:0:
388,214,47403,2,0,P|336:218|319:233,1,65,2|2,0:2|0:2,0:0:0:0:
309,280,47832,1,10,0:2:0:0:
240,184,48261,38,0,B|213:144|244:100|291:147|315:106,1,130,2|10,3:2|0:2,0:0:0:0:
328,55,48903,1,2,3:2:0:0:
328,55,49118,2,0,P|280:18|207:36,1,130,2|10,0:2|0:2,0:0:0:0:
109,79,49975,5,2,3:2:0:0:
109,79,50189,2,0,L|38:68,2,65,2|10|2,0:2|0:2|3:2,0:0:0:0:
142,127,50832,2,0,P|153:165|155:193,1,65,2|2,0:2|0:2,0:0:0:0:
150,248,51261,1,10,0:2:0:0:
265,262,51689,38,0,L|329:270,1,65,2|2,3:2|0:2,0:0:0:0:
388,278,52118,2,0,P|409:253|414:222,2,65,10|2|2,0:2|3:2|0:2,0:0:0:0:
307,363,52975,2,0,L|243:371,1,65,10|2,0:2|0:2,0:0:0:0:
184,380,53403,5,0,0:0:0:0:
167,77,55118,38,0,B|195:52|195:52|301:71,1,143,6|10,3:2|0:2,0:0:0:0:
364,56,55761,1,2,3:2:0:0:
364,56,55975,2,0,B|398:24|450:80|443:87|448:121|414:148,1,143,2|10,0:2|0:2,0:0:0:0:
397,190,56618,1,2,0:2:0:0:
444,240,56832,5,2,3:2:0:0:
444,240,57046,2,0,P|482:224|515:221,2,71.5,2|8|2,0:2|0:2|3:2,0:0:0:0:
408,293,57689,1,2,0:2:0:0:
289,241,58118,2,0,L|298:170,1,71.5,10|2,0:2|0:2,0:0:0:0:
302,105,58546,38,0,B|260:41|221:55|235:41|175:62|167:72,1,143,2|10,3:2|0:2,0:0:0:0:
127,96,59189,1,2,3:2:0:0:
127,96,59403,2,0,P|143:131|150:171,1,71.5,2|2,0:2|3:2,0:0:0:0:
189,213,59832,2,0,P|173:248|166:288,1,71.5,10|2,0:2|0:2,0:0:0:0:
146,344,60261,5,2,3:2:0:0:
146,344,60475,2,0,L|69:330,2,71.5,2|8|2,0:2|0:2|3:2,0:0:0:0:
201,377,61118,1,2,0:2:0:0:
318,325,61546,2,0,P|299:275|304:248,1,71.5,10|2,0:2|0:2,0:0:0:0:
317,195,61975,38,0,B|321:154|321:154|308:122,1,71.5,2|2,3:2|0:2,0:0:0:0:
294,73,62403,1,10,0:2:0:0:
294,73,62618,1,2,3:2:0:0:
294,73,62832,2,0,P|331:85|364:90,1,71.5,2|2,0:2|3:2,0:0:0:0:
407,43,63261,1,10,0:2:0:0:
484,152,63689,5,2,3:2:0:0:
484,152,63903,2,0,B|489:127|496:111|519:78,2,71.5,2|8|2,0:2|0:2|3:2,0:0:0:0:
486,216,64546,1,2,0:2:0:0:
486,344,64975,2,0,P|444:320|409:319,1,71.5,10|2,0:2|0:2,0:0:0:0:
364,346,65403,38,0,L|286:332,1,71.5,2|2,3:2|0:2,0:0:0:0:
237,332,65832,1,10,0:2:0:0:
237,332,66046,1,2,3:2:0:0:
237,332,66261,1,2,0:2:0:0:
163,211,66689,2,0,L|241:197,1,71.5,10|2,0:2|0:2,0:0:0:0:
297,190,67118,6,2,B|323:50|303:189|327:52,3,143,2|10|2|10,3:2|0:2|0:2|0:2,0:0:0:0:
215,17,68832,5,2,3:2:0:0:
59,331,70118,1,8,0:2:0:0:
175,344,70546,6,0,L|312:362,1,130,2|10,3:2|0:2,0:0:0:0:
365,373,71189,1,2,3:2:0:0:
365,373,71403,2,0,P|427:329|414:266,1,130,2|10,0:2|0:2,0:0:0:0:
349,189,72261,38,0,L|212:207,1,130,2|10,3:2|0:2,0:0:0:0:
164,189,72903,1,2,3:2:0:0:
164,189,73118,1,2,0:2:0:0:
130,77,73546,1,10,0:2:0:0:
242,44,73975,6,0,P|304:48|333:103,1,130,2|10,3:2|0:2,0:0:0:0:
328,161,74618,1,2,3:2:0:0:
328,161,74832,1,2,0:2:0:0:
223,213,75261,2,0,P|190:192|151:186,1,65,10|2,0:2|0:2,0:0:0:0:
106,185,75689,38,0,P|121:242|133:313,1,130,2|10,3:2|0:2,0:0:0:0:
109,367,76332,1,2,3:2:0:0:
109,367,76546,1,2,0:2:0:0:
225,358,76975,2,0,P|230:325|238:294,1,65,10|2,0:2|0:2,0:0:0:0:
281,254,77403,6,0,B|287:167|225:214|225:133,1,130,2|10,3:2|0:2,0:0:0:0:
326,85,78261,2,0,P|320:52|312:21,2,65,2|2|10,0:2|0:2|0:2,0:0:0:0:
377,112,78903,1,2,0:2:0:0:
377,112,79118,2,0,P|416:122|435:149,1,65,2|2,3:2|0:2,0:0:0:0:
439,197,79546,2,0,L|507:188,2,65,10|2|2,0:2|3:2|0:2,0:0:0:0:
370,291,80403,2,0,L|302:282,1,65,10|2,0:2|0:2,0:0:0:0:
247,274,80832,37,2,0:2:0:0:
235,32,82546,5,6,3:2:0:0:
119,9,82975,2,0,P|84:30|72:55,1,65,10|2,0:2|3:2,0:0:0:0:
25,84,83403,2,0,P|44:140|54:220,1,130,2|10,0:2|0:2,0:0:0:0:
22,323,84261,2,0,B|61:303|92:323|69:349|109:366|143:348,1,130,2|10,3:2|0:2,0:0:0:0:
192,328,84903,1,2,3:2:0:0:
192,328,85118,1,2,0:2:0:0:
305,366,85546,2,0,P|333:332|365:335,1,65,10|2,0:2|0:2,0:0:0:0:
408,343,85975,38,0,P|411:289|426:198,1,130,2|8,3:2|0:2,0:0:0:0:
450,164,86618,1,2,3:2:0:0:
450,164,86832,2,0,P|448:131|443:98,1,65,2|2,0:2|0:2,0:0:0:0:
427,43,87261,1,10,0:2:0:0:
322,95,87689,6,0,L|256:101,1,65,2|2,3:2|0:2,0:0:0:0:
199,108,88118,2,0,L|205:174,1,65,10|2,0:2|3:2,0:0:0:0:
210,230,88546,1,2,0:2:0:0:
189,345,88975,1,10,0:2:0:0:
72,334,89403,38,0,B|44:263|90:261|61:197,1,130,2|10,3:2|0:2,0:0:0:0:
41,153,90046,1,2,3:2:0:0:
41,153,90261,2,0,P|57:89|114:70,1,130,2|10,0:2|0:2,0:0:0:0:
215,13,91118,6,0,B|276:42|276:42|346:32,1,130,2|10,3:2|0:2,0:0:0:0:
430,104,91975,2,0,L|503:88,2,65,2|2|10,0:2|0:2|0:2,0:0:0:0:
403,156,92618,1,2,0:2:0:0:
403,156,92832,38,0,P|417:196|419:226,1,65,2|2,3:2|0:2,0:0:0:0:
408,276,93261,2,0,P|448:262|478:260,2,65,10|2|2,0:2|3:2|0:2,0:0:0:0:
291,284,94118,2,0,P|295:251|307:221,1,65,10|2,0:2|0:2,0:0:0:0:
306,163,94546,5,0,0:0:0:0:
181,53,96261,6,0,P|193:89|197:141,1,71.5,6|2,3:2|0:2,0:0:0:0:
173,181,96689,1,10,0:2:0:0:
173,181,96903,1,2,3:2:0:0:
173,181,97118,2,0,P|120:173|98:181,1,71.5,2|2,0:2|3:2,0:0:0:0:
62,227,97546,2,0,L|72:305,1,71.5,10|2,0:2|0:2,0:0:0:0:
81,361,97975,5,2,3:2:0:0:
216,354,98403,1,10,0:2:0:0:
216,354,98618,1,2,3:2:0:0:
216,354,98832,2,0,P|248:328|261:283,1,71.5,2|2,0:2|3:2,0:0:0:0:
242,238,99261,1,10,0:2:0:0:
243,109,99689,38,0,P|278:125|313:132,1,71.5,2|2,3:2|0:2,0:0:0:0:
371,110,100118,1,10,0:2:0:0:
371,110,100332,1,2,3:2:0:0:
371,110,100546,2,0,P|413:107|446:115,1,71.5,2|2,0:2|3:2,0:0:0:0:
483,162,100975,2,0,P|474:201|473:244,1,71.5,10|2,0:2|0:2,0:0:0:0:
478,297,101403,5,2,3:2:0:0:
352,325,101832,2,0,L|351:252,2,71.5,10|2|2,0:2|3:2|0:2,0:0:0:0:
301,365,102475,1,2,3:2:0:0:
301,365,102689,2,0,P|265:321|235:315,1,71.5,10|2,0:2|0:2,0:0:0:0:
191,338,103118,38,0,B|120:314|138:356|35:303|73:268|75:263,1,143,2|10,3:2|0:2,0:0:0:0:
90,224,103761,1,2,3:2:0:0:
90,224,103975,1,2,0:2:0:0:
200,158,104403,2,0,P|236:177|268:184,1,71.5,10|2,0:2|0:2,0:0:0:0:
315,225,104832,6,0,B|372:238|341:185|434:197|412:136|401:117,1,143,2|10,3:2|0:2,0:0:0:0:
374,89,105475,1,2,3:2:0:0:
374,89,105689,1,2,0:2:0:0:
264,20,106118,2,0,P|222:21|197:45,1,71.5,10|2,0:2|0:2,0:0:0:0:
170,95,106546,38,0,L|184:173,1,71.5,2|2,3:2|0:2,0:0:0:0:
202,236,106975,1,10,0:2:0:0:
202,236,107189,1,2,3:2:0:0:
202,236,107403,1,2,0:2:0:0:
215,363,107832,2,0,L|144:350,1,71.5,10|2,0:2|0:2,0:0:0:0:
80,340,108261,6,2,B|63:189|85:340|66:189,3,143.000004364014,2|10|2|10,3:2|0:2|0:2|0:2,0:0:0:0:
170,121,109975,38,0,P|222:148|314:150,1,143,2|10,3:2|0:2,0:0:0:0:
366,122,110618,1,2,3:2:0:0:
366,122,110832,2,0,P|417:142|427:164,1,71.5,2|2,0:2|3:2,0:0:0:0:
485,174,111261,2,0,P|506:224|498:246,1,71.5,10|2,0:2|0:2,0:0:0:0:
472,294,111689,6,0,B|415:279|391:301|368:339|322:335,1,143,2|10,3:2|0:2,0:0:0:0:
285,300,112332,1,2,3:2:0:0:
220,189,112761,1,2,3:2:0:0:
220,189,112975,2,0,L|232:115,1,71.5,10|2,0:2|0:2,0:0:0:0:
212,57,113403,38,0,B|176:46|176:46|139:52,1,71.5,2|2,3:2|0:2,0:0:0:0:
87,74,113832,1,10,0:2:0:0:
87,74,114046,1,2,3:2:0:0:
87,74,114261,1,2,0:2:0:0:
110,200,114689,2,0,L|126:277,1,71.5,10|2,0:2|0:2,0:0:0:0:
135,333,115118,6,2,B|104:317|104:317|87:339|70:283|27:359|3:348,2,143,2|10|2,3:2|0:2|0:2,0:0:0:0:
260,303,116403,1,2,0:2:0:0:
370,369,116832,5,0,3:0:0:0:
411,221,127118,6,0,P|441:181|405:113,1,130,2|10,3:2|0:2,0:0:0:0:
362,79,127761,2,0,B|313:77|313:77|301:86|301:86|261:81|261:81|262:96|256:97|227:92|227:92|212:101|212:101|174:107,1,195,2|8,3:3|0:2,0:0:0:0:
157,219,128832,38,0,B|172:223|172:223|181:221|181:221|190:232|190:232|198:237|198:237|198:245|198:245|206:250|206:250|207:268|207:268|213:276|213:276|207:295|206:295|200:298|200:298|198:305|198:305|188:309,1,130,2|8,3:3|0:2,0:0:0:0:
154,347,129475,2,0,B|121:329|121:329|116:329|116:329|95:314|95:314|90:315|90:315|70:286|70:286|67:286|67:286|58:258|58:258|54:257|54:257,1,130,2|0,3:3|0:0,0:0:0:0:
58,209,130118,1,10,0:2:0:0:
66,92,130546,5,2,0:2:0:0:
432,122,133332,38,0,L|447:57,2,65,4|4|4,0:2|0:2|0:2,0:0:0:0:
423,185,133975,6,0,P|384:160|356:156,1,71.5,6|0,3:2|0:0,0:0:0:0:
309,116,134403,2,0,P|263:125|241:142,1,71.5,10|0,0:2|3:0,0:0:0:0:
216,198,134832,2,0,P|192:125|128:101,1,143,2|10,0:2|0:2,0:0:0:0:
79,133,135475,1,2,0:2:0:0:
14,128,135689,37,2,3:2:0:0:
14,128,135903,2,0,L|28:198,1,71.5,2|8,0:2|0:2,0:0:0:0:
37,261,136332,1,2,3:2:0:0:
140,346,136761,1,2,3:2:0:0:
140,346,136975,2,0,P|178:337|224:341,1,71.5,10|2,0:2|0:2,0:0:0:0:
261,377,137403,5,2,3:3:0:0:
279,249,137832,1,10,0:2:0:0:
297,121,138261,1,2,0:3:0:0:
393,36,138689,2,0,P|422:62|434:99,1,71.5,10|2,0:2|0:2,0:0:0:0:
483,131,139118,37,2,3:2:0:0:
483,131,139332,2,0,L|473:209,1,71.5,2|8,0:2|0:2,0:0:0:0:
429,248,139761,2,0,L|439:326,1,71.5,2|2,3:2|0:2,0:0:0:0:
446,382,140189,1,2,3:2:0:0:
446,382,140403,1,10,0:2:0:0:
319,359,140832,6,0,P|301:301|298:280,1,71.5,2|2,3:2|0:2,0:0:0:0:
296,226,141261,1,10,0:2:0:0:
296,226,141475,1,2,3:2:0:0:
296,226,141689,1,2,0:2:0:0:
276,98,142118,2,0,P|237:111|202:113,1,71.5,10|2,0:2|0:2,0:0:0:0:
153,89,142546,38,2,B|22:74|153:93|22:77,3,130,2|2|2|2,0:2|0:2|0:2|0:2,0:0:0:0:
