osu file format v14

[General]
AudioFilename: audio.mp3
AudioLeadIn: 0
PreviewTime: 54689
Countdown: 0
SampleSet: Soft
StackLeniency: 0.3
Mode: 0
LetterboxInBreaks: 0
WidescreenStoryboard: 1

[Editor]
Bookmarks: 7118,13975,27689,41403,48261,55118,68832,94546,96261,106546
DistanceSpacing: 0.9
BeatDivisor: 4
GridSize: 16
TimelineZoom: 2

[Metadata]
Title:WAP x Toxic
TitleUnicode:WAP x Toxic
Artist:Adamusic
ArtistUnicode:Adamusic
Creator:- ascended -
Version:Insane
Source:
Tags:mildly accurate mildly_accurate ma cardi b cardi_b megan thee stallion britney spears female vocals wet ass pussy -ascended- -_ascended_- english pop hiphop hip hop hip-hop rap novelty meme mash up mashup mash-up adam wright wapxtoxic waptoxic toxicwap toxicxwap wapxic
BeatmapID:2835133
BeatmapSetID:1369551

[Difficulty]
HPDrainRate:4.6
CircleSize:4
OverallDifficulty:8
ApproachRate:9
SliderMultiplier:1.8
SliderTickRate:1

[Events]
//Background and Video events
0,0,"based.jpg",0,0
//Break Periods
2,13960,14661
2,130746,132732
//Storyboard Layer 0 (Background)
//Storyboard Layer 1 (Fail)
//Storyboard Layer 2 (Pass)
//Storyboard Layer 3 (Foreground)
//Storyboard Layer 4 (Overlay)
//Storyboard Sound Samples

[TimingPoints]
261,428.571428571429,4,2,1,45,1,0
1975,-79.9999999999999,4,2,1,45,0,0
5403,-80,4,2,1,45,0,0
7171,-80,4,2,1,5,0,0
7225,-80,4,2,1,45,0,0
9153,-80,4,2,1,5,0,0
9261,-80,4,2,1,45,0,0
9582,-80,4,2,1,5,0,0
9689,-80,4,2,1,45,0,0
10600,-80,4,2,1,5,0,0
10653,-80,4,2,1,45,0,0
12582,-80,4,2,1,5,0,0
12689,-80,4,2,1,45,0,0
13010,-80,4,2,1,5,0,0
13118,-80,4,2,1,45,0,0
15689,-90.9090909090909,4,2,1,45,0,0
21903,-90.9090909090909,4,2,1,5,0,0
22011,-90.9090909090909,4,2,1,45,0,0
24261,-83.3333333333333,4,2,1,45,0,0
25975,-76.9230769230769,4,2,1,45,0,0
26296,-76.9230769230769,4,2,1,5,0,0
26403,-76.9230769230769,4,2,1,45,0,0
26724,-76.9230769230769,4,2,1,5,0,0
26832,-76.9230769230769,4,2,1,45,0,0
27689,-90.9090909090909,4,2,1,45,0,0
31118,-71.4285714285714,4,2,1,45,0,0
32403,-71.4285714285714,4,2,1,50,0,0
32832,-90.9090909090909,4,2,1,50,0,0
36153,-90.9090909090909,4,2,1,5,0,0
36261,-90.9090909090909,4,2,1,50,0,0
37975,-76.9230769230769,4,2,1,50,0,0
39689,-71.4285714285714,4,2,1,50,0,0
40010,-71.4285714285714,4,2,1,5,0,0
40118,-71.4285714285714,4,2,1,50,0,0
40439,-71.4285714285714,4,2,1,5,0,0
40546,-71.4285714285714,4,2,1,50,0,0
41832,-83.3333333333333,4,2,1,50,0,0
51689,-76.9230769230769,4,2,1,50,0,0
53403,-200,4,2,1,20,0,0
55118,-58.8235294117647,4,2,1,65,0,1
55439,-58.8235294117647,4,2,1,5,0,1
55546,-58.8235294117647,4,2,1,65,0,1
56296,-58.8235294117647,4,2,1,5,0,1
56403,-58.8235294117647,4,2,1,65,0,1
57046,-83.3333333333333,4,2,1,65,0,1
57475,-71.4285714285714,4,2,1,65,0,1
58546,-58.8235294117647,4,2,1,65,0,1
58867,-58.8235294117647,4,2,1,5,0,1
58975,-58.8235294117647,4,2,1,65,0,1
60475,-83.3333333333333,4,2,1,65,0,1
60903,-71.4285714285714,4,2,1,65,0,1
61975,-58.8235294117647,4,2,1,65,0,1
63903,-83.3333333333333,4,2,1,65,0,1
64332,-71.4285714285714,4,2,1,65,0,1
65403,-66.6666666666667,4,2,1,65,0,1
67439,-66.6666666666667,4,2,1,5,0,1
67546,-66.6666666666667,4,2,1,65,0,1
67867,-66.6666666666667,4,2,1,5,0,1
67975,-66.6666666666667,4,2,1,65,0,1
68832,-66.6666666666667,4,2,1,45,0,0
70118,-100,4,2,1,45,0,0
70546,-90.9090909090909,4,2,1,40,0,0
79118,-76.9230769230769,4,2,1,40,0,0
80832,-142.857142857143,4,2,1,25,0,0
81153,-142.857142857143,4,2,1,5,0,0
81261,-66.6666666666667,4,2,1,25,0,0
81582,-66.6666666666667,4,2,1,5,0,0
81689,-111.111111111111,4,2,1,25,0,0
82010,-111.111111111111,4,2,1,5,0,0
82118,-66.6666666666667,4,2,1,25,0,0
82439,-66.6666666666667,4,2,1,5,0,0
82546,-66.6666666666667,4,2,1,45,0,0
83403,-80,4,2,1,45,0,0
84261,-66.6666666666667,4,2,1,45,0,0
87261,-80,4,2,1,45,0,0
88546,-64.5161290322581,4,2,1,45,0,0
88975,-80,4,2,1,45,0,0
89724,-80,4,2,1,5,0,0
89832,-80,4,2,1,45,0,0
91439,-80,4,2,1,5,0,0
91546,-80,4,2,1,45,0,0
92832,-74.0740740740741,4,2,1,45,0,0
94546,-200,4,2,1,20,0,0
96261,-62.5,4,2,1,65,0,1
103118,-68.9655172413793,4,2,1,65,0,1
106546,-66.6666666666667,4,2,1,65,0,1
108582,-66.6666666666667,4,2,1,5,0,1
108689,-66.6666666666667,4,2,1,65,0,1
109118,-66.6666666666667,4,2,1,65,0,1
109975,-83.3333333333333,4,2,1,60,0,1
113403,-66.6666666666667,4,2,1,60,0,1
116832,-66.6666666666667,4,2,1,30,0,0
118171,-66.6666666666667,4,2,1,5,0,0
118225,-66.6666666666667,4,2,1,30,0,0
119028,-66.6666666666667,4,2,1,5,0,0
119082,-66.6666666666667,4,2,1,30,0,0
119886,-66.6666666666667,4,2,1,5,0,0
119939,-66.6666666666667,4,2,1,30,0,0
120743,-66.6666666666667,4,2,1,5,0,0
120797,-66.6666666666667,4,2,1,30,0,0
122189,-100,4,2,1,30,0,0
127118,-83.3333333333333,4,2,1,35,0,0
128832,-66.6666666666667,4,2,1,35,0,0
133332,-66.6666666666667,4,2,1,50,0,0
133975,-66.6666666666667,4,2,1,65,0,1
134296,-66.6666666666667,4,2,1,5,0,1
134403,-66.6666666666667,4,2,1,65,0,1
134724,-66.6666666666667,4,2,1,5,0,1
134832,-66.6666666666667,4,2,1,65,0,1
135903,-83.3333333333333,4,2,1,65,0,1
136332,-71.4285714285714,4,2,1,65,0,1
137403,-58.8235294117647,4,2,1,65,0,1
137724,-58.8235294117647,4,2,1,5,0,1
137832,-58.8235294117647,4,2,2,65,0,1
138046,-58.8235294117647,4,2,1,65,0,1
138153,-58.8235294117647,4,2,1,5,0,1
138261,-58.8235294117647,4,2,1,65,0,1
138582,-58.8235294117647,4,2,1,5,0,1
138689,-58.8235294117647,4,2,1,65,0,1
139332,-83.3333333333333,4,2,1,65,0,1
139761,-71.4285714285714,4,2,1,65,0,1
140832,-66.6666666666667,4,2,1,65,0,1
142546,-55.5555555555556,4,2,1,30,0,0

[Colours]
Combo1 : 183,183,183
Combo2 : 255,138,255
Combo3 : 234,234,234
Combo4 : 177,100,255

[HitObjects]
464,40,261,5,2,3:2:0:0:
292,171,689,5,10,0:2:0:0:
275,172,796,1,2,0:2:0:0:
258,174,903,1,2,3:2:0:0:
241,175,1011,1,2,0:2:0:0:
224,177,1118,1,2,0:2:0:0:
77,214,1546,37,10,0:2:0:0:
111,217,1653,1,2,0:2:0:0:
145,220,1761,1,2,0:2:0:0:
262,302,1975,6,2,P|318:275|485:261,3,225,2|10|2|10,3:2|0:2|0:2|0:2,0:0:0:0:
479,123,3689,37,2,3:2:0:0:
316,32,4118,5,10,0:2:0:0:
317,49,4225,1,2,0:2:0:0:
319,66,4332,1,2,3:2:0:0:
320,83,4439,1,2,0:2:0:0:
322,100,4546,1,2,0:2:0:0:
359,247,4975,37,10,0:2:0:0:
362,213,5082,1,2,0:2:0:0:
365,179,5189,1,2,0:2:0:0:
240,183,5403,6,2,B|196:154|121:204|156:229|101:270|41:233,3,225,2|10|2|10,3:2|0:2|0:2|0:2,0:0:0:0:
242,353,7118,37,2,3:2:0:0:
240,183,7546,5,10,0:2:0:0:
241,166,7653,1,2,0:2:0:0:
243,149,7761,1,2,3:2:0:0:
244,132,7868,1,2,0:2:0:0:
246,115,7975,1,2,0:2:0:0:
131,42,8296,37,2,3:2:0:0:
131,42,8403,1,10,0:2:0:0:
134,76,8511,1,2,0:2:0:0:
137,110,8618,1,2,0:2:0:0:
266,32,8832,6,2,B|321:14|359:19|341:38|385:59|424:68,1,168.75,2|0,3:2|0:0,0:0:0:0:
491,34,9261,2,2,P|478:91|463:212,1,168.75,10|0,0:2|0:0,0:0:0:0:
497,265,9689,2,2,B|458:252|431:255|444:269|413:283|386:290,1,112.5,2|0,0:2|0:0,0:0:0:0:
347,355,10011,1,2,3:2:0:0:
347,355,10118,2,2,P|339:291|325:229,1,112.5,10|2,0:2|0:2,0:0:0:0:
258,98,10546,37,2,3:2:0:0:
89,102,10975,5,10,0:2:0:0:
91,119,11082,1,2,0:2:0:0:
92,136,11189,1,2,3:2:0:0:
94,153,11296,1,2,0:2:0:0:
95,170,11403,1,2,0:2:0:0:
162,292,11725,37,2,3:2:0:0:
162,292,11832,1,10,0:2:0:0:
159,326,11939,1,2,0:2:0:0:
156,360,12046,1,2,0:2:0:0:
43,288,12261,6,2,P|161:204|225:188,1,168.75,2|0,3:2|0:0,0:0:0:0:
222,135,12689,2,2,B|289:118|327:178|307:264|276:248,1,168.75,10|0,0:2|0:0,0:0:0:0:
236,285,13118,2,2,P|314:316|374:374,1,168.75,2|2,0:2|3:2,0:0:0:0:
294,367,13546,2,2,P|328:317|393:299,1,112.5,10|2,0:2|0:2,0:0:0:0:
208,80,15261,37,8,0:2:0:0:
315,208,15475,1,2,0:2:0:0:
315,208,15582,1,2,0:2:0:0:
315,208,15689,6,0,P|316:151|279:126,1,99,2|2,3:2|0:2,0:0:0:0:
177,173,16118,1,10,0:2:0:0:
294,299,16332,1,2,3:2:0:0:
294,299,16439,1,2,0:2:0:0:
294,299,16546,2,0,P|205:257|152:256,1,148.5,2|2,0:2|3:2,0:0:0:0:
13,301,16975,38,0,L|0:253,1,49.5,10|0,0:2|0:0,0:0:0:0:
82,275,17189,2,0,L|69:227,1,49.5,2|0,0:2|0:0,0:0:0:0:
0,128,17403,6,0,P|55:126|122:111,1,99,2|2,3:2|0:2,0:0:0:0:
212,60,17832,1,10,0:2:0:0:
313,150,18046,1,2,3:2:0:0:
313,150,18153,1,2,0:2:0:0:
313,150,18261,2,0,P|346:94|423:77,1,148.5,2|2,0:2|3:2,0:0:0:0:
417,244,18689,38,0,L|365:231,1,49.5,10|0,0:2|0:0,0:0:0:0:
443,170,18903,2,0,L|391:156,1,49.5,2|0,0:2|0:0,0:0:0:0:
274,62,19118,6,0,P|312:128|312:156,1,99,2|2,3:2|0:2,0:0:0:0:
244,291,19546,1,10,0:2:0:0:
179,204,19761,1,0,3:0:0:0:
179,204,19868,1,2,0:2:0:0:
179,204,19975,2,0,B|208:177|261:183|254:233|300:235|330:227,1,148.5,2|2,0:2|3:2,0:0:0:0:
463,278,20403,38,0,L|446:335,1,49.5,10|0,0:2|0:0,0:0:0:0:
391,254,20618,2,0,L|374:311,1,49.5,2|0,0:2|0:0,0:0:0:0:
355,101,20832,6,0,P|317:45|195:89,1,198,2|10,3:2|0:2,0:0:0:0:
184,146,21368,1,2,0:2:0:0:
184,146,21475,1,2,3:2:0:0:
317,283,21689,2,0,P|294:314|222:289,1,99,2|0,0:2|0:0,0:0:0:0:
208,291,22011,1,2,3:2:0:0:
208,291,22118,2,0,P|204:229|200:183,1,99,10|2,0:2|0:2,0:0:0:0:
141,52,22546,38,0,B|97:56|69:142|127:90|142:46|245:62,1,198,2|10,3:2|0:2,0:0:0:0:
306,93,23082,1,0,0:0:0:0:
306,93,23189,1,2,3:2:0:0:
295,281,23403,6,0,P|316:270|330:247,1,49.5,2|0,0:2|0:0,0:0:0:0:
409,242,23618,2,0,P|410:219|398:195,1,49.5,2|0,0:2|3:0,0:0:0:0:
313,167,23832,2,0,L|250:173,1,49.5,10|2,0:2|0:2,0:0:0:0:
432,124,24046,2,0,P|412:112|386:111,1,49.5,2|0,0:2|0:0,0:0:0:0:
304,22,24261,38,0,B|269:28|269:28|241:54,1,54,2|0,3:2|0:0,0:0:0:0:
149,39,24475,2,0,B|128:67|128:67|127:106,1,54,2|0,0:2|0:0,0:0:0:0:
51,166,24689,5,10,0:2:0:0:
38,204,24796,1,2,0:2:0:0:
76,230,24903,1,2,3:2:0:0:
114,202,25011,1,2,0:2:0:0:
99,157,25118,1,2,0:2:0:0:
235,271,25439,37,2,3:2:0:0:
235,271,25546,1,10,0:2:0:0:
273,245,25653,1,2,0:2:0:0:
260,201,25761,1,2,0:2:0:0:
40,198,25975,6,2,B|-7:225|-7:225|33:163|110:180,1,175.5,2|0,3:2|0:0,0:0:0:0:
187,188,26403,2,2,B|198:179|200:160|243:141|211:126|200:101|211:100|156:62|129:100,1,175.5,10|0,0:2|0:0,0:0:0:0:
96,178,26832,2,2,L|51:65,2,117,2|2|10,0:2|0:2|0:2,0:0:0:0:
157,309,27475,1,2,0:2:0:0:
353,203,27689,38,0,B|330:132|255:148|277:230|196:239,1,198,2|10,3:2|0:2,0:0:0:0:
86,203,28332,1,2,3:2:0:0:
163,323,28546,2,0,B|185:349|185:349|181:293|216:203,1,148.5,2|2,0:2|3:2,0:0:0:0:
205,111,28975,6,0,L|218:161,1,49.5,10|0,0:2|0:0,0:0:0:0:
133,136,29189,2,0,L|146:186,1,49.5,2|0,0:2|0:0,0:0:0:0:
273,64,29403,38,0,B|346:36|349:103|410:145|457:111,1,198,2|10,3:2|0:2,0:0:0:0:
296,139,30046,1,2,3:2:0:0:
428,211,30261,2,0,B|393:188|358:196|317:219|306:262,1,148.5,2|2,0:2|3:2,0:0:0:0:
307,384,30689,6,0,L|320:334,1,49.5,10|0,0:2|0:0,0:0:0:0:
235,359,30903,2,0,L|248:309,1,49.5,2|0,0:2|0:0,0:0:0:0:
202,159,31118,38,0,B|186:125|99:149|131:203,1,126,2|0,3:2|0:0,0:0:0:0:
203,239,31439,1,2,0:2:0:0:
203,239,31546,2,0,P|240:228|274:228,1,63,8|0,0:2|0:0,0:0:0:0:
386,168,31761,6,0,P|354:166|324:156,1,63,2|0,3:2|0:0,0:0:0:0:
234,83,31975,1,2,0:2:0:0:
234,83,32082,2,0,B|288:106|312:52|354:84,1,126,2|0,0:2|3:0,0:0:0:0:
444,139,32403,2,0,B|483:162|523:125|511:80|493:61,1,126,10|0,0:2|0:0,0:0:0:0:
354,84,32832,38,0,L|359:136,1,49.5,2|2,3:2|0:2,0:0:0:0:
372,245,33046,1,2,0:2:0:0:
211,263,33261,6,0,L|263:257,1,49.5,10|2,0:2|0:2,0:0:0:0:
372,245,33475,1,2,3:2:0:0:
272,374,33689,38,0,B|232:369|232:369|225:309|202:231,1,148.5,2|2,0:2|3:2,0:0:0:0:
211,152,34118,2,0,P|170:190|125:187,1,99,10|2,0:2|0:2,0:0:0:0:
93,50,34546,6,0,B|57:11|41:31|-19:-2|133:9|144:94,1,198,2|10,3:2|0:2,0:0:0:0:
30,177,35189,1,2,3:2:0:0:
138,292,35403,2,0,B|179:309|197:295|183:237|224:223|266:239,1,148.5,2|0,0:2|3:0,0:0:0:0:
313,293,35832,1,10,0:2:0:0:
313,293,35939,2,0,P|324:208|341:178,1,99,2|0,0:2|0:0,0:0:0:0:
395,154,36261,38,0,B|419:90|369:69|360:80|305:48|290:135,1,198,2|10,3:2|0:2,0:0:0:0:
388,258,36903,1,2,3:2:0:0:
222,355,37118,6,0,L|293:362,1,49.5,2|0,0:2|0:0,0:0:0:0:
245,279,37332,2,0,L|316:286,1,49.5,2|0,0:2|3:0,0:0:0:0:
183,196,37546,2,0,B|154:193|154:193|134:219,1,49.5,10|2,0:2|0:2,0:0:0:0:
267,204,37761,2,0,L|338:211,1,49.5,2|0,0:2|0:0,0:0:0:0:
407,159,37975,38,0,P|417:123|411:92,1,58.5,2|0,3:2|0:0,0:0:0:0:
353,57,38189,2,0,P|334:24|308:6,1,58.5,2|0,0:2|0:0,0:0:0:0:
228,32,38403,5,10,0:2:0:0:
242,73,38511,1,2,0:2:0:0:
254,117,38618,1,2,3:2:0:0:
263,160,38725,1,2,0:2:0:0:
267,204,38832,1,2,0:2:0:0:
105,292,39153,37,2,3:2:0:0:
105,292,39261,1,10,0:2:0:0:
117,248,39368,1,2,0:2:0:0:
131,207,39475,1,2,0:2:0:0:
242,286,39689,6,2,P|302:263|427:244,1,189,2|0,3:2|0:0,0:0:0:0:
417,324,40118,2,2,B|448:350|494:324|495:275|521:278|519:221|486:186,1,189,10|0,0:2|0:0,0:0:0:0:
436,142,40546,2,2,P|376:121|314:113,1,126,2|2,0:2|0:2,0:0:0:0:
179,139,40975,5,10,0:2:0:0:
175,128,41082,1,2,0:2:0:0:
173,117,41189,1,2,0:2:0:0:
286,219,41403,5,6,3:2:0:0:
289,208,41511,1,2,0:2:0:0:
292,197,41618,1,2,0:2:0:0:
215,52,41832,2,0,P|187:41|156:47,1,54,10|0,0:2|0:0,0:0:0:0:
94,18,42046,2,0,P|66:30|48:56,1,54,2|2,3:2|0:2,0:0:0:0:
75,146,42261,37,2,0:2:0:0:
75,146,42368,1,2,0:2:0:0:
75,146,42475,2,0,P|103:135|134:141,1,54,2|0,0:2|3:0,0:0:0:0:
186,263,42689,1,10,0:2:0:0:
233,145,42903,1,2,0:2:0:0:
311,221,43118,6,0,B|358:228|379:178|425:192,1,108,2|2,3:2|0:2,0:0:0:0:
485,217,43439,1,2,0:2:0:0:
485,217,43546,2,0,P|499:243|497:272,1,54,10|2,0:2|0:2,0:0:0:0:
429,301,43761,2,0,P|420:330|398:350,1,54,2|0,3:2|0:0,0:0:0:0:
328,317,43975,37,2,0:2:0:0:
328,317,44082,1,2,0:2:0:0:
328,317,44189,2,0,P|300:332|271:330,1,54,2|0,0:2|3:0,0:0:0:0:
167,235,44403,1,10,0:2:0:0:
194,356,44618,1,2,0:2:0:0:
246,212,44832,5,2,3:2:0:0:
247,185,44939,1,0,0:0:0:0:
249,158,45046,1,2,0:2:0:0:
251,131,45153,1,2,0:2:0:0:
253,104,45261,2,0,P|305:118|312:135,1,54,10|2,0:2|0:2,0:0:0:0:
357,64,45475,2,0,P|384:110|377:128,1,54,2|2,3:2|0:2,0:0:0:0:
449,196,45689,37,2,0:2:0:0:
449,196,45796,1,2,0:2:0:0:
449,196,45903,2,0,P|422:193|399:206,1,54,2|0,0:2|3:0,0:0:0:0:
299,259,46118,2,0,B|323:255|323:255|345:278,1,54,10|2,0:2|0:2,0:0:0:0:
418,302,46332,2,0,B|438:317|438:317|437:349,1,54,2|0,0:2|0:0,0:0:0:0:
264,380,46546,5,2,3:2:0:0:
264,380,46653,1,2,0:2:0:0:
264,380,46761,2,0,L|259:317,1,54,2|0,0:2|0:0,0:0:0:0:
245,206,46975,2,0,P|201:202|182:212,1,54,10|2,0:2|0:2,0:0:0:0:
111,181,47189,2,0,P|76:209|71:229,1,54,2|0,3:2|0:0,0:0:0:0:
6,236,47403,1,2,0:2:0:0:
6,236,47511,1,2,0:2:0:0:
6,236,47618,2,0,P|2:279|12:298,1,54,2|0,0:2|3:0,0:0:0:0:
62,357,47832,37,10,0:2:0:0:
177,296,48046,1,2,0:2:0:0:
280,360,48261,6,0,B|332:371|362:287|354:284|340:281|375:217|428:233,1,216,2|10,3:2|0:2,0:0:0:0:
416,375,48903,1,2,3:2:0:0:
271,280,49118,2,0,B|240:280|227:228|270:215|255:220|256:164|302:139|334:166|308:230|287:211|285:252,1,216,2|10,0:2|0:2,0:0:0:0:
379,357,49761,1,2,0:2:0:0:
477,274,49975,2,0,P|495:223|509:171,1,108,2|2,3:2|0:2,0:0:0:0:
475,99,50296,1,2,0:2:0:0:
475,99,50403,1,10,0:2:0:0:
357,183,50618,1,2,3:2:0:0:
240,89,50832,38,0,P|207:89|189:129,1,54,2|0,0:2|0:0,0:0:0:0:
124,83,51046,2,0,P|100:105|115:146,1,54,2|2,0:2|3:2,0:0:0:0:
174,241,51261,2,0,L|166:183,1,54,10|0,0:2|0:0,0:0:0:0:
37,160,51475,2,0,P|35:193|75:211,1,54,2|0,0:2|0:0,0:0:0:0:
174,241,51689,6,0,L|233:237,1,58.5,2|2,3:2|0:2,0:0:0:0:
331,231,51903,2,0,L|390:227,1,58.5,2|2,0:2|0:2,0:0:0:0:
480,106,52118,37,10,0:2:0:0:
434,102,52225,1,2,0:2:0:0:
388,99,52332,1,2,3:2:0:0:
342,96,52439,1,2,0:2:0:0:
296,93,52546,1,2,0:2:0:0:
118,74,52868,5,2,3:2:0:0:
118,74,52975,1,10,0:2:0:0:
164,70,53082,1,2,0:2:0:0:
210,67,53189,1,2,0:2:0:0:
82,217,53403,38,0,L|88:267,6,45
327,364,55118,6,0,B|304:308|326:258|444:265|431:172,1,229.5,6|0,3:2|0:0,0:0:0:0:
419,112,55546,1,10,0:2:0:0:
219,110,55761,1,2,3:2:0:0:
370,0,55975,2,0,P|320:104|288:221,1,229.5,2|0,0:2|0:0,0:0:0:0:
290,286,56403,1,10,0:2:0:0:
407,241,56618,1,2,0:2:0:0:
195,185,56832,37,2,3:2:0:0:
207,318,57046,2,0,L|197:203,1,108,2|8,0:2|0:2,0:0:0:0:
186,66,57475,2,0,P|150:76|126:93,1,63,2|2,3:2|0:2,0:0:0:0:
41,77,57689,2,0,P|81:113|103:190,1,126,2|2,0:2|3:2,0:0:0:0:
51,297,58118,5,10,0:2:0:0:
215,207,58332,1,2,0:2:0:0:
390,315,58546,38,0,B|410:330|423:369|423:369|353:308|262:313,1,229.5,2|0,3:2|0:0,0:0:0:0:
198,341,58975,1,10,0:2:0:0:
294,208,59189,1,2,3:2:0:0:
184,75,59403,2,0,P|205:152|210:233,1,153,2|2,0:2|3:2,0:0:0:0:
85,153,59832,1,10,0:2:0:0:
133,258,60046,1,2,0:2:0:0:
352,235,60261,5,2,3:2:0:0:
219,247,60475,2,0,L|334:237,1,108,2|8,0:2|0:2,0:0:0:0:
399,360,60903,2,0,P|430:332|441:303,1,63,2|2,3:2|0:2,0:0:0:0:
511,309,61118,1,2,0:2:0:0:
447,162,61332,37,2,3:2:0:0:
294,207,61546,1,10,0:2:0:0:
131,144,61761,1,2,0:2:0:0:
296,65,61975,6,0,B|316:84|316:84|294:155|293:214,1,153,2|2,3:2|0:2,0:0:0:0:
403,282,62403,1,10,0:2:0:0:
391,142,62618,1,2,3:2:0:0:
256,280,62832,2,0,B|155:255|218:219|105:192,1,153,2|2,0:2|3:2,0:0:0:0:
30,275,63261,1,10,0:2:0:0:
86,346,63475,1,2,0:2:0:0:
254,199,63689,37,2,3:2:0:0:
242,332,63903,2,0,L|252:217,1,108,2|8,0:2|0:2,0:0:0:0:
304,108,64332,2,0,P|341:111|366:134,1,63,2|2,3:2|0:2,0:0:0:0:
427,91,64546,2,0,P|387:139|384:201,1,126,2|2,0:2|3:2,0:0:0:0:
461,333,64975,5,10,0:2:0:0:
289,251,65189,1,2,0:2:0:0:
166,344,65403,38,0,L|159:277,1,67.5,2|0,3:2|0:0,0:0:0:0:
149,189,65618,2,0,L|142:122,1,67.5,2|0,0:2|0:0,0:0:0:0:
241,32,65832,5,10,0:2:0:0:
288,48,65939,1,2,0:2:0:0:
337,61,66046,1,2,3:2:0:0:
387,69,66153,1,2,0:2:0:0:
438,72,66261,1,2,0:2:0:0:
246,160,66582,37,2,0:2:0:0:
246,160,66689,1,10,0:2:0:0:
198,176,66796,1,2,0:2:0:0:
149,189,66903,1,2,0:2:0:0:
238,340,67118,6,2,P|280:275|386:205,1,202.5,2|0,3:2|0:0,0:0:0:0:
471,236,67546,2,2,B|510:256|509:281|497:332|463:368|383:342|411:279,1,202.5,10|0,0:2|0:0,0:0:0:0:
382,206,67975,2,2,P|388:179|417:151,1,67.5,2|0,0:2|0:0,0:0:0:0:
429,74,68189,2,0,P|451:58|492:60,1,67.5,0|0,3:0|0:0,0:0:0:0:
316,83,68403,5,10,0:2:0:0:
264,79,68511,1,2,0:2:0:0:
215,71,68618,1,2,0:2:0:0:
167,57,68725,1,2,0:2:0:0:
119,42,68832,1,2,3:2:0:0:
119,42,70011,5,0,3:0:0:0:
119,42,70118,2,0,L|130:135,1,90,8|2,0:2|0:2,0:0:0:0:
316,179,70546,38,0,B|344:147|344:147|320:253,1,148.5,2|2,3:2|0:2,0:0:0:0:
305,320,70975,1,10,0:2:0:0:
208,215,71189,1,2,3:2:0:0:
208,215,71296,1,2,0:2:0:0:
208,215,71403,2,0,B|153:210|132:256|144:257|140:283|119:292|81:292,1,148.5,2|2,0:2|3:2,0:0:0:0:
55,188,71832,6,0,L|73:288,1,99,10|2,0:2|0:2,0:0:0:0:
208,287,72261,38,0,P|273:287|381:308,1,148.5,2|2,3:2|0:2,0:0:0:0:
415,339,72689,1,10,0:2:0:0:
462,191,72903,1,2,3:2:0:0:
462,191,73011,1,2,0:2:0:0:
462,191,73118,2,0,B|473:135|405:109|411:168|343:145,1,148.5,2|2,0:2|3:2,0:0:0:0:
368,49,73546,6,0,P|343:95|350:149,1,99,10|2,0:2|0:2,0:0:0:0:
261,259,73975,38,0,B|241:297|212:292|184:290|183:244|194:233|192:197|205:194,1,148.5,2|2,3:2|0:2,0:0:0:0:
224,135,74403,1,10,0:2:0:0:
118,39,74618,1,2,3:2:0:0:
118,39,74725,1,2,0:2:0:0:
118,39,74832,2,0,B|65:51|67:94|91:136|24:163|26:157,1,148.5,2|2,0:2|3:2,0:0:0:0:
119,168,75261,6,0,P|73:144|19:150,1,99,10|2,0:2|0:2,0:0:0:0:
109,253,75689,37,2,3:2:0:0:
109,253,75796,1,2,0:2:0:0:
109,253,75903,2,0,L|165:247,1,49.5,2|0,0:2|0:0,0:0:0:0:
265,239,76118,1,10,0:2:0:0:
207,105,76332,2,0,P|219:150|234:313,1,198,2|0,3:2|0:0,0:0:0:0:
193,360,76868,1,2,3:2:0:0:
193,360,76975,6,0,P|241:334|293:342,1,99,10|2,0:2|0:2,0:0:0:0:
397,327,77403,38,0,B|415:339|455:327|452:235|423:195|358:200,1,198,2|10,3:2|0:2,0:0:0:0:
240,248,78046,1,2,3:2:0:0:
81,209,78261,6,0,L|74:138,1,49.5,2|0,0:2|0:0,0:0:0:0:
157,186,78475,2,0,L|150:115,1,49.5,2|2,0:2|3:2,0:0:0:0:
240,248,78689,2,0,B|222:265|222:265|187:270,1,49.5,10|2,0:2|0:2,0:0:0:0:
232,164,78903,2,0,L|225:93,1,49.5,2|0,0:2|0:0,0:0:0:0:
324,14,79118,38,0,P|362:20|383:42,1,58.5,2|0,3:2|0:0,0:0:0:0:
471,40,79332,2,0,P|493:71|492:101,1,58.5,2|0,0:2|0:0,0:0:0:0:
462,197,79546,5,10,0:2:0:0:
420,193,79653,1,2,0:2:0:0:
378,202,79761,1,2,3:2:0:0:
341,221,79868,1,2,0:2:0:0:
310,249,79975,1,2,0:2:0:0:
159,138,80296,37,2,3:2:0:0:
159,138,80403,1,10,0:2:0:0:
201,147,80511,1,2,0:2:0:0:
238,166,80618,1,2,0:2:0:0:
149,335,80832,6,0,P|192:311|251:293,1,94.4999999999999,2|0,0:2|0:0,0:0:0:0:
306,335,81261,2,2,B|350:351|390:327|378:275|358:289|381:245|354:212|299:240|292:254,1,202.5,2|0,0:0|0:0,0:0:0:0:
234,296,81689,38,0,P|222:238|193:170,1,121.5,2|0,0:2|0:0,0:0:0:0:
131,142,82118,2,2,B|89:118|82:72|129:48|131:72|150:26|193:26|207:85|201:100,1,202.5,2|0,0:0|0:0,0:0:0:0:
198,180,82546,5,6,3:2:0:0:
307,81,82975,1,10,0:2:0:0:
307,81,83082,1,2,0:2:0:0:
307,81,83189,1,2,3:2:0:0:
431,103,83403,38,0,P|442:168|457:273,1,168.75,2|2,0:2|3:2,0:0:0:0:
473,349,83832,1,10,0:2:0:0:
473,349,83939,1,2,0:2:0:0:
473,349,84046,1,2,0:2:0:0:
338,332,84261,6,0,B|328:273|239:263|257:348|162:320,1,202.5,2|2,3:2|0:2,0:0:0:0:
133,260,84689,1,10,0:2:0:0:
133,260,84796,1,2,0:2:0:0:
133,260,84903,1,2,3:2:0:0:
181,130,85118,38,0,B|193:74|105:18|51:31|49:92,1,202.5,2|2,0:2|3:2,0:0:0:0:
105,156,85546,1,10,0:2:0:0:
105,156,85653,1,2,0:2:0:0:
105,156,85761,1,2,0:2:0:0:
267,353,85975,6,0,B|305:372|305:372|304:305|326:212,1,202.5,2|2,3:2|0:2,0:0:0:0:
352,136,86403,2,0,P|412:122|448:181,1,135,8|2,0:2|3:2,0:0:0:0:
258,172,86832,37,2,0:2:0:0:
263,127,86939,1,2,0:2:0:0:
127,53,87153,1,2,3:2:0:0:
132,98,87261,2,0,L|148:211,1,112.5,10|2,0:2|0:2,0:0:0:0:
285,150,87689,5,2,3:2:0:0:
263,147,87796,1,2,0:2:0:0:
240,145,87903,1,2,0:2:0:0:
164,294,88118,1,10,0:2:0:0:
186,291,88225,1,2,0:2:0:0:
208,289,88332,1,2,3:2:0:0:
378,158,88546,38,0,B|385:211|406:193|436:248|396:301|336:303|296:220|339:203|364:186,1,209.25,2|2,0:2|3:2,0:0:0:0:
313,114,88975,2,0,P|284:96|256:94,1,56.25,10|2,0:2|0:2,0:0:0:0:
192,41,89189,2,0,P|158:48|137:67,1,56.25,2|0,0:2|0:0,0:0:0:0:
46,5,89403,6,0,P|106:70|139:151,1,168.75,2|0,3:2|0:0,0:0:0:0:
69,197,89832,2,0,P|11:142|32:115,1,112.5,10|2,0:2|3:2,0:0:0:0:
154,227,90261,2,0,B|211:203|238:245|223:253|258:295|309:277,1,168.75,2|2,0:2|3:2,0:0:0:0:
328,163,90689,38,0,P|318:218|308:280,1,112.5,10|2,0:2|0:2,0:0:0:0:
457,368,91118,6,0,B|533:356|493:316|525:306|488:192|432:264,1,168.75,2|0,3:2|0:0,0:0:0:0:
415,302,91546,2,0,P|405:246|395:191,1,112.5,10|2,0:2|3:2,0:0:0:0:
494,117,91975,38,0,P|475:77|450:65,1,56.25,2|0,0:2|0:0,0:0:0:0:
391,83,92189,2,0,P|348:78|326:94,1,56.25,2|2,0:2|3:2,0:0:0:0:
395,191,92403,2,0,P|416:192|395:175,1,56.25,10|0,0:2|0:0,0:0:0:0:
311,155,92618,2,0,P|286:188|288:216,1,56.25,2|0,0:2|0:0,0:0:0:0:
376,326,92832,6,0,L|307:315,1,60.75,2|0,3:2|0:0,0:0:0:0:
222,298,93046,2,0,L|153:287,1,60.75,2|0,0:2|0:0,0:0:0:0:
78,128,93261,37,10,0:2:0:0:
127,120,93368,1,2,0:2:0:0:
176,112,93475,1,2,3:2:0:0:
225,104,93582,1,2,0:2:0:0:
274,96,93689,1,2,0:2:0:0:
383,217,94011,5,2,3:2:0:0:
383,217,94118,1,10,0:2:0:0:
334,209,94225,1,2,0:2:0:0:
285,201,94332,1,2,0:2:0:0:
407,72,94546,38,0,L|413:122,6,45
157,355,96261,22,0,P|166:267|189:197,1,144,6|2,3:2|0:2,0:0:0:0:
256,299,96689,1,10,0:2:0:0:
222,139,96903,1,2,3:2:0:0:
355,277,97118,6,0,P|346:189|323:119,1,144,2|2,0:2|3:2,0:0:0:0:
256,221,97546,1,10,0:2:0:0:
290,61,97761,1,2,0:2:0:0:
159,26,97975,38,0,B|109:11|108:59|107:117|71:129,1,144,2|2,3:2|0:2,0:0:0:0:
13,114,98296,1,2,0:2:0:0:
13,114,98403,1,10,0:2:0:0:
85,235,98618,2,0,P|119:219|154:217,1,72,2|0,3:2|0:0,0:0:0:0:
210,262,98832,5,2,0:2:0:0:
319,131,99046,1,2,3:2:0:0:
453,280,99261,1,10,0:2:0:0:
422,297,99368,1,2,0:2:0:0:
386,305,99475,1,2,0:2:0:0:
351,300,99582,1,2,0:2:0:0:
319,284,99689,37,2,3:2:0:0:
319,131,99903,2,0,L|318:60,1,72,2|0,0:2|0:0,0:0:0:0:
189,15,100118,1,10,0:2:0:0:
198,55,100225,1,2,0:2:0:0:
204,99,100332,1,2,3:2:0:0:
209,141,100439,1,2,0:2:0:0:
209,185,100546,5,2,0:2:0:0:
319,131,100761,1,2,3:2:0:0:
433,170,100975,1,10,0:2:0:0:
460,178,101082,1,2,0:2:0:0:
485,164,101189,1,2,0:2:0:0:
489,135,101296,1,2,0:2:0:0:
477,113,101403,38,0,P|458:189|453:262,1,144,2|2,3:2|0:2,0:0:0:0:
512,376,101832,1,10,0:2:0:0:
512,376,101939,1,2,0:2:0:0:
512,376,102046,2,0,P|479:340|453:333,1,72,2|2,3:2|0:2,0:0:0:0:
351,376,102261,2,0,L|346:297,1,72,2|0,0:2|0:0,0:0:0:0:
344,163,102475,5,2,3:2:0:0:
172,247,102689,1,10,0:2:0:0:
42,135,102903,1,2,0:2:0:0:
151,34,103118,38,0,B|191:15|191:15|147:116|140:167,1,195.75,2|2,3:2|0:2,0:0:0:0:
175,229,103546,2,0,P|222:233|281:172,1,130.5,10|2,0:2|3:2,0:0:0:0:
270,102,103868,1,2,0:2:0:0:
270,102,103975,1,2,0:2:0:0:
365,250,104189,5,2,3:2:0:0:
403,86,104403,1,10,0:2:0:0:
256,8,104618,1,2,0:2:0:0:
126,142,104832,38,0,P|205:106|326:90,1,195.75,2|2,3:2|0:2,0:0:0:0:
385,124,105261,2,0,B|435:133|408:221|349:235|347:197,1,130.5,10|2,0:2|3:2,0:0:0:0:
281,197,105582,1,2,0:2:0:0:
281,197,105689,1,2,0:2:0:0:
183,126,105903,5,2,3:2:0:0:
118,271,106118,1,10,0:2:0:0:
240,372,106332,1,2,0:2:0:0:
364,281,106546,38,0,L|357:214,1,67.5,2|0,3:2|0:0,0:0:0:0:
347,126,106761,2,0,L|340:59,1,67.5,2|0,0:2|0:0,0:0:0:0:
172,26,106975,5,10,0:2:0:0:
142,64,107082,1,2,0:2:0:0:
169,104,107189,1,2,3:2:0:0:
214,90,107296,1,2,0:2:0:0:
217,42,107403,1,2,0:2:0:0:
424,168,107725,37,2,0:2:0:0:
424,168,107832,1,10,0:2:0:0:
469,152,107939,1,2,0:2:0:0:
499,190,108046,1,2,0:2:0:0:
321,343,108261,6,2,P|307:244|270:148,1,202.5,2|0,3:2|0:0,0:0:0:0:
285,73,108689,2,2,B|244:49|176:84|202:173|122:167,1,202.5,10|0,0:2|0:0,0:0:0:0:
64,126,109118,2,2,P|91:132|119:161,1,67.5,2|0,0:2|0:0,0:0:0:0:
63,227,109332,2,0,P|79:249|77:290,1,67.5,2|2,3:2|0:2,0:0:0:0:
3,333,109546,2,2,P|85:343|163:369,1,135,10|2,0:2|0:2,0:0:0:0:
263,342,109975,38,0,L|254:171,1,162,2|2,3:2|0:2,0:0:0:0:
195,119,110403,2,0,P|232:98|301:108,1,108,10|2,0:2|3:2,0:0:0:0:
393,192,110832,5,2,0:2:0:0:
363,309,111046,1,2,3:2:0:0:
363,309,111153,1,2,0:2:0:0:
363,309,111261,1,10,0:2:0:0:
245,268,111475,1,2,0:2:0:0:
245,268,111582,1,0,0:0:0:0:
245,268,111689,38,0,B|191:180|287:185|311:130|280:65,1,216,2|10,3:2|0:2,0:0:0:0:
157,32,112332,1,2,3:2:0:0:
157,32,112439,1,2,0:2:0:0:
157,32,112546,1,2,0:2:0:0:
59,158,112761,5,2,3:2:0:0:
212,113,112975,1,10,0:2:0:0:
375,176,113189,1,2,0:2:0:0:
280,300,113403,38,0,L|287:233,1,67.5,2|0,3:2|0:0,0:0:0:0:
297,145,113618,2,0,L|304:78,1,67.5,2|0,0:2|0:0,0:0:0:0:
108,34,113832,5,10,0:2:0:0:
129,79,113939,1,2,0:2:0:0:
145,127,114046,1,2,3:2:0:0:
154,177,114153,1,2,0:2:0:0:
157,228,114261,1,2,0:2:0:0:
285,344,114582,37,2,0:2:0:0:
285,344,114689,1,10,0:2:0:0:
301,296,114796,1,2,0:2:0:0:
322,251,114903,1,2,0:2:0:0:
379,49,115118,6,2,B|322:7|270:65|297:133|246:163,1,202.5,2|2,3:2|0:2,0:0:0:0:
208,57,115546,2,2,P|295:99|436:227,1,270,10|2,0:2|0:2,0:0:0:0:
424,212,116403,1,2,0:2:0:0:
320,338,116832,5,0,3:0:0:0:
80,222,118118,5,10,0:2:0:0:
80,222,118975,1,10,0:2:0:0:
80,222,119832,1,10,0:2:0:0:
80,222,120689,37,10,0:2:0:0:
102,153,120903,1,2,3:2:0:0:
172,136,121118,1,2,0:2:0:0:
221,189,121332,1,2,0:2:0:0:
200,258,121546,1,10,0:2:0:0:
130,274,121761,1,2,0:2:0:0:
172,136,121975,5,2,3:2:0:0:
270,242,122189,2,0,L|365:257,1,90,2|8,0:2|0:2,0:0:0:0:
466,215,122618,2,0,L|199:257,1,270,2|10,3:2|0:2,0:0:0:0:
338,57,123689,37,2,3:2:0:0:
355,144,124118,1,10,0:2:0:0:
372,231,124546,1,2,0:2:0:0:
338,57,124975,1,10,0:2:0:0:
147,77,125403,5,2,3:2:0:0:
73,67,125618,1,2,0:2:0:0:
26,151,125832,37,10,0:2:0:0:
100,141,126046,1,2,3:2:0:0:
155,229,126261,5,2,0:2:0:0:
81,219,126475,1,2,0:2:0:0:
32,312,126689,37,10,0:2:0:0:
106,302,126903,1,2,0:2:0:0:
266,310,127118,6,0,P|283:202|321:87,1,216,2|10,3:2|0:2,0:0:0:0:
190,136,127761,2,0,B|169:137|159:129|150:120|150:120|150:129|150:129|128:131|127:93|144:76|155:70|155:70|156:65|156:65|173:59|192:54|197:57|197:57|198:66|198:66|223:74|229:89,1,216,2|0,3:3|0:0,0:0:0:0:
296,257,128403,2,0,B|294:222|294:222|296:220|296:220|292:195|280:176|280:176|281:172|281:172|272:154|255:136,1,108,8|0,0:2|0:0,0:0:0:0:
126,254,128832,38,0,B|155:239|174:240|174:240|177:245|177:245|205:255|214:270|214:270|216:274|216:274|215:292|220:307|230:324|230:324|233:319|233:319|265:345|304:347|304:347|305:339|305:339|319:337|335:324,1,270,2|8,3:3|0:2,0:0:0:0:
349,219,129475,2,0,B|313:227|276:249|276:249|273:257|273:257|229:277|193:317|193:317|194:323|194:323|150:384,1,270,2|0,3:3|0:0,0:0:0:0:
45,291,130118,5,10,0:2:0:0:
45,291,130225,1,2,0:2:0:0:
112,55,130546,1,2,0:2:0:0:
338,358,133332,37,4,0:2:0:0:
448,231,133546,1,4,0:2:0:0:
355,93,133761,1,4,0:2:0:0:
245,221,133975,6,0,P|182:201|196:78,1,202.5,6|0,3:2|0:0,0:0:0:0:
254,34,134403,2,0,P|190:79|30:99,1,202.5,10|0,0:2|0:0,0:0:0:0:
4,37,134832,2,0,P|23:106|28:183,1,135,2|0,0:2|3:0,0:0:0:0:
9,285,135261,1,10,0:2:0:0:
97,230,135475,1,2,0:2:0:0:
211,359,135689,37,2,3:2:0:0:
223,226,135903,2,0,L|213:341,1,108,2|8,0:2|0:2,0:0:0:0:
336,244,136332,2,0,P|381:251|405:273,1,63,2|2,3:2|0:2,0:0:0:0:
422,337,136546,1,2,0:2:0:0:
489,199,136761,5,2,3:2:0:0:
336,244,136975,1,10,0:2:0:0:
173,181,137189,1,2,0:2:0:0:
284,81,137403,38,0,B|334:58|401:94|392:111|383:133|449:163|488:139,1,229.5,2|0,3:3|0:0,0:0:0:0:
470,49,137832,2,0,B|416:46|368:104|382:117|398:134|349:186|303:179,1,229.5,10|0,0:2|0:0,0:0:0:0:
357,0,138261,6,0,P|390:98|411:235,1,229.5,2|0,0:3|0:0,0:0:0:0:
364,285,138689,1,10,0:2:0:0:
445,342,138903,1,2,0:2:0:0:
257,368,139118,37,2,3:2:0:0:
269,235,139332,2,0,L|259:350,1,108,2|8,0:2|0:2,0:0:0:0:
162,218,139761,2,0,P|177:175|201:155,1,63,2|2,3:2|0:2,0:0:0:0:
275,148,139975,2,0,P|189:118|149:70,1,126,2|2,0:2|3:2,0:0:0:0:
268,21,140403,1,10,0:2:0:0:
363,147,140618,1,2,0:2:0:0:
259,236,140832,6,0,L|192:243,1,67.5,2|0,3:2|0:0,0:0:0:0:
104,253,141046,2,0,L|37:260,1,67.5,2|0,0:2|0:0,0:0:0:0:
248,339,141261,37,10,0:2:0:0:
297,330,141368,1,2,0:2:0:0:
334,297,141475,1,2,3:2:0:0:
350,249,141582,1,2,0:2:0:0:
339,201,141689,1,2,0:2:0:0:
51,130,142011,5,2,0:2:0:0:
51,130,142118,1,10,0:2:0:0:
88,163,142225,1,2,0:2:0:0:
137,172,142332,1,2,0:2:0:0:
253,91,142546,38,2,B|257:58|275:53|243:16|310:-5|389:31|498:48|388:97|365:120|298:139|279:109|252:95,3,324,2|2|2|2,0:2|0:2|0:2|0:2,0:0:0:0:
