osu file format v14

[General]
AudioFilename: audio.mp3
AudioLeadIn: 0
PreviewTime: -1
Countdown: 0
SampleSet: Soft
StackLeniency: 0.2
Mode: 0
LetterboxInBreaks: 0
WidescreenStoryboard: 0

[Editor]
Bookmarks: 24539,29339,34139,38939,48539,53339,62939,67739,72539,90531,99381,106131,116031,125331,134031
DistanceSpacing: 1.1
BeatDivisor: 12
GridSize: 16
TimelineZoom: 2

[Metadata]
Title:time//motion//wine
TitleUnicode:time//motion//wine
Artist:Adam Neely
ArtistUnicode:Adam Neely
Creator:HairyWhodini
Version:2B
Source:
Tags:
BeatmapID:1325509
BeatmapSetID:628764

[Difficulty]
HPDrainRate:1
CircleSize:4.5
OverallDifficulty:5
ApproachRate:9.5
SliderMultiplier:3
SliderTickRate:1

[Events]
//Background and Video events
0,0,"timemotionwine.jpg",0,0
//Break Periods
2,58153,67214
2,111131,115506
//Storyboard Layer 0 (Background)
//Storyboard Layer 1 (Fail)
//Storyboard Layer 2 (Pass)
//Storyboard Layer 3 (Foreground)
//Storyboard Sound Samples

[TimingPoints]
503,600,4,2,0,64,1,0
55664,-100,4,3,0,70,0,0
57464,-100,4,2,0,100,0,0
67739,2400,4,2,0,5,1,0
67739,-200,4,2,0,5,0,0
72539,600,4,2,0,35,1,0
72539,-100,4,2,0,35,0,0
76139,2174.70097861544,4,2,0,35,1,0
76289,-80,4,2,0,35,0,0
77939,-100,4,2,0,35,0,0
78539,600,4,2,0,35,1,0
78539,-100,4,2,0,35,0,0
79589,-72.463768115942,4,2,0,35,0,0
79731,600,4,2,0,35,1,0
80339,-100,4,2,0,35,0,0
80864,-66.6666666666667,4,2,0,35,0,0
82639,-100,4,2,0,35,0,0
83864,-100,4,2,0,35,0,0
84539,-66.2251655629139,4,2,0,35,0,0
86789,-72.463768115942,4,2,0,35,0,0
87989,-100,4,2,0,35,0,0
89264,-72.463768115942,4,2,0,35,0,0
104881,-66.2251655629139,4,2,0,35,0,0
106131,-72.463768115942,4,2,0,35,0,0
115731,-100,4,2,0,35,0,0
116031,300,4,2,0,35,1,1
116031,-50,4,2,0,35,0,1
116331,150,4,2,0,35,1,1
124102,-200,4,2,0,35,0,1
124656,-200,4,2,0,35,0,1
124731,-200,4,2,0,35,0,0
125331,-72.463768115942,4,2,0,35,0,1
125331,-144.927536231884,4,2,0,35,0,1
125331,-72.463768115942,4,2,0,35,0,1
133731,600,4,2,0,35,1,1
133731,-60.6060606060606,4,2,0,35,0,1
145731,300,4,2,0,35,1,1
146331,600,4,2,0,35,1,1
146931,600,4,2,0,35,1,1
147131,-60.6060606060606,4,2,0,100,0,1
153906,-60.6060606060606,4,2,0,100,0,0
153981,-60.6060606060606,4,2,0,100,0,1
161331,600,4,2,0,35,1,0
161331,-100,4,2,0,32,0,0
175131,-81.9672131147541,4,2,0,35,0,0
175731,-100,4,2,0,35,0,0
178131,2400,4,1,1,5,1,0
178231,-100,4,1,1,5,0,0

[Colours]
Combo1 : 0,64,0
Combo2 : 0,0,0
Combo3 : 0,40,60
Combo4 : 117,0,0

[HitObjects]
256,192,29303,5,0,0:0:0:0:
224,112,29453,2,0,P|192:128|176:176,2,75
288,112,29903,2,0,P|320:128|336:176,1,75
336,221,30203,2,0,P|320:255|288:272,1,75
224,272,30503,2,0,P|192:256|176:208,1,75
256,192,30803,1,0,0:0:0:0:
256,192,31103,1,12,0:0:0:0:
256,192,31703,5,0,0:0:0:0:
175,221,31853,2,0,P|191:255|224:272,2,75
175,144,32303,1,0,0:0:0:0:
224,64,32453,1,0,0:0:0:0:
304,112,32603,1,0,0:0:0:0:
256,192,32753,1,0,0:0:0:0:
256,272,32903,2,0,L|256:352,1,75
336,352,33203,1,0,0:0:0:0:
176,304,33503,2,0,B|192:208|96:240|96:240|128:160,1,225
177,92,34103,6,0,P|209:108|225:156,1,75
238,223,34403,2,0,P|253:256|286:273,1,75
368,272,34703,1,0,0:0:0:0:
335,92,35003,6,0,P|303:108|287:156,1,75
274,223,35303,2,0,P|258:256|225:273,1,75
144,272,35603,1,0,0:0:0:0:
144,192,35753,1,0,0:0:0:0:
208,144,35903,1,12,0:0:0:0:
352,64,36503,6,0,P|354:44|377:38,2,37.5
416,144,36803,2,0,P|435:141|441:118,2,37.5
336,144,37103,1,0,0:0:0:0:
256,144,37253,2,0,P|236:146|230:169,2,37.5
340,143,37553,1,0,0:0:0:0:
256,94,37703,1,0,0:0:0:0:
171,143,37853,1,0,0:0:0:0:
171,240,38003,1,0,0:0:0:0:
256,289,38153,1,0,0:0:0:0:
340,240,38303,1,0,0:0:0:0:
352,320,38453,2,0,P|354:339|377:345,2,37.5
274,349,38753,1,0,0:0:0:0:
205,302,38903,5,0,0:0:0:0:
288,272,39053,2,0,P|320:256|336:208,2,75
224,272,39503,2,0,P|192:256|176:208,1,75
176,163,39803,2,0,P|192:129|224:112,1,75
288,112,40103,2,0,P|320:128|336:176,1,75
256,192,40403,1,0,0:0:0:0:
256,192,40703,1,12,0:0:0:0:
256,192,41303,5,0,0:0:0:0:
337,163,41453,2,0,P|321:129|288:112,2,75
337,240,41903,1,0,0:0:0:0:
288,320,42053,1,0,0:0:0:0:
208,272,42203,1,0,0:0:0:0:
256,192,42353,1,0,0:0:0:0:
256,112,42503,2,0,L|256:32,1,75
176,32,42803,1,0,0:0:0:0:
357,102,43103,2,0,B|400:112|400:112|432:176|432:176|336:192|448:277,1,225
335,292,43703,6,0,P|303:276|287:228,1,75
274,161,44003,2,0,P|259:128|226:111,1,75
144,112,44303,1,0,0:0:0:0:
177,292,44603,6,0,P|209:276|225:228,1,75
238,161,44903,2,0,P|254:128|287:111,1,75
368,112,45203,1,0,0:0:0:0:
368,192,45353,1,0,0:0:0:0:
304,240,45503,1,12,0:0:0:0:
160,320,46103,6,0,P|158:340|135:346,2,37.5
96,240,46403,2,0,P|77:243|71:266,2,37.5
176,240,46703,1,0,0:0:0:0:
256,240,46853,2,0,P|276:238|282:215,2,37.5
172,241,47153,1,0,0:0:0:0:
256,290,47303,1,0,0:0:0:0:
341,241,47453,1,0,0:0:0:0:
341,144,47603,1,0,0:0:0:0:
256,95,47753,1,0,0:0:0:0:
172,144,47903,1,0,0:0:0:0:
160,64,48053,2,0,P|158:45|135:39,2,37.5
176,144,48353,1,0,0:0:0:0:
256,192,48503,5,0,0:0:0:0:
336,221,48653,2,0,P|320:255|288:272,2,75
338,138,49103,2,0,P|322:104|289:87,1,75
208,72,49403,2,0,P|176:56|160:8,2,75
160,144,49853,1,0,0:0:0:0:
208,208,50003,1,0,0:0:0:0:
160,272,50153,1,0,0:0:0:0:
352,336,50303,1,14,0:0:0:0:
304,272,50453,1,0,0:0:0:0:
352,208,50603,1,0,0:0:0:0:
380,177,50678,1,0,0:0:0:0:
384,135,50753,1,0,0:0:0:0:
363,98,50828,1,0,0:0:0:0:
320,96,50903,6,0,P|272:96|224:128,1,75
271,186,51203,2,0,P|223:186|175:154,1,75
163,101,51503,2,0,P|129:134|117:191,1,75
70,227,51803,2,0,P|105:240|143:238,1,75
220,268,52103,2,0,P|220:220|188:172,1,75
161,127,52403,2,0,P|196:114|234:117,1,75
314,155,52703,1,0,0:0:0:0:
358,224,52853,1,0,0:0:0:0:
347,305,53003,1,0,0:0:0:0:
315,331,53078,1,0,0:0:0:0:
274,321,53153,1,0,0:0:0:0:
259,282,53228,1,0,0:0:0:0:
251,241,53303,6,0,P|235:209|187:193,2,75
311,183,53753,1,0,0:0:0:0:
240,140,53903,2,0,P|152:145|157:235,1,150
176,266,54353,1,0,0:0:0:0:
256,240,54503,2,0,P|289:224|306:191,1,75
306,192,54803,2,0,P|289:159|256:144,1,75
256,144,55103,2,0,P|222:159|205:192,1,75
205,191,55403,2,0,P|222:224|256:240,1,75
336,224,55703,5,0,0:0:0:0:
442,76,55853,1,0,0:0:0:0:
269,132,56003,1,8,0:0:0:0:
442,189,56153,1,0,0:0:0:0:
336,41,56303,2,0,P|288:32|256:48,1,75
144,128,56603,1,0,0:0:0:0:
144,272,56753,1,8,0:0:0:0:
256,368,56903,1,8,0:0:0:0:
368,272,57053,1,8,0:0:0:0:
368,128,57203,2,0,P|336:96|288:80,1,75
141,93,57503,1,2,0:0:0:0:
92,150,57578,1,2,0:0:0:0:
86,224,57653,1,2,0:0:0:0:
143,271,57728,1,2,0:0:0:0:
217,262,57803,1,2,0:0:0:0:
400,192,57953,1,14,0:0:0:0:
224,112,67739,6,0,P|192:128|175:160,1,65.625
288,272,68939,6,0,P|320:256|337:224,1,65.625
224,112,70139,6,0,P|192:128|175:160,1,65.625
288,272,71339,6,0,P|320:256|337:224,1,65.625
304,128,72539,6,0,L|256:112,5,50
128,240,73139,6,0,L|112:192,5,50
272,240,73739,6,0,L|320:224,2,50
272,128,74039,6,0,L|224:112,2,50
160,240,74339,6,0,L|176:192,2,50
352,112,74639,6,0,L|397:134,2,50
272,272,74939,6,0,L|224:288,2,50
256,32,75239,5,0,0:0:0:0:
256,32,75539,1,0,0:0:0:0:
256,352,75689,1,0,0:0:0:0:
256,352,75989,1,0,0:0:0:0:
256,32,76289,2,0,L|255:382,1,281.25
224,224,77389,5,0,0:0:0:0:
272,320,77921,1,0,0:0:0:0:
336,240,78089,1,0,0:0:0:0:
336,112,78239,1,0,0:0:0:0:
224,32,78389,1,0,0:0:0:0:
112,96,78539,2,0,B|68:52|68:52|96:80,2,75
128,192,78989,1,0,0:0:0:0:
137,293,79139,2,0,P|153:327|186:344,1,75
280,334,79439,2,0,P|314:318|331:286,1,75
344,188,79731,6,0,B|360:156|360:156|376:188|376:188|344:188,1,102.750002900505
344,188,80031,2,0,B|360:156|360:156|376:188|376:188|344:188,1,102.750002900505
240,128,80331,1,0,0:0:0:0:
128,64,80481,2,0,B|136:84|88:116|117:129,1,75
215,184,80781,1,0,0:0:0:0:
400,128,80931,6,0,B|415:132|415:132|411:147|411:147|426:151|426:151|422:167|422:167|438:171|438:171|433:186,2,75.000002861023
336,80,81231,5,0,0:0:0:0:
288,160,81381,1,0,0:0:0:0:
400,208,81531,1,0,0:0:0:0:
416,96,81681,1,0,0:0:0:0:
288,48,81831,1,0,0:0:0:0:
240,192,81981,1,0,0:0:0:0:
112,240,82131,6,0,B|96:272|96:272|80:240|80:240|112:240,1,102.750002900505
112,240,82431,2,0,B|96:272|96:272|80:240|80:240|112:240,1,102.750002900505
304,192,82731,2,0,L|352:208,2,50
256,272,83031,2,0,L|208:256,2,50
352,272,83331,2,0,P|384:256|400:208,1,75
400,112,83631,1,0,0:0:0:0:
288,48,83781,1,0,0:0:0:0:
166,54,83931,6,0,B|138:96|138:96|141:146|141:146|113:188|113:188|116:239|116:239|97:270|97:270,1,225
102,183,84231,5,0,0:0:0:0:
122,259,84381,1,0,0:0:0:0:
192,336,84568,6,0,B|208:368|208:368|224:336|224:336|192:336,1,102.750002900505
192,336,84831,2,0,B|208:368|208:368|224:336|224:336|192:336,1,102.750002900505
256,192,85131,6,0,L|342:264,1,113.249998703957
408,198,85431,2,0,L|336:112,1,113.249998703957
224,47,85731,2,0,B|167:70|106:75|106:75|161:109|168:167|168:167|109:173|132:284|132:284|168:257|224:251,1,452.999994815826
180,170,86031,5,0,0:0:0:0:
128,298,86231,1,0,0:0:0:0:
336,128,86631,1,0,0:0:0:0:
304,320,86931,2,0,B|336:336|336:336|304:352|304:352|304:320,1,103.500000157928
304,321,87231,2,0,B|336:337|336:337|304:353|304:353|304:321,1,103.500000157928
336,224,87531,1,0,0:0:0:0:
304,128,87731,6,0,B|272:112|272:112|304:96|304:96|304:128,1,103.500000157928
192,96,87981,1,0,0:0:0:0:
112,128,88131,6,0,B|96:208|176:256|176:256|160:288|192:336|192:336,1,225
191,253,88431,5,0,0:0:0:0:
208,336,88581,1,0,0:0:0:0:
304,320,88731,1,0,0:0:0:0:
272,224,88881,1,0,0:0:0:0:
352,208,89031,1,0,0:0:0:0:
336,112,89181,1,0,0:0:0:0:
272,48,89331,6,0,B|240:32|240:32|272:16|272:16|272:48,1,103.500000157928
272,48,89631,2,0,B|240:32|240:32|272:16|272:16|272:48,1,103.500000157928
224,112,89931,1,0,0:0:0:0:
160,160,90081,6,0,B|128:176|128:176|160:192|160:192|160:160,1,103.500000157928
432,64,90531,6,0,B|424:72|424:72|432:80|432:80|440:72|440:72|448:80|448:80|440:88|440:88|432:96|432:96|424:88|424:88|416:80|416:80|408:88|408:88|416:96|416:96|424:104|424:104|432:96|432:96|440:88|440:88|448:96|448:96|456:88|456:88|464:96|464:96|456:104|456:104|448:112|448:112|440:104|440:104|432:112|432:112|440:120|440:120|448:128|448:128|456:120|456:120|472:104|472:104|480:112|480:112|472:120|472:120|464:112|464:112|456:120|456:120|464:128|464:128|456:136|456:136|464:168|384:176,1,414.000000631714
384,160,91131,5,0,0:0:0:0:
352,64,91281,1,0,0:0:0:0:
256,96,91431,1,0,0:0:0:0:
288,192,91581,1,0,0:0:0:0:
256,288,91731,22,0,B|224:304|224:304|256:320|256:320|256:288,1,103.500000157928
256,288,92031,2,0,B|224:304|224:304|256:320|256:320|256:288,1,103.500000157928
172,226,92331,5,0,0:0:0:0:
164,157,92431,1,0,0:0:0:0:
190,93,92531,1,0,0:0:0:0:
240,45,92631,2,0,B|314:-12|355:6|355:6|296:53|334:93|334:93,1,207.000000315857
368,127,93031,1,0,0:0:0:0:
423,178,93131,1,0,0:0:0:0:
446,257,93231,5,0,0:0:0:0:
386,324,93331,1,0,0:0:0:0:
288,288,93431,1,0,0:0:0:0:
256,192,93531,2,0,P|246:174|255:192,1,69.0000001052856
88,315,93831,1,0,0:0:0:0:
112,80,94131,5,0,0:0:0:0:
256,48,94331,1,0,0:0:0:0:
352,80,94431,2,0,L|416:128,2,69.0000001052856
256,96,94731,5,0,0:0:0:0:
224,112,94831,1,0,0:0:0:0:
240,144,94931,1,0,0:0:0:0:
272,128,95031,5,0,0:0:0:0:
336,32,95181,1,0,0:0:0:0:
368,144,95331,2,0,B|368:176|416:192|416:192|400:224|352:240|352:240|400:288,1,207.000000315857
190,41,95931,6,0,B|206:105|158:137|158:137|206:169|189:223|189:223|126:201|126:201|153:240|126:265|126:265|104:297|138:320,1,388.125000592232
142,137,96081,5,0,0:0:0:0:
203,239,96231,1,0,0:0:0:0:
122,305,96531,6,0,B|170:289|234:305|234:305|311:261|311:261,1,181.125000276375
314,257,96831,2,0,B|266:273|202:257|202:257|122:305|122:305,1,207.000000315857
160,80,97331,6,0,B|176:96|240:32|240:32|256:80|288:48|288:48|320:64|320:64|288:48,1,207.000000315857
416,96,97731,6,0,B|416:120|432:144|432:144|377:146|372:216,1,138.000000210571
354,266,98106,6,0,B|311:254|302:203|302:203|278:219|241:224,1,138.000000210571
270,290,98531,6,0,B|241:317|223:342|223:342|203:319|174:304|174:304|135:313|100:291,1,207.000000315857
165,333,98731,5,8,0:0:0:0:
150,238,98931,6,0,L|195:134,2,103.500000157928
203,120,99081,5,10,0:0:0:0:
298,77,99531,6,0,L|253:181,2,103.500000157928
245,195,99681,5,10,0:0:0:0:
345,25,99981,5,10,0:0:0:0:
412,51,100131,6,10,P|444:83|412:115,3,69.0000001052856
438,100,100431,5,14,0:0:0:0:
368,208,100631,6,0,B|352:240|352:240|336:208|336:208|368:208,1,102.750002900505
367,208,100931,2,0,B|383:176|383:176|399:208|399:208|367:208,1,102.750002900505
160,96,101331,6,0,B|176:128|176:128|192:96|192:96|160:96,1,102.750002900505
160,96,101631,2,0,B|144:64|144:64|128:96|128:96|160:96,1,102.750002900505
320,96,101931,5,0,0:0:0:0:
370,143,102031,1,0,0:0:0:0:
383,210,102131,1,0,0:0:0:0:
357,273,102231,1,0,0:0:0:0:
291,299,102331,1,0,0:0:0:0:
235,257,102431,1,0,0:0:0:0:
256,192,102531,6,0,P|314:192|299:114,1,103.500000157928
303,92,102831,6,0,P|245:92|260:170,1,103.500000157928
113,42,103131,6,0,B|70:57|71:85|71:85|141:87|79:197|79:197|85:256|147:242|147:242|97:300|201:318|201:318,1,414.000000631714
60,195,103431,5,10,0:0:0:0:
163,233,103581,1,10,0:0:0:0:
209,303,103731,6,0,B|232:276|232:276|239:311|239:311|209:303,1,102.750002900505
208,302,104031,2,0,B|201:336|201:336|178:310|178:310|208:302,1,102.750002900505
176,192,104331,1,0,0:0:0:0:
128,96,104481,6,0,B|105:69|105:69|98:104|98:104|128:96,1,102.750002900505
224,80,104781,1,0,0:0:0:0:
291,15,104931,6,0,B|336:56|392:81|392:81|328:94|302:146|302:146|355:172|296:269|296:269|271:231|221:206,1,452.999994815826
288,145,105231,5,0,0:0:0:0:
293,283,105431,1,0,0:0:0:0:
208,144,105831,6,0,B|192:148|192:148|196:163|196:163|181:167|181:167|185:183|185:183|169:187|169:187|174:202|174:202|158:206|158:206|162:222|162:222|147:226|147:226|151:241|151:241|135:246|135:246|140:261|140:261|124:265|124:265|129:280|129:280|113:285|113:285,1,226.499997407913
125,281,106131,38,0,B|102:308|102:308|95:273|95:273|125:281,1,102.750002900505
125,281,106431,2,0,B|148:308|148:308|155:273|155:273|125:281,1,102.750002900505
111,177,106731,6,0,B|125:114|168:153|168:153|218:138|218:138|231:109|216:78|216:78|296:137|360:121|360:121|392:217,1,414.000000631714
233,150,106931,5,0,0:0:0:0:
379,177,107331,5,0,0:0:0:0:
404,241,107431,1,0,0:0:0:0:
382,306,107531,1,0,0:0:0:0:
317,331,107631,6,0,B|243:343|234:309|234:309|201:313|162:241|162:241,1,138.000000210571
161,231,107931,6,0,B|134:209|134:209|119:254,2,69.0000001052856
161,231,108231,2,0,B|173:198|173:198|198:222,2,69.0000001052856
144,161,108531,5,0,0:0:0:0:
179,101,108631,1,0,0:0:0:0:
236,63,108731,1,0,0:0:0:0:
304,59,108831,5,0,0:0:0:0:
355,105,108931,1,0,0:0:0:0:
353,173,109031,1,0,0:0:0:0:
320,234,109131,6,0,L|292:280,2,51.7500000789642
338,131,109431,1,0,0:0:0:0:
278,46,109581,1,0,0:0:0:0:
174,53,109731,6,0,P|134:85|145:123,2,69.0000001052856
201,76,110031,6,0,P|190:108|160:121,2,69.0000001052856
174,53,110331,6,0,P|134:85|145:123,2,69.0000001052856
256,32,110631,2,0,B|272:48|272:48|256:32|256:32|272:48|272:48|288:64|288:64|320:96|320:96|304:80|304:80|320:96|320:96|304:80|304:80|336:112|336:112|336:112|336:112,1,207.000000315857
292,100,110931,5,0,0:0:0:0:
48,352,116031,5,0,0:0:0:0:
416,32,116331,6,0,B|112:32|112:32|120:32|120:32|112:32|112:32|120:32|120:32|112:32|112:32|120:32|120:32|112:32|112:32|120:32|120:32|112:32|112:32|120:32|120:32|112:32|112:32|120:32|120:32|112:32|112:32|120:32|120:32|112:32|112:32|120:32|120:32|112:32|112:32|120:32|120:32|112:32|112:32|120:32|120:32|112:32|112:32|120:32|120:32|112:32|112:32|120:32|120:32|112:32|112:32|120:32|120:32|112:32|112:32|120:32|120:32|112:32|112:32|120:32|120:32|112:32|112:32|120:32|120:32|112:32|112:32|120:32|120:32|112:32|112:32|120:32|120:32|112:32|112:32|112:32|112:32|96:32,1,600
218,113,116931,6,0,B|352:203|352:203|352:175|352:175|466:287|466:287|460:283|460:283|466:287|466:287|460:283|460:283|466:287|466:287|460:283|460:283|466:287|466:287|460:283|460:283|466:287|466:287|460:283|460:283|466:287|466:287|460:283|460:283|466:287|466:287|460:283|460:283|466:287|466:287|460:283|460:283|466:287|466:287|460:283|460:283|466:287|466:287|460:283|460:283|466:287|466:287|460:283|460:283|466:287|466:287|460:283|460:283|466:287|466:287|460:283|460:283|466:287|466:287|460:283|460:283|466:287|466:287|460:283|460:283|466:287|466:287|460:283|460:283|466:287|466:287|460:283|460:283|466:287|466:287|460:283|460:283|466:287|466:287|466:287|466:287|480:296,1,600
321,249,117531,6,0,B|236:289|236:289|123:288|123:288|27:327|27:327|35:325|35:325|27:327|27:327|35:325|35:325|27:327|27:327|35:325|35:325|27:327|27:327|35:325|35:325|27:327|27:327|35:325|35:325|27:327|27:327|35:325|35:325|27:327|27:327|35:325|35:325|27:327|27:327|35:325|35:325|27:327|27:327|35:325|35:325|27:327|27:327|35:325|35:325|27:327|27:327|35:325|35:325|27:327|27:327|35:325|35:325|27:327|27:327|35:325|35:325|27:327|27:327|35:325|35:325|27:327|27:327|35:325|35:325|27:327|27:327|35:325|35:325|27:327|27:327|35:325|35:325|27:327|27:327|35:325|35:325|27:327|27:327|27:327|27:327|11:331,1,600
104,32,118131,6,0,B|169:96|200:162|200:162|318:246|318:246|313:241|313:241|318:246|318:246|313:241|313:241|318:246|318:246|313:241|313:241|318:246|318:246|313:241|313:241|318:246|318:246|313:241|313:241|318:246|318:246|313:241|313:241|318:246|318:246|313:241|313:241|318:246|318:246|313:241|313:241|318:246|318:246|313:241|313:241|318:246|318:246|313:241|313:241|318:246|318:246|313:241|313:241|318:246|318:246|313:241|313:241|318:246|318:246|313:241|313:241|318:246|318:246|313:241|313:241|318:246|318:246|313:241|313:241|318:246|318:246|313:241|313:241|318:246|318:246|313:241|313:241|318:246|318:246|313:241|313:241|318:246|318:246|318:246|318:246|334:258,1,525
25,328,118731,6,0,B|29:268|85:225|85:225|76:202|76:202|104:210|104:210|156:148|221:111|221:111|214:116|214:116|221:111|221:111|214:116|214:116|221:111|221:111|214:116|214:116|221:111|221:111|214:116|214:116|221:111|221:111|214:116|214:116|221:111|221:111|214:116|214:116|221:111|221:111|214:116|214:116|221:111|221:111|214:116|214:116|221:111|221:111|214:116|214:116|221:111|221:111|214:116|214:116|221:111|221:111|214:116|214:116|221:111|221:111|214:116|214:116|221:111|221:111|214:116|214:116|221:111|221:111|214:116|214:116|221:111|221:111|214:116|214:116|221:111|221:111|214:116|214:116|221:111|221:111|214:116|214:116|221:111|221:111|214:116|214:116|221:111|221:111|221:111|221:111|227:105,1,600
422,45,119331,6,0,B|395:348|395:348|396:340|396:340|395:348|395:348|396:340|396:340|395:348|395:348|396:340|396:340|395:348|395:348|396:340|396:340|395:348|395:348|396:340|396:340|395:348|395:348|396:340|396:340|395:348|395:348|396:340|396:340|395:348|395:348|396:340|396:340|395:348|395:348|396:340|396:340|395:348|395:348|396:340|396:340|395:348|395:348|396:340|396:340|395:348|395:348|396:340|396:340|395:348|395:348|396:340|396:340|395:348|395:348|396:340|396:340|395:348|395:348|396:340|396:340|395:348|395:348|396:340|396:340|395:348|395:348|396:340|396:340|395:348|395:348|396:340|396:340|395:348|395:348|395:348|395:348|395:356,1,600
39,193,119931,6,0,B|72:102|285:257|342:167|342:167|334:167|334:167|342:167|342:167|334:167|334:167|342:167|342:167|334:167|334:167|342:167|342:167|334:167|334:167|342:167|342:167|334:167|334:167|342:167|342:167|334:167|334:167|342:167|342:167|334:167|334:167|342:167|342:167|334:167|334:167|342:167|342:167|334:167|334:167|342:167|342:167|334:167|334:167|342:167|342:167|334:167|334:167|342:167|342:167|334:167|334:167|342:167|342:167|334:167|334:167|342:167|342:167|334:167|334:167|342:167|342:167|334:167|334:167|342:167|342:167|334:167|334:167|342:167|342:167|334:167|334:167|342:167|342:167|334:167|334:167|342:167|342:167|342:167|342:167|358:165,1,600
194,322,120531,6,0,B|212:275|212:275|227:256|227:256|234:236|234:236|245:221|245:221|249:196|249:196|271:177|271:177|270:148|270:148|310:106|310:106|295:70|295:70|323:47|323:47|319:54|319:54|323:47|323:47|319:54|319:54|323:47|323:47|319:54|319:54|323:47|323:47|319:54|319:54|323:47|323:47|319:54|319:54|323:47|323:47|319:54|319:54|323:47|323:47|319:54|319:54|323:47|323:47|319:54|319:54|323:47|323:47|319:54|319:54|323:47|323:47|319:54|319:54|323:47|323:47|319:54|319:54|323:47|323:47|319:54|319:54|323:47|323:47|319:54|319:54|323:47|323:47|319:54|319:54|323:47|323:47|319:54|319:54|323:47|323:47|319:54|319:54|323:47|323:47|319:54|319:54|323:47|323:47|319:54|319:54|323:47|323:47|323:47|323:47|326:39,1,600
430,154,121131,6,0,B|314:84|271:132|271:132|230:110|151:147|151:147|159:147|159:147|151:147|151:147|159:147|159:147|151:147|151:147|159:147|159:147|151:147|151:147|159:147|159:147|151:147|151:147|159:147|159:147|151:147|151:147|159:147|159:147|151:147|151:147|159:147|159:147|151:147|151:147|159:147|159:147|151:147|151:147|159:147|159:147|151:147|151:147|159:147|159:147|151:147|151:147|159:147|159:147|151:147|151:147|159:147|159:147|151:147|151:147|159:147|159:147|151:147|151:147|159:147|159:147|151:147|151:147|159:147|159:147|151:147|151:147|159:147|159:147|151:147|151:147|159:147|159:147|151:147|151:147|159:147|159:147|151:147|151:147|151:147|151:147|144:148,1,525
273,49,121731,6,0,B|240:128|256:192|256:192|240:224|240:224|272:288|236:350|236:350|237:342|237:342|236:350|236:350|237:342|237:342|236:350|236:350|237:342|237:342|236:350|236:350|237:342|237:342|236:350|236:350|237:342|237:342|236:350|236:350|237:342|237:342|236:350|236:350|237:342|237:342|236:350|236:350|237:342|237:342|236:350|236:350|237:342|237:342|236:350|236:350|237:342|237:342|236:350|236:350|237:342|237:342|236:350|236:350|237:342|237:342|236:350|236:350|237:342|237:342|236:350|236:350|237:342|237:342|236:350|236:350|237:342|237:342|236:350|236:350|237:342|237:342|236:350|236:350|237:342|237:342|236:350|236:350|237:342|237:342|236:350|236:350|236:350|236:350|235:358,1,600
175,50,122331,6,0,B|256:160|368:224|368:224|374:279|374:279|369:273|369:273|374:279|374:279|369:273|369:273|374:279|374:279|369:273|369:273|374:279|374:279|369:273|369:273|374:279|374:279|369:273|369:273|374:279|374:279|369:273|369:273|374:279|374:279|369:273|369:273|374:279|374:279|369:273|369:273|374:279|374:279|369:273|369:273|374:279|374:279|369:273|369:273|374:279|374:279|369:273|369:273|374:279|374:279|369:273|369:273|374:279|374:279|369:273|369:273|374:279|374:279|369:273|369:273|374:279|374:279|369:273|369:273|374:279|374:279|369:273|369:273|374:279|374:279|369:273|369:273|374:279|374:279|369:273|369:273|374:279|374:279|374:279|374:279|375:280,1,600
71,275,122931,6,0,B|92:248|118:253|118:253|175:293|375:275|375:275|367:275|367:275|375:275|375:275|367:275|367:275|375:275|375:275|367:275|367:275|375:275|375:275|367:275|367:275|375:275|375:275|367:275|367:275|375:275|375:275|367:275|367:275|375:275|375:275|367:275|367:275|375:275|375:275|367:275|367:275|375:275|375:275|367:275|367:275|375:275|375:275|367:275|367:275|375:275|375:275|367:275|367:275|375:275|375:275|367:275|367:275|375:275|375:275|367:275|367:275|375:275|375:275|367:275|367:275|375:275|375:275|367:275|367:275|375:275|375:275|367:275|367:275|375:275|375:275|367:275|367:275|375:275|375:275|367:275|367:275|375:275|375:275|375:275|375:275|383:275,1,600
83,46,123531,6,0,B|109:30|136:38|136:38|171:59|205:34|205:34|232:18|271:29|271:29|302:42|333:24|333:24|350:10|386:20|386:20|378:20|378:20|386:20|386:20|378:20|378:20|386:20|386:20|378:20|378:20|386:20|386:20|378:20|378:20|386:20|386:20|378:20|378:20|386:20|386:20|378:20|378:20|386:20|386:20|378:20|378:20|386:20|386:20|378:20|378:20|386:20|386:20|378:20|378:20|386:20|386:20|378:20|378:20|386:20|386:20|378:20|378:20|386:20|386:20|378:20|378:20|386:20|386:20|378:20|378:20|386:20|386:20|378:20|378:20|386:20|386:20|378:20|378:20|386:20|386:20|378:20|378:20|386:20|386:20|378:20|378:20|386:20|386:20|378:20|378:20|386:20|386:20|386:20|386:20|402:18,1,600
287,288,124131,6,0,P|242:270|288:288,1,150
386,295,124431,1,0,0:0:0:0:
450,207,124581,1,0,0:0:0:0:
432,52,124731,6,0,B|368:-12|336:100|336:100|384:68|384:68|384:148|384:148|368:164|368:164|384:180|384:180|400:164|400:164|384:148|384:148|384:228|384:228|384:204,1,450
256,144,125331,6,0,B|240:160|240:160|272:160|272:160|256:144|256:144|240:160|240:160|256:144|256:144|240:160|240:160|272:160|272:160|256:144|256:144|240:160|240:160|272:160|272:160|256:144|256:144,1,276.000000421143
128,192,125631,6,0,B|106:186|106:186|122:213|122:213|128:192|128:192|106:186|106:186|128:192|128:192|106:186|106:186|122:213|122:213|128:192|128:192|106:186|106:186|122:213|122:213|128:192|128:192,1,276.000000421143
265,272,125931,6,0,B|265:294|265:294|287:272|287:272|265:272|265:272|265:294|265:294|265:272|265:272|265:294|265:294|287:272|287:272|265:272|265:272|265:294|265:294|287:272|287:272|265:272|265:272,1,276.000000421143
262,112,126231,6,0,B|280:98|280:98|248:93|248:93|262:112|262:112|280:98|280:98|262:112|262:112|280:98|280:98|248:93|248:93|262:112|262:112|280:98|280:98|248:93|248:93|262:112|262:112,1,276.000000421143
432,272,126531,6,0,B|432:294|432:294|454:272|454:272|432:272|432:272|432:294|432:294|432:272|432:272|432:294|432:294|454:272|454:272|432:272|432:272|432:294|432:294|454:272|454:272|432:272|432:272,1,276.000000421143
128,224,126831,6,0,B|107:233|107:233|137:244|137:244|128:224|128:224|107:233|107:233|128:224|128:224|107:233|107:233|137:244|137:244|128:224|128:224|107:233|107:233|137:244|137:244|128:224|128:224,1,276.000000421143
208,64,127131,6,0,B|228:73|228:73|217:43|217:43|208:64|208:64|228:73|228:73|208:64|208:64|228:73|228:73|217:43|217:43|208:64|208:64|228:73|228:73|217:43|217:43|208:64|208:64,1,276.000000421143
246,320,127431,6,0,B|223:320|223:320|246:342|246:342|246:320|246:320|223:320|223:320|246:320|246:320|223:320|223:320|246:342|246:342|246:320|246:320|223:320|223:320|246:342|246:342|246:320|246:320,1,276.000000421143
336,160,127731,6,0,B|320:144|320:144|352:144|352:144|336:160|336:160|320:144|320:144|336:160|336:160|320:144|320:144|352:144|352:144|336:160|336:160|320:144|320:144|352:144|352:144|336:160|336:160,1,276.000000421143
128,192,128031,6,0,B|107:201|107:201|119:172|119:172|128:192|128:192|107:201|107:201|128:192|128:192|107:201|107:201|119:172|119:172|128:192|128:192|107:201|107:201|119:172|119:172|128:192|128:192,1,276.000000421143
272,113,128331,6,0,B|294:113|294:113|272:90|272:90|272:113|272:113|294:113|294:113|272:113|272:113|294:113|294:113|272:90|272:90|272:113|272:113|294:113|294:113|272:90|272:90|272:113|272:113,1,276.000000421143
262,272,128631,6,0,B|247:289|247:289|279:286|279:286|262:272|262:272|247:289|247:289|262:272|262:272|247:289|247:289|279:286|279:286|262:272|262:272|247:289|247:289|279:286|279:286|262:272|262:272,1,276.000000421143
432,112,128931,6,0,B|454:108|454:108|428:89|428:89|432:112|432:112|454:108|454:108|432:112|432:112|454:108|454:108|428:89|428:89|432:112|432:112|454:108|454:108|428:89|428:89|432:112|432:112,1,276.000000421143
128,160,129231,6,0,B|137:139|137:139|107:150|107:150|128:160|128:160|137:139|137:139|128:160|128:160|137:139|137:139|107:150|107:150|128:160|128:160|137:139|137:139|107:150|107:150|128:160|128:160,1,276.000000421143
208,320,129531,6,0,B|213:341|213:341|229:314|229:314|208:320|208:320|213:341|213:341|208:320|208:320|213:341|213:341|229:314|229:314|208:320|208:320|213:341|213:341|229:314|229:314|208:320|208:320,1,276.000000421143
246,64,129831,6,0,B|247:41|247:41|223:62|223:62|246:64|246:64|247:41|247:41|246:64|246:64|247:41|247:41|223:62|223:62|246:64|246:64|247:41|247:41|223:62|223:62|246:64|246:64,1,276.000000421143
304,320,130131,6,0,B|282:314|282:314|298:341|298:341|304:320|304:320|282:314|282:314|304:320|304:320|282:314|282:314|298:341|298:341|304:320|304:320|282:314|282:314|298:341|298:341|304:320|304:320,1,276.000000421143
384,160,130431,6,0,B|403:148|403:148|372:140|372:140|384:160|384:160|403:148|403:148|384:160|384:160|403:148|403:148|372:140|372:140|384:160|384:160|403:148|403:148|372:140|372:140|384:160|384:160,1,276.000000421143
144,208,130731,6,0,B|155:227|155:227|124:219|124:219|144:208|144:208|155:227|155:227|144:208|144:208|155:227|155:227|124:219|124:219|144:208|144:208|155:227|155:227|124:219|124:219|144:208|144:208,1,276.000000421143
246,64,131031,6,0,B|247:41|247:41|223:62|223:62|246:64|246:64|247:41|247:41|246:64|246:64|247:41|247:41|223:62|223:62|246:64|246:64|247:41|247:41|223:62|223:62|246:64|246:64,1,276.000000421143
384,96,131331,5,0,0:0:0:0:
400,224,131531,1,0,0:0:0:0:
400,224,131631,5,0,0:0:0:0:
256,96,131831,1,0,0:0:0:0:
256,96,131931,5,0,0:0:0:0:
208,288,132131,1,0,0:0:0:0:
208,288,132231,5,0,0:0:0:0:
144,80,132431,1,0,0:0:0:0:
144,80,132531,5,0,0:0:0:0:
384,112,132731,1,0,0:0:0:0:
384,112,132831,5,0,0:0:0:0:
160,176,133031,1,0,0:0:0:0:
160,176,133131,5,0,0:0:0:0:
336,272,133331,1,0,0:0:0:0:
336,272,133431,5,0,0:0:0:0:
224,352,133631,1,0,0:0:0:0:
224,352,133731,5,0,0:0:0:0:
75,297,133931,5,0,0:0:0:0:
75,297,134031,2,0,B|91:249|75:215|75:215|148:255,1,123.750001180172
208,288,134331,1,0,0:0:0:0:
160,112,134481,1,0,0:0:0:0:
256,64,134631,1,0,0:0:0:0:
304,240,134781,1,0,0:0:0:0:
160,112,134931,22,0,B|131:88|114:139|114:139|75:114|63:140|63:140|86:198|48:256|48:256|112:304|154:197|154:197,1,371.250003540516
28,269,135231,5,0,0:0:0:0:
256,160,135531,6,0,B|272:208|352:144|352:144|368:128|400:128|400:128|336:128|320:112|320:112|288:48|208:64,1,371.250003540516
301,118,135831,21,0,0:0:0:0:
128,80,136131,6,0,B|116:140|116:140|124:140|124:140|112:208,1,123.750001180172
176,304,136431,5,0,0:0:0:0:
256,224,136581,6,0,B|268:164|268:164|260:164|260:164|272:96,1,123.750001180172
368,0,136881,5,0,0:0:0:0:
432,80,137031,1,0,0:0:0:0:
432,192,137181,1,0,0:0:0:0:
368,288,137331,22,0,B|346:318|316:273|316:273|285:308|267:286|267:286|274:224|222:177|222:177|96:176|160:112|160:112,1,371.250003540516
227,154,137631,5,0,0:0:0:0:
288,32,137931,6,0,B|317:19|344:42|344:42|306:76|319:105|319:105|392:74|403:139|403:139|474:143|417:255,1,371.250003540516
392,159,138231,5,0,0:0:0:0:
336,320,138531,6,0,P|272:320|240:256,2,123.750001180172
310,256,138981,1,0,0:0:0:0:
281,192,139131,6,0,P|345:192|377:256,2,123.750001180172
193,258,139581,1,0,0:0:0:0:
102,320,139731,6,0,B|73:334|60:279|60:279|118:208|53:106|53:106|95:60|206:86,1,371.250003540516
33,96,140031,5,0,0:0:0:0:
269,86,140331,6,0,P|340:111|375:149,1,123.750001180172
432,240,140631,5,0,0:0:0:0:
435,249,140731,1,0,0:0:0:0:
427,257,140831,1,0,0:0:0:0:
432,272,140931,1,0,0:0:0:0:
411,281,141031,1,0,0:0:0:0:
406,306,141131,1,0,0:0:0:0:
370,306,141231,1,0,0:0:0:0:
343,273,141331,1,0,0:0:0:0:
341,221,141431,1,0,0:0:0:0:
367,167,141531,1,0,0:0:0:0:
348,103,141631,1,0,0:0:0:0:
291,54,141731,1,0,0:0:0:0:
201,73,141831,6,0,B|166:95|182:143|182:143|150:143|118:191,1,123.750001180172
114,243,142131,6,0,B|179:239|212:326|212:326|278:346|270:266|270:266|343:295|412:195,1,412.500003933907
259,244,142431,5,0,0:0:0:0:
413,112,142731,6,0,B|390:77|334:58|334:58|313:111|222:102,1,165.000001573563
251,27,143031,6,0,B|222:28|184:79|205:129|205:129|99:182,1,165.000001573563
121,78,143331,6,0,B|105:88|88:106|86:137|86:137|83:173|106:203|106:203|127:222|86:305|86:305|152:271|201:282|201:282|240:195|390:295,1,495.000004720688
78,318,143631,5,0,0:0:0:0:
188,244,143781,1,0,0:0:0:0:
307,250,143931,38,0,B|336:227|368:224|368:176|384:128|384:128,1,123.750001180172
362,79,144231,6,0,P|318:99|303:141,2,82.5000007867813
429,91,144531,6,0,B|437:128|459:146|459:146|414:182|415:232|415:232|450:248|456:307|456:307|395:289|336:313|336:313,1,371.250003540516
460,313,144831,5,0,0:0:0:0:
326,242,145131,38,0,B|292:244|275:269|268:300|268:300|248:279|214:288,1,123.750001180172
203,217,145431,6,0,P|170:248|163:286,2,82.5000007867813
279,200,145731,6,0,B|325:201|325:201|361:164|417:113|417:113|339:120|305:69|305:69|251:113|190:89|190:89|210:126,1,450
310,36,146031,5,0,0:0:0:0:
221,174,146331,5,0,0:0:0:0:
303,308,146481,1,0,0:0:0:0:
258,126,146631,1,0,0:0:0:0:
447,114,146781,1,0,0:0:0:0:
295,79,146931,5,0,0:0:0:0:
226,47,147131,1,0,0:0:0:0:
226,47,147181,1,0,0:0:0:0:
226,47,147231,6,0,B|182:22|121:65|130:148|130:148,1,165.000001573563
166,233,147531,1,0,0:0:0:0:
303,316,147731,1,0,0:0:0:0:
303,316,147781,1,0,0:0:0:0:
303,316,147831,6,0,B|322:251|408:298|367:202|367:202,1,123.750001180172
337,108,148131,1,0,0:0:0:0:
196,122,148281,6,0,B|160:136|160:136|183:173|167:206|167:206|232:232|150:305|150:305|188:361,1,247.500002360344
240,352,148731,2,0,L|367:363,1,123.750001180172
368,256,149031,2,0,L|240:267,1,123.750001180172
240,336,149331,6,0,P|176:256|224:208,1,123.750001180172
208,173,149631,1,0,0:0:0:0:
409,35,149781,1,0,0:0:0:0:
229,201,150081,1,0,0:0:0:0:
462,130,150231,1,0,0:0:0:0:
237,63,150531,6,0,B|172:177|94:263|94:263|222:261|343:285|343:285|277:180|238:62,1,742.500007081032
78,272,150831,5,0,0:0:0:0:
221,242,150981,1,0,0:0:0:0:
319,164,151281,1,0,0:0:0:0:
152,49,151581,1,0,0:0:0:0:
74,88,151731,5,0,0:0:0:0:
74,296,152031,5,0,0:0:0:0:
438,296,152331,5,0,0:0:0:0:
438,88,152631,5,0,0:0:0:0:
256,192,152931,5,0,0:0:0:0:
112,64,153331,1,2,0:0:0:0:
112,64,153531,2,0,B|75:55|67:78|75:112|75:112|119:126|121:171|99:244|99:244|145:251,1,247.500002360344,2|0,0:0|0:0,0:0:0:0:
257,256,154131,5,0,0:0:0:0:
315,224,154231,1,0,0:0:0:0:
346,165,154331,1,0,0:0:0:0:
338,99,154431,5,0,0:0:0:0:
244,73,154531,2,0,L|223:32,2,41.2500003933907
205,165,154731,5,0,0:0:0:0:
403,291,155031,1,0,0:0:0:0:
432,305,155131,1,0,0:0:0:0:
405,323,155231,1,0,0:0:0:0:
403,291,155331,5,0,0:0:0:0:
109,291,155631,1,0,0:0:0:0:
80,305,155731,1,0,0:0:0:0:
107,323,155831,1,0,0:0:0:0:
109,291,155931,5,0,0:0:0:0:
87,175,156231,1,0,0:0:0:0:
78,109,156331,1,0,0:0:0:0:
134,74,156431,1,0,0:0:0:0:
195,97,156531,5,0,0:0:0:0:
260,85,156631,1,0,0:0:0:0:
309,41,156731,1,0,0:0:0:0:
374,40,156831,1,0,0:0:0:0:
412,93,156931,1,0,0:0:0:0:
390,155,157031,1,0,0:0:0:0:
330,183,157131,5,0,0:0:0:0:
267,160,157231,1,0,0:0:0:0:
214,107,157331,1,0,0:0:0:0:
134,83,157431,1,0,0:0:0:0:
62,138,157531,1,0,0:0:0:0:
74,244,157631,1,0,0:0:0:0:
177,295,157731,5,0,0:0:0:0:
371,138,157881,1,0,0:0:0:0:
135,219,158031,1,0,0:0:0:0:
385,223,158181,1,0,0:0:0:0:
152,134,158331,1,0,0:0:0:0:
340,298,158481,1,0,0:0:0:0:
219,80,158631,1,0,0:0:0:0:
258,326,158781,1,0,0:0:0:0:
306,81,158931,2,0,B|305:76|305:76|293:43|248:47|248:47|243:105|152:112|152:112|173:176|138:198|138:198|144:245|211:258,1,371.250003540516
280,266,159531,6,0,B|308:276|308:276|300:358|424:343,1,123.750001180172
379,277,159831,2,0,B|393:249|415:243|415:243|328:182|290:89|290:89|284:138|260:160|260:160|145:135|168:246|168:246|249:208|291:285,1,618.75000590086
344,342,160731,5,0,0:0:0:0:
418,277,160881,1,0,0:0:0:0:
405,178,161031,1,0,0:0:0:0:
317,131,161181,1,0,0:0:0:0:
256,192,161331,5,0,0:0:0:0:
224,112,161481,2,0,P|192:128|176:176,2,75
288,112,161931,2,0,P|320:128|336:176,1,75
336,221,162231,2,0,P|320:255|288:272,1,75
224,272,162531,2,0,P|192:256|176:208,1,75
256,192,162831,1,0,0:0:0:0:
256,192,163131,1,12,0:0:0:0:
256,192,163731,5,0,0:0:0:0:
175,221,163881,2,0,P|191:255|224:272,2,75
175,144,164331,1,0,0:0:0:0:
224,64,164481,1,0,0:0:0:0:
304,112,164631,1,0,0:0:0:0:
256,192,164781,1,0,0:0:0:0:
256,272,164931,2,0,L|256:352,1,75
336,352,165231,1,0,0:0:0:0:
176,304,165531,2,0,B|185:214|85:219|85:219|129:138,1,225
70,224,165831,5,0,0:0:0:0:
189,80,166131,6,0,B|202:74|202:74|231:91|237:140,1,75
238,223,166431,2,0,P|253:256|286:273,1,75
368,272,166731,1,0,0:0:0:0:
335,92,167031,6,0,P|303:108|287:156,1,75
274,223,167331,2,0,P|258:256|225:273,1,75
144,272,167631,1,0,0:0:0:0:
144,192,167781,1,0,0:0:0:0:
208,144,167931,2,0,B|219:109|219:109|248:157|248:157|259:109|259:109|288:126|288:126|307:103|307:103|397:82,1,225
405,120,168531,5,0,0:0:0:0:
425,155,168606,1,0,0:0:0:0:
409,193,168681,1,0,0:0:0:0:
334,271,168831,1,0,0:0:0:0:
301,296,168906,1,0,0:0:0:0:
259,297,168981,1,0,0:0:0:0:
144,272,169131,1,0,0:0:0:0:
144,192,169281,1,0,0:0:0:0:
165,153,169356,1,0,0:0:0:0:
203,137,169431,1,12,0:0:0:0:
322,110,169581,6,0,B|354:110|354:110|402:142,1,75
464,208,169881,6,0,B|464:240|464:240|432:288,1,75
368,336,170181,6,0,B|336:336|336:336|288:304,1,75
224,240,170481,5,0,0:0:0:0:
203,199,170556,1,0,0:0:0:0:
212,158,170631,1,12,0:0:0:0:
352,48,170781,1,0,0:0:0:0:
256,192,170931,5,0,0:0:0:0:
176,224,171081,2,0,P|192:256|240:272,2,75
176,160,171531,2,0,P|192:128|240:112,1,75
285,112,171831,2,0,P|319:128|336:160,1,75
336,224,172131,2,0,P|320:256|272:272,1,75
256,192,172431,1,0,0:0:0:0:
256,192,172731,1,12,0:0:0:0:
256,192,173331,5,0,0:0:0:0:
285,111,173481,2,0,P|319:127|336:160,2,75
208,111,173931,1,0,0:0:0:0:
128,160,174081,1,0,0:0:0:0:
176,240,174231,1,0,0:0:0:0:
256,192,174381,1,0,0:0:0:0:
336,192,174531,2,0,L|416:192,1,75
416,272,174831,1,0,0:0:0:0:
357,332,175131,6,0,B|181:303|181:303|122:193,1,274.499988690949
198,274,175431,5,0,0:0:0:0:
123,142,175731,6,0,P|144:96|176:80,1,75
256,48,176031,6,0,P|304:64|320:96,1,75
352,176,176331,6,0,P|336:224|304:240,1,75
224,272,176631,6,0,P|176:256|160:224,1,75
128,144,176931,6,0,P|144:96|176:80,1,75
256,48,177231,6,0,P|304:64|320:96,1,75
352,176,177531,6,0,P|336:224|304:240,1,75
224,272,177831,6,0,B|176:256|160:224|160:224|128:208|77:220|64:224,1,168.75
