osu file format v14

[General]
AudioFilename: audio.mp3
AudioLeadIn: 0
PreviewTime: 48746
Countdown: 0
SampleSet: Soft
StackLeniency: 0.7
Mode: 3
LetterboxInBreaks: 0
SpecialStyle: 0
WidescreenStoryboard: 0

[Editor]
Bookmarks: 138816
DistanceSpacing: 1.7
BeatDivisor: 4
GridSize: 4
TimelineZoom: 1.7

[Metadata]
Title:Glorious
TitleUnicode:Glorious
Artist:Adam Friedman
ArtistUnicode:Adam Friedman
Creator:Arzenvald
Version:Normal
Source:Rock Dog
Tags:Movie Soundtrack 摇滚藏獒 Bodi
BeatmapID:1345717
BeatmapSetID:633567

[Difficulty]
HPDrainRate:8
CircleSize:7
OverallDifficulty:8
ApproachRate:5
SliderMultiplier:1.4
SliderTickRate:1

[Events]
//Background and Video events
0,0,"bg.jpg",0,0
//Break Periods
//Storyboard Layer 0 (Background)
//Storyboard Layer 1 (Fail)
//Storyboard Layer 2 (Pass)
//Storyboard Layer 3 (Foreground)
//Storyboard Sound Samples

[TimingPoints]
290,528.63436123348,4,2,1,40,1,0
290,-94.5833333333334,4,2,1,40,0,0
2404,526.315789473684,4,2,1,40,1,0
2404,-95,4,2,1,40,0,0
4509,524.017467248908,4,2,1,40,1,0
4509,-95.4166666666667,4,2,1,40,0,0
6605,519.480519480519,4,2,1,40,1,0
6605,-96.2500000000001,4,2,1,40,0,0
7643,495.867768595041,4,2,1,40,1,0
7643,-100.833333333333,4,2,1,40,0,0
8682,519.480519480519,4,2,1,40,1,0
8682,-96.2500000000001,4,2,1,40,0,0
10759,510.63829787234,4,2,1,40,1,0
10759,-97.9166666666668,4,2,1,40,0,0
16886,508.474576271186,4,2,1,40,1,0
16886,-98.3333333333334,4,2,1,40,0,0
17902,493.827160493827,4,2,1,40,1,0
17902,-101.25,4,2,1,40,0,0
19877,491.803278688525,4,2,1,40,1,0
19877,-101.666666666667,4,2,1,40,0,0
20860,500,4,2,1,40,1,0
20860,-100,4,2,1,40,0,0
48860,-100,4,2,1,40,0,1
65860,517.241379310345,4,2,1,40,1,1
65860,-96.6666666666666,4,2,1,40,0,1
66377,504.201680672269,4,2,1,40,1,1
66377,-99.1666666666666,4,2,1,40,0,1
66881,500,4,2,1,40,1,0
66881,-100,4,2,1,40,0,0
72881,491.803278688525,4,2,1,40,1,0
72881,-101.666666666667,4,2,1,40,0,0
73864,495.867768595041,4,2,1,40,1,0
73864,-100.833333333333,4,2,1,40,0,0
74855,504.201680672269,4,2,1,40,1,0
74855,-99.1666666666666,4,2,1,40,0,0
75359,508.474576271186,4,2,1,40,1,0
75359,-98.3333333333334,4,2,1,40,0,0
75867,500,4,2,1,40,1,0
75867,-100,4,2,1,40,0,0
76866,500,4,2,1,40,1,0
76866,-100,4,2,1,40,0,0

[HitObjects]
329,192,290,5,0,0:0:0:0:
182,192,554,1,0,0:0:0:0:
329,192,818,1,0,0:0:0:0:
182,192,1082,1,0,0:0:0:0:
329,192,1347,1,0,0:0:0:0:
182,192,1611,1,0,0:0:0:0:
329,192,1875,1,0,0:0:0:0:
182,192,2140,1,0,0:0:0:0:
329,192,2404,1,0,0:0:0:0:
182,192,2667,1,0,0:0:0:0:
329,192,2930,1,0,0:0:0:0:
182,192,3193,1,0,0:0:0:0:
329,192,3456,1,0,0:0:0:0:
182,192,3719,1,0,0:0:0:0:
329,192,3982,1,0,0:0:0:0:
182,192,4246,1,0,0:0:0:0:
475,192,4509,1,0,0:0:0:0:
36,192,4771,1,0,0:0:0:0:
475,192,5033,1,0,0:0:0:0:
36,192,5295,1,0,0:0:0:0:
475,192,5557,1,0,0:0:0:0:
36,192,5819,1,0,0:0:0:0:
475,192,6081,1,0,0:0:0:0:
36,192,6343,1,0,0:0:0:0:
475,192,6605,1,0,0:0:0:0:
36,192,6864,1,0,0:0:0:0:
475,192,7124,1,0,0:0:0:0:
36,192,7384,1,0,0:0:0:0:
475,192,7643,1,0,0:0:0:0:
36,192,7890,1,0,0:0:0:0:
256,192,8138,128,0,8682:0:0:0:0:
402,192,8682,1,0,0:0:0:0:
109,192,8941,1,0,0:0:0:0:
329,192,9201,1,0,0:0:0:0:
182,192,9461,1,0,0:0:0:0:
402,192,9720,1,0,0:0:0:0:
109,192,9980,1,0,0:0:0:0:
329,192,10240,1,0,0:0:0:0:
182,192,10500,1,0,0:0:0:0:
402,192,10759,1,0,0:0:0:0:
109,192,11014,1,0,0:0:0:0:
329,192,11269,1,0,0:0:0:0:
182,192,11524,1,0,0:0:0:0:
402,192,11780,1,0,0:0:0:0:
109,192,12035,1,0,0:0:0:0:
329,192,12290,1,0,0:0:0:0:
182,192,12546,1,0,0:0:0:0:
475,192,12801,1,0,0:0:0:0:
36,192,13056,1,0,0:0:0:0:
475,192,13312,1,0,0:0:0:0:
36,192,13567,1,0,0:0:0:0:
475,192,13822,1,0,0:0:0:0:
36,192,14078,1,0,0:0:0:0:
475,192,14333,1,0,0:0:0:0:
36,192,14588,1,0,0:0:0:0:
475,192,14844,1,0,0:0:0:0:
36,192,15099,1,0,0:0:0:0:
475,192,15354,1,0,0:0:0:0:
36,192,15610,1,0,0:0:0:0:
475,192,15865,1,0,0:0:0:0:
36,192,16120,1,0,0:0:0:0:
475,192,16376,1,0,0:0:0:0:
36,192,16631,1,0,0:0:0:0:
402,192,16886,128,0,17140:0:0:0:0:
256,192,17394,128,0,17648:0:0:0:0:
182,192,17902,128,0,18148:0:0:0:0:
36,192,18395,128,0,18642:0:0:0:0:
109,192,18889,1,0,0:0:0:0:
475,192,19136,128,0,19383:0:0:0:0:
402,192,19383,128,0,19630:0:0:0:0:
256,192,19877,128,0,20122:0:0:0:0:
109,192,20368,128,0,20614:0:0:0:0:
36,192,20860,1,0,0:0:0:0:
329,192,21110,128,0,21360:0:0:0:0:
402,192,21360,128,0,21610:0:0:0:0:
475,192,21610,128,0,21860:0:0:0:0:
182,192,21860,128,0,22110:0:0:0:0:
109,192,22235,128,0,22485:0:0:0:0:
36,192,22610,128,0,22860:0:0:0:0:
256,192,23360,1,0,0:0:0:0:
256,192,23860,1,0,0:0:0:0:
256,192,24360,1,0,0:0:0:0:
475,192,24860,128,0,25110:0:0:0:0:
402,192,25360,128,0,25610:0:0:0:0:
329,192,25610,128,0,25860:0:0:0:0:
182,192,25860,128,0,26110:0:0:0:0:
109,192,26360,128,0,26610:0:0:0:0:
36,192,26610,128,0,26860:0:0:0:0:
475,192,26860,128,0,27110:0:0:0:0:
329,192,27110,128,0,27360:0:0:0:0:
182,192,27360,128,0,27610:0:0:0:0:
36,192,27610,128,0,27860:0:0:0:0:
256,192,28110,128,0,28610:0:0:0:0:
182,192,29110,128,0,29360:0:0:0:0:
109,192,29360,128,0,29610:0:0:0:0:
36,192,29610,128,0,29860:0:0:0:0:
475,192,29860,128,0,30110:0:0:0:0:
329,192,30235,128,0,30485:0:0:0:0:
475,192,30610,128,0,30860:0:0:0:0:
109,192,31110,128,0,31360:0:0:0:0:
182,192,31360,128,0,31610:0:0:0:0:
402,192,31860,128,0,32360:0:0:0:0:
329,192,32360,1,0,0:0:0:0:
36,192,32860,1,0,0:0:0:0:
182,192,32860,1,0,0:0:0:0:
329,192,33110,1,0,0:0:0:0:
475,192,33360,1,0,0:0:0:0:
329,192,33610,1,0,0:0:0:0:
109,192,33860,1,0,0:0:0:0:
256,192,34110,1,0,0:0:0:0:
402,192,34360,1,0,0:0:0:0:
256,192,34610,1,0,0:0:0:0:
36,192,34860,1,0,0:0:0:0:
182,192,35110,1,0,0:0:0:0:
402,192,35360,1,0,0:0:0:0:
182,192,35610,1,0,0:0:0:0:
402,192,35860,1,0,0:0:0:0:
182,192,36110,1,0,0:0:0:0:
402,192,36360,1,0,0:0:0:0:
182,192,36610,1,0,0:0:0:0:
475,192,36860,1,0,0:0:0:0:
329,192,37110,1,0,0:0:0:0:
182,192,37360,1,0,0:0:0:0:
36,192,37610,1,0,0:0:0:0:
402,192,37860,1,0,0:0:0:0:
256,192,38110,1,0,0:0:0:0:
109,192,38360,1,0,0:0:0:0:
256,192,38610,1,0,0:0:0:0:
36,192,38860,1,0,0:0:0:0:
329,192,39110,1,0,0:0:0:0:
475,192,39360,1,0,0:0:0:0:
256,192,39610,1,0,0:0:0:0:
475,192,39860,1,0,0:0:0:0:
182,192,40110,1,0,0:0:0:0:
475,192,40360,1,0,0:0:0:0:
109,192,40610,1,0,0:0:0:0:
402,192,40860,1,0,0:0:0:0:
329,192,41110,1,0,0:0:0:0:
109,192,41360,1,0,0:0:0:0:
329,192,41610,1,0,0:0:0:0:
402,192,41860,1,0,0:0:0:0:
182,192,42110,1,0,0:0:0:0:
109,192,42360,1,0,0:0:0:0:
182,192,42610,1,0,0:0:0:0:
329,192,42860,1,0,0:0:0:0:
109,192,43110,1,0,0:0:0:0:
475,192,43360,1,0,0:0:0:0:
109,192,43610,1,0,0:0:0:0:
402,192,43860,1,0,0:0:0:0:
109,192,44110,1,0,0:0:0:0:
329,192,44360,1,0,0:0:0:0:
109,192,44610,1,0,0:0:0:0:
36,192,44860,128,0,45110:0:0:0:0:
109,192,45110,128,0,45360:0:0:0:0:
182,192,45360,128,0,45610:0:0:0:0:
256,192,45610,128,0,45860:0:0:0:0:
475,192,45860,128,0,46110:0:0:0:0:
402,192,46110,128,0,46360:0:0:0:0:
329,192,46360,128,0,46610:0:0:0:0:
256,192,46610,1,0,0:0:0:0:
36,192,48860,1,0,0:0:0:0:
475,192,48860,1,0,0:0:0:0:
402,192,49235,1,0,0:0:0:0:
109,192,49360,1,0,0:0:0:0:
475,192,49610,1,0,0:0:0:0:
329,192,49735,1,0,0:0:0:0:
182,192,49860,1,0,0:0:0:0:
36,192,49985,1,0,0:0:0:0:
182,192,50110,1,0,0:0:0:0:
329,192,50235,1,0,0:0:0:0:
475,192,50360,1,0,0:0:0:0:
36,192,50860,1,0,0:0:0:0:
475,192,51235,1,0,0:0:0:0:
329,192,51360,1,0,0:0:0:0:
109,192,51610,1,0,0:0:0:0:
256,192,51735,1,0,0:0:0:0:
402,192,51860,1,0,0:0:0:0:
36,192,51985,1,0,0:0:0:0:
182,192,52110,1,0,0:0:0:0:
329,192,52235,1,0,0:0:0:0:
475,192,52360,1,0,0:0:0:0:
256,192,52860,1,0,0:0:0:0:
402,192,53235,1,0,0:0:0:0:
109,192,53360,1,0,0:0:0:0:
182,192,53610,1,0,0:0:0:0:
329,192,53735,1,0,0:0:0:0:
475,192,53860,1,0,0:0:0:0:
36,192,53985,1,0,0:0:0:0:
182,192,54110,1,0,0:0:0:0:
329,192,54235,1,0,0:0:0:0:
475,192,54360,1,0,0:0:0:0:
109,192,54860,1,0,0:0:0:0:
329,192,55235,1,0,0:0:0:0:
475,192,55360,1,0,0:0:0:0:
109,192,55610,1,0,0:0:0:0:
256,192,55735,1,0,0:0:0:0:
402,192,55860,1,0,0:0:0:0:
109,192,55985,1,0,0:0:0:0:
256,192,56110,1,0,0:0:0:0:
402,192,56235,1,0,0:0:0:0:
109,192,56360,1,0,0:0:0:0:
475,192,56610,1,0,0:0:0:0:
329,192,56735,1,0,0:0:0:0:
182,192,56860,1,0,0:0:0:0:
109,192,57235,1,0,0:0:0:0:
402,192,57360,1,0,0:0:0:0:
36,192,57610,1,0,0:0:0:0:
182,192,57735,1,0,0:0:0:0:
329,192,57860,1,0,0:0:0:0:
475,192,57985,1,0,0:0:0:0:
329,192,58110,1,0,0:0:0:0:
182,192,58235,1,0,0:0:0:0:
36,192,58360,1,0,0:0:0:0:
329,192,58860,1,0,0:0:0:0:
182,192,58860,1,0,0:0:0:0:
475,192,59235,1,0,0:0:0:0:
36,192,59360,1,0,0:0:0:0:
402,192,59610,1,0,0:0:0:0:
109,192,59735,1,0,0:0:0:0:
475,192,59860,1,0,0:0:0:0:
329,192,59985,1,0,0:0:0:0:
182,192,60110,1,0,0:0:0:0:
36,192,60235,1,0,0:0:0:0:
256,192,60360,1,0,0:0:0:0:
36,192,60860,1,0,0:0:0:0:
182,192,61235,1,0,0:0:0:0:
329,192,61360,1,0,0:0:0:0:
36,192,61610,1,0,0:0:0:0:
182,192,61735,1,0,0:0:0:0:
475,192,61860,1,0,0:0:0:0:
329,192,61985,1,0,0:0:0:0:
182,192,62110,1,0,0:0:0:0:
36,192,62235,1,0,0:0:0:0:
475,192,62360,1,0,0:0:0:0:
109,192,62860,1,0,0:0:0:0:
329,192,63235,1,0,0:0:0:0:
36,192,63360,1,0,0:0:0:0:
475,192,63610,1,0,0:0:0:0:
329,192,63735,1,0,0:0:0:0:
36,192,63860,1,0,0:0:0:0:
182,192,63985,1,0,0:0:0:0:
475,192,64110,1,0,0:0:0:0:
329,192,64235,1,0,0:0:0:0:
36,192,64360,1,0,0:0:0:0:
256,192,64610,1,0,0:0:0:0:
475,192,64860,1,0,0:0:0:0:
109,192,65110,1,0,0:0:0:0:
402,192,65235,1,0,0:0:0:0:
182,192,65610,1,0,0:0:0:0:
329,192,65860,1,0,0:0:0:0:
256,192,66118,1,0,0:0:0:0:
182,192,66377,1,0,0:0:0:0:
36,192,66881,1,0,0:0:0:0:
475,192,66881,1,0,0:0:0:0:
36,192,67381,1,0,0:0:0:0:
475,192,67381,1,0,0:0:0:0:
36,192,67881,1,0,0:0:0:0:
475,192,67881,1,0,0:0:0:0:
36,192,68381,1,0,0:0:0:0:
475,192,68381,1,0,0:0:0:0:
36,192,68881,1,0,0:0:0:0:
475,192,68881,1,0,0:0:0:0:
475,192,69381,1,0,0:0:0:0:
36,192,69381,1,0,0:0:0:0:
36,192,69881,1,0,0:0:0:0:
402,192,69881,1,0,0:0:0:0:
36,192,70381,1,0,0:0:0:0:
329,192,70381,1,0,0:0:0:0:
109,192,70881,1,0,0:0:0:0:
329,192,70881,1,0,0:0:0:0:
182,192,71381,1,0,0:0:0:0:
329,192,71381,1,0,0:0:0:0:
182,192,71881,1,0,0:0:0:0:
402,192,71881,1,0,0:0:0:0:
475,192,72381,1,0,0:0:0:0:
182,192,72381,1,0,0:0:0:0:
182,192,72881,1,0,0:0:0:0:
475,192,72881,1,0,0:0:0:0:
109,192,73372,1,0,0:0:0:0:
475,192,73372,1,0,0:0:0:0:
36,192,73864,1,0,0:0:0:0:
475,192,73864,1,0,0:0:0:0:
36,192,74359,1,0,0:0:0:0:
475,192,74359,1,0,0:0:0:0:
402,192,74855,1,0,0:0:0:0:
182,192,75107,1,0,0:0:0:0:
402,192,75359,1,0,0:0:0:0:
182,192,75613,1,0,0:0:0:0:
402,192,75867,1,0,0:0:0:0:
182,192,76117,1,0,0:0:0:0:
402,192,76367,1,0,0:0:0:0:
182,192,76617,1,0,0:0:0:0:
402,192,76866,1,0,0:0:0:0:
182,192,77116,1,0,0:0:0:0:
402,192,77366,1,0,0:0:0:0:
182,192,77616,1,0,0:0:0:0:
402,192,77866,1,0,0:0:0:0:
182,192,78116,1,0,0:0:0:0:
402,192,78366,1,0,0:0:0:0:
182,192,78616,1,0,0:0:0:0:
475,192,78866,1,0,0:0:0:0:
329,192,79116,1,0,0:0:0:0:
36,192,79366,1,0,0:0:0:0:
182,192,79616,1,0,0:0:0:0:
475,192,79866,1,0,0:0:0:0:
329,192,80116,1,0,0:0:0:0:
36,192,80366,1,0,0:0:0:0:
182,192,80616,1,0,0:0:0:0:
475,192,80866,1,0,0:0:0:0:
329,192,81116,1,0,0:0:0:0:
475,192,81366,1,0,0:0:0:0:
36,192,81366,1,0,0:0:0:0:
402,192,81866,128,0,82366:0:0:0:0:
109,192,82366,1,0,0:0:0:0:
329,192,82866,1,0,0:0:0:0:
402,192,83116,1,0,0:0:0:0:
36,192,83366,1,0,0:0:0:0:
475,192,83366,1,0,0:0:0:0:
182,192,83366,1,0,0:0:0:0:
402,192,83616,1,0,0:0:0:0:
329,192,83866,1,0,0:0:0:0:
256,192,84116,1,0,0:0:0:0:
182,192,84366,1,0,0:0:0:0:
109,192,84616,1,0,0:0:0:0:
36,192,84866,1,0,0:0:0:0:
109,192,85116,1,0,0:0:0:0:
182,192,85366,1,0,0:0:0:0:
329,192,85366,1,0,0:0:0:0:
475,192,85366,1,0,0:0:0:0:
402,192,85616,1,0,0:0:0:0:
329,192,85866,1,0,0:0:0:0:
256,192,86116,1,0,0:0:0:0:
182,192,86366,1,0,0:0:0:0:
109,192,86616,1,0,0:0:0:0:
36,192,86866,1,0,0:0:0:0:
475,192,87116,1,0,0:0:0:0:
402,192,87366,1,0,0:0:0:0:
256,192,87366,1,0,0:0:0:0:
109,192,87366,1,0,0:0:0:0:
36,192,87616,1,0,0:0:0:0:
109,192,87866,1,0,0:0:0:0:
182,192,88116,1,0,0:0:0:0:
256,192,88366,1,0,0:0:0:0:
329,192,88616,1,0,0:0:0:0:
402,192,88866,1,0,0:0:0:0:
475,192,89116,1,0,0:0:0:0:
182,192,89366,1,0,0:0:0:0:
36,192,89366,1,0,0:0:0:0:
402,192,89366,1,0,0:0:0:0:
329,192,89616,1,0,0:0:0:0:
182,192,89866,1,0,0:0:0:0:
109,192,90116,1,0,0:0:0:0:
36,192,90366,1,0,0:0:0:0:
475,192,90616,1,0,0:0:0:0:
402,192,90741,1,0,0:0:0:0:
329,192,90866,1,0,0:0:0:0:
109,192,91116,1,0,0:0:0:0:
329,192,91366,1,0,0:0:0:0:
475,192,91366,1,0,0:0:0:0:
109,192,91616,1,0,0:0:0:0:
256,192,91866,1,0,0:0:0:0:
36,192,92116,1,0,0:0:0:0:
256,192,92366,1,0,0:0:0:0:
402,192,92366,1,0,0:0:0:0:
36,192,92616,1,0,0:0:0:0:
182,192,92866,1,0,0:0:0:0:
475,192,93116,1,0,0:0:0:0:
329,192,93366,1,0,0:0:0:0:
256,192,93491,1,0,0:0:0:0:
182,192,93616,1,0,0:0:0:0:
36,192,93866,128,0,94366:0:0:0:0:
256,192,94366,1,0,0:0:0:0:
475,192,94616,1,0,0:0:0:0:
36,192,94866,1,0,0:0:0:0:
402,192,95116,1,0,0:0:0:0:
182,192,95366,1,0,0:0:0:0:
36,192,95366,1,0,0:0:0:0:
402,192,95616,1,0,0:0:0:0:
109,192,95866,1,0,0:0:0:0:
475,192,96116,1,0,0:0:0:0:
109,192,96366,1,0,0:0:0:0:
256,192,96366,1,0,0:0:0:0:
475,192,96616,1,0,0:0:0:0:
36,192,96866,1,0,0:0:0:0:
182,192,97116,128,0,97241:0:0:0:0:
329,192,97366,128,0,97491:0:0:0:0:
182,192,97616,128,0,97741:0:0:0:0:
329,192,97866,128,0,97991:0:0:0:0:
182,192,98116,128,0,98241:0:0:0:0:
109,192,98366,128,0,98491:0:0:0:0:
36,192,98616,128,0,98741:0:0:0:0:
475,192,98866,1,0,0:0:0:0:
329,192,99116,1,0,0:0:0:0:
109,192,99366,1,0,0:0:0:0:
475,192,99366,1,0,0:0:0:0:
329,192,99616,1,0,0:0:0:0:
402,192,99866,1,0,0:0:0:0:
256,192,100116,1,0,0:0:0:0:
402,192,100366,1,0,0:0:0:0:
36,192,100366,1,0,0:0:0:0:
256,192,100616,1,0,0:0:0:0:
109,192,100866,1,0,0:0:0:0:
256,192,101116,1,0,0:0:0:0:
329,192,101366,1,0,0:0:0:0:
475,192,101366,1,0,0:0:0:0:
182,192,101616,1,0,0:0:0:0:
36,192,101866,1,0,0:0:0:0:
182,192,102116,1,0,0:0:0:0:
329,192,102366,1,0,0:0:0:0:
475,192,102366,1,0,0:0:0:0:
182,192,102616,1,0,0:0:0:0:
36,192,102866,1,0,0:0:0:0:
109,192,102991,1,0,0:0:0:0:
182,192,103116,1,0,0:0:0:0:
256,192,103241,1,0,0:0:0:0:
475,192,103366,1,0,0:0:0:0:
402,192,103491,1,0,0:0:0:0:
329,192,103616,1,0,0:0:0:0:
256,192,103741,1,0,0:0:0:0:
109,192,103866,1,0,0:0:0:0:
182,192,103991,1,0,0:0:0:0:
256,192,104116,1,0,0:0:0:0:
329,192,104241,1,0,0:0:0:0:
182,192,104366,1,0,0:0:0:0:
256,192,104491,1,0,0:0:0:0:
329,192,104616,1,0,0:0:0:0:
402,192,104741,1,0,0:0:0:0:
475,192,104866,1,0,0:0:0:0:
36,192,104866,1,0,0:0:0:0:
182,192,105241,1,0,0:0:0:0:
402,192,105366,1,0,0:0:0:0:
109,192,105616,1,0,0:0:0:0:
182,192,105741,1,0,0:0:0:0:
256,192,105866,1,0,0:0:0:0:
329,192,105991,1,0,0:0:0:0:
182,192,106116,1,0,0:0:0:0:
256,192,106241,1,0,0:0:0:0:
475,192,106366,1,0,0:0:0:0:
329,192,106366,1,0,0:0:0:0:
256,192,106616,1,0,0:0:0:0:
36,192,106866,1,0,0:0:0:0:
182,192,106866,1,0,0:0:0:0:
329,192,107241,1,0,0:0:0:0:
109,192,107366,1,0,0:0:0:0:
402,192,107616,1,0,0:0:0:0:
329,192,107741,1,0,0:0:0:0:
256,192,107866,1,0,0:0:0:0:
182,192,107991,1,0,0:0:0:0:
329,192,108116,1,0,0:0:0:0:
256,192,108241,1,0,0:0:0:0:
36,192,108366,1,0,0:0:0:0:
182,192,108366,1,0,0:0:0:0:
256,192,108616,1,0,0:0:0:0:
329,192,108866,1,0,0:0:0:0:
475,192,108866,1,0,0:0:0:0:
36,192,109116,1,0,0:0:0:0:
109,192,109241,1,0,0:0:0:0:
182,192,109366,1,0,0:0:0:0:
475,192,109616,1,0,0:0:0:0:
402,192,109741,1,0,0:0:0:0:
329,192,109866,1,0,0:0:0:0:
256,192,109991,1,0,0:0:0:0:
182,192,110116,1,0,0:0:0:0:
109,192,110241,1,0,0:0:0:0:
36,192,110366,1,0,0:0:0:0:
475,192,110366,1,0,0:0:0:0:
329,192,110616,1,0,0:0:0:0:
256,192,110741,1,0,0:0:0:0:
182,192,110866,1,0,0:0:0:0:
256,192,111116,1,0,0:0:0:0:
329,192,111241,1,0,0:0:0:0:
402,192,111366,1,0,0:0:0:0:
36,192,111616,1,0,0:0:0:0:
109,192,111741,1,0,0:0:0:0:
182,192,111866,1,0,0:0:0:0:
256,192,111991,1,0,0:0:0:0:
329,192,112116,1,0,0:0:0:0:
402,192,112241,1,0,0:0:0:0:
475,192,112366,1,0,0:0:0:0:
36,192,112366,1,0,0:0:0:0:
402,192,112616,1,0,0:0:0:0:
256,192,112741,1,0,0:0:0:0:
109,192,112866,1,0,0:0:0:0:
329,192,113241,1,0,0:0:0:0:
182,192,113366,1,0,0:0:0:0:
475,192,113616,1,0,0:0:0:0:
402,192,113741,1,0,0:0:0:0:
329,192,113866,1,0,0:0:0:0:
182,192,113991,1,0,0:0:0:0:
109,192,114116,1,0,0:0:0:0:
36,192,114241,1,0,0:0:0:0:
256,192,114366,1,0,0:0:0:0:
402,192,114366,1,0,0:0:0:0:
109,192,114616,1,0,0:0:0:0:
182,192,114741,1,0,0:0:0:0:
402,192,114866,1,0,0:0:0:0:
329,192,114991,1,0,0:0:0:0:
109,192,115241,1,0,0:0:0:0:
182,192,115366,1,0,0:0:0:0:
475,192,115616,1,0,0:0:0:0:
402,192,115741,1,0,0:0:0:0:
329,192,115866,1,0,0:0:0:0:
256,192,115991,1,0,0:0:0:0:
36,192,116116,1,0,0:0:0:0:
109,192,116241,1,0,0:0:0:0:
475,192,116366,1,0,0:0:0:0:
182,192,116366,1,0,0:0:0:0:
256,192,116616,1,0,0:0:0:0:
329,192,116866,1,0,0:0:0:0:
36,192,116866,128,0,118366:0:0:0:0:
475,192,117241,1,0,0:0:0:0:
329,192,117366,1,0,0:0:0:0:
475,192,117616,1,0,0:0:0:0:
402,192,117741,1,0,0:0:0:0:
329,192,117866,1,0,0:0:0:0:
256,192,117991,1,0,0:0:0:0:
475,192,118116,1,0,0:0:0:0:
402,192,118241,1,0,0:0:0:0:
329,192,118366,128,0,118616:0:0:0:0:
36,192,118616,128,0,119866:0:0:0:0:
182,192,118866,1,0,0:0:0:0:
329,192,119241,1,0,0:0:0:0:
475,192,119366,1,0,0:0:0:0:
182,192,119616,1,0,0:0:0:0:
256,192,119741,1,0,0:0:0:0:
329,192,119866,1,0,0:0:0:0:
182,192,119991,1,0,0:0:0:0:
256,192,120116,1,0,0:0:0:0:
329,192,120241,1,0,0:0:0:0:
402,192,120366,1,0,0:0:0:0:
109,192,120366,1,0,0:0:0:0:
475,192,120616,1,0,0:0:0:0:
329,192,120741,1,0,0:0:0:0:
182,192,120866,1,0,0:0:0:0:
36,192,120866,1,0,0:0:0:0:
475,192,121116,1,0,0:0:0:0:
402,192,121241,1,0,0:0:0:0:
329,192,121366,1,0,0:0:0:0:
182,192,121616,1,0,0:0:0:0:
109,192,121741,1,0,0:0:0:0:
402,192,121866,1,0,0:0:0:0:
329,192,121991,1,0,0:0:0:0:
182,192,122116,1,0,0:0:0:0:
109,192,122241,1,0,0:0:0:0:
402,192,122366,1,0,0:0:0:0:
475,192,122366,1,0,0:0:0:0:
36,192,122616,1,0,0:0:0:0:
109,192,122741,1,0,0:0:0:0:
182,192,122866,1,0,0:0:0:0:
329,192,123116,1,0,0:0:0:0:
402,192,123241,1,0,0:0:0:0:
475,192,123366,1,0,0:0:0:0:
109,192,123616,1,0,0:0:0:0:
182,192,123741,1,0,0:0:0:0:
329,192,123866,1,0,0:0:0:0:
402,192,123991,1,0,0:0:0:0:
109,192,124116,1,0,0:0:0:0:
182,192,124241,1,0,0:0:0:0:
402,192,124366,1,0,0:0:0:0:
329,192,124366,1,0,0:0:0:0:
256,192,124616,1,0,0:0:0:0:
182,192,124866,1,0,0:0:0:0:
36,192,124866,1,0,0:0:0:0:
402,192,125116,1,0,0:0:0:0:
256,192,125241,1,0,0:0:0:0:
109,192,125366,1,0,0:0:0:0:
475,192,125616,1,0,0:0:0:0:
329,192,125741,1,0,0:0:0:0:
36,192,125866,1,0,0:0:0:0:
182,192,125991,1,0,0:0:0:0:
475,192,126116,1,0,0:0:0:0:
329,192,126241,1,0,0:0:0:0:
182,192,126366,1,0,0:0:0:0:
36,192,126366,1,0,0:0:0:0:
109,192,126616,1,0,0:0:0:0:
256,192,126741,1,0,0:0:0:0:
402,192,126866,1,0,0:0:0:0:
36,192,127116,1,0,0:0:0:0:
182,192,127241,1,0,0:0:0:0:
329,192,127366,1,0,0:0:0:0:
475,192,127616,1,0,0:0:0:0:
109,192,127741,1,0,0:0:0:0:
256,192,127866,1,0,0:0:0:0:
402,192,127991,1,0,0:0:0:0:
182,192,128116,1,0,0:0:0:0:
329,192,128241,1,0,0:0:0:0:
475,192,128366,1,0,0:0:0:0:
36,192,128366,1,0,0:0:0:0:
109,192,128616,1,0,0:0:0:0:
402,192,128741,1,0,0:0:0:0:
109,192,128866,1,0,0:0:0:0:
475,192,129116,1,0,0:0:0:0:
402,192,129241,1,0,0:0:0:0:
329,192,129366,1,0,0:0:0:0:
109,192,129616,1,0,0:0:0:0:
182,192,129741,1,0,0:0:0:0:
256,192,129866,1,0,0:0:0:0:
329,192,129991,1,0,0:0:0:0:
256,192,130116,1,0,0:0:0:0:
182,192,130241,1,0,0:0:0:0:
109,192,130366,1,0,0:0:0:0:
402,192,130366,1,0,0:0:0:0:
182,192,130616,1,0,0:0:0:0:
109,192,130741,1,0,0:0:0:0:
36,192,130866,1,0,0:0:0:0:
329,192,131116,1,0,0:0:0:0:
402,192,131241,1,0,0:0:0:0:
475,192,131366,1,0,0:0:0:0:
402,192,131616,1,0,0:0:0:0:
329,192,131741,1,0,0:0:0:0:
256,192,131866,1,0,0:0:0:0:
182,192,131991,1,0,0:0:0:0:
256,192,132116,1,0,0:0:0:0:
329,192,132241,1,0,0:0:0:0:
109,192,132366,1,0,0:0:0:0:
402,192,132366,1,0,0:0:0:0:
182,192,132616,1,0,0:0:0:0:
36,192,132866,1,0,0:0:0:0:
475,192,132866,128,0,134366:0:0:0:0:
109,192,132991,1,0,0:0:0:0:
182,192,133241,1,0,0:0:0:0:
256,192,133366,1,0,0:0:0:0:
36,192,133616,1,0,0:0:0:0:
109,192,133741,1,0,0:0:0:0:
182,192,133866,1,0,0:0:0:0:
256,192,133991,1,0,0:0:0:0:
182,192,134116,1,0,0:0:0:0:
109,192,134241,1,0,0:0:0:0:
36,192,134366,128,0,134616:0:0:0:0:
475,192,134616,128,0,135616:0:0:0:0:
182,192,134866,1,0,0:0:0:0:
329,192,134991,1,0,0:0:0:0:
36,192,135241,1,0,0:0:0:0:
182,192,135366,1,0,0:0:0:0:
329,192,135616,1,0,0:0:0:0:
182,192,135741,1,0,0:0:0:0:
402,192,135866,1,0,0:0:0:0:
109,192,135991,1,0,0:0:0:0:
475,192,136116,1,0,0:0:0:0:
36,192,136241,1,0,0:0:0:0:
182,192,136366,1,0,0:0:0:0:
329,192,136366,1,0,0:0:0:0:
256,192,136616,1,0,0:0:0:0:
109,192,136866,1,0,0:0:0:0:
402,192,136866,1,0,0:0:0:0:
256,192,137116,1,0,0:0:0:0:
36,192,137241,1,0,0:0:0:0:
475,192,137241,1,0,0:0:0:0:
475,192,137616,1,0,0:0:0:0:
329,192,137866,1,0,0:0:0:0:
182,192,137866,1,0,0:0:0:0:
36,192,138116,1,0,0:0:0:0:
182,192,138366,128,0,138866:0:0:0:0:
329,192,138366,128,0,138866:0:0:0:0:
36,192,138866,1,0,0:0:0:0:
475,192,138866,1,0,0:0:0:0:
