osu file format v14

[General]
AudioFilename: audio.mp3
AudioLeadIn: 0
PreviewTime: 56426
Countdown: 0
SampleSet: Soft
StackLeniency: 0.7
Mode: 0
LetterboxInBreaks: 0
WidescreenStoryboard: 0

[Editor]
DistanceSpacing: 1.3
BeatDivisor: 4
GridSize: 4
TimelineZoom: 1

[Metadata]
Title:Egao de Hadapure! (TV Size)
TitleUnicode:笑顔deハダピュア! (TV Size)
Artist:Adagaki Aki (CV: Ohashi Ayaka) & Fujinomiya Neko (CV: Minori Suzuko)
ArtistUnicode:安達垣愛姫 (CV: 大橋彩香) & 藤ノ宮寧子 (CV: 三森すずこ)
Creator:Kyutei
Version:Extra
Source:政宗くんのリベンジ
Tags:Anya Melfissa Anya_Melfissa Xahlt Synaelle Pile Tucho Alexsander Ayaka Ohashi 藤ノ宮寧子 三森すずこ Suzuko Mimori 安達垣愛姫 大橋彩香 Hadapyua Masamune kun no Revenge Aki Neko Version j-pop jpop japanese anime pop
BeatmapID:2912432
BeatmapSetID:1412928

[Difficulty]
HPDrainRate:5.8
CircleSize:3.7
OverallDifficulty:9
ApproachRate:9.3
SliderMultiplier:1.84
SliderTickRate:1

[Events]
//Background and Video events
0,0,"Akicute.png",0,0
//Break Periods
//Storyboard Layer 0 (Background)
//Storyboard Layer 1 (Fail)
//Storyboard Layer 2 (Pass)
//Storyboard Layer 3 (Foreground)
//Storyboard Layer 4 (Overlay)
//Storyboard Sound Samples

[TimingPoints]
1224,326.086956521739,4,2,1,55,1,0
1224,-100,4,2,1,55,0,0
1714,326.086956521739,4,2,1,55,1,0
1714,-161.290322580645,4,2,1,55,0,0
2203,-108.695652173913,4,2,1,55,0,0
3018,-161.290322580645,4,2,1,55,0,0
3833,-138.888888888889,4,2,1,55,0,0
4317,333.333333333333,4,2,1,55,1,0
4317,-81.967213114754,4,2,1,55,0,0
4983,-121.951219512195,4,2,1,55,0,0
5650,-81.9672131147541,4,2,1,65,0,0
5900,-100,4,2,1,5,0,0
5983,-81.9672131147541,4,2,1,65,0,0
7066,-100,4,2,1,5,0,0
7141,329.67032967033,4,2,1,65,1,0
7470,-98.0392156862745,4,2,1,75,0,0
9448,-121.951219512195,4,2,1,75,0,0
9778,-98.0392156862745,4,2,1,75,0,0
11426,-121.951219512195,4,2,1,75,0,0
12250,-98.0392156862745,4,2,1,75,0,0
15217,-75.7575757575758,4,2,1,75,0,0
15547,-70.4225352112676,4,2,1,75,0,0
15877,-61.7283950617284,4,2,1,75,0,0
16371,-74.0740740740741,4,2,1,75,0,0
17690,-121.951219512195,4,2,1,60,0,0
17937,-100,4,2,1,5,0,0
18020,-98.0392156862745,4,2,1,60,0,0
18679,-121.951219512195,4,2,1,60,0,0
19009,-98.0392156862744,4,2,1,60,0,0
19503,-121.951219512195,4,2,1,60,0,0
20327,-98.0392156862744,4,2,1,60,0,0
21316,-121.951219512195,4,2,1,60,0,0
21646,-98.0392156862744,4,2,1,60,0,0
22141,-121.951219512195,4,2,1,60,0,0
22965,-121.951219512195,4,2,1,60,0,0
23212,-100,4,2,1,5,0,0
23294,-98.0392156862745,4,2,1,60,0,0
23954,-121.951219512195,4,2,1,60,0,0
24283,-98.0392156862744,4,2,1,60,0,0
24943,-121.951219512195,4,2,1,60,0,0
26756,-81.967213114754,4,2,1,60,0,0
26921,-98.0392156862745,4,2,1,60,0,0
28075,-138.888888888889,4,2,1,65,0,0
28569,-98.0392156862744,4,2,1,65,0,0
29228,-121.951219512195,4,2,1,65,0,0
29558,-98.0392156862744,4,2,1,65,0,0
30053,-121.951219512195,4,2,1,65,0,0
30877,-98.0392156862744,4,2,1,65,0,0
31866,-121.951219512195,4,2,1,65,0,0
32195,-108.695652173913,4,2,1,65,0,0
33514,-98.0392156862745,4,2,1,65,0,0
34173,-121.951219512195,4,2,1,65,0,0
35987,-81.9672131147541,4,2,1,65,0,0
37305,-108.695652173913,4,2,1,65,0,0
38130,-81.9672131147541,4,2,1,65,0,0
38377,-100,4,2,1,5,0,0
38459,-81.9672131147541,4,2,1,65,0,0
38789,-98.0392156862744,4,2,1,60,0,0
40108,-121.951219512195,4,2,1,60,0,0
42745,-98.0392156862744,4,2,1,60,0,0
42992,-100,4,2,1,5,0,0
43075,-81.9672131147541,4,2,1,60,0,0
43322,-100,4,2,1,5,0,0
43404,-70.4225352112676,4,2,1,60,0,0
43651,-100,4,2,1,5,0,0
43734,-61.7283950617284,4,2,1,60,0,0
43981,-100,4,2,1,5,0,0
44064,-81.9672131147541,4,2,1,60,0,0
44723,-121.951219512195,4,2,1,60,0,0
45217,-98.0392156862745,4,2,1,60,0,0
46042,-121.951219512195,4,2,1,60,0,0
46701,-98.0392156862745,4,2,1,65,0,0
48349,-121.951219512195,4,2,1,65,0,0
50657,-98.0392156862744,4,2,1,65,0,0
51646,-121.951219512195,4,2,1,70,0,0
55767,-70.4225352112676,4,2,1,70,0,0
56014,-100,4,2,1,5,0,0
56097,-81.967213114754,4,2,1,70,0,0
57086,-81.9672131147541,4,2,1,80,0,1
57580,-98.0392156862745,4,2,1,80,0,1
58405,-81.9672131147541,4,2,1,80,0,1
58899,-98.0392156862745,4,2,1,80,0,1
59723,-81.9672131147541,4,2,1,80,0,1
60218,-98.0392156862745,4,2,1,80,0,1
61042,-81.9672131147541,4,2,1,80,0,1
61536,-98.0392156862745,4,2,1,80,0,1
64998,-81.9672131147541,4,2,1,80,0,1
66317,-81.9672131147541,4,2,1,80,0,1
66811,-81.9672131147541,4,2,1,80,0,1
67635,-70.4225352112676,4,2,1,80,0,1
67883,-100,4,2,1,5,0,1
67965,-70.4225352112676,4,2,1,80,0,1
69202,-100,4,2,1,5,0,1
69284,-70.4225352112676,4,2,1,80,0,1
70520,-100,4,2,1,5,0,1
70603,-70.4225352112676,4,2,1,80,0,1
71262,-81.9672131147541,4,2,1,80,0,1
72086,-121.951219512195,4,2,1,80,0,1
73075,-98.0392156862745,4,2,1,80,0,1
73734,-121.951219512195,4,2,1,80,0,1
74394,-98.0392156862745,4,2,1,80,0,1
74640,-100,4,2,1,5,0,1
74723,-98.0392156862745,4,2,1,80,0,1
74888,-121.951219512195,4,2,1,80,0,1
75712,-121.951219512195,4,2,1,70,0,0
76866,-98.0392156862744,4,2,1,70,0,0
77690,-121.951219512195,4,2,1,70,0,0
78349,-98.0392156862744,4,2,1,70,0,0
78596,-98.0392156862744,4,2,1,5,0,0
78679,-121.951219512195,4,2,1,70,0,1
79668,-121.951219512195,4,2,1,70,0,0
80575,-100,4,2,1,5,0,0
80657,-108.695652173913,4,2,1,70,0,0
81316,-98.0392156862744,4,2,1,70,0,0
82635,-121.951219512195,4,2,1,70,0,0
84118,-98.0392156862744,4,2,1,70,0,0
84366,-100,4,2,1,5,0,0
84448,-121.951219512195,4,2,1,70,0,0
84695,-100,4,2,1,5,0,0
84778,-70.4225352112676,4,2,1,70,0,0
85355,-100,4,2,1,70,0,0
86261,-100,4,2,1,65,0,0
86921,-100,4,2,1,60,0,0
87580,-100,4,2,1,55,0,0
88239,-100,4,2,1,45,0,0
88899,-100,4,2,1,35,0,0
89558,-100,4,2,1,20,0,0
90217,-100,4,2,1,5,0,0

[Colours]
Combo1 : 140,140,140
Combo2 : 114,114,184
Combo3 : 126,105,250
Combo4 : 255,102,179

[HitObjects]
167,357,1223,5,2,0:0:0:0:
45,275,1386,1,2,0:0:0:0:
153,164,1549,1,2,0:0:0:0:
206,223,1714,6,0,B|238:225|255:251|255:251|226:243|203:267,1,114.079995474121,2|2,0:0|0:0,0:0:0:0:
207,214,2203,2,0,B|256:193|288:225|265:248|306:278|371:257,1,169.279994317383,2|2,0:0|0:0,0:0:0:0:
500,45,2855,1,0,0:0:0:0:
439,93,3018,6,0,B|399:159|467:191|467:191,1,114.079995474121,2|2,0:0|0:0,0:0:0:0:
445,90,3507,1,2,0:0:0:0:
381,137,3670,1,0,0:0:0:0:
507,253,3833,2,0,B|430:281|496:301|403:335,1,132.480003234375,2|0,0:0|0:0,0:0:0:0:
260,201,4317,6,0,B|310:201|361:231|361:231|435:194|377:132,1,224.479990751709,2|2,0:0|0:0,0:0:0:0:
261,220,4816,1,2,0:0:0:0:
206,274,4983,2,0,P|215:317|232:357,1,75.4400011511231,2|2,0:0|0:0,0:0:0:0:
46,210,5316,2,0,P|37:253|20:291,1,75.4400011511231,2|0,0:0|0:0,0:0:0:0:
223,148,5650,6,0,P|145:129|138:47,1,168.359993063782,14|0,0:0|0:0,0:0:0:0:
206,17,5983,1,0,1:2:0:0:
135,44,6150,1,8,0:0:0:0:
235,230,6316,1,0,1:2:0:0:
136,300,6483,5,8,0:0:0:0:
173,293,6566,1,8,0:0:0:0:
207,311,6649,1,8,0:0:0:0:
232,340,6732,1,8,0:0:0:0:
268,355,6816,1,8,0:0:0:0:
307,354,6899,1,8,0:0:0:0:
342,338,6983,2,0,P|335:310|329:283,1,56.1199976879273,8|0,0:0|0:0,0:0:0:0:
378,147,7470,6,0,B|309:172|309:172|290:206|290:206|217:234,1,187.680001145508,6|0,1:2|1:2,0:0:0:0:
45,45,7965,1,0,1:2:0:0:
219,147,8130,1,8,0:0:0:0:
33,257,8294,6,0,P|50:162|66:66,1,187.680001145508,0|0,1:2|1:2,0:0:0:0:
252,219,8789,2,0,P|211:231|164:203,1,93.8400005727539,8|0,0:0|0:0,0:0:0:0:
332,37,9119,1,2,1:2:0:0:
263,69,9283,1,0,1:2:0:0:
405,231,9448,2,0,P|413:194|422:157,1,75.4400011511231,8|0,0:0|0:0,0:0:0:0:
296,301,9778,6,0,B|351:277|384:318|367:333|400:378|472:354,2,187.680001145508,6|8|0,1:2|0:0|1:2,0:0:0:0:
172,166,10602,1,0,1:2:0:0:
239,128,10767,1,8,0:0:0:0:
88,345,10932,6,0,B|156:233|41:179|41:179,1,187.680001145508,2|0,1:2|1:2,0:0:0:0:
192,12,11426,2,0,P|183:52|172:87,1,75.4400011511231,8|0,0:0|0:0,0:0:0:0:
350,268,11756,1,2,1:2:0:0:
172,166,11921,1,0,1:2:0:0:
351,61,12086,1,8,0:0:0:0:
384,61,12168,1,8,0:0:0:0:
406,90,12250,6,0,P|423:185|439:281,1,187.680001145508,6|0,1:2|1:2,0:0:0:0:
490,111,12745,2,0,B|500:86|530:83|530:83|511:97|512:120,1,93.8400005727539,8|0,0:0|0:0,0:0:0:0:
352,235,13075,1,0,1:2:0:0:
308,171,13239,1,2,1:2:0:0:
512,298,13404,1,10,0:0:0:0:
457,359,13569,6,0,B|374:282|266:337|266:337,1,187.680001145508,6|0,1:2|1:2,0:0:0:0:
212,288,14064,2,0,B|185:248|185:248|205:199,1,93.8400005727539,8|0,0:0|0:0,0:0:0:0:
273,238,14393,1,0,1:2:0:0:
89,71,14558,1,0,1:2:0:0:
160,37,14724,2,0,B|177:79|177:79|150:119,1,93.8400005727539,8|0,0:0|0:0,0:0:0:0:
39,247,15053,5,14,0:0:0:0:
67,259,15135,1,0,0:0:0:0:
76,255,15217,2,0,P|66:215|61:191,1,60.7199998146973,2|0,1:2|0:0,0:0:0:0:
232,143,15382,5,10,0:0:0:0:
252,131,15464,1,0,0:0:0:0:
260,139,15547,2,0,P|250:179|245:203,1,65.3199967108766,2|0,1:2|0:0,0:0:0:0:
334,159,15712,2,0,P|324:199|319:223,1,65.3199967108766,10|0,0:0|0:0,0:0:0:0:
438,350,15877,5,2,1:2:0:0:
446,345,15959,1,0,0:0:0:0:
438,339,16042,1,10,0:0:0:0:
315,59,16206,1,10,0:0:0:0:
279,292,16371,5,10,1:2:0:0:
389,218,16536,1,10,1:2:0:0:
499,144,16701,1,10,1:2:0:0:
352,382,16866,5,10,1:2:0:0:
409,203,17195,1,10,1:2:0:0:
467,25,17525,1,10,0:0:0:0:
387,60,17690,6,0,B|355:62|338:88|338:88|367:80|390:104,1,113.160001726685,4|0,1:2|0:0,0:0:0:0:
387,51,18020,2,0,B|326:29|296:93|296:93|317:137|287:171,1,187.680001145508,10|2,0:0|1:2,0:0:0:0:
172,286,18514,1,0,1:2:0:0:
108,245,18679,2,0,P|96:206|70:166,1,75.4400011511231,8|0,0:0|0:0,0:0:0:0:
283,329,19009,6,0,B|240:332|199:361|199:361|134:336|178:279,1,187.680001145508,2|10,1:2|0:0,0:0:0:0:
262,163,19503,2,0,P|253:206|241:239,1,75.4400011511231,2|0,0:0|1:2,0:0:0:0:
371,109,19833,1,2,1:2:0:0:
460,253,19998,2,0,P|469:296|481:329,1,75.4400011511231,8|2,0:0|0:0,0:0:0:0:
352,187,20327,6,0,B|408:212|449:170|429:153|470:107|524:125,2,187.680001145508,0|10|2,1:2|0:0|1:2,0:0:0:0:
236,58,21151,1,0,1:2:0:0:
291,108,21316,2,0,P|279:153|264:195,1,75.4400011511231,8|0,0:0|0:0,0:0:0:0:
72,299,21646,6,0,B|178:244|229:360|229:360,1,187.680001145508,2|10,1:2|0:0,0:0:0:0:
325,253,22141,2,0,P|315:295|302:328,1,75.4400011511231,2|0,0:0|1:2,0:0:0:0:
424,183,22470,1,2,1:2:0:0:
491,225,22635,2,0,P|501:267|514:300,1,75.4400011511231,8|0,0:0|0:0,0:0:0:0:
347,104,22965,6,0,B|315:106|298:132|298:132|327:124|350:148,1,113.160001726685,4|0,1:2|0:0,0:0:0:0:
347,95,23295,2,0,B|286:73|256:137|256:137|277:181|247:215,1,187.680001145508,10|2,0:0|1:2,0:0:0:0:
81,327,23789,1,0,1:2:0:0:
143,280,23954,2,0,P|178:301|209:330,1,75.4400011511231,8|0,0:0|0:0,0:0:0:0:
49,140,24283,6,0,P|131:131|155:41,1,187.680001145508,2|10,1:2|0:0,0:0:0:0:
270,182,24778,1,2,0:0:0:0:
303,110,24943,2,0,P|268:89|237:60,1,75.4400011511231,0|0,1:2|1:2,0:0:0:0:
389,256,25272,2,0,P|354:277|323:306,1,75.4400011511231,8|2,0:0|0:0,0:0:0:0:
490,89,25602,5,10,0:0:0:0:
437,340,25767,1,0,1:2:0:0:
303,110,25932,5,10,0:0:0:0:
512,283,26097,1,0,1:2:0:0:
250,361,26261,5,10,0:0:0:0:
446,183,26426,1,0,1:2:0:0:
191,84,26591,5,10,0:0:0:0:
177,102,26673,1,8,0:0:0:0:
189,107,26756,2,0,P|197:140|204:167,1,56.1199976879273,8|8,0:0|0:0,0:0:0:0:
109,269,26921,5,14,0:0:0:0:
239,15,27415,1,14,0:0:0:0:
366,125,27745,5,10,0:0:0:0:
298,161,27910,1,10,0:0:0:0:
416,42,28075,2,0,P|401:118|388:196,1,132.480003234375,6|0,1:2|0:0,0:0:0:0:
497,288,28569,6,0,B|442:264|409:305|426:320|393:365|324:335,1,187.680001145508,10|2,0:0|1:2,0:0:0:0:
247,217,29064,1,0,1:2:0:0:
298,161,29229,2,0,P|286:116|271:74,1,75.4400011511231,8|0,0:0|0:0,0:0:0:0:
133,56,29558,6,0,B|89:36|110:-5|150:-9|182:28|182:90|144:108,1,187.680001145508,2|10,1:2|0:0,0:0:0:0:
65,188,30053,2,0,P|103:198|149:232,1,75.4400011511231,2|0,0:0|1:2,0:0:0:0:
174,372,30382,1,2,1:2:0:0:
0,309,30547,2,0,P|30:289|68:277,1,75.4400011511231,8|2,0:0|0:0,0:0:0:0:
182,373,30877,6,0,P|204:236|213:179,2,187.680001145508,0|10|2,1:2|0:0|1:2,0:0:0:0:
294,255,31701,1,0,1:2:0:0:
339,322,31866,2,0,P|308:342|272:335,1,75.4400011511231,8|0,0:0|0:0,0:0:0:0:
353,190,32195,6,0,B|401:170|429:205|419:214|445:249|505:230,1,169.279994317383,2|10,1:2|0:0,0:0:0:0:
348,180,32690,1,2,0:0:0:0:
497,19,32855,5,0,1:2:0:0:
482,124,33020,1,2,1:2:0:0:
375,105,33185,1,8,0:0:0:0:
390,0,33349,1,0,0:0:0:0:
207,107,33514,6,0,B|243:84|294:85|294:85|333:27|264:5,1,187.680001145508,4|10,1:2|0:0,0:0:0:0:
204,117,34009,1,0,0:0:0:0:
148,172,34173,2,0,P|109:160|71:140,1,75.4400011511231,2|0,1:2|1:2,0:0:0:0:
215,332,34503,2,0,P|176:344|138:364,1,75.4400011511231,10|0,0:0|0:0,0:0:0:0:
268,175,34833,6,0,P|258:216|244:247,1,75.4400011511231,2|0,1:2|0:0,0:0:0:0:
424,106,35162,2,0,P|434:147|448:178,1,75.4400011511231,10|0,0:0|0:0,0:0:0:0:
502,63,35492,1,2,1:2:0:0:
348,160,35657,1,2,1:2:0:0:
510,246,35822,1,8,0:0:0:0:
376,21,35987,6,0,B|278:100|163:53|163:53,1,224.479990751709,6|0,1:2|1:2,0:0:0:0:
6,271,36481,1,10,0:0:0:0:
223,152,36646,1,0,1:2:0:0:
6,56,36811,1,10,0:0:0:0:
209,255,36976,1,0,1:2:0:0:
256,0,37141,1,8,0:0:0:0:
75,238,37305,6,0,B|176:275|89:301|212:346,1,169.279994317383,6|10,1:2|0:0,0:0:0:0:
382,162,37800,1,10,0:0:0:0:
209,255,37965,1,10,0:0:0:0:
384,344,38130,6,0,P|406:207|415:150,1,168.359993063782,10|0,1:2|0:0,0:0:0:0:
470,127,38459,1,10,1:2:0:0:
277,68,38789,6,0,B|293:-11|375:2|385:90|308:136|220:135|197:59,1,281.520001718262,6|0,1:2|1:2,0:0:0:0:
46,41,39448,5,2,1:2:0:0:
123,89,39613,1,2,0:0:0:0:
10,130,39778,5,10,0:0:0:0:
168,0,39943,1,2,0:0:0:0:
14,137,40108,6,0,P|33:250|53:367,1,226.320003453369,0|0,1:2|1:2,0:0:0:0:
160,173,40767,5,2,1:2:0:0:
141,268,40932,1,8,0:0:0:0:
158,189,41097,1,10,0:0:0:0:
229,350,41426,6,0,B|298:381|337:325|317:305|355:244|435:285,1,226.320003453369,6|0,1:2|1:2,0:0:0:0:
462,127,42086,5,10,0:0:0:0:
385,175,42251,1,10,0:3:0:0:
498,216,42416,5,4,0:3:0:0:
340,86,42581,1,6,0:3:0:0:
485,60,42745,6,0,B|426:118|340:75|340:75,1,140.760000859131,10|0,0:0|0:0,0:0:0:0:
410,282,43075,6,0,B|320:257|313:148|313:148,1,168.359993063782,10|0,0:0|0:0,0:0:0:0:
167,283,43404,6,0,B|140:181|242:113|242:113,1,195.95999013263,10|0,0:0|0:0,0:0:0:0:
45,53,43734,6,0,B|130:-31|255:31|255:31,1,223.560005458008,10|0,0:0|0:0,0:0:0:0:
380,217,44064,6,0,B|393:200|413:202|413:202|418:195|418:195|373:168|328:196|355:218|308:255|252:222,1,224.479990751709,0|2,1:2|0:0,0:0:0:0:
131,92,44558,1,0,1:2:0:0:
177,152,44723,2,0,P|168:191|154:224,1,75.4400011511231,10|2,2:2|0:0,0:0:0:0:
19,369,45053,1,2,0:0:0:0:
8,293,45217,6,0,B|109:262|178:356|178:356,2,187.680001145508,2|0|2,1:2|1:2|1:2,0:0:0:0:
171,158,46042,2,0,P|185:185|167:231,1,75.4400011511231,10|2,2:2|0:0,0:0:0:0:
36,135,46371,1,8,2:2:0:0:
176,6,46536,1,10,2:2:0:0:
108,41,46701,6,0,P|61:23|26:-3,1,93.8400005727539,0|0,1:2|0:0,0:0:0:0:
242,220,47031,2,0,P|195:238|159:264,1,93.8400005727539,10|2,2:2|0:0,0:0:0:0:
328,39,47360,1,2,1:2:0:0:
258,4,47525,1,2,0:0:0:0:
362,197,47690,1,8,2:2:0:0:
464,101,47855,6,0,P|447:196|431:297,1,187.680001145508,6|2,1:2|1:2,0:0:0:0:
309,139,48349,2,0,P|334:115|387:128,1,75.4400011511231,10|2,2:2|0:0,0:0:0:0:
511,326,48679,2,0,P|474:328|447:303,1,75.4400011511231,2|0,1:2|0:0,0:0:0:0:
511,229,49009,5,10,0:0:0:0:
314,375,49338,6,0,P|352:357|390:341,1,75.4400011511231,6|0,1:2|0:0,0:0:0:0:
217,257,49668,2,0,P|255:239|293:223,1,75.4400011511231,10|0,0:0|0:0,0:0:0:0:
85,299,49998,6,0,P|71:260|96:222,1,75.4400011511231,2|0,1:2|0:0,0:0:0:0:
230,96,50327,2,0,P|244:135|219:173,1,75.4400011511231,10|0,0:0|0:0,0:0:0:0:
30,66,50657,6,0,B|131:97|200:3|200:3,2,187.680001145508,6|10|2,1:2|0:0|1:2,0:0:0:0:
138,149,51481,1,2,0:0:0:0:
185,212,51646,2,0,P|173:256|157:284,1,75.4400011511231,8|2,0:0|0:0,0:0:0:0:
355,133,51976,2,0,P|367:177|384:206,1,75.4400011511231,4|0,1:2|0:0,0:0:0:0:
470,346,52305,5,8,2:2:0:0:
400,317,52470,1,2,0:0:0:0:
495,203,52635,5,10,0:0:0:0:
318,299,52800,1,0,1:2:0:0:
392,112,52965,5,8,0:0:0:0:
483,359,53130,1,0,1:2:0:0:
259,165,53294,5,4,1:2:0:0:
512,294,53459,1,0,1:0:0:0:
186,384,53624,5,8,0:0:0:0:
420,201,53789,1,0,1:0:0:0:
144,73,53954,5,8,0:0:0:0:
314,321,54119,1,0,1:2:0:0:
413,18,54283,5,8,0:0:0:0:
204,281,54448,1,0,1:2:0:0:
498,195,54613,6,0,P|508:164|516:137,1,37.7200005755615,6|0,1:2|0:0,0:0:0:0:
303,56,54778,2,0,P|313:87|321:114,1,37.7200005755615,8|8,0:0|0:0,0:0:0:0:
186,176,54943,5,10,1:2:0:0:
230,168,55025,1,8,0:0:0:0:
268,192,55107,1,8,0:0:0:0:
294,234,55190,1,8,0:0:0:0:
331,261,55272,1,10,1:2:0:0:
376,257,55355,1,8,0:0:0:0:
386,251,55437,1,10,0:0:0:0:
393,243,55520,1,8,0:0:0:0:
398,233,55602,2,0,P|405:204|412:189,1,37.7200005755615,2|0,1:2|0:0,0:0:0:0:
461,82,55767,6,0,B|343:116|268:11|268:11,1,195.95999013263,2|0,1:2|0:0,0:0:0:0:
285,14,56097,2,0,P|301:38|293:68,1,56.1199976879273,2|0,1:2|0:0,0:0:0:0:
224,79,56261,2,0,P|207:54|215:24,1,56.1199976879273,2|0,1:2|0:0,0:0:0:0:
39,242,57086,6,0,B|71:168|152:194|152:194|168:248|231:250,1,224.479990751709,6|2,1:2|0:0,0:0:0:0:
370,185,57581,2,0,P|359:134|351:93,1,93.8400005727539,10|0,0:0|0:0,0:0:0:0:
457,24,57910,1,2,1:2:0:0:
230,140,58075,1,8,0:0:0:0:
452,271,58240,1,8,0:0:0:0:
287,356,58405,6,0,B|379:259|505:317|505:317,1,224.479990751709,6|2,1:2|0:0,0:0:0:0:
230,140,58899,2,0,P|241:191|249:232,1,93.8400005727539,10|2,0:0|0:0,0:0:0:0:
144,298,59229,1,2,1:2:0:0:
367,184,59394,1,8,0:0:0:0:
148,55,59559,1,8,0:0:0:0:
325,333,59723,6,0,B|375:330|428:362|428:362|503:325|444:261,1,224.479990751709,6|2,1:2|0:0,0:0:0:0:
317,345,60218,1,10,0:0:0:0:
132,220,60383,1,2,0:0:0:0:
301,78,60547,1,2,1:2:0:0:
212,336,60712,2,0,P|163:319|115:305,1,93.8400005727539,2|8,0:0|0:0,0:0:0:0:
52,120,61042,6,0,B|39:103|19:105|19:105|14:98|14:98|59:71|104:99|77:121|124:158|180:125,1,224.479990751709,6|0,1:2|0:0,0:0:0:0:
301,78,61537,2,0,P|289:135|271:180,1,93.8400005727539,8|0,0:0|0:0,0:0:0:0:
456,66,61866,1,8,0:0:0:0:
387,24,62031,1,8,0:0:0:0:
473,195,62196,1,0,1:2:0:0:
479,201,62278,2,0,P|491:258|509:303,1,93.8400005727539,8|0,0:0|0:0,0:0:0:0:
430,312,62526,6,0,P|414:267|405:221,1,93.8400005727539,4|2,1:2|0:0,0:0:0:0:
297,145,62855,1,10,0:0:0:0:
507,249,63020,1,2,0:0:0:0:
278,372,63185,2,0,P|293:327|302:281,1,93.8400005727539,2|0,1:2|0:0,0:0:0:0:
64,160,63514,1,10,0:0:0:0:
229,188,63679,6,0,B|160:213|160:213|141:247|141:247|68:275,1,187.680001145508,6|2,1:2|0:0,0:0:0:0:
240,176,64174,1,10,0:0:0:0:
308,313,64339,2,0,P|273:343|228:337,1,93.8400005727539,2|0,0:0|1:2,0:0:0:0:
323,141,64668,2,0,P|368:134|402:165,1,93.8400005727539,2|10,0:0|0:0,0:0:0:0:
465,337,64998,6,0,P|477:284|500:229,1,112.239995375855,2|0,1:2|0:0,0:0:0:0:
284,73,65328,1,10,0:0:0:0:
398,259,65492,1,10,0:0:0:0:
237,365,65657,6,0,P|223:310|200:253,1,112.239995375855,2|0,1:2|0:0,0:0:0:0:
400,112,65987,1,10,0:0:0:0:
300,296,66151,1,10,0:0:0:0:
146,81,66317,6,0,B|274:119|354:5|354:5,1,224.479990751709,2|8,1:2|0:0,0:0:0:0:
130,80,66811,5,8,0:0:0:0:
267,168,66976,1,8,0:0:0:0:
26,291,67141,5,10,0:0:0:0:
190,135,67306,1,10,0:0:0:0:
302,330,67470,1,10,0:0:0:0:
310,353,67553,1,8,0:0:0:0:
308,362,67635,6,0,B|230:278|125:331|125:331,1,195.95999013263,14|0,0:0|0:0,0:0:0:0:
64,371,67965,1,2,1:2:0:0:
290,116,68130,5,10,0:0:0:0:
127,329,68295,1,0,1:2:0:0:
47,77,68460,5,10,0:0:0:0:
249,286,68624,1,0,1:2:0:0:
306,15,68789,1,8,0:0:0:0:
24,154,68954,6,0,B|155:193|42:226|181:262,1,195.95999013263,6|0,1:2|0:0,0:0:0:0:
234,207,69284,1,2,1:2:0:0:
415,356,69449,5,10,0:0:0:0:
257,129,69613,1,2,1:2:0:0:
161,383,69778,5,10,0:0:0:0:
413,238,69943,1,0,1:2:0:0:
147,120,70108,1,8,0:0:0:0:
378,347,70273,6,0,B|274:279|327:174|327:174,1,195.95999013263,6|0,1:2|0:0,0:0:0:0:
396,140,70602,5,2,1:2:0:0:
218,309,70767,1,10,0:0:0:0:
485,355,70932,5,2,1:2:0:0:
263,176,71097,1,10,0:0:0:0:
512,55,71262,6,0,P|499:118|485:183,1,112.239995375855,0|8,1:2|0:0,0:0:0:0:
255,38,71591,6,0,B|282:1|346:0|406:30|396:98|335:106|317:61,1,224.479990751709,6|10,1:2|0:0,0:0:0:0:
156,2,72086,2,0,P|144:43|127:76,1,75.4400011511231,10|8,0:0|0:0,0:0:0:0:
324,223,72416,2,0,P|306:190|296:154,1,75.4400011511231,10|8,0:0|0:0,0:0:0:0:
115,302,72745,1,8,0:0:0:0:
125,295,72827,1,8,0:0:0:0:
125,308,72910,1,8,0:0:0:0:
230,366,73075,6,0,B|308:282|413:335|413:335,1,187.680001145508,4|10,1:2|0:0,0:0:0:0:
451,196,73569,1,0,0:0:0:0:
501,253,73734,2,0,P|514:298|541:338,1,75.4400011511231,2|0,1:2|1:2,0:0:0:0:
338,147,74064,2,0,P|325:192|298:232,1,75.4400011511231,10|0,0:0|0:0,0:0:0:0:
510,103,74394,6,0,P|456:112|415:40,1,140.760000859131,6|0,1:2|0:0,0:0:0:0:
474,4,74723,1,10,0:0:0:0:
337,148,74888,2,0,P|301:137|270:116,1,75.4400011511231,10|0,0:0|0:0,0:0:0:0:
466,279,75218,2,0,P|429:290|398:311,1,75.4400011511231,10|0,0:3|0:0,0:0:0:0:
510,103,75547,1,2,0:0:0:0:
390,207,75712,5,4,1:2:0:0:
337,148,75877,2,0,P|347:105|361:70,1,75.4400011511231,2|2,0:0|0:0,0:0:0:0:
149,277,76207,1,0,1:2:0:0:
202,218,76372,2,0,P|192:175|173:139,1,75.4400011511231,10|2,0:0|0:0,0:0:0:0:
295,348,76701,1,2,0:0:0:0:
352,297,76866,6,0,B|406:322|437:278|421:262|451:214|515:238,1,187.680001145508,6|2,1:2|1:2,0:0:0:0:
415,70,77361,1,2,0:0:0:0:
485,40,77525,1,0,1:2:0:0:
302,184,77690,2,0,P|346:205|371:225,1,75.4400011511231,10|2,0:0|0:0,0:0:0:0:
237,54,78020,2,0,P|281:33|306:13,1,75.4400011511231,2|2,1:2|0:0,0:0:0:0:
147,214,78349,6,0,B|208:149|155:77|155:77,1,140.760000859131,4|0,1:2|0:0,0:0:0:0:
86,42,78679,5,8,0:0:0:0:
185,314,78844,1,10,0:0:0:0:
377,87,79009,1,10,0:0:0:0:
61,230,79174,5,8,0:0:0:0:
245,1,79339,1,8,0:0:0:0:
345,280,79503,1,8,0:0:0:0:
86,42,79668,5,4,1:2:0:0:
220,117,80327,6,0,B|252:119|269:145|269:145|240:137|217:161,1,114.079995474121,2|0,1:2|0:0,0:0:0:0:
221,108,80657,2,0,B|270:87|302:119|279:142|320:172|385:151,1,169.279994317383,2|2,1:2|0:0,0:0:0:0:
484,81,81316,6,0,P|462:179|444:265,1,187.680001145508,6|0,1:2|1:2,0:0:0:0:
370,155,81811,1,0,1:2:0:0:
512,321,81976,1,8,2:2:0:0:
453,374,82140,6,0,B|375:290|272:352|272:352,1,187.680001145508,2|0,1:2|1:2,0:0:0:0:
445,265,82635,2,0,P|461:233|444:193,1,75.4400011511231,8|0,2:2|0:0,0:0:0:0:
372,235,82965,1,2,1:2:0:0:
500,106,83129,1,0,1:2:0:0:
454,41,83294,2,0,P|402:21|374:4,1,75.4400011511231,8|0,2:2|0:0,0:0:0:0:
195,237,83624,5,6,1:2:0:0:
371,121,83789,1,2,1:2:0:0:
182,50,83954,1,2,1:2:0:0:
343,0,84118,6,0,B|281:66|195:20|195:20,1,140.760000859131,10|0,1:2|0:0,0:0:0:0:
221,210,84448,6,0,B|154:194|150:124|150:124,1,113.160001726685,10|0,1:2|0:0,0:0:0:0:
28,269,84778,6,0,P|55:143|82:13,1,261.279986843507,10|0,1:2|0:0,0:0:0:0:
139,257,85272,5,6,1:2:0:0:
256,192,85355,12,0,90217,0:0:0:0:
