osu file format v14

[General]
AudioFilename: audio.mp3
AudioLeadIn: 0
PreviewTime: 56426
Countdown: 0
SampleSet: Soft
StackLeniency: 0.7
Mode: 0
LetterboxInBreaks: 0
WidescreenStoryboard: 1

[Editor]
DistanceSpacing: 1.3
BeatDivisor: 4
GridSize: 4
TimelineZoom: 3.099999

[Metadata]
Title:Egao de Hadapure! (TV Size)
TitleUnicode:笑顔deハダピュア! (TV Size)
Artist:Adagaki Aki (CV: Ohashi Ayaka) & Fujinomiya Neko (CV: Minori Suzuko)
ArtistUnicode:安達垣愛姫 (CV: 大橋彩香) & 藤ノ宮寧子 (CV: 三森すずこ)
Creator:Kyutei
Version:Alex's Hard
Source:政宗くんのリベンジ
Tags:Anya Melfissa Anya_Melfissa Xahlt Synaelle Pile Tucho Alexsander Ayaka Ohashi 藤ノ宮寧子 三森すずこ Suzuko Mimori 安達垣愛姫 大橋彩香 Hadapyua Masamune kun no Revenge Aki Neko Version j-pop jpop japanese anime pop
BeatmapID:2917617
BeatmapSetID:1412928

[Difficulty]
HPDrainRate:5
CircleSize:3.7
OverallDifficulty:7
ApproachRate:8
SliderMultiplier:1.4
SliderTickRate:1

[Events]
//Background and Video events
0,0,"Akicute.png",0,0
//Break Periods
//Storyboard Layer 0 (Background)
//Storyboard Layer 1 (Fail)
//Storyboard Layer 2 (Pass)
//Storyboard Layer 3 (Foreground)
//Storyboard Layer 4 (Overlay)
//Storyboard Sound Samples

[TimingPoints]
1224,326.086956521739,4,2,1,55,1,0
1224,-100,4,2,1,55,0,0
1714,326.086956521739,4,2,1,55,1,0
1714,-142.857142857143,4,2,1,55,0,0
4317,333.333333333333,4,2,1,55,1,0
4317,-142.857142857143,4,2,1,55,0,0
5650,-100,4,2,1,65,0,0
7141,329.67032967033,4,2,1,65,1,0
7470,-100,4,2,1,75,0,0
17640,-100,4,2,1,60,0,0
28025,-100,4,2,1,65,0,0
38789,-125,4,2,1,60,0,0
42745,-100,4,2,1,60,0,0
44064,-125,4,2,1,60,0,0
46701,-100,4,2,1,65,0,0
51646,-100,4,2,1,70,0,0
57086,-100,4,2,1,80,0,1
73075,-100,4,2,1,80,0,1
75712,-125,4,2,1,70,0,0
78349,-100,4,2,1,70,0,0
85355,-100,4,2,1,70,0,0
86261,-100,4,2,1,65,0,0
86921,-100,4,2,1,60,0,0
87580,-100,4,2,1,55,0,0
88239,-100,4,2,1,45,0,0
88899,-100,4,2,1,35,0,0
89558,-100,4,2,1,20,0,0
90217,-100,4,2,1,5,0,0

[Colours]
Combo1 : 224,224,224
Combo2 : 179,179,217
Combo3 : 109,85,249
Combo4 : 255,179,217

[HitObjects]
458,30,1714,6,0,L|439:144,1,97.9999970092774,2|2,0:0|0:0,0:0:0:0:
404,193,2203,2,0,L|351:182,1,48.9999985046387,2|0,0:0|0:0,0:0:0:0:
283,212,2529,1,2,0:0:0:0:
283,212,3018,6,0,P|263:179|272:111,1,97.9999970092774,2|2,0:0|0:0,0:0:0:0:
289,47,3507,1,2,0:0:0:0:
212,24,3670,1,0,0:0:0:0:
191,100,3833,1,2,0:0:0:0:
191,100,4317,6,0,L|86:79,1,97.9999970092774,2|2,0:0|0:0,0:0:0:0:
32,127,4816,1,2,0:0:0:0:
32,127,4983,2,0,P|42:158|49:193,1,48.9999985046387,2|2,0:0|0:0,0:0:0:0:
46,250,5316,2,0,L|96:237,1,48.9999985046387,2|0,0:0|0:0,0:0:0:0:
181,215,5650,6,0,P|184:257|172:288,1,70,14|0,0:0|0:0,0:0:0:0:
140,351,5983,1,0,1:2:0:0:
237,338,6150,2,0,L|312:320,1,70,8|0,0:0|1:2,0:0:0:0:
381,277,6483,1,8,0:0:0:0:
391,264,6566,1,8,0:0:0:0:
399,252,6650,2,0,L|393:210,5,35,8|8|8|8|8|0,0:0|0:0|0:0|0:0|0:0|0:0,0:0:0:0:
394,217,7470,6,0,B|339:219|339:219|313:237|313:237|250:242,1,140,6|0,1:2|1:2,0:0:0:0:
189,299,7965,1,0,1:2:0:0:
120,238,8130,1,8,0:0:0:0:
60,332,8294,6,0,P|67:265|56:171,1,140,0|0,1:2|1:2,0:0:0:0:
124,126,8789,2,0,P|156:137|193:144,1,70,8|0,0:0|0:0,0:0:0:0:
91,51,9119,1,2,1:2:0:0:
20,109,9283,1,0,1:2:0:0:
60,192,9448,2,0,P|110:209|168:220,1,105,8|0,0:0|0:0,0:0:0:0:
205,223,9778,6,0,B|228:267|228:267|232:310|200:361,2,140,6|8|0,1:2|0:0|1:2,0:0:0:0:
162,141,10602,1,0,1:2:0:0:
228,76,10767,1,8,0:0:0:0:
330,105,10932,6,0,P|370:105|409:92,1,70,2|0,1:2|0:0,0:0:0:0:
463,31,11261,1,0,1:2:0:0:
507,126,11426,2,0,L|496:200,1,70,8|0,0:0|0:0,0:0:0:0:
443,266,11756,1,2,1:2:0:0:
340,240,11921,1,0,1:2:0:0:
246,311,12086,1,8,0:0:0:0:
246,311,12168,1,8,0:0:0:0:
246,311,12250,6,0,P|308:282|373:325,1,140,6|0,1:2|1:2,0:0:0:0:
443,266,12745,2,0,P|434:233|432:184,1,70,8|0,0:0|0:0,0:0:0:0:
482,119,13075,1,0,1:2:0:0:
392,128,13239,1,2,1:2:0:0:
312,59,13404,1,10,0:0:0:0:
236,97,13569,6,0,P|163:99|85:75,1,140,6|0,1:2|1:2,0:0:0:0:
10,101,14064,2,0,P|6:63|17:30,1,70,8|0,0:0|0:0,0:0:0:0:
73,168,14393,1,0,1:2:0:0:
6,231,14558,1,0,1:2:0:0:
96,302,14723,1,8,0:0:0:0:
96,302,15053,6,0,P|126:288|168:286,1,70,14|2,0:0|1:2,0:0:0:0:
246,320,15382,1,10,0:0:0:0:
323,270,15547,1,2,1:2:0:0:
404,341,15712,2,0,P|426:306|431:272,1,70,10|2,0:0|1:2,0:0:0:0:
393,180,16042,2,0,L|311:185,1,70,10|10,0:0|0:0,0:0:0:0:
290,171,16289,1,10,0:0:0:0:
290,171,16371,5,10,1:2:0:0:
217,246,16536,1,10,1:2:0:0:
139,177,16701,1,10,1:2:0:0:
79,281,16866,5,10,1:2:0:0:
290,171,17195,1,10,1:2:0:0:
73,73,17525,5,10,0:0:0:0:
155,36,17690,1,4,1:2:0:0:
155,36,18020,6,0,L|168:110,1,70,10|0,0:0|0:0,0:0:0:0:
126,184,18349,1,2,1:2:0:0:
126,184,18514,1,0,1:2:0:0:
49,125,18679,1,8,0:0:0:0:
49,125,19009,6,0,P|36:162|48:208,1,70,2|0,1:2|0:0,0:0:0:0:
94,266,19338,1,10,0:0:0:0:
94,266,19503,2,0,L|169:255,1,70,2|0,0:0|1:2,0:0:0:0:
238,202,19833,1,2,1:2:0:0:
314,276,19998,1,8,0:0:0:0:
386,234,20162,1,2,0:0:0:0:
430,337,20327,6,0,P|394:340|350:349,1,70,0|0,1:2|0:0,0:0:0:0:
272,370,20657,2,0,P|251:335|247:302,1,70,10|0,0:0|0:0,0:0:0:0:
249,219,20987,1,2,1:2:0:0:
249,219,21151,1,0,1:2:0:0:
170,285,21316,1,8,0:0:0:0:
170,285,21646,6,0,P|148:250|145:211,1,70,2|0,1:2|0:0,0:0:0:0:
246,306,21976,1,10,0:0:0:0:
177,368,22141,2,0,L|106:362,1,70,2|0,0:0|1:2,0:0:0:0:
35,305,22470,1,2,1:2:0:0:
72,208,22635,1,8,0:0:0:0:
9,159,22800,1,0,0:0:0:0:
91,93,22965,5,4,1:2:0:0:
91,93,23294,2,0,L|171:103,1,70,10|0,0:0|0:0,0:0:0:0:
245,63,23624,1,2,1:2:0:0:
245,63,23789,1,0,1:2:0:0:
308,151,23954,1,8,0:0:0:0:
308,151,24283,6,0,P|340:132|397:135,1,70,2|0,1:2|0:0,0:0:0:0:
464,154,24613,1,10,0:0:0:0:
464,154,24778,2,0,L|470:75,1,70,2|0,0:0|1:2,0:0:0:0:
414,7,25108,1,0,1:2:0:0:
322,57,25272,1,8,0:0:0:0:
252,21,25437,1,2,0:0:0:0:
190,112,25602,6,0,L|210:185,1,70,10|0,0:0|1:2,0:0:0:0:
205,272,25932,1,10,0:0:0:0:
116,249,26097,1,0,1:2:0:0:
69,342,26261,2,0,P|112:352|149:344,1,70,10|0,0:0|1:2,0:0:0:0:
234,359,26591,2,0,L|272:354,3,35,10|8|8|8,0:0|0:0|0:0|0:0,0:0:0:0:
317,355,26921,6,0,B|346:348|367:317|367:317|430:379|522:343,1,210,14|14,0:0|0:0,0:0:0:0:
500,127,27745,1,10,0:0:0:0:
423,176,27910,1,10,0:0:0:0:
510,242,28075,1,6,1:2:0:0:
510,242,28569,6,0,L|435:256,1,70,10|0,0:0|0:0,0:0:0:0:
355,248,28899,1,2,1:2:0:0:
355,248,29064,1,0,1:2:0:0:
409,329,29228,1,8,0:0:0:0:
409,329,29558,6,0,P|372:345|333:342,1,70,2|0,1:2|0:0,0:0:0:0:
260,307,29888,1,10,0:0:0:0:
212,230,30053,2,0,L|222:157,1,70,2|0,0:0|1:2,0:0:0:0:
177,94,30382,1,2,1:2:0:0:
94,158,30547,1,8,0:0:0:0:
35,102,30711,1,2,0:0:0:0:
14,205,30877,6,0,L|35:279,1,70,0|0,1:2|0:0,0:0:0:0:
40,360,31206,2,0,P|73:336|111:328,1,70,10|0,0:0|0:0,0:0:0:0:
178,384,31536,1,2,1:2:0:0:
178,384,31700,1,0,1:2:0:0:
236,305,31865,1,8,0:0:0:0:
236,305,32195,6,0,P|273:297|314:312,1,70,2|0,1:2|0:0,0:0:0:0:
365,366,32525,1,10,0:0:0:0:
407,272,32690,2,0,L|412:192,1,70,2|0,0:0|1:2,0:0:0:0:
343,132,33019,1,2,1:2:0:0:
246,169,33184,1,8,0:0:0:0:
197,106,33349,1,0,0:0:0:0:
148,201,33514,5,4,1:2:0:0:
148,201,33844,2,0,P|112:205|75:195,1,70,10|0,0:0|0:0,0:0:0:0:
5,145,34173,1,2,1:2:0:0:
70,83,34338,1,0,1:2:0:0:
2,10,34503,1,10,0:0:0:0:
2,10,34833,6,0,L|91:6,1,70,2|0,1:2|0:0,0:0:0:0:
139,79,35162,2,0,L|69:82,1,70,10|0,0:0|0:0,0:0:0:0:
186,10,35492,1,2,1:2:0:0:
251,72,35657,1,2,1:2:0:0:
328,18,35822,1,8,0:0:0:0:
445,43,35987,6,0,B|483:72|483:72|491:126|449:176,1,140,6|0,1:2|1:2,0:0:0:0:
366,204,36481,2,0,P|356:162|363:131,1,70,10|0,0:0|1:2,0:0:0:0:
448,247,36811,1,10,0:0:0:0:
375,301,36976,1,0,1:2:0:0:
285,253,37141,1,8,0:0:0:0:
221,354,37305,6,0,L|206:281,1,70,6|0,1:2|0:0,0:0:0:0:
122,205,37635,1,10,0:0:0:0:
196,157,37800,1,10,0:0:0:0:
79,116,37965,1,10,0:0:0:0:
157,69,38130,5,10,1:2:0:0:
45,236,38459,1,10,1:2:0:0:
56,44,38789,6,0,P|107:38|158:70,1,112,6|2,1:2|0:0,0:0:0:0:
213,140,39283,1,0,1:2:0:0:
213,140,39448,2,0,L|286:137,1,56,2|2,1:2|0:0,0:0:0:0:
327,78,39778,1,10,0:0:0:0:
500,189,40108,6,0,B|469:278|531:266|506:356,1,168,0|0,1:2|1:2,0:0:0:0:
428,318,40767,1,2,1:2:0:0:
365,381,40932,1,8,0:0:0:0:
294,327,41097,1,10,0:0:0:0:
356,122,41426,6,0,L|358:242,1,112,6|2,1:2|0:0,0:0:0:0:
280,189,41921,1,0,1:2:0:0:
280,189,42086,2,0,P|245:159|216:150,1,56,10|10,0:0|0:3,0:0:0:0:
162,210,42415,1,4,0:3:0:0:
144,126,42580,1,6,0:3:0:0:
67,200,42745,6,0,L|36:306,1,105,10|0,0:0|0:0,0:0:0:0:
32,343,43075,2,0,P|94:330|138:358,1,105,10|0,0:0|0:0,0:0:0:0:
166,371,43404,2,0,L|276:359,1,105,10|0,0:0|0:0,0:0:0:0:
314,369,43734,2,0,P|329:329|297:258,1,105,10|0,0:0|0:0,0:0:0:0:
271,263,44064,6,0,B|234:260|234:260|208:278|208:278|148:280,1,112,0|2,1:2|0:0,0:0:0:0:
111,213,44558,1,0,1:2:0:0:
111,213,44723,2,0,P|137:165|127:93,1,112,10|2,2:2|0:0,0:0:0:0:
46,88,45217,6,0,L|57:161,1,56,2|0,1:2|0:0,0:0:0:0:
0,226,45547,2,0,L|127:212,1,112,0|2,1:2|1:2,0:0:0:0:
192,254,46042,2,0,L|179:324,1,56,10|2,2:2|0:0,0:0:0:0:
268,225,46371,1,8,2:2:0:0:
342,267,46536,1,10,2:2:0:0:
439,219,46701,6,0,P|460:162|420:91,1,140,0|10,1:2|2:2,0:0:0:0:
337,77,47195,1,2,0:0:0:0:
312,166,47360,2,0,L|384:162,1,70,2|2,1:2|0:0,0:0:0:0:
260,102,47690,1,8,2:2:0:0:
188,188,47855,6,0,P|124:198|69:149,1,140,6|2,1:2|1:2,0:0:0:0:
12,223,48349,2,0,P|37:255|45:290,1,70,10|2,2:2|0:0,0:0:0:0:
92,360,48679,2,0,L|162:343,1,70,2|0,1:2|0:0,0:0:0:0:
232,288,49009,2,0,P|253:328|250:363,1,70,10|0,0:0|0:0,0:0:0:0:
153,250,49338,6,0,P|188:210|277:217,2,140,6|10|2,1:2|0:0|1:2,0:0:0:0:
232,288,50162,1,0,0:0:0:0:
336,267,50327,2,0,P|355:226|350:185,1,70,10|0,0:0|0:0,0:0:0:0:
264,142,50657,6,0,L|270:225,1,70,6|0,1:2|0:0,0:0:0:0:
178,121,50987,2,0,L|172:51,1,70,10|0,0:0|0:0,0:0:0:0:
243,4,51316,1,2,1:2:0:0:
323,36,51481,1,2,0:0:0:0:
414,15,51646,2,0,P|450:15|484:33,1,70,8|2,0:0|0:0,0:0:0:0:
512,134,51976,6,0,B|471:121|471:121|437:155|385:167,1,140,4|8,1:2|2:2,0:0:0:0:
301,135,52470,1,2,0:0:0:0:
326,238,52635,2,0,L|317:310,1,70,10|0,0:0|1:2,0:0:0:0:
249,371,52965,1,8,0:0:0:0:
173,320,53130,1,0,1:2:0:0:
67,375,53294,6,0,P|52:343|48:301,1,70,4|0,1:2|0:0,0:0:0:0:
115,231,53624,2,0,P|129:199|134:157,1,70,8|0,0:0|0:0,0:0:0:0:
64,94,53954,1,8,0:0:0:0:
134,25,54119,1,0,1:2:0:0:
203,94,54283,2,0,L|285:91,1,70,8|0,0:0|1:2,0:0:0:0:
367,17,54613,5,6,1:2:0:0:
446,63,54778,1,8,0:0:0:0:
460,82,54860,1,8,0:0:0:0:
473,101,54943,2,0,L|463:157,3,35,10|8|8|8,1:2|0:0|0:0|0:0,0:0:0:0:
443,169,55272,2,0,L|453:225,3,35,10|8|10|8,1:2|0:0|0:0|0:0,0:0:0:0:
433,252,55602,5,2,1:2:0:0:
339,189,55767,1,2,1:2:0:0:
235,364,56097,5,2,1:2:0:0:
329,301,56261,1,2,1:2:0:0:
10,79,57086,6,0,P|57:55|152:44,1,140,6|2,1:2|0:0,0:0:0:0:
233,75,57581,2,0,P|222:31|220:0,1,70,10|0,0:0|0:0,0:0:0:0:
311,104,57910,1,2,1:2:0:0:
242,166,58075,1,8,0:0:0:0:
139,121,58240,1,8,0:0:0:0:
63,157,58405,6,0,P|30:219|74:297,1,140,6|2,1:2|0:0,0:0:0:0:
127,336,58899,2,0,L|200:325,1,70,10|2,0:0|0:0,0:0:0:0:
276,279,59229,1,2,1:2:0:0:
349,333,59394,1,8,0:0:0:0:
438,266,59559,1,8,0:0:0:0:
506,317,59724,6,0,P|487:257|486:166,1,140,6|2,1:2|0:0,0:0:0:0:
467,91,60218,2,0,P|436:97|388:91,1,70,10|2,0:0|0:0,0:0:0:0:
328,37,60548,1,2,1:2:0:0:
291,120,60713,2,0,P|301:158|305:195,1,70,2|8,0:0|0:0,0:0:0:0:
387,274,61042,6,0,L|230:252,1,140,6|0,1:2|0:0,0:0:0:0:
159,186,61537,2,0,L|231:174,1,70,8|0,0:0|0:0,0:0:0:0:
133,264,61866,1,8,0:0:0:0:
40,228,62031,2,0,P|20:188|20:157,1,70,8|0,0:0|1:2,0:0:0:0:
37,123,62278,2,0,P|53:92|53:42,1,70,8|0,0:0|0:0,0:0:0:0:
66,15,62526,6,0,L|142:31,1,70,4|2,1:2|0:0,0:0:0:0:
215,72,62855,1,10,0:0:0:0:
137,118,63020,1,2,0:0:0:0:
215,164,63185,2,0,L|291:148,1,70,2|0,1:2|0:0,0:0:0:0:
346,82,63515,1,10,0:0:0:0:
424,167,63680,6,0,L|401:320,1,140,6|2,1:2|0:0,0:0:0:0:
493,375,64174,1,10,0:0:0:0:
493,375,64339,2,0,L|513:236,1,140,2|2,0:0|0:0,0:0:0:0:
511,144,64833,1,10,0:0:0:0:
403,94,64998,6,0,P|357:83|314:95,1,70,2|0,1:2|0:0,0:0:0:0:
264,145,65328,1,10,0:0:0:0:
264,145,65493,1,10,0:0:0:0:
154,100,65658,2,0,P|143:54|155:11,1,70,2|0,1:2|0:0,0:0:0:0:
190,180,65988,1,10,0:0:0:0:
190,180,66151,1,10,0:0:0:0:
74,152,66317,6,0,P|105:208|122:291,1,140,2|8,1:2|0:0,0:0:0:0:
94,370,66811,1,8,0:0:0:0:
14,313,66976,2,0,P|14:276|24:234,1,70,8|10,0:0|0:0,0:0:0:0:
74,152,67306,1,10,0:0:0:0:
1,65,67471,1,10,0:0:0:0:
2,43,67553,1,8,0:0:0:0:
11,21,67636,6,0,B|59:15|59:15|96:34|96:34|172:30,1,140,14|2,0:0|1:2,0:0:0:0:
221,105,68130,2,0,L|207:190,1,70,10|0,0:0|1:2,0:0:0:0:
250,275,68460,1,10,0:0:0:0:
154,229,68625,1,0,1:2:0:0:
54,292,68789,1,8,0:0:0:0:
88,370,68954,6,0,L|237:362,1,140,6|2,1:2|1:2,0:0:0:0:
322,314,69449,2,0,P|332:278|320:234,1,70,10|2,0:0|1:2,0:0:0:0:
230,204,69778,1,10,0:0:0:0:
318,148,69943,1,0,1:2:0:0:
203,94,70108,1,8,0:0:0:0:
271,44,70273,6,0,L|422:40,1,140,6|2,1:2|1:2,0:0:0:0:
501,99,70768,2,0,P|479:138|478:169,1,70,10|2,0:0|1:2,0:0:0:0:
491,265,71097,1,10,0:0:0:0:
394,226,71262,2,0,L|314:223,1,70,0|8,1:2|0:0,0:0:0:0:
243,318,71592,6,0,L|213:156,1,140,6|10,1:2|0:0,0:0:0:0:
163,89,72086,1,10,0:0:0:0:
108,179,72251,1,8,0:0:0:0:
13,107,72416,2,0,L|-1:179,1,70,10|8,0:0|0:0,0:0:0:0:
42,269,72746,2,0,L|59:318,2,35,8|8|8,0:0|0:0|0:0,0:0:0:0:
9,384,73075,6,0,P|65:334|145:352,1,140,4|10,1:2|0:0,0:0:0:0:
202,382,73569,1,0,0:0:0:0:
275,326,73734,2,0,P|282:283|266:243,1,70,2|0,1:2|1:2,0:0:0:0:
192,221,74064,2,0,P|185:264|201:304,1,70,10|0,0:0|0:0,0:0:0:0:
260,170,74393,6,0,P|204:136|136:157,1,140,6|10,1:2|0:0,0:0:0:0:
50,227,74888,2,0,L|27:145,1,70,10|0,0:0|0:0,0:0:0:0:
117,89,75217,2,0,L|135:156,1,70,10|0,0:3|0:0,0:0:0:0:
39,81,75547,1,2,0:0:0:0:
125,8,75712,6,0,P|176:30|197:87,1,112,4|2,1:2|0:0,0:0:0:0:
230,169,76206,1,0,1:2:0:0:
294,124,76371,2,0,L|419:122,1,112,10|2,0:0|0:0,0:0:0:0:
497,137,76866,6,0,P|481:166|474:210,1,56,6|0,1:2|0:0,0:0:0:0:
465,271,77195,2,0,L|393:250,1,56,2|2,1:2|0:0,0:0:0:0:
335,324,77525,1,0,1:2:0:0:
266,287,77690,2,0,P|243:235|265:172,1,112,10|2,0:0|1:2,0:0:0:0:
314,125,78184,1,2,0:0:0:0:
202,111,78349,6,0,L|50:104,1,140,4|8,1:2|0:0,0:0:0:0:
3,183,78844,1,10,0:0:0:0:
85,214,79009,2,0,P|105:257|104:286,1,70,10|8,0:0|0:0,0:0:0:0:
64,359,79338,1,8,0:0:0:0:
152,343,79503,1,8,0:0:0:0:
249,384,79668,1,4,1:2:0:0:
36,62,80327,6,0,L|47:150,1,70,2|0,1:2|0:0,0:0:0:0:
22,215,80657,1,2,1:2:0:0:
223,35,81316,6,0,P|284:20|344:73,1,140,6|0,1:2|1:2,0:0:0:0:
385,148,81811,1,0,1:2:0:0:
317,210,81976,1,8,2:2:0:0:
384,297,82140,6,0,P|325:259|245:288,1,140,2|0,1:2|1:2,0:0:0:0:
183,323,82635,2,0,P|170:275|175:239,1,70,8|0,2:2|0:0,0:0:0:0:
220,177,82965,1,2,1:2:0:0:
129,192,83129,1,0,1:2:0:0:
40,173,83294,2,0,P|24:131|28:97,1,70,8|0,2:2|0:0,0:0:0:0:
104,23,83624,5,6,1:2:0:0:
197,20,83789,1,2,1:2:0:0:
262,84,83954,1,2,1:2:0:0:
348,14,84118,5,10,1:2:0:0:
348,196,84448,1,10,1:2:0:0:
348,378,84778,1,10,1:2:0:0:
116,134,85272,1,6,1:2:0:0:
256,192,85355,12,0,90217,0:0:0:0:
