osu file format v14

[General]
AudioFilename: audio.mp3
AudioLeadIn: 0
PreviewTime: 67362
Countdown: 0
SampleSet: Soft
StackLeniency: 0.7
Mode: 0
LetterboxInBreaks: 0
WidescreenStoryboard: 1

[Editor]
DistanceSpacing: 0.5
BeatDivisor: 4
GridSize: 32
TimelineZoom: 1.6

[Metadata]
Title:Merry-Go-Round (TV Size)
TitleUnicode:メリーゴーランド (TV Size)
Artist:Adachi and Shimamura (CV: Kito Akari and Ito Miku)
ArtistUnicode:安達としまむら(CV: 鬼頭明里と伊藤美来)
Creator:Lancien
Version:Insane
Source:安達としまむら
Tags:kitou akari itou miku adachi to shimamura adashima anime japanese jpop j-pop pop short cut ver version vararaup jeby
BeatmapID:3313635
BeatmapSetID:1622915

[Difficulty]
HPDrainRate:5.5
CircleSize:4
OverallDifficulty:7.5
ApproachRate:8.4
SliderMultiplier:1.7
SliderTickRate:1

[Events]
//Background and Video events
0,0,"bg.png",0,0
//Break Periods
//Storyboard Layer 0 (Background)
//Storyboard Layer 1 (Fail)
//Storyboard Layer 2 (Pass)
//Storyboard Layer 3 (Foreground)
//Storyboard Layer 4 (Overlay)
//Storyboard Sound Samples

[TimingPoints]
612,500,4,2,22,50,1,0
612,-200,4,2,22,20,0,0
1612,-200,4,2,22,30,0,0
2112,-200,4,2,22,40,0,0
2612,-200,4,2,22,50,0,0
4612,-133.333333333333,4,2,22,50,0,0
12612,-100,4,2,22,60,0,0
16612,-100,4,2,22,30,0,0
17612,-100,4,2,22,40,0,0
18112,-100,4,2,22,50,0,0
20612,-76.9230769230769,4,2,22,60,0,0
26362,-133.333333333333,4,2,22,60,0,0
28612,-100,4,2,22,50,0,0
52612,-133.333333333333,4,2,22,50,0,0
60612,-100,4,2,22,50,0,0
67612,-100,4,2,22,35,0,0
68112,-100,4,2,22,50,0,0
68612,-66.6666666666667,4,2,22,70,0,0
99612,-66.6666666666667,4,2,22,50,0,0
100112,-66.6666666666667,4,2,22,60,0,0
114862,-66.6666666666667,4,2,22,50,0,0
115862,-66.6666666666667,4,2,22,40,0,0
116612,-66.6666666666667,4,2,22,30,0,0
120612,-66.6666666666667,4,2,22,20,0,0
122612,-66.6666666666667,4,2,22,10,0,0

[Colours]
Combo1 : 154,118,169
Combo2 : 203,197,124

[HitObjects]
183,51,612,6,0,L|168:103,3,42.5,2|2|2|2,0:0|0:0|0:0|0:0,0:0:0:0:
99,151,1612,2,0,L|107:193,1,42.5,2|0,0:0|0:0,0:0:0:0:
228,240,2112,2,0,L|216:280,1,42.5,2|0,0:0|0:0,0:0:0:0:
93,331,2612,1,2,0:0:0:0:
93,331,2862,1,0,0:0:0:0:
191,170,3112,1,2,0:0:0:0:
191,170,3362,1,2,0:0:0:0:
120,246,3612,5,2,0:0:0:0:
294,177,3862,1,2,0:0:0:0:
200,319,4112,1,2,0:0:0:0:
111,138,4362,1,2,0:0:0:0:
271,269,4612,6,0,L|345:256,1,63.7500024318696,2|0,0:0|0:0,0:0:0:0:
483,337,5112,2,0,L|409:324,1,63.7500024318696,2|2,0:0|0:0,0:0:0:0:
355,172,5612,1,2,0:0:0:0:
422,229,5862,1,2,0:0:0:0:
449,66,6112,2,0,L|458:3,1,63.7500024318696,2|0,0:0|0:0,0:0:0:0:
435,145,6612,5,2,0:0:0:0:
301,72,6862,1,2,0:0:0:0:
441,2,7112,1,2,0:0:0:0:
342,171,7362,1,2,0:0:0:0:
194,32,7612,2,0,L|217:108,1,63.7500024318696,2|0,0:0|0:0,0:0:0:0:
130,215,8112,2,0,L|154:135,1,63.7500024318696,2|0,0:0|0:0,0:0:0:0:
11,10,8612,6,0,L|37:148,1,127.500004863739,2|0,0:0|0:0,0:0:0:0:
131,224,9362,1,2,0:0:0:0:
220,98,9612,2,0,L|145:81,1,63.7500024318696,2|0,0:0|0:0,0:0:0:0:
37,245,10112,1,2,0:0:0:0:
112,143,10362,1,2,0:0:0:0:
153,303,10612,5,2,0:0:0:0:
115,228,10862,1,0,0:0:0:0:
259,177,11112,2,0,L|244:239,1,63.7500024318696,2|0,0:0|0:0,0:0:0:0:
158,298,11612,2,0,L|170:368,1,63.7500024318696,2|2,0:0|0:3,0:0:0:0:
183,370,11987,1,2,0:3:0:0:
183,370,12112,2,0,P|217:342|279:338,1,95.6250036478044,2|0,0:3|0:0,0:0:0:0:
327,279,12612,6,0,B|435:351|435:351|500:232,1,255,14|0,0:1|0:0,0:0:0:0:
304,169,13612,6,0,B|364:59|364:59|472:131,1,255,14|0,0:1|0:0,0:0:0:0:
395,187,14612,6,0,B|303:169|352:121|227:97,1,170,14|0,0:1|0:0,0:0:0:0:
142,16,15362,6,0,L|156:73,1,42.5,8|8,0:3|0:3,0:0:0:0:
191,182,15612,1,8,0:1:0:0:
65,71,15862,2,0,L|53:125,1,42.5,8|8,0:3|0:3,0:0:0:0:
38,217,16112,2,0,P|108:243|136:348,1,170,8|8,0:1|0:1,0:0:0:0:
65,367,16862,5,10,0:0:0:0:
197,210,17112,1,10,0:0:0:0:
48,116,17362,1,10,0:0:0:0:
146,333,17612,1,10,0:0:0:0:
318,160,17862,1,10,0:0:0:0:
99,200,18112,1,10,0:0:0:0:
72,205,18237,1,8,0:0:0:0:
50,209,18362,1,10,0:1:0:0:
255,285,18612,5,8,0:1:0:0:
255,285,19112,2,0,P|326:293|365:399,1,170,12|0,0:1|0:0,0:0:0:0:
496,114,19862,6,0,L|507:154,1,42.5,8|8,0:1|0:1,0:0:0:0:
501,166,20112,2,0,P|440:180|380:206,1,127.5,12|0,0:0|0:0,0:0:0:0:
301,151,20612,6,0,P|304:86|351:55,1,110.499994941712,14|0,0:1|0:0,0:0:0:0:
425,313,21112,2,0,P|337:288|246:275,1,165.749992412568,10|0,0:0|0:0,0:0:0:0:
201,205,21612,1,10,0:0:0:0:
168,356,21862,1,8,0:1:0:0:
22,176,22112,2,0,P|94:186|141:112,1,165.749992412568,10|0,0:0|0:0,0:0:0:0:
94,32,22612,6,0,P|119:88|133:135,1,110.499994941712,8|0,0:0|0:0,0:0:0:0:
15,261,23112,1,10,0:0:0:0:
205,76,23362,1,0,0:0:0:0:
145,235,23612,2,8,P|198:250|252:260,1,110.499994941712,10|8,0:0|0:1,0:0:0:0:
473,83,24112,2,0,P|419:93|366:107,1,110.499994941712,10|8,0:0|0:1,0:0:0:0:
256,46,24612,5,14,0:1:0:0:
328,206,24862,1,0,0:0:0:0:
474,83,25112,2,0,P|444:38|376:43,1,110.499994941712,10|0,0:0|0:0,0:0:0:0:
330,215,25612,5,10,0:0:0:0:
400,115,25862,1,8,0:1:0:0:
512,295,26112,1,10,0:0:0:0:
432,360,26362,2,0,P|418:317|408:267,1,95.6250036478044,14|0,0:1|0:0,0:0:0:0:
415,263,26862,5,8,0:0:0:0:
276,285,27112,1,8,0:0:0:0:
135,305,27362,1,8,0:0:0:0:
9,323,27612,2,0,P|13:274|55:239,1,95.6250036478044,8|8,0:0|0:1,0:0:0:0:
131,281,28112,1,8,0:0:0:0:
126,303,28237,1,8,0:0:0:0:
121,325,28362,1,8,0:3:0:0:
272,274,28612,6,0,P|353:293|457:300,1,170,12|10,0:1|0:0,0:0:0:0:
466,133,29362,2,0,L|488:236,1,85,8|2,0:1|0:0,0:0:0:0:
410,45,29862,1,10,0:1:0:0:
335,116,30112,2,0,L|309:203,1,85,8|2,0:0|0:0,0:0:0:0:
251,349,30612,5,8,0:1:0:0:
130,200,30862,1,8,0:1:0:0:
73,339,31112,1,8,0:0:0:0:
232,258,31362,2,0,P|219:182|196:91,1,170,8|8,0:1|0:1,0:0:0:0:
68,12,32112,2,0,P|28:30|16:70,1,85,8|2,0:0|0:3,0:0:0:0:
26,87,32487,1,2,0:3:0:0:
26,87,32612,6,0,P|65:102|116:109,1,85,4|0,0:1|0:0,0:0:0:0:
282,61,33112,1,10,0:0:0:0:
230,222,33362,2,0,P|149:238|61:268,1,170,8|10,0:1|0:1,0:0:0:0:
29,102,34112,2,0,P|16:142|5:183,1,85,8|10,0:0|0:1,0:0:0:0:
17,203,34487,1,8,0:0:0:0:
17,203,34612,5,8,0:1:0:0:
105,360,34862,1,10,0:1:0:0:
165,177,35112,1,10,0:0:0:0:
18,295,35362,1,10,0:1:0:0:
211,318,35612,1,2,0:0:0:0:
224,320,36112,1,10,0:0:0:0:
239,324,36612,6,0,P|260:255|302:160,1,170,12|10,0:1|0:0,0:0:0:0:
432,240,37362,2,0,P|381:245|339:255,1,85,8|2,0:1|0:0,0:0:0:0:
291,158,37862,1,10,0:1:0:0:
452,125,38112,2,2,P|401:112|357:97,1,85,8|10,0:0|0:1,0:0:0:0:
366,91,38487,1,8,0:0:0:0:
366,91,38612,6,0,P|374:44|390:-6,1,85,8|8,0:1|0:1,0:0:0:0:
256,78,39112,1,8,0:0:0:0:
133,15,39362,2,0,P|144:55|151:97,1,85,8|0,0:1|0:0,0:0:0:0:
11,155,39862,1,8,0:1:0:0:
61,82,40112,1,8,0:0:0:0:
145,194,40362,1,2,0:3:0:0:
145,194,40487,1,2,0:3:0:0:
145,194,40612,6,0,P|79:211|29:323,1,170,8|10,0:1|0:0,0:0:0:0:
102,362,41362,1,8,0:1:0:0:
102,362,41612,2,0,L|199:346,1,85,2|10,0:0|0:1,0:0:0:0:
315,335,42112,1,8,0:0:0:0:
190,198,42362,1,2,0:0:0:0:
244,296,42612,6,0,L|268:197,1,85,8|10,0:1|0:1,0:0:0:0:
146,115,43112,2,0,L|130:27,1,85,10|10,0:0|0:1,0:0:0:0:
378,30,43612,2,0,L|362:113,1,85,2|10,0:0|0:1,0:0:0:0:
256,192,44112,1,10,0:0:0:0:
256,192,44237,1,8,0:0:0:0:
256,192,44362,1,8,0:3:0:0:
402,259,44612,5,12,0:1:0:0:
344,193,44862,1,2,0:0:0:0:
323,352,45112,2,0,L|407:339,1,85,10|10,0:0|0:1,0:0:0:0:
256,274,45612,5,2,0:0:0:0:
192,353,45862,2,0,L|107:340,1,85,10|10,0:1|0:0,0:0:0:0:
37,233,46362,1,2,0:0:0:0:
141,137,46612,6,0,L|160:247,1,85,12|0,0:1|0:0,0:0:0:0:
257,102,47112,1,10,0:0:0:0:
356,220,47362,2,0,L|371:137,1,85,10|0,0:1|0:0,0:0:0:0:
466,76,47862,1,10,0:1:0:0:
361,33,48112,1,10,0:0:0:0:
464,183,48362,1,2,0:0:0:0:
351,38,48612,6,0,L|267:51,1,85,12|0,0:1|0:0,0:0:0:0:
255,145,49112,1,8,0:0:0:0:
163,123,49362,6,0,L|246:136,1,85,8|0,0:1|0:0,0:0:0:0:
255,317,49862,1,0,0:0:0:0:
256,225,50112,1,8,0:0:0:0:
351,203,50362,6,0,L|267:216,1,85,12|0,0:1|0:0,0:0:0:0:
117,234,50862,1,8,0:0:0:0:
387,287,51112,1,8,0:3:0:0:
230,374,51362,6,0,L|250:283,1,85,12|0,0:1|0:0,0:0:0:0:
207,86,51862,5,10,0:3:0:0:
375,125,52112,1,10,0:3:0:0:
339,281,52362,1,6,0:3:0:0:
170,243,52612,6,2,B|100:239|110:287|41:286,1,127.500004863739,14|2,0:1|0:0,0:0:0:0:
237,356,53362,2,0,L|263:212,1,127.500004863739,8|0,0:1|0:0,0:0:0:0:
120,74,54112,2,0,L|128:137,1,63.7500024318696,8|0,0:0|0:0,0:0:0:0:
137,147,54612,6,0,P|196:152|245:92,1,127.500004863739,8|2,0:1|0:0,0:0:0:0:
323,219,55362,2,0,P|317:184|308:150,2,63.7500024318696,8|2|2,0:1|0:0|0:0,0:0:0:0:
496,178,56112,2,0,P|445:171|418:121,1,95.6250036478044,10|0,0:0|0:0,0:0:0:0:
425,125,56612,6,0,L|449:-9,1,127.500004863739,14|0,0:1|0:0,0:0:0:0:
303,154,57362,2,0,L|282:279,1,127.500004863739,8|0,0:1|0:0,0:0:0:0:
199,89,58112,2,0,L|210:25,1,63.7500024318696,8|0,0:0|0:0,0:0:0:0:
25,94,58612,6,0,P|69:107|94:167,1,95.6250036478044,10|8,0:1|0:1,0:0:0:0:
91,160,59112,2,0,L|77:229,1,63.7500024318696,0|8,0:0|0:1,0:0:0:0:
52,367,59612,5,10,0:1:0:0:
235,279,59862,1,8,0:0:0:0:
71,229,60112,1,8,0:0:0:0:
74,245,60237,1,8,0:0:0:0:
77,261,60362,1,8,0:1:0:0:
79,276,60487,1,8,0:1:0:0:
82,293,60612,6,0,L|188:321,1,85,14|2,0:1|0:3,0:0:0:0:
202,299,60987,1,2,0:0:0:0:
306,181,61237,1,2,0:0:0:0:
311,208,61362,1,2,0:0:0:0:
317,236,61487,1,2,0:0:0:0:
323,264,61612,6,0,L|420:286,1,85,10|2,0:1|0:3,0:0:0:0:
414,297,61987,1,2,0:3:0:0:
414,297,62112,2,0,L|319:323,1,85,8|2,0:1|0:3,0:0:0:0:
208,178,62612,6,0,L|112:195,1,85,10|2,0:1|0:3,0:0:0:0:
88,200,62987,1,2,0:0:0:0:
179,7,63237,1,2,0:0:0:0:
197,27,63362,1,2,0:3:0:0:
216,48,63487,1,2,0:0:0:0:
235,69,63612,6,0,L|134:87,1,85,10|2,0:1|0:3,0:0:0:0:
144,96,63987,1,2,0:3:0:0:
144,96,64112,2,0,L|223:124,1,85,10|0,0:1|0:3,0:0:0:0:
422,62,64612,5,14,0:1:0:0:
432,67,65112,5,8,0:0:0:0:
387,286,65362,1,14,0:1:0:0:
388,295,65862,5,10,0:3:0:0:
510,230,66112,1,6,0:3:0:0:
236,179,66362,1,14,0:1:0:0:
240,193,66862,5,8,0:0:0:0:
320,114,67112,1,8,0:0:0:0:
289,321,67362,1,2,1:3:0:0:
119,218,67612,5,8,0:0:0:0:
135,218,67737,1,8,0:0:0:0:
152,217,67862,1,8,0:0:0:0:
169,216,67987,1,8,0:0:0:0:
186,215,68112,1,8,0:0:0:0:
203,214,68237,1,8,0:0:0:0:
220,213,68362,1,8,0:0:0:0:
236,213,68487,1,8,0:0:0:0:
261,213,68612,6,0,B|350:209|339:290|445:277,1,191.250007295609,12|0,0:1|0:0,0:0:0:0:
509,127,69112,2,0,B|445:127|451:178|389:179,1,127.500004863739,8|0,0:0|0:0,0:0:0:0:
290,31,69612,1,8,0:1:0:0:
292,46,69737,1,8,0:0:0:0:
294,61,69862,1,8,0:1:0:0:
311,244,70112,5,8,0:0:0:0:
403,58,70362,1,0,0:0:0:0:
501,270,70612,2,0,P|463:255|440:249,1,63.7500024318696,10|0,0:1|0:0,0:0:0:0:
347,151,70862,2,0,P|284:162|226:188,1,127.500004863739,8|8,0:1|0:0,0:0:0:0:
196,292,71362,5,8,0:1:0:0:
199,308,71487,1,8,0:0:0:0:
203,325,71612,1,8,0:1:0:0:
207,343,71737,1,8,0:0:0:0:
210,359,71862,1,8,0:1:0:0:
71,306,72112,1,8,0:0:0:0:
182,211,72362,2,0,L|194:275,1,63.7500024318696,2|2,0:0|0:0,0:0:0:0:
79,143,72612,6,0,P|174:133|232:40,1,191.250007295609,8|0,0:1|0:0,0:0:0:0:
404,217,73112,2,0,P|342:207|298:159,1,127.500004863739,8|0,0:0|0:0,0:0:0:0:
355,40,73612,5,8,0:1:0:0:
355,40,73737,1,8,0:0:0:0:
355,40,73862,1,8,0:1:0:0:
223,197,74112,1,8,0:0:0:0:
423,136,74362,1,0,0:0:0:0:
231,87,74612,5,8,0:1:0:0:
336,281,74862,1,8,0:1:0:0:
424,124,75112,1,8,0:0:0:0:
221,182,75362,2,0,L|159:197,1,63.7500024318696,8|8,0:1|0:0,0:0:0:0:
80,217,75612,1,8,0:1:0:0:
80,217,75737,1,8,0:0:0:0:
80,217,75862,1,8,0:1:0:0:
348,367,76112,5,8,0:0:0:0:
291,295,76362,2,0,L|303:233,1,63.7500024318696,2|2,0:0|0:0,0:0:0:0:
323,125,76612,6,0,P|390:187|496:202,1,191.250007295609,12|0,0:1|0:0,0:0:0:0:
494,195,77112,2,0,L|502:258,1,63.7500024318696,10|2,0:0|0:0,0:0:0:0:
434,95,77362,1,8,0:1:0:0:
435,80,77487,1,8,0:0:0:0:
437,65,77612,1,8,0:1:0:0:
439,48,77737,1,8,0:0:0:0:
441,32,77862,1,8,0:1:0:0:
507,191,78112,5,8,0:0:0:0:
323,240,78362,1,0,0:0:0:0:
461,319,78612,1,8,0:1:0:0:
319,70,78862,1,0,0:0:0:0:
505,177,79112,1,8,0:0:0:0:
263,354,79362,6,0,L|231:231,1,127.500004863739,12|8,0:1|0:1,0:0:0:0:
142,184,79737,1,8,0:0:0:0:
137,215,79862,1,8,0:1:0:0:
66,321,80112,6,0,L|3:303,1,63.7500024318696,10|2,0:0|0:0,0:0:0:0:
82,71,80362,2,0,L|66:136,1,63.7500024318696,10|10,0:1|0:1,0:0:0:0:
221,231,80612,6,0,P|295:216|348:103,1,191.250007295609,12|0,0:1|0:0,0:0:0:0:
280,54,81112,1,8,0:0:0:0:
470,223,81362,1,8,0:1:0:0:
465,258,81487,1,8,0:0:0:0:
459,294,81612,1,8,0:1:0:0:
456,323,81737,1,8,0:0:0:0:
452,353,81862,1,8,0:1:0:0:
490,110,82112,1,8,0:0:0:0:
325,318,82362,6,0,P|230:290|114:267,1,191.250007295609,12|0,0:1|0:0,0:0:0:0:
46,320,82862,1,8,0:1:0:0:
0,176,83112,2,0,P|30:163|74:150,1,63.7500024318696,8|0,0:0|0:0,0:0:0:0:
331,113,83362,6,0,P|247:87|188:77,1,127.500004863739,12|0,0:1|0:0,0:0:0:0:
136,113,83737,1,8,0:0:0:0:
144,152,83862,1,8,0:1:0:0:
412,254,84112,1,8,0:0:0:0:
420,215,84237,1,8,0:0:0:0:
428,170,84362,1,8,0:3:0:0:
222,370,84612,6,0,P|144:336|133:212,1,191.250007295609,12|0,0:1|0:0,0:0:0:0:
183,149,85112,2,0,L|261:137,1,63.7500024318696,10|0,0:0|0:0,0:0:0:0:
396,279,85362,1,8,0:1:0:0:
355,271,85487,1,8,0:0:0:0:
313,263,85612,1,8,0:1:0:0:
272,254,85737,1,8,0:0:0:0:
233,245,85862,1,8,0:1:0:0:
27,55,86112,5,8,0:0:0:0:
47,205,86362,2,0,L|65:132,1,63.7500024318696,2|2,0:0|0:0,0:0:0:0:
103,0,86612,6,0,P|184:30|303:47,1,191.250007295609,8|0,0:1|0:0,0:0:0:0:
455,127,87112,2,0,P|476:153|477:199,1,63.7500024318696,10|0,0:0|0:0,0:0:0:0:
336,186,87362,1,8,0:1:0:0:
350,145,87487,1,8,0:0:0:0:
365,106,87612,1,8,0:1:0:0:
377,69,87737,1,8,0:0:0:0:
391,30,87862,1,8,0:1:0:0:
176,142,88112,5,8,0:0:0:0:
463,265,88362,2,0,L|400:274,1,63.7500024318696,2|2,0:0|0:0,0:0:0:0:
206,291,88612,6,0,P|281:313|372:381,1,191.250007295609,8|0,0:1|0:0,0:0:0:0:
140,231,89112,2,0,P|73:262|57:320,1,127.500004863739,8|0,0:0|0:0,0:0:0:0:
306,175,89612,1,8,0:1:0:0:
303,145,89737,1,8,0:0:0:0:
298,108,89862,1,8,0:1:0:0:
137,37,90112,5,8,0:0:0:0:
465,133,90362,2,0,L|389:155,1,63.7500024318696,2|2,0:0|0:0,0:0:0:0:
186,207,90612,6,0,L|207:147,1,63.7500024318696,10|0,0:1|0:0,0:0:0:0:
309,118,90862,2,0,L|312:55,1,63.7500024318696,10|0,0:1|0:0,0:0:0:0:
440,61,91112,2,0,L|422:-9,1,63.7500024318696,10|0,0:0|0:0,0:0:0:0:
293,202,91362,5,8,0:1:0:0:
331,209,91487,1,8,0:0:0:0:
373,217,91612,1,8,0:1:0:0:
414,225,91737,1,8,0:0:0:0:
453,233,91862,1,8,0:1:0:0:
276,313,92112,5,8,0:0:0:0:
477,352,92362,2,0,L|397:336,1,63.7500024318696,8|8,0:3|0:3,0:0:0:0:
108,315,92612,6,0,B|217:286|163:245|268:219,1,191.250007295609,12|0,0:1|0:0,0:0:0:0:
79,99,93112,2,0,P|99:157|107:231,1,127.500004863739,8|8,0:0|0:1,0:0:0:0:
30,275,93487,1,8,0:0:0:0:
24,279,93612,6,0,L|3:362,1,63.7500024318696,12|0,0:1|0:0,0:0:0:0:
181,168,93862,2,0,L|163:85,1,63.7500024318696
276,313,94112,5,8,0:0:0:0:
28,198,94362,2,0,L|107:183,1,63.7500024318696,2|2,0:0|0:0,0:0:0:0:
340,136,94612,6,0,P|300:81|242:50,1,127.500004863739,12|0,0:1|0:0,0:0:0:0:
191,172,95112,1,8,0:0:0:0:
388,357,95362,2,0,P|408:263|437:172,1,191.250007295609,12|0,0:1|0:0,0:0:0:0:
448,165,95862,6,0,L|470:241,1,63.7500024318696,8|0,0:3|0:0,0:0:0:0:
265,227,96112,2,0,L|324:274,1,63.7500024318696,8|0,0:1|0:0,0:0:0:0:
120,336,96362,1,4,0:3:0:0:
153,349,96487,1,4,0:3:0:0:
187,363,96612,6,0,P|247:373|320:381,1,127.500004863739,12|0,0:1|0:0,0:0:0:0:
261,233,97112,2,0,P|314:220|405:189,1,127.500004863739,8|8,0:0|0:1,0:0:0:0:
383,185,97487,5,8,0:0:0:0:
383,185,97612,2,0,P|344:194|307:206,1,63.7500024318696,8|8,0:1|0:0,0:0:0:0:
270,71,97862,2,0,P|243:91|219:120,1,63.7500024318696,8|0,0:1|0:0,0:0:0:0:
131,7,98112,2,0,P|92:75|60:202,1,191.250007295609,8|0,0:0|0:0,0:0:0:0:
1,353,98612,5,8,0:0:0:0:
11,358,99112,2,0,B|96:360|85:271|195:283,1,191.250007295609,12|8,0:0|0:0,0:0:0:0:
251,330,99612,5,8,0:1:0:0:
254,317,99737,1,8,0:0:0:0:
257,305,99862,1,8,0:0:0:0:
260,292,99987,1,8,0:0:0:0:
263,280,100112,1,8,0:0:0:0:
267,268,100237,1,8,0:0:0:0:
270,255,100362,1,8,0:0:0:0:
273,242,100487,1,8,0:0:0:0:
277,230,100612,6,0,P|241:167|185:113,1,127.500004863739,12|0,0:1|0:0,0:0:0:0:
405,322,101112,2,0,P|438:229|522:154,1,191.250007295609,10|0,0:0|0:0,0:0:0:0:
506,155,101612,2,0,P|482:109|459:27,1,127.500004863739,10|8,0:0|0:1,0:0:0:0:
267,346,102112,2,0,P|201:275|101:240,1,191.250007295609,10|0,0:0|0:0,0:0:0:0:
103,245,102612,6,0,P|130:295|146:381,1,127.500004863739,10|0,0:0|0:0,0:0:0:0:
398,79,103112,2,0,P|345:142|316:252,1,191.250007295609,10|0,0:0|0:0,0:0:0:0:
327,255,103612,2,0,P|271:211|196:199,1,127.500004863739,10|8,0:0|0:1,0:0:0:0:
22,75,104112,2,0,P|116:62|195:11,1,191.250007295609,10|0,0:0|0:0,0:0:0:0:
196,0,104612,5,14,0:1:0:0:
126,253,104862,1,0,0:0:0:0:
335,175,105112,1,10,0:0:0:0:
107,61,105362,1,0,0:0:0:0:
263,286,105612,5,10,0:0:0:0:
346,55,105862,1,8,0:1:0:0:
136,157,106112,2,0,P|66:178|-2:192,1,127.500004863739,10|8,0:0|0:1,0:0:0:0:
234,32,106612,5,10,0:0:0:0:
354,304,106862,1,0,0:0:0:0:
164,237,107112,2,0,P|227:214|299:197,1,127.500004863739,10|0,0:0|0:0,0:0:0:0:
478,302,107612,5,10,0:0:0:0:
319,55,107862,1,8,0:1:0:0:
343,360,108112,2,0,P|376:301|405:233,1,127.500004863739,10|0,0:0|0:0,0:0:0:0:
236,282,108612,5,14,0:1:0:0:
466,207,108862,1,0,0:0:0:0:
165,16,109112,2,0,P|190:81|211:161,1,127.500004863739,10|0,0:0|0:0,0:0:0:0:
397,384,109612,2,0,P|417:302|480:190,1,191.250007295609,10|0,0:0|0:0,0:0:0:0:
465,196,110112,2,0,P|388:157|315:146,1,127.500004863739,10|8,0:0|0:1,0:0:0:0:
70,350,110612,6,0,P|178:317|271:271,1,191.250007295609,10|0,0:0|0:0,0:0:0:0:
254,272,111112,1,10,0:0:0:0:
77,86,111362,1,0,0:0:0:0:
62,251,111612,1,10,0:0:0:0:
298,106,111862,1,8,0:1:0:0:
107,0,112112,1,10,0:0:0:0:
278,243,112362,1,8,0:1:0:0:
414,19,112612,5,14,0:1:0:0:
200,150,112862,1,0,0:0:0:0:
417,299,113112,2,0,P|398:238|372:176,1,127.500004863739,10|0,0:0|0:0,0:0:0:0:
190,8,113612,5,10,0:0:0:0:
455,131,113862,1,8,0:1:0:0:
135,316,114112,1,10,0:0:0:0:
226,113,114362,1,12,0:1:0:0:
220,109,114862,5,8,0:0:0:0:
306,301,115112,1,8,0:0:0:0:
504,207,115362,1,8,0:0:0:0:
409,29,115612,1,8,0:0:0:0:
356,167,115862,1,8,0:3:0:0:
356,167,115987,1,8,0:3:0:0:
356,167,116112,1,8,0:3:0:0:
306,301,116362,1,4,0:3:0:0:
256,192,116612,12,0,122612,0:0:0:0:
