osu file format v14

[General]
AudioFilename: audio.mp3
AudioLeadIn: 0
PreviewTime: 54907
Countdown: 0
SampleSet: Soft
StackLeniency: 0.7
Mode: 3
LetterboxInBreaks: 0
SpecialStyle: 0
WidescreenStoryboard: 0

[Editor]
DistanceSpacing: 0.5
BeatDivisor: 4
GridSize: 32
TimelineZoom: 1

[Metadata]
Title:Kimi ni Aeta Hi (TV Size)
TitleUnicode:君に会えた日 (TV Size)
Artist:Adachi and Shimamura (CV: Kito Akari and Ito Miku)
ArtistUnicode:安達としまむら(CV: 鬼頭明里と伊藤美来)
Creator:Matthewwwwww
Version:Easy
Source:安達としまむら
Tags:adashima japanese anime op opening yuri kitou akari itou miku Adachi to Shimamura dudehacker Drum-Hitnormal jpop j-pop pop PCCG-01929
BeatmapID:3045382
BeatmapSetID:1485056

[Difficulty]
HPDrainRate:6
CircleSize:4
OverallDifficulty:6
ApproachRate:5
SliderMultiplier:1.4
SliderTickRate:1

[Events]
//Background and Video events
0,0,"adashima bike.jpg",0,0
Video,-537,"adachi.mp4"
//Break Periods
//Storyboard Layer 0 (Background)
//Storyboard Layer 1 (Fail)
//Storyboard Layer 2 (Pass)
//Storyboard Layer 3 (Foreground)
//Storyboard Layer 4 (Overlay)
//Storyboard Sound Samples
Sample,3977,0,"soft-hitwhistle.wav",0
Sample,6768,0,"soft-hitwhistle.wav",0
Sample,7698,0,"soft-hitwhistle.wav",0
Sample,17000,0,"soft-hitwhistle.wav",0
Sample,17931,0,"soft-hitwhistle.wav",0
Sample,18861,0,"soft-hitwhistle.wav",0
Sample,19791,0,"soft-hitwhistle.wav",0
Sample,20721,0,"soft-hitwhistle.wav",0
Sample,21652,0,"soft-hitwhistle.wav",0
Sample,40954,0,"soft-hitwhistle.wav",0
Sample,44675,0,"soft-hitwhistle.wav",0
Sample,47931,0,"soft-hitclap.wav",0
Sample,48396,0,"soft-hitclap.wav",0
Sample,48745,0,"soft-hitclap.wav",0
Sample,48861,0,"soft-hitclap.wav",0
Sample,49326,0,"soft-hitclap.wav",0
Sample,49791,0,"soft-hitclap.wav",0
Sample,49907,0,"soft-hitclap.wav",0
Sample,50605,0,"soft-hitclap.wav",0
Sample,50721,0,"soft-hitclap.wav",0
Sample,51884,0,"soft-hitwhistle.wav",0
Sample,51884,0,"soft-hitclap.wav",0
Sample,52349,0,"soft-hitwhistle.wav",0
Sample,52349,0,"soft-hitclap.wav",0
Sample,55605,0,"soft-hitwhistle.wav",0
Sample,55605,0,"soft-hitclap.wav",0
Sample,56535,0,"soft-hitwhistle.wav",0
Sample,56535,0,"soft-hitclap.wav",0
Sample,57931,0,"soft-hitwhistle.wav",0
Sample,58861,0,"soft-hitwhistle.wav",0
Sample,60256,0,"soft-hitwhistle.wav",0
Sample,60256,0,"soft-hitclap.wav",0
Sample,60721,0,"soft-hitwhistle.wav",0
Sample,61652,0,"soft-hitwhistle.wav",0
Sample,62349,0,"soft-hitclap.wav",0
Sample,63047,0,"soft-hitclap.wav",0
Sample,63047,0,"soft-hitwhistle.wav",0
Sample,63977,0,"soft-hitclap.wav",0
Sample,63977,0,"soft-hitwhistle.wav",0
Sample,65373,0,"soft-hitwhistle.wav",0
Sample,66303,0,"soft-hitwhistle.wav",0
Sample,67698,0,"soft-hitclap.wav",0
Sample,67698,0,"soft-hitwhistle.wav",0
Sample,68163,0,"soft-hitwhistle.wav",0
Sample,69093,0,"soft-hitwhistle.wav",0
Sample,69907,0,"soft-hitclap.wav",0
Sample,73047,0,"soft-hitclap.wav",0
Sample,74442,0,"soft-hitwhistle.wav",0
Sample,76303,0,"soft-hitclap.wav",0
Sample,76768,0,"soft-hitwhistle.wav",0
Sample,77233,0,"soft-hitwhistle.wav",0
Sample,77349,0,"soft-hitwhistle.wav",0
Sample,77698,0,"soft-hitwhistle.wav",0
Sample,78396,0,"soft-hitwhistle.wav",0
Sample,78861,0,"soft-hitwhistle.wav",0
Sample,78861,0,"soft-hitclap.wav",0
Sample,79210,0,"soft-hitwhistle.wav",0
Sample,79559,0,"soft-hitwhistle.wav",0
Sample,80256,0,"soft-hitwhistle.wav",0
Sample,80373,0,"soft-hitwhistle.wav",0
Sample,80721,0,"soft-hitwhistle.wav",0
Sample,80721,0,"soft-hitclap.wav",0
Sample,81070,0,"soft-hitwhistle.wav",0
Sample,81884,0,"soft-hitclap.wav",0
Sample,82814,0,"soft-hitclap.wav",0
Sample,82931,0,"soft-hitclap.wav",0

[TimingPoints]
1187,465.116279069767,4,2,1,40,1,0
8628,-100,4,2,1,50,0,0
16070,-100,4,2,1,60,0,0
40256,-100,4,2,1,50,0,0
47698,-100,4,2,1,60,0,0
55140,-100,4,2,1,60,0,1
70024,-100,4,2,1,50,0,0
77466,-100,4,2,1,60,0,0

[HitObjects]
192,192,1187,128,4,1884:0:0:0:0:
448,192,1884,1,0,0:0:0:0:
320,192,2117,128,0,2814:0:0:0:0:
64,192,2814,1,0,0:0:0:0:
448,192,3047,128,0,3512:0:0:0:0:
320,192,3512,1,0,0:0:0:0:
64,192,3745,128,2,4210:0:0:0:0:
192,192,4210,1,0,0:0:0:0:
320,192,4442,1,0,0:0:0:0:
448,192,4675,1,0,0:0:0:0:
192,192,5140,1,0,0:0:0:0:
64,192,5373,1,0,0:0:0:0:
192,192,5838,1,2,0:0:0:0:
320,192,6070,1,2,0:0:0:0:
448,192,6535,128,0,7000:0:0:0:0:
64,192,7000,128,0,7466:0:0:0:0:
320,192,7466,128,0,8163:0:0:0:0:
448,192,8628,1,2,0:0:0:0:
320,192,9093,1,2,0:0:0:0:
64,192,9559,1,2,0:0:0:0:
192,192,10024,1,2,0:0:0:0:
448,192,10489,1,2,0:0:0:0:
320,192,10954,1,2,0:0:0:0:
448,192,11419,1,2,0:0:0:0:
192,192,11884,1,2,0:0:0:0:
320,192,12349,1,2,0:0:0:0:
192,192,12814,1,2,0:0:0:0:
64,192,13280,128,2,14210:0:0:0:0:
320,192,14210,1,0,0:0:0:0:
192,192,14559,1,0,0:0:0:0:
320,192,14907,1,0,0:0:0:0:
64,192,15140,1,0,0:0:0:0:
448,192,15605,128,8,16070:0:0:0:0:
192,192,16070,128,6,16535:0:0:0:0:
320,192,16535,1,8,0:0:0:0:
64,192,16768,1,0,0:0:0:0:
448,192,17233,1,0,0:0:0:0:
320,192,17466,1,8,0:0:0:0:
192,192,17698,1,0,0:0:0:0:
64,192,18163,1,0,0:0:0:0:
192,192,18396,1,8,0:0:0:0:
320,192,18628,1,0,0:0:0:0:
448,192,19093,1,0,0:0:0:0:
64,192,19326,1,8,0:0:0:0:
192,192,19559,128,0,20024:0:0:0:0:
320,192,20024,1,0,0:0:0:0:
64,192,20256,1,8,0:0:0:0:
320,192,20489,128,0,20954:0:0:0:0:
192,192,20954,1,0,0:0:0:0:
64,192,21186,1,8,0:0:0:0:
448,192,21419,128,0,22117:0:0:0:0:
192,192,22117,1,8,0:0:0:0:
64,192,22582,1,2,0:0:0:0:
320,192,23047,1,8,0:0:0:0:
64,192,23745,1,12,0:0:0:0:
320,192,23977,1,12,0:0:0:0:
64,192,24442,1,12,0:0:0:0:
448,192,24675,1,12,0:0:0:0:
192,192,25140,1,12,0:0:0:0:
448,192,25373,1,2,0:0:0:0:
320,192,25838,1,8,0:0:0:0:
64,192,26303,1,2,0:0:0:0:
192,192,26768,1,8,0:0:0:0:
320,192,27233,128,2,27698:0:0:0:0:
448,192,27698,1,8,0:0:0:0:
192,192,28163,128,2,28628:0:0:0:0:
64,192,28628,1,8,0:0:0:0:
320,192,29093,1,2,0:0:0:0:
448,192,29559,1,8,0:0:0:0:
192,192,30024,1,2,0:0:0:0:
64,192,30489,1,8,0:0:0:0:
320,192,30954,128,2,31419:0:0:0:0:
64,192,31419,128,8,31884:0:0:0:0:
448,192,31884,128,2,32349:0:0:0:0:
192,192,32349,128,8,32814:0:0:0:0:
320,192,32814,1,2,0:0:0:0:
448,192,33280,1,8,0:0:0:0:
64,192,33745,1,2,0:0:0:0:
192,192,34210,1,8,0:0:0:0:
320,192,34675,128,2,35140:0:0:0:0:
448,192,35140,1,8,0:0:0:0:
192,192,35605,128,2,36070:0:0:0:0:
64,192,36070,1,8,0:0:0:0:
320,192,36535,1,2,0:0:0:0:
448,192,37000,1,8,0:0:0:0:
64,192,37466,1,2,0:0:0:0:
192,192,37931,1,8,0:0:0:0:
320,192,38396,128,2,38861:0:0:0:0:
64,192,38861,128,8,39326:0:0:0:0:
448,192,39326,128,2,39791:0:0:0:0:
192,192,39791,128,8,40256:0:0:0:0:
448,192,40256,128,6,40721:0:0:0:0:
320,192,40721,1,0,0:0:0:0:
192,192,41186,128,8,41652:0:0:0:0:
64,192,41652,1,0,0:0:0:0:
320,192,42117,1,2,0:0:0:0:
64,192,42466,1,2,0:0:0:0:
448,192,42814,1,2,0:0:0:0:
192,192,43047,128,8,43512:0:0:0:0:
320,192,43512,1,2,0:0:0:0:
64,192,43977,128,2,44442:0:0:0:0:
192,192,44442,1,0,0:0:0:0:
320,192,44907,128,8,45373:0:0:0:0:
448,192,45373,1,0,0:0:0:0:
192,192,45838,1,2,0:0:0:0:
320,192,46186,1,2,0:0:0:0:
192,192,46535,1,2,0:0:0:0:
64,192,46768,128,8,47233:0:0:0:0:
448,192,47233,1,8,0:0:0:0:
320,192,47698,128,12,48163:0:0:0:0:
64,192,48163,128,10,48628:0:0:0:0:
448,192,48628,128,10,49093:0:0:0:0:
192,192,49093,128,10,49559:0:0:0:0:
320,192,49559,128,10,50024:0:0:0:0:
448,192,50024,1,10,0:0:0:0:
64,192,50256,1,8,0:0:0:0:
320,192,50489,128,10,50954:0:0:0:0:
192,192,50954,128,10,51419:0:0:0:0:
448,192,51419,1,10,0:0:0:0:
320,192,51652,128,8,52117:0:0:0:0:
64,192,52117,128,8,52582:0:0:0:0:
448,192,52582,128,8,53280:0:0:0:0:
192,192,53280,128,2,53977:0:0:0:0:
320,192,53977,128,0,54675:0:0:0:0:
64,192,54675,128,0,55140:0:0:0:0:
448,192,55140,128,6,55838:0:0:0:0:
192,192,55838,1,0,0:0:0:0:
320,192,56070,128,2,56768:0:0:0:0:
64,192,56768,1,0,0:0:0:0:
192,192,57000,128,2,57466:0:0:0:0:
448,192,57466,1,10,0:0:0:0:
64,192,57698,128,0,58163:0:0:0:0:
192,192,58163,1,0,0:0:0:0:
320,192,58396,1,10,0:0:0:0:
448,192,58628,1,0,0:0:0:0:
320,192,59093,1,0,0:0:0:0:
192,192,59326,1,10,0:0:0:0:
64,192,59791,1,2,0:0:0:0:
192,192,60024,128,0,60489:0:0:0:0:
448,192,60489,128,0,60954:0:0:0:0:
320,192,60954,1,0,0:0:0:0:
192,192,61186,1,10,0:0:0:0:
64,192,61419,128,0,62117:0:0:0:0:
320,192,62117,1,10,0:0:0:0:
192,192,62582,128,6,63280:0:0:0:0:
64,192,63280,1,0,0:0:0:0:
448,192,63512,128,2,64210:0:0:0:0:
320,192,64210,1,0,0:0:0:0:
192,192,64442,128,2,64907:0:0:0:0:
64,192,64907,1,10,0:0:0:0:
320,192,65140,128,0,65605:0:0:0:0:
448,192,65605,1,0,0:0:0:0:
64,192,65838,1,10,0:0:0:0:
320,192,66070,1,0,0:0:0:0:
192,192,66535,1,0,0:0:0:0:
448,192,66768,1,10,0:0:0:0:
320,192,67233,1,2,0:0:0:0:
64,192,67466,128,0,67931:0:0:0:0:
448,192,67931,128,0,68396:0:0:0:0:
320,192,68396,1,0,0:0:0:0:
192,192,68628,1,10,0:0:0:0:
64,192,68861,128,0,69326:0:0:0:0:
320,192,69326,1,0,0:0:0:0:
192,192,69559,1,10,0:0:0:0:
448,192,69791,1,8,0:0:0:0:
320,192,70024,1,6,0:0:0:0:
64,192,70489,1,0,0:0:0:0:
320,192,70721,1,2,0:0:0:0:
448,192,70954,128,8,71419:0:0:0:0:
192,192,71419,128,0,71884:0:0:0:0:
64,192,71884,1,6,0:0:0:0:
320,192,72233,1,2,0:0:0:0:
192,192,72582,1,2,0:0:0:0:
448,192,72814,128,8,73280:0:0:0:0:
64,192,73280,128,2,73745:0:0:0:0:
320,192,73745,128,12,74210:0:0:0:0:
448,192,74210,128,2,74675:0:0:0:0:
192,192,74675,128,8,75140:0:0:0:0:
320,192,75140,128,0,75605:0:0:0:0:
448,192,75605,128,6,76070:0:0:0:0:
192,192,76070,128,2,76535:0:0:0:0:
64,192,76535,128,8,77000:0:0:0:0:
320,192,77000,1,8,0:0:0:0:
448,192,77466,1,6,0:0:0:0:
64,192,77931,1,10,0:0:0:0:
192,192,78163,128,2,78628:0:0:0:0:
320,192,78628,128,2,79093:0:0:0:0:
192,192,79093,1,2,0:0:0:0:
448,192,79326,1,6,0:0:0:0:
64,192,79791,1,10,0:0:0:0:
320,192,80024,128,2,80489:0:0:0:0:
192,192,80489,128,2,80954:0:0:0:0:
64,192,80954,1,2,0:0:0:0:
448,192,81186,1,10,0:0:0:0:
320,192,81419,1,8,0:0:0:0:
192,192,81652,1,10,0:0:0:0:
64,192,82117,1,10,0:0:0:0:
192,192,82349,1,8,0:0:0:0:
320,192,82582,1,10,0:0:0:0:
320,192,83047,128,6,83745:0:0:0:0:
448,192,83745,128,0,84210:0:0:0:0:
64,192,84210,128,0,84907:0:0:0:0:
320,192,84907,128,6,86768:0:0:0:0:
