osu file format v14

[General]
AudioFilename: audio.mp3
AudioLeadIn: 0
PreviewTime: 54907
Countdown: 0
SampleSet: Soft
StackLeniency: 0.7
Mode: 3
LetterboxInBreaks: 0
SpecialStyle: 0
WidescreenStoryboard: 1

[Editor]
Bookmarks: 40049
DistanceSpacing: 0.5
BeatDivisor: 4
GridSize: 32
TimelineZoom: 1.1

[Metadata]
Title:Kimi ni Aeta Hi (TV Size)
TitleUnicode:君に会えた日 (TV Size)
Artist:Adachi and Shimamura (CV: Kito Akari and Ito Miku)
ArtistUnicode:安達としまむら(CV: 鬼頭明里と伊藤美来)
Creator:Matthewwwwww
Version:DH's Adachi
Source:安達としまむら
Tags:adashima japanese anime op opening yuri kitou akari itou miku Adachi to Shimamura dudehacker Drum-Hitnormal jpop j-pop pop PCCG-01929
BeatmapID:3045381
BeatmapSetID:1485056

[Difficulty]
HPDrainRate:7.5
CircleSize:4
OverallDifficulty:7.5
ApproachRate:5
SliderMultiplier:1.4
SliderTickRate:1

[Events]
//Background and Video events
0,0,"adashima bike.jpg",0,0
Video,-537,"adachi.mp4"
//Break Periods
//Storyboard Layer 0 (Background)
//Storyboard Layer 1 (Fail)
//Storyboard Layer 2 (Pass)
//Storyboard Layer 3 (Foreground)
//Storyboard Layer 4 (Overlay)
//Storyboard Sound Samples
Sample,48745,0,"soft-hitclap.wav",0
Sample,49907,0,"soft-hitclap.wav",0
Sample,50605,0,"soft-hitclap.wav",0
Sample,69907,0,"soft-hitclap.wav",0

[TimingPoints]
1187,465.116279069767,4,2,1,55,1,0
8628,-100,4,2,1,55,0,0
16070,-100,4,2,1,55,0,0
40256,-100,4,2,1,55,0,0
47698,-100,4,2,1,55,0,0
55140,-100,4,2,1,75,0,1
70024,-100,4,2,1,65,0,0
77466,-100,4,2,1,65,0,0
81186,-100,4,2,1,75,0,0

[HitObjects]
320,192,954,5,0,0:0:0:0:
192,192,1070,1,0,0:0:0:0:
64,192,1187,1,4,0:0:0:0:
448,192,1187,128,0,1884:0:0:0:0:
192,192,1419,1,0,0:0:0:0:
64,192,1652,1,0,0:0:0:0:
320,192,1884,1,0,0:0:0:0:
192,192,2000,1,0,0:0:0:0:
64,192,2117,128,0,2814:0:0:0:0:
320,192,2349,1,0,0:0:0:0:
192,192,2582,1,0,0:0:0:0:
448,192,2814,1,0,0:0:0:0:
320,192,2931,1,0,0:0:0:0:
192,192,3047,128,0,3163:0:0:0:0:
320,192,3280,128,0,3396:0:0:0:0:
64,192,3512,128,0,3628:0:0:0:0:
448,192,3745,128,2,4210:0:0:0:0:
320,192,3861,1,0,0:0:0:0:
64,192,3977,1,2,0:0:0:0:
192,192,3977,1,0,0:0:0:0:
192,192,4210,128,0,4326:0:0:0:0:
320,192,4442,128,0,4559:0:0:0:0:
64,192,4675,128,0,4791:0:0:0:0:
320,192,5140,128,0,5256:0:0:0:0:
320,192,5373,128,0,5489:0:0:0:0:
448,192,5605,128,0,5721:0:0:0:0:
64,192,5838,1,2,0:0:0:0:
192,192,5838,1,0,0:0:0:0:
320,192,6070,1,2,0:0:0:0:
448,192,6070,1,0,0:0:0:0:
320,192,6535,128,0,7000:0:0:0:0:
64,192,6768,1,2,0:0:0:0:
192,192,6768,1,0,0:0:0:0:
448,192,7000,128,0,7117:0:0:0:0:
192,192,7233,128,0,7349:0:0:0:0:
64,192,7466,128,0,7931:0:0:0:0:
320,192,7698,1,2,0:0:0:0:
448,192,7698,1,0,0:0:0:0:
192,192,7931,1,0,0:0:0:0:
64,192,8163,1,0,0:0:0:0:
192,192,8396,1,0,0:0:0:0:
320,192,8628,1,2,0:0:0:0:
448,192,8628,128,0,9093:0:0:0:0:
192,192,8861,1,0,0:0:0:0:
64,192,9093,1,2,0:0:0:0:
192,192,9093,1,0,0:0:0:0:
64,192,9326,1,0,0:0:0:0:
192,192,9442,1,0,0:0:0:0:
320,192,9559,1,2,0:0:0:0:
448,192,9559,128,0,10024:0:0:0:0:
192,192,9791,1,0,0:0:0:0:
64,192,10024,1,2,0:0:0:0:
192,192,10024,1,0,0:0:0:0:
320,192,10256,1,0,0:0:0:0:
192,192,10373,1,0,0:0:0:0:
64,192,10489,1,2,0:0:0:0:
448,192,10489,128,0,10605:0:0:0:0:
320,192,10721,128,0,10838:0:0:0:0:
64,192,10954,1,2,0:0:0:0:
192,192,10954,128,0,11070:0:0:0:0:
64,192,11186,128,0,11652:0:0:0:0:
192,192,11419,1,2,0:0:0:0:
320,192,11419,1,0,0:0:0:0:
448,192,11652,128,0,11768:0:0:0:0:
64,192,11884,1,2,0:0:0:0:
320,192,11884,128,0,12000:0:0:0:0:
192,192,12117,128,0,12233:0:0:0:0:
320,192,12349,1,2,0:0:0:0:
448,192,12349,1,0,0:0:0:0:
64,192,12582,128,0,12698:0:0:0:0:
320,192,12814,1,2,0:0:0:0:
448,192,12814,128,0,12931:0:0:0:0:
192,192,13047,128,0,13512:0:0:0:0:
320,192,13280,1,2,0:0:0:0:
448,192,13280,1,0,0:0:0:0:
64,192,13512,128,0,13628:0:0:0:0:
320,192,13745,128,0,14210:0:0:0:0:
64,192,14210,1,0,0:0:0:0:
192,192,14210,1,0,0:0:0:0:
448,192,14210,1,0,0:0:0:0:
320,192,14559,1,0,0:0:0:0:
448,192,14559,1,0,0:0:0:0:
320,192,14907,1,0,0:0:0:0:
448,192,14907,1,0,0:0:0:0:
64,192,15140,128,0,15489:0:0:0:0:
192,192,15140,128,0,15373:0:0:0:0:
320,192,15605,128,8,15838:0:0:0:0:
448,192,15605,128,0,15954:0:0:0:0:
64,192,16070,1,2,0:0:0:0:
192,192,16070,128,4,16303:0:0:0:0:
320,192,16070,1,0,0:0:0:0:
448,192,16303,1,0,0:0:0:0:
320,192,16535,1,8,0:0:0:0:
448,192,16535,128,0,16768:0:0:0:0:
64,192,16768,128,0,17000:0:0:0:0:
192,192,17000,1,2,0:0:0:0:
448,192,17000,1,0,0:0:0:0:
320,192,17233,128,0,17466:0:0:0:0:
192,192,17466,128,8,17698:0:0:0:0:
448,192,17466,1,0,0:0:0:0:
64,192,17698,128,0,17931:0:0:0:0:
320,192,17931,1,2,0:0:0:0:
448,192,17931,1,0,0:0:0:0:
64,192,18163,128,0,18396:0:0:0:0:
192,192,18396,1,8,0:0:0:0:
320,192,18396,128,0,18628:0:0:0:0:
448,192,18628,128,0,19093:0:0:0:0:
64,192,18861,1,2,0:0:0:0:
192,192,18861,1,0,0:0:0:0:
192,192,19093,128,0,19326:0:0:0:0:
320,192,19326,128,8,19559:0:0:0:0:
448,192,19326,1,0,0:0:0:0:
64,192,19559,128,0,20024:0:0:0:0:
320,192,19791,1,2,0:0:0:0:
448,192,19791,1,0,0:0:0:0:
192,192,20024,128,0,20256:0:0:0:0:
64,192,20256,1,8,0:0:0:0:
448,192,20256,128,0,20489:0:0:0:0:
320,192,20489,128,0,20954:0:0:0:0:
64,192,20721,1,2,0:0:0:0:
192,192,20721,1,0,0:0:0:0:
64,192,20954,128,0,21186:0:0:0:0:
192,192,21186,128,8,21419:0:0:0:0:
320,192,21186,1,0,0:0:0:0:
448,192,21419,128,0,22582:0:0:0:0:
64,192,21652,1,2,0:0:0:0:
192,192,21652,1,0,0:0:0:0:
320,192,21884,1,0,0:0:0:0:
64,192,22117,1,8,0:0:0:0:
192,192,22117,1,0,0:0:0:0:
320,192,22349,1,0,0:0:0:0:
64,192,22582,128,2,23280:0:0:0:0:
192,192,22582,1,0,0:0:0:0:
320,192,22814,1,0,0:0:0:0:
448,192,22814,1,0,0:0:0:0:
192,192,23047,1,8,0:0:0:0:
448,192,23047,1,0,0:0:0:0:
192,192,23280,1,0,0:0:0:0:
320,192,23280,1,0,0:0:0:0:
64,192,23745,1,8,0:0:0:0:
192,192,23745,1,4,0:0:0:0:
448,192,23745,1,0,0:0:0:0:
192,192,23977,1,8,0:0:0:0:
320,192,23977,1,4,0:0:0:0:
448,192,23977,1,0,0:0:0:0:
192,192,24442,1,8,0:0:0:0:
320,192,24442,1,4,0:0:0:0:
448,192,24442,1,0,0:0:0:0:
64,192,24675,1,8,0:0:0:0:
192,192,24675,1,4,0:0:0:0:
320,192,24675,1,0,0:0:0:0:
64,192,25140,1,8,0:0:0:0:
192,192,25140,1,4,0:0:0:0:
448,192,25140,1,0,0:0:0:0:
320,192,25373,1,2,0:0:0:0:
448,192,25373,1,0,0:0:0:0:
64,192,25605,1,0,0:0:0:0:
192,192,25721,1,0,0:0:0:0:
320,192,25838,1,8,0:0:0:0:
448,192,25838,1,0,0:0:0:0:
320,192,26070,1,0,0:0:0:0:
192,192,26186,1,0,0:0:0:0:
64,192,26303,1,2,0:0:0:0:
448,192,26303,1,0,0:0:0:0:
192,192,26535,128,0,26768:0:0:0:0:
320,192,26535,1,0,0:0:0:0:
320,192,26768,128,8,27000:0:0:0:0:
448,192,26768,1,0,0:0:0:0:
64,192,27000,1,0,0:0:0:0:
192,192,27000,128,0,27233:0:0:0:0:
64,192,27233,1,2,0:0:0:0:
448,192,27233,1,0,0:0:0:0:
320,192,27466,1,0,0:0:0:0:
448,192,27466,1,0,0:0:0:0:
64,192,27698,1,8,0:0:0:0:
192,192,27698,1,0,0:0:0:0:
320,192,27931,1,0,0:0:0:0:
64,192,28163,1,2,0:0:0:0:
448,192,28163,1,0,0:0:0:0:
192,192,28396,1,0,0:0:0:0:
320,192,28396,128,0,28628:0:0:0:0:
64,192,28628,1,8,0:0:0:0:
192,192,28628,128,0,28861:0:0:0:0:
320,192,28861,128,0,29093:0:0:0:0:
448,192,28861,1,0,0:0:0:0:
64,192,29093,1,2,0:0:0:0:
448,192,29093,1,0,0:0:0:0:
64,192,29326,1,0,0:0:0:0:
192,192,29326,128,0,29559:0:0:0:0:
320,192,29559,1,8,0:0:0:0:
448,192,29559,128,0,29791:0:0:0:0:
320,192,29791,128,0,30024:0:0:0:0:
64,192,30024,1,2,0:0:0:0:
192,192,30024,1,0,0:0:0:0:
64,192,30256,128,0,30489:0:0:0:0:
320,192,30489,1,8,0:0:0:0:
448,192,30489,128,0,30721:0:0:0:0:
192,192,30721,128,0,30954:0:0:0:0:
320,192,30721,1,0,0:0:0:0:
64,192,30954,1,2,0:0:0:0:
448,192,30954,1,0,0:0:0:0:
320,192,31070,1,0,0:0:0:0:
64,192,31186,128,0,31419:0:0:0:0:
192,192,31186,1,0,0:0:0:0:
320,192,31419,128,8,31652:0:0:0:0:
448,192,31419,1,0,0:0:0:0:
64,192,31652,1,0,0:0:0:0:
448,192,31652,128,0,31884:0:0:0:0:
64,192,31884,1,2,0:0:0:0:
192,192,31884,1,0,0:0:0:0:
192,192,32117,128,0,32814:0:0:0:0:
448,192,32117,1,0,0:0:0:0:
320,192,32349,1,8,0:0:0:0:
448,192,32349,1,0,0:0:0:0:
64,192,32814,1,2,0:0:0:0:
448,192,32814,1,0,0:0:0:0:
320,192,33047,1,0,0:0:0:0:
64,192,33280,1,8,0:0:0:0:
192,192,33280,1,0,0:0:0:0:
192,192,33512,1,0,0:0:0:0:
320,192,33628,1,0,0:0:0:0:
64,192,33745,1,2,0:0:0:0:
448,192,33745,1,0,0:0:0:0:
192,192,33977,1,0,0:0:0:0:
320,192,33977,128,0,34210:0:0:0:0:
64,192,34210,1,8,0:0:0:0:
192,192,34210,128,0,34442:0:0:0:0:
320,192,34442,128,0,34675:0:0:0:0:
448,192,34442,1,0,0:0:0:0:
64,192,34675,1,2,0:0:0:0:
448,192,34675,1,0,0:0:0:0:
64,192,34907,1,0,0:0:0:0:
320,192,34907,1,0,0:0:0:0:
320,192,35140,1,8,0:0:0:0:
448,192,35140,1,0,0:0:0:0:
192,192,35373,1,0,0:0:0:0:
64,192,35605,1,2,0:0:0:0:
448,192,35605,1,0,0:0:0:0:
192,192,35838,128,0,36070:0:0:0:0:
320,192,35838,1,0,0:0:0:0:
320,192,36070,128,8,36303:0:0:0:0:
448,192,36070,1,0,0:0:0:0:
64,192,36303,1,0,0:0:0:0:
192,192,36303,128,0,36535:0:0:0:0:
64,192,36535,1,2,0:0:0:0:
448,192,36535,1,0,0:0:0:0:
320,192,36768,1,0,0:0:0:0:
448,192,36768,128,0,37000:0:0:0:0:
64,192,37000,1,8,0:0:0:0:
192,192,37000,128,0,37233:0:0:0:0:
320,192,37233,128,0,37466:0:0:0:0:
64,192,37466,1,2,0:0:0:0:
448,192,37466,1,0,0:0:0:0:
448,192,37698,128,0,37931:0:0:0:0:
64,192,37931,128,8,38163:0:0:0:0:
192,192,37931,1,0,0:0:0:0:
192,192,38163,1,0,0:0:0:0:
320,192,38163,128,0,38396:0:0:0:0:
64,192,38396,1,2,0:0:0:0:
448,192,38396,1,0,0:0:0:0:
192,192,38628,128,0,38861:0:0:0:0:
320,192,38628,1,0,0:0:0:0:
320,192,38861,128,8,39093:0:0:0:0:
448,192,38861,1,0,0:0:0:0:
64,192,39093,128,0,39326:0:0:0:0:
192,192,39093,1,0,0:0:0:0:
320,192,39326,1,2,0:0:0:0:
448,192,39326,1,0,0:0:0:0:
64,192,39559,1,0,0:0:0:0:
448,192,39559,128,0,40256:0:0:0:0:
64,192,39791,1,8,0:0:0:0:
192,192,39791,1,0,0:0:0:0:
64,192,40256,1,2,0:0:0:0:
192,192,40256,1,4,0:0:0:0:
320,192,40256,1,0,0:0:0:0:
320,192,40489,1,0,0:0:0:0:
448,192,40489,1,0,0:0:0:0:
64,192,40721,1,0,0:0:0:0:
320,192,40954,1,2,0:0:0:0:
448,192,40954,1,0,0:0:0:0:
64,192,41186,1,8,0:0:0:0:
192,192,41186,1,0,0:0:0:0:
448,192,41186,1,0,0:0:0:0:
192,192,41419,1,0,0:0:0:0:
320,192,41419,1,0,0:0:0:0:
320,192,41652,1,0,0:0:0:0:
64,192,42117,128,2,42814:0:0:0:0:
192,192,42117,1,0,0:0:0:0:
448,192,42117,1,0,0:0:0:0:
320,192,42466,1,2,0:0:0:0:
448,192,42466,1,0,0:0:0:0:
192,192,42814,1,2,0:0:0:0:
320,192,42814,1,0,0:0:0:0:
64,192,43047,1,8,0:0:0:0:
192,192,43047,1,0,0:0:0:0:
448,192,43047,1,0,0:0:0:0:
320,192,43280,1,0,0:0:0:0:
448,192,43280,1,0,0:0:0:0:
64,192,43512,1,2,0:0:0:0:
192,192,43512,1,0,0:0:0:0:
320,192,43628,1,0,0:0:0:0:
448,192,43745,1,0,0:0:0:0:
64,192,43977,1,2,0:0:0:0:
192,192,43977,128,0,44442:0:0:0:0:
448,192,43977,1,0,0:0:0:0:
320,192,44210,1,0,0:0:0:0:
448,192,44442,1,0,0:0:0:0:
64,192,44675,1,2,0:0:0:0:
192,192,44675,1,0,0:0:0:0:
64,192,44907,1,8,0:0:0:0:
320,192,44907,1,0,0:0:0:0:
448,192,44907,1,0,0:0:0:0:
192,192,45140,1,0,0:0:0:0:
320,192,45140,1,0,0:0:0:0:
192,192,45373,1,0,0:0:0:0:
64,192,45838,1,2,0:0:0:0:
320,192,45838,1,0,0:0:0:0:
448,192,45838,128,0,46535:0:0:0:0:
64,192,46186,1,2,0:0:0:0:
192,192,46186,1,0,0:0:0:0:
192,192,46535,1,2,0:0:0:0:
320,192,46535,1,0,0:0:0:0:
64,192,46768,1,8,0:0:0:0:
192,192,46768,1,0,0:0:0:0:
448,192,46768,1,0,0:0:0:0:
192,192,47000,1,0,0:0:0:0:
320,192,47000,1,0,0:0:0:0:
64,192,47233,1,8,0:0:0:0:
320,192,47233,1,0,0:0:0:0:
448,192,47233,1,0,0:0:0:0:
192,192,47349,1,0,0:0:0:0:
64,192,47466,1,0,0:0:0:0:
64,192,47698,1,8,0:0:0:0:
192,192,47698,1,4,0:0:0:0:
448,192,47698,1,0,0:0:0:0:
192,192,47931,1,8,0:0:0:0:
320,192,47931,1,0,0:0:0:0:
64,192,48163,1,8,0:0:0:0:
320,192,48163,1,2,0:0:0:0:
448,192,48163,1,0,0:0:0:0:
192,192,48396,1,8,0:0:0:0:
320,192,48396,1,0,0:0:0:0:
64,192,48628,1,8,0:0:0:0:
192,192,48628,1,2,0:0:0:0:
448,192,48628,1,0,0:0:0:0:
64,192,48861,1,8,0:0:0:0:
320,192,48861,1,0,0:0:0:0:
192,192,49093,1,8,0:0:0:0:
320,192,49093,1,2,0:0:0:0:
448,192,49093,1,0,0:0:0:0:
64,192,49326,1,8,0:0:0:0:
448,192,49326,1,0,0:0:0:0:
64,192,49559,1,8,0:0:0:0:
192,192,49559,1,2,0:0:0:0:
320,192,49791,1,8,0:0:0:0:
448,192,49791,1,0,0:0:0:0:
64,192,50024,1,8,0:0:0:0:
192,192,50024,1,2,0:0:0:0:
448,192,50024,1,0,0:0:0:0:
192,192,50256,1,8,0:0:0:0:
320,192,50256,1,0,0:0:0:0:
64,192,50489,1,8,0:0:0:0:
320,192,50489,1,2,0:0:0:0:
448,192,50489,1,0,0:0:0:0:
64,192,50721,1,8,0:0:0:0:
192,192,50721,1,0,0:0:0:0:
192,192,50954,1,8,0:0:0:0:
320,192,50954,1,2,0:0:0:0:
448,192,50954,1,0,0:0:0:0:
64,192,51419,1,8,0:0:0:0:
192,192,51419,1,2,0:0:0:0:
448,192,51419,1,0,0:0:0:0:
64,192,51652,1,8,0:0:0:0:
320,192,51652,1,0,0:0:0:0:
192,192,51884,1,8,0:0:0:0:
320,192,51884,1,2,0:0:0:0:
448,192,51884,1,0,0:0:0:0:
64,192,52117,1,8,0:0:0:0:
192,192,52117,1,0,0:0:0:0:
64,192,52349,1,8,0:0:0:0:
320,192,52349,1,2,0:0:0:0:
448,192,52349,1,0,0:0:0:0:
192,192,52582,128,8,53047:0:0:0:0:
448,192,52582,1,0,0:0:0:0:
64,192,53280,1,2,0:0:0:0:
192,192,53280,1,0,0:0:0:0:
448,192,53280,128,0,54675:0:0:0:0:
320,192,53435,1,0,0:0:0:0:
192,192,53590,1,0,0:0:0:0:
64,192,53745,1,0,0:0:0:0:
320,192,53900,1,0,0:0:0:0:
192,192,54055,1,0,0:0:0:0:
64,192,54210,1,0,0:0:0:0:
320,192,54365,1,0,0:0:0:0:
192,192,54520,1,0,0:0:0:0:
64,192,54675,1,0,0:0:0:0:
320,192,54675,1,0,0:0:0:0:
192,192,54907,1,0,0:0:0:0:
320,192,55024,1,0,0:0:0:0:
64,192,55140,1,2,0:0:0:0:
192,192,55140,1,4,0:0:0:0:
448,192,55140,128,0,55605:0:0:0:0:
192,192,55373,1,0,0:0:0:0:
64,192,55605,1,8,0:0:0:0:
320,192,55605,1,2,0:0:0:0:
320,192,55838,1,0,0:0:0:0:
192,192,55954,1,0,0:0:0:0:
64,192,56070,128,2,56535:0:0:0:0:
448,192,56070,1,0,0:0:0:0:
320,192,56303,1,0,0:0:0:0:
192,192,56535,1,8,0:0:0:0:
320,192,56535,1,2,0:0:0:0:
448,192,56535,1,0,0:0:0:0:
192,192,56768,1,0,0:0:0:0:
320,192,56884,1,0,0:0:0:0:
64,192,57000,1,2,0:0:0:0:
448,192,57000,1,0,0:0:0:0:
448,192,57233,1,0,0:0:0:0:
64,192,57466,1,8,0:0:0:0:
192,192,57466,1,2,0:0:0:0:
320,192,57466,1,0,0:0:0:0:
448,192,57698,128,0,58163:0:0:0:0:
64,192,57931,1,2,0:0:0:0:
192,192,57931,1,0,0:0:0:0:
320,192,58163,1,0,0:0:0:0:
64,192,58396,1,8,0:0:0:0:
320,192,58396,1,2,0:0:0:0:
448,192,58396,1,0,0:0:0:0:
192,192,58512,1,0,0:0:0:0:
448,192,58628,128,0,58861:0:0:0:0:
64,192,58861,1,2,0:0:0:0:
192,192,58861,1,0,0:0:0:0:
320,192,59093,1,0,0:0:0:0:
64,192,59326,1,8,0:0:0:0:
192,192,59326,1,2,0:0:0:0:
448,192,59326,1,0,0:0:0:0:
320,192,59559,1,0,0:0:0:0:
64,192,59791,1,2,0:0:0:0:
192,192,59791,1,0,0:0:0:0:
448,192,60024,128,0,60256:0:0:0:0:
64,192,60256,1,8,0:0:0:0:
192,192,60256,1,2,0:0:0:0:
320,192,60256,1,0,0:0:0:0:
192,192,60489,128,0,60954:0:0:0:0:
64,192,60721,1,2,0:0:0:0:
448,192,60721,1,0,0:0:0:0:
320,192,60954,1,0,0:0:0:0:
192,192,61186,1,8,0:0:0:0:
320,192,61186,1,2,0:0:0:0:
448,192,61186,1,0,0:0:0:0:
64,192,61419,128,0,61884:0:0:0:0:
192,192,61652,1,2,0:0:0:0:
448,192,61652,1,0,0:0:0:0:
320,192,61884,1,0,0:0:0:0:
64,192,62117,1,2,0:0:0:0:
192,192,62117,1,8,0:0:0:0:
448,192,62117,1,0,0:0:0:0:
192,192,62349,1,8,0:0:0:0:
320,192,62349,1,0,0:0:0:0:
64,192,62582,1,2,0:0:0:0:
320,192,62582,1,4,0:0:0:0:
448,192,62582,128,0,63047:0:0:0:0:
192,192,62814,1,0,0:0:0:0:
64,192,63047,1,8,0:0:0:0:
320,192,63047,1,2,0:0:0:0:
192,192,63280,1,0,0:0:0:0:
320,192,63396,1,0,0:0:0:0:
64,192,63512,128,2,63977:0:0:0:0:
448,192,63512,1,0,0:0:0:0:
320,192,63745,1,0,0:0:0:0:
192,192,63977,1,8,0:0:0:0:
320,192,63977,1,2,0:0:0:0:
448,192,63977,1,0,0:0:0:0:
192,192,64210,1,0,0:0:0:0:
320,192,64326,1,0,0:0:0:0:
64,192,64442,1,2,0:0:0:0:
448,192,64442,1,0,0:0:0:0:
320,192,64675,1,0,0:0:0:0:
64,192,64907,1,2,0:0:0:0:
192,192,64907,1,8,0:0:0:0:
448,192,64907,1,0,0:0:0:0:
320,192,65140,128,0,65605:0:0:0:0:
64,192,65373,1,2,0:0:0:0:
192,192,65373,1,0,0:0:0:0:
448,192,65605,1,0,0:0:0:0:
64,192,65838,1,2,0:0:0:0:
192,192,65838,1,8,0:0:0:0:
320,192,65838,1,0,0:0:0:0:
448,192,66070,128,0,66303:0:0:0:0:
64,192,66303,1,2,0:0:0:0:
192,192,66303,1,0,0:0:0:0:
320,192,66535,1,0,0:0:0:0:
192,192,66768,1,8,0:0:0:0:
320,192,66768,1,2,0:0:0:0:
448,192,66768,1,0,0:0:0:0:
192,192,67000,1,0,0:0:0:0:
64,192,67233,1,2,0:0:0:0:
448,192,67233,1,0,0:0:0:0:
192,192,67466,128,0,67698:0:0:0:0:
64,192,67698,1,8,0:0:0:0:
320,192,67698,1,2,0:0:0:0:
448,192,67698,1,0,0:0:0:0:
320,192,67931,128,0,68396:0:0:0:0:
64,192,68163,1,2,0:0:0:0:
448,192,68163,1,0,0:0:0:0:
192,192,68396,1,0,0:0:0:0:
64,192,68628,1,2,0:0:0:0:
320,192,68628,1,8,0:0:0:0:
448,192,68628,1,0,0:0:0:0:
192,192,68861,128,0,69326:0:0:0:0:
320,192,69093,1,2,0:0:0:0:
448,192,69093,1,0,0:0:0:0:
64,192,69326,1,0,0:0:0:0:
320,192,69326,1,0,0:0:0:0:
64,192,69559,1,8,0:0:0:0:
192,192,69559,1,2,0:0:0:0:
448,192,69559,1,0,0:0:0:0:
192,192,69791,1,8,0:0:0:0:
320,192,69791,1,0,0:0:0:0:
64,192,70024,1,4,0:0:0:0:
320,192,70024,1,2,0:0:0:0:
448,192,70024,128,0,70489:0:0:0:0:
192,192,70489,1,0,0:0:0:0:
320,192,70489,1,0,0:0:0:0:
64,192,70721,1,2,0:0:0:0:
320,192,70721,1,0,0:0:0:0:
64,192,70954,128,8,71186:0:0:0:0:
192,192,70954,1,0,0:0:0:0:
448,192,70954,1,0,0:0:0:0:
320,192,71419,128,0,71652:0:0:0:0:
64,192,71884,1,2,0:0:0:0:
192,192,71884,1,4,0:0:0:0:
448,192,71884,1,0,0:0:0:0:
64,192,72233,1,2,0:0:0:0:
320,192,72233,1,0,0:0:0:0:
448,192,72233,1,0,0:0:0:0:
192,192,72582,1,2,0:0:0:0:
320,192,72582,1,0,0:0:0:0:
448,192,72582,1,0,0:0:0:0:
64,192,72814,1,8,0:0:0:0:
192,192,72814,1,0,0:0:0:0:
448,192,72814,1,0,0:0:0:0:
320,192,73047,1,8,0:0:0:0:
448,192,73047,1,0,0:0:0:0:
64,192,73280,1,2,0:0:0:0:
192,192,73280,1,0,0:0:0:0:
320,192,73512,1,0,0:0:0:0:
192,192,73745,1,8,0:0:0:0:
320,192,73745,1,4,0:0:0:0:
448,192,73745,1,0,0:0:0:0:
192,192,73977,1,0,0:0:0:0:
64,192,74210,1,2,0:0:0:0:
448,192,74210,1,0,0:0:0:0:
192,192,74442,1,2,0:0:0:0:
320,192,74442,1,0,0:0:0:0:
64,192,74675,1,8,0:0:0:0:
320,192,74675,1,0,0:0:0:0:
448,192,74675,1,0,0:0:0:0:
192,192,74907,1,0,0:0:0:0:
320,192,75024,1,0,0:0:0:0:
64,192,75140,1,0,0:0:0:0:
448,192,75140,1,0,0:0:0:0:
192,192,75373,1,0,0:0:0:0:
64,192,75605,1,2,0:0:0:0:
192,192,75605,1,4,0:0:0:0:
320,192,75605,1,0,0:0:0:0:
448,192,75838,1,0,0:0:0:0:
64,192,76070,1,2,0:0:0:0:
320,192,76070,1,0,0:0:0:0:
192,192,76303,1,8,0:0:0:0:
448,192,76303,1,0,0:0:0:0:
64,192,76535,1,8,0:0:0:0:
320,192,76535,1,0,0:0:0:0:
192,192,76768,1,2,0:0:0:0:
64,192,77000,1,8,0:0:0:0:
320,192,77000,1,0,0:0:0:0:
448,192,77000,1,0,0:0:0:0:
64,192,77233,1,2,0:0:0:0:
192,192,77349,1,2,0:0:0:0:
64,192,77466,1,4,0:0:0:0:
320,192,77466,1,2,0:0:0:0:
448,192,77466,1,0,0:0:0:0:
192,192,77698,1,2,0:0:0:0:
320,192,77698,1,0,0:0:0:0:
64,192,77931,1,2,0:0:0:0:
192,192,77931,1,8,0:0:0:0:
448,192,77931,1,0,0:0:0:0:
320,192,78163,1,2,0:0:0:0:
448,192,78163,1,0,0:0:0:0:
64,192,78396,1,2,0:0:0:0:
320,192,78396,1,0,0:0:0:0:
192,192,78628,1,2,0:0:0:0:
448,192,78628,1,0,0:0:0:0:
64,192,78861,1,8,0:0:0:0:
320,192,78861,1,2,0:0:0:0:
448,192,78861,1,0,0:0:0:0:
64,192,79093,1,2,0:0:0:0:
192,192,79093,1,0,0:0:0:0:
320,192,79210,1,2,0:0:0:0:
64,192,79326,1,2,0:0:0:0:
192,192,79326,1,4,0:0:0:0:
448,192,79326,1,0,0:0:0:0:
320,192,79559,1,2,0:0:0:0:
448,192,79559,1,0,0:0:0:0:
64,192,79791,1,8,0:0:0:0:
192,192,79791,1,2,0:0:0:0:
320,192,79791,1,0,0:0:0:0:
192,192,80024,1,2,0:0:0:0:
448,192,80024,1,0,0:0:0:0:
64,192,80256,1,2,0:0:0:0:
320,192,80256,1,0,0:0:0:0:
192,192,80373,1,2,0:0:0:0:
64,192,80489,1,2,0:0:0:0:
448,192,80489,1,0,0:0:0:0:
192,192,80721,1,8,0:0:0:0:
320,192,80721,1,2,0:0:0:0:
448,192,80721,1,0,0:0:0:0:
64,192,80954,1,2,0:0:0:0:
320,192,80954,1,0,0:0:0:0:
192,192,81070,1,2,0:0:0:0:
320,192,81186,1,8,0:0:0:0:
448,192,81186,1,2,0:0:0:0:
64,192,81419,1,8,0:0:0:0:
192,192,81419,1,0,0:0:0:0:
320,192,81652,1,8,0:0:0:0:
448,192,81652,1,2,0:0:0:0:
64,192,81884,1,8,0:0:0:0:
448,192,81884,1,0,0:0:0:0:
192,192,82117,1,8,0:0:0:0:
320,192,82117,1,2,0:0:0:0:
64,192,82349,1,8,0:0:0:0:
192,192,82349,1,0,0:0:0:0:
320,192,82582,1,8,0:0:0:0:
448,192,82582,1,2,0:0:0:0:
64,192,82814,1,8,0:0:0:0:
448,192,82814,1,0,0:0:0:0:
192,192,82931,1,8,0:0:0:0:
64,192,83047,1,2,0:0:0:0:
448,192,83047,1,4,0:0:0:0:
320,192,83202,1,0,0:0:0:0:
192,192,83357,1,0,0:0:0:0:
64,192,83512,1,0,0:0:0:0:
448,192,83667,1,0,0:0:0:0:
320,192,83822,1,0,0:0:0:0:
192,192,83977,1,0,0:0:0:0:
320,192,84132,1,0,0:0:0:0:
448,192,84287,1,0,0:0:0:0:
64,192,84442,1,0,0:0:0:0:
192,192,84559,1,0,0:0:0:0:
448,192,84675,1,0,0:0:0:0:
320,192,84791,1,0,0:0:0:0:
64,192,84907,128,4,86768:0:0:0:0:
192,192,84907,128,2,86768:0:0:0:0:
448,192,84907,128,0,86768:0:0:0:0:
