osu file format v14

[General]
AudioFilename: audio.mp3
AudioLeadIn: 0
PreviewTime: 54703
Countdown: 0
SampleSet: Normal
StackLeniency: 0.7
Mode: 1
LetterboxInBreaks: 0
WidescreenStoryboard: 1

[Editor]
Bookmarks: 510,5026,15348,25671,35993,45025,55348,65671,75993,86316,96638,100509
DistanceSpacing: 1.2
BeatDivisor: 4
GridSize: 32
TimelineZoom: 2.1

[Metadata]
Title:Sentou! Aqua-dan / Magma-dan no Leader
TitleUnicode:戦闘! アクア団・マグマ団のリーダー
Artist:Adachi Minako, Kuroda Hideaki
ArtistUnicode:足立美奈子, 黒田英明
Creator:eiri-
Version:Muzukashii
Source:ポケットモンスター オメガルビー・アルファサファイア
Tags:Ayyri Video Game Instrumental Pokémon Pokemon Pocket Monsters Omega Ruby Alpha Sapphire Emerald ORAS RSE Battle Team Aqua Magma 増田 順一 Junichi Masuda Nintendo
BeatmapID:2313103
BeatmapSetID:1104719

[Difficulty]
HPDrainRate:6
CircleSize:2
OverallDifficulty:5
ApproachRate:10
SliderMultiplier:1.4
SliderTickRate:1

[Events]
//Background and Video events
0,0,"Magma 682.png",0,15
//Break Periods
//Storyboard Layer 0 (Background)
//Storyboard Layer 1 (Fail)
//Storyboard Layer 2 (Pass)
//Storyboard Layer 3 (Foreground)
//Storyboard Layer 4 (Overlay)
//Storyboard Sound Samples

[TimingPoints]
510,322.58064516129,4,1,0,75,1,0
510,-125,4,1,0,75,0,0
792,-125,4,1,0,50,0,0
1760,-125,4,1,0,75,0,0
2083,-125,4,1,0,50,0,0
2405,-125,4,1,0,75,0,0
2728,-125,4,1,0,50,0,0
4018,-117.647058823529,4,1,0,75,0,0
4380,322.58064516129,4,1,0,75,1,8
4380,-111.111111111111,4,1,0,75,0,0
4662,-105.263157894737,4,1,0,75,0,0
5026,322.58064516129,4,1,0,60,1,0
5026,-100,4,1,0,60,0,0
14340,-99.009900990099,4,1,0,70,0,0
14502,-98.0392156862745,4,1,0,72,0,0
14663,-97.0873786407767,4,1,0,74,0,0
14744,-96.1538461538461,4,1,0,75,0,0
14824,-95.2380952380952,4,1,0,76,0,0
14905,-94.3396226415094,4,1,0,77,0,0
14985,-93.4579439252336,4,1,0,78,0,0
15308,-90.9090909090909,4,1,0,80,0,0
24985,-89.2857142857143,4,1,0,82,0,0
25066,-88.4955752212389,4,1,0,83,0,0
25147,-87.719298245614,4,1,0,84,0,0
25308,-86.2068965517241,4,1,0,86,0,0
25389,-85.4700854700855,4,1,0,87,0,0
25469,-84.7457627118644,4,1,0,88,0,0
25631,-83.3333333333333,4,1,0,90,0,0
35308,-85.4700854700855,4,1,0,90,0,0
35469,-86.9565217391304,4,1,0,90,0,0
35631,-88.4955752212389,4,1,0,90,0,0
35953,-90.9090909090909,4,1,0,75,0,0
36437,-92.5925925925926,4,1,0,75,0,0
36760,-94.3396226415094,4,1,0,75,0,0
36921,-96.1538461538461,4,1,0,75,0,0
37244,-98.0392156862745,4,1,0,70,0,0
37727,-100,4,1,0,70,0,0
38050,-102.040816326531,4,1,0,70,0,0
38211,-104.166666666667,4,1,0,70,0,0
38534,-106.382978723404,4,1,0,65,0,0
38695,-108.695652173913,4,1,0,65,0,0
38856,-111.111111111111,4,1,0,65,0,0
39018,-114.942528735632,4,1,0,65,0,0
39340,-117.647058823529,4,1,0,65,0,0
39502,-120.481927710843,4,1,0,65,0,0
39824,-125,4,1,0,60,0,0
44018,-119.047619047619,4,1,0,63,0,0
44340,-116.279069767442,4,1,0,65,0,0
44421,-114.942528735632,4,1,0,67,0,0
44502,-113.636363636364,4,1,0,70,0,0
44663,-111.111111111111,4,1,0,75,0,0
44824,-105.263157894737,4,1,0,77,0,0
44985,-100,4,1,0,80,0,0
54340,-97.0873786407767,4,1,0,92,0,0
54502,-95.2380952380952,4,1,0,94,0,0
54663,-90.9090909090909,4,1,0,96,0,0
54985,-86.9565217391304,4,1,0,98,0,0
55348,-76.9230769230769,4,1,0,100,0,1
65671,-76.9230769230769,4,1,0,90,0,0
66115,-78.125,4,1,0,90,0,0
66437,-79.3650793650794,4,1,0,90,0,0
66598,-80.6451612903226,4,1,0,90,0,0
66921,-81.9672131147541,4,1,0,80,0,0
67244,-83.3333333333333,4,1,0,80,0,0
67405,-84.7457627118644,4,1,0,80,0,0
67727,-86.2068965517241,4,1,0,80,0,0
67889,-87.719298245614,4,1,0,80,0,0
68211,-89.2857142857143,4,1,0,70,0,0
68695,-90.9090909090909,4,1,0,70,0,0
69018,-91.743119266055,4,1,0,70,0,0
69179,-92.5925925925926,4,1,0,70,0,0
69502,-93.4579439252336,4,1,0,60,0,0
69824,-94.3396226415094,4,1,0,60,0,0
69985,-95.2380952380952,4,1,0,60,0,0
70308,-96.1538461538461,4,1,0,60,0,0
70469,-97.0873786407767,4,1,0,60,0,0
70792,-100,4,1,0,75,0,0
74663,-99.009900990099,4,1,0,75,0,0
74824,-98.0392156862745,4,1,0,75,0,0
74985,-97.0873786407767,4,1,0,75,0,0
75147,-96.1538461538461,4,1,0,75,0,0
75308,-95.2380952380952,4,1,0,75,0,0
75631,-93.4579439252336,4,1,0,75,0,0
75953,-90.9090909090909,4,1,0,80,0,0
85631,-89.2857142857143,4,1,0,82,0,0
85711,-88.4955752212389,4,1,0,83,0,0
85792,-87.719298245614,4,1,0,84,0,0
85953,-86.2068965517241,4,1,0,86,0,0
86034,-85.4700854700855,4,1,0,87,0,0
86115,-84.7457627118644,4,1,0,88,0,0
86276,-83.3333333333333,4,1,0,90,0,0
95953,-85.4700854700855,4,1,0,90,0,0
96115,-86.9565217391304,4,1,0,90,0,0
96276,-88.4955752212389,4,1,0,90,0,0
96598,-90.9090909090909,4,1,0,75,0,0
97082,-92.5925925925926,4,1,0,75,0,0
97405,-94.3396226415094,4,1,0,75,0,0
97566,-98.0392156862745,4,1,0,75,0,0
97889,-100,4,1,0,70,0,0
98373,-102.040816326531,4,1,0,70,0,0
98695,-104.166666666667,4,1,0,70,0,0
98856,-106.382978723404,4,1,0,70,0,0
99179,-108.695652173913,4,1,0,65,0,0
99340,-111.111111111111,4,1,0,65,0,0
99502,-113.636363636364,4,1,0,65,0,0
99663,-116.279069767442,4,1,0,65,0,0
99985,-119.047619047619,4,1,0,65,0,0
100147,-121.951219512195,4,1,0,65,0,0
100469,-125,4,1,0,60,0,0

[HitObjects]
256,192,510,5,4,0:0:0:0:
256,192,832,1,0,0:0:0:0:
256,192,1155,1,8,0:0:0:0:
256,192,1800,1,4,0:0:0:0:
256,192,2122,1,8,0:0:0:0:
256,192,2445,1,4,0:0:0:0:
256,192,2768,1,0,0:0:0:0:
256,192,3090,1,8,0:0:0:0:
256,192,3735,1,8,0:0:0:0:
256,192,4058,1,4,0:0:0:0:
256,192,4380,1,4,0:0:0:0:
256,192,4702,1,4,0:0:0:0:
256,192,5026,1,8,0:0:0:0:
256,192,5509,1,8,0:0:0:0:
256,192,5832,1,8,0:0:0:0:
256,192,5993,1,0,0:0:0:0:
256,192,6316,1,0,0:0:0:0:
256,192,6477,1,8,0:0:0:0:
256,192,6800,1,8,0:0:0:0:
256,192,6961,1,0,0:0:0:0:
256,192,7122,1,0,0:0:0:0:
256,192,7284,1,8,0:0:0:0:
256,192,7445,1,8,0:0:0:0:
256,192,7525,1,8,0:0:0:0:
256,192,7606,1,8,0:0:0:0:
256,192,8090,1,8,0:0:0:0:
256,192,8413,1,8,0:0:0:0:
256,192,8574,1,0,0:0:0:0:
256,192,8896,1,0,0:0:0:0:
256,192,9058,1,8,0:0:0:0:
256,192,9219,1,8,0:0:0:0:
256,192,9542,1,8,0:0:0:0:
256,192,9703,1,0,0:0:0:0:
256,192,9864,1,8,0:0:0:0:
256,192,10025,1,8,0:0:0:0:
256,192,10106,1,8,0:0:0:0:
256,192,10187,1,8,0:0:0:0:
256,192,10671,1,8,0:0:0:0:
256,192,10993,1,8,0:0:0:0:
256,192,11155,1,0,0:0:0:0:
256,192,11477,1,0,0:0:0:0:
256,192,11638,1,8,0:0:0:0:
256,192,11961,1,8,0:0:0:0:
256,192,12122,1,0,0:0:0:0:
256,192,12284,1,0,0:0:0:0:
256,192,12445,1,8,0:0:0:0:
256,192,12767,1,8,0:0:0:0:
256,192,13251,1,8,0:0:0:0:
256,192,13574,1,8,0:0:0:0:
256,192,13735,1,0,0:0:0:0:
256,192,14058,1,8,0:0:0:0:
256,192,14380,1,0,0:0:0:0:
256,192,14542,1,8,0:0:0:0:
256,192,14703,1,8,0:0:0:0:
256,192,14784,1,8,0:0:0:0:
256,192,14864,1,8,0:0:0:0:
256,192,14945,1,8,0:0:0:0:
256,192,15025,1,8,0:0:0:0:
256,192,15348,1,12,0:0:0:0:
256,192,15509,1,0,0:0:0:0:
256,192,15590,1,0,0:0:0:0:
256,192,15671,1,0,0:0:0:0:
256,192,15832,1,8,0:0:0:0:
256,192,16316,1,8,0:0:0:0:
256,192,16638,1,8,0:0:0:0:
256,192,16800,1,0,0:0:0:0:
256,192,16961,1,8,0:0:0:0:
256,192,17284,1,8,0:0:0:0:
256,192,17445,1,8,0:0:0:0:
256,192,17606,1,0,0:0:0:0:
256,192,17767,1,0,0:0:0:0:
256,192,17929,1,8,0:0:0:0:
256,192,18251,1,0,0:0:0:0:
256,192,18413,1,8,0:0:0:0:
256,192,18735,1,0,0:0:0:0:
256,192,18896,1,8,0:0:0:0:
256,192,19058,1,8,0:0:0:0:
256,192,19219,1,0,0:0:0:0:
256,192,19380,1,8,0:0:0:0:
256,192,19703,1,0,0:0:0:0:
256,192,19864,1,8,0:0:0:0:
256,192,20025,1,0,0:0:0:0:
256,192,20187,1,8,0:0:0:0:
256,192,20348,1,8,0:0:0:0:
256,192,20429,1,8,0:0:0:0:
256,192,20509,1,8,0:0:0:0:
256,192,20671,1,0,0:0:0:0:
256,192,20832,1,0,0:0:0:0:
256,192,20993,1,8,0:0:0:0:
256,192,21477,1,0,0:0:0:0:
256,192,21800,1,8,0:0:0:0:
256,192,21961,1,0,0:0:0:0:
256,192,22122,1,8,0:0:0:0:
256,192,22284,1,8,0:0:0:0:
256,192,22445,1,0,0:0:0:0:
256,192,22767,1,8,0:0:0:0:
256,192,22929,1,0,0:0:0:0:
256,192,23090,1,8,0:0:0:0:
256,192,23251,1,0,0:0:0:0:
256,192,23332,1,0,0:0:0:0:
256,192,23413,1,0,0:0:0:0:
256,192,23574,1,8,0:0:0:0:
256,192,23896,1,8,0:0:0:0:
256,192,24058,1,0,0:0:0:0:
256,192,24219,1,0,0:0:0:0:
256,192,24380,1,8,0:0:0:0:
256,192,24703,1,8,0:0:0:0:
256,192,24864,1,8,0:0:0:0:
256,192,25025,1,0,0:0:0:0:
256,192,25106,1,0,0:0:0:0:
256,192,25187,1,0,0:0:0:0:
256,192,25348,1,8,0:0:0:0:
256,192,25429,1,8,0:0:0:0:
256,192,25509,1,8,0:0:0:0:
256,192,25671,1,12,0:0:0:0:
256,192,26155,1,8,0:0:0:0:
256,192,26477,1,8,0:0:0:0:
256,192,26638,1,0,0:0:0:0:
256,192,26961,1,8,0:0:0:0:
256,192,27122,1,8,0:0:0:0:
256,192,27284,1,0,0:0:0:0:
256,192,27445,1,0,0:0:0:0:
256,192,27606,1,8,0:0:0:0:
256,192,27767,1,8,0:0:0:0:
256,192,27929,1,0,0:0:0:0:
256,192,28090,1,8,0:0:0:0:
256,192,28171,1,8,0:0:0:0:
256,192,28251,1,8,0:0:0:0:
256,192,28574,1,0,0:0:0:0:
256,192,28735,1,8,0:0:0:0:
256,192,29058,1,8,0:0:0:0:
256,192,29219,1,0,0:0:0:0:
256,192,29380,1,0,0:0:0:0:
256,192,29542,1,8,0:0:0:0:
256,192,29703,1,0,0:0:0:0:
256,192,29864,1,8,0:0:0:0:
256,192,30187,1,8,0:0:0:0:
256,192,30348,1,0,0:0:0:0:
256,192,30509,1,8,0:0:0:0:
256,192,30671,1,8,0:0:0:0:
256,192,30832,1,0,0:0:0:0:
256,192,31316,1,8,0:0:0:0:
256,192,31638,1,8,0:0:0:0:
256,192,31800,1,0,0:0:0:0:
256,192,31961,1,8,0:0:0:0:
256,192,32042,1,8,0:0:0:0:
256,192,32122,1,8,0:0:0:0:
256,192,32284,1,0,0:0:0:0:
256,192,32445,1,8,0:0:0:0:
256,192,32606,1,0,0:0:0:0:
256,192,32767,1,8,0:0:0:0:
256,192,33090,1,0,0:0:0:0:
256,192,33251,1,0,0:0:0:0:
256,192,33413,1,8,0:0:0:0:
256,192,33735,1,0,0:0:0:0:
256,192,33896,1,8,0:0:0:0:
256,192,33977,1,8,0:0:0:0:
256,192,34058,1,8,0:0:0:0:
256,192,34219,1,0,0:0:0:0:
256,192,34380,1,8,0:0:0:0:
256,192,34703,1,8,0:0:0:0:
256,192,34864,1,0,0:0:0:0:
256,192,34945,1,0,0:0:0:0:
256,192,35025,1,0,0:0:0:0:
256,192,35187,1,8,0:0:0:0:
256,192,35348,1,0,0:0:0:0:
256,192,35509,1,0,0:0:0:0:
256,192,35671,1,8,0:0:0:0:
256,192,35993,1,0,0:0:0:0:
256,192,36477,1,0,0:0:0:0:
256,192,36800,1,0,0:0:0:0:
256,192,36961,1,8,0:0:0:0:
256,192,37284,1,0,0:0:0:0:
256,192,37767,1,0,0:0:0:0:
256,192,38090,1,0,0:0:0:0:
256,192,38251,1,8,0:0:0:0:
256,192,38574,1,0,0:0:0:0:
256,192,38735,1,0,0:0:0:0:
256,192,38896,1,8,0:0:0:0:
256,192,39058,1,0,0:0:0:0:
256,192,39380,1,0,0:0:0:0:
256,192,39542,1,8,0:0:0:0:
256,192,39864,1,12,0:0:0:0:
256,192,41155,1,0,0:0:0:0:
256,192,42445,1,0,0:0:0:0:
256,192,43735,1,0,0:0:0:0:
256,192,44058,1,8,0:0:0:0:
256,192,44380,1,8,0:0:0:0:
256,192,44461,1,8,0:0:0:0:
256,192,44542,1,8,0:0:0:0:
256,192,44703,1,0,0:0:0:0:
256,192,44864,1,0,0:0:0:0:
256,192,45025,1,12,0:0:0:0:
256,192,45509,1,8,0:0:0:0:
256,192,45671,1,0,0:0:0:0:
256,192,45993,1,8,0:0:0:0:
256,192,46316,1,0,0:0:0:0:
256,192,46638,1,0,0:0:0:0:
256,192,46800,1,8,0:0:0:0:
256,192,46961,1,0,0:0:0:0:
256,192,47284,1,8,0:0:0:0:
256,192,47606,1,8,0:0:0:0:
256,192,47767,1,8,0:0:0:0:
256,192,47929,1,0,0:0:0:0:
256,192,48090,1,8,0:0:0:0:
256,192,48251,1,0,0:0:0:0:
256,192,48574,1,8,0:0:0:0:
256,192,48896,1,0,0:0:0:0:
256,192,49058,1,0,0:0:0:0:
256,192,49219,1,8,0:0:0:0:
256,192,49380,1,0,0:0:0:0:
256,192,49703,1,0,0:0:0:0:
256,192,49864,1,8,0:0:0:0:
256,192,50187,1,12,0:0:0:0:
256,192,50671,1,8,0:0:0:0:
256,192,50832,1,0,0:0:0:0:
256,192,51155,1,8,0:0:0:0:
256,192,51477,1,0,0:0:0:0:
256,192,51800,1,0,0:0:0:0:
256,192,51961,1,8,0:0:0:0:
256,192,52122,1,0,0:0:0:0:
256,192,52445,1,8,0:0:0:0:
256,192,52606,1,0,0:0:0:0:
256,192,52767,1,8,0:0:0:0:
256,192,53090,1,0,0:0:0:0:
256,192,53251,1,8,0:0:0:0:
256,192,53735,1,8,0:0:0:0:
256,192,54058,1,0,0:0:0:0:
256,192,54380,1,8,0:0:0:0:
256,192,54542,1,0,0:0:0:0:
256,192,54703,1,12,0:0:0:0:
256,192,55025,1,0,0:0:0:0:
256,192,55348,1,0,0:0:0:0:
256,192,55509,1,0,0:0:0:0:
256,192,55671,1,12,0:0:0:0:
256,192,55993,1,0,0:0:0:0:
256,192,56155,1,0,0:0:0:0:
256,192,56316,1,12,0:0:0:0:
256,192,56638,1,0,0:0:0:0:
256,192,56800,1,0,0:0:0:0:
256,192,56961,1,12,0:0:0:0:
256,192,57284,1,8,0:0:0:0:
256,192,57606,1,12,0:0:0:0:
256,192,57929,1,0,0:0:0:0:
256,192,58090,1,0,0:0:0:0:
256,192,58251,1,12,0:0:0:0:
256,192,58574,1,0,0:0:0:0:
256,192,58735,1,0,0:0:0:0:
256,192,58896,1,12,0:0:0:0:
256,192,59219,1,0,0:0:0:0:
256,192,59380,1,0,0:0:0:0:
256,192,59542,1,12,0:0:0:0:
256,192,59864,1,0,0:0:0:0:
256,192,60187,1,12,0:0:0:0:
256,192,60509,1,0,0:0:0:0:
256,192,60671,1,0,0:0:0:0:
256,192,60832,1,12,0:0:0:0:
256,192,61155,1,0,0:0:0:0:
256,192,61316,1,0,0:0:0:0:
256,192,61477,1,12,0:0:0:0:
256,192,61800,1,0,0:0:0:0:
256,192,61961,1,0,0:0:0:0:
256,192,62122,1,12,0:0:0:0:
256,192,62445,1,8,0:0:0:0:
256,192,62767,1,12,0:0:0:0:
256,192,63090,1,0,0:0:0:0:
256,192,63251,1,0,0:0:0:0:
256,192,63413,1,12,0:0:0:0:
256,192,63735,1,0,0:0:0:0:
256,192,63896,1,0,0:0:0:0:
256,192,64058,1,12,0:0:0:0:
256,192,64380,1,0,0:0:0:0:
256,192,64542,1,0,0:0:0:0:
256,192,64703,1,12,0:0:0:0:
256,192,65025,1,0,0:0:0:0:
256,192,65348,1,12,0:0:0:0:
256,192,65671,1,12,0:0:0:0:
256,192,66155,1,0,0:0:0:0:
256,192,66477,1,0,0:0:0:0:
256,192,66638,1,8,0:0:0:0:
256,192,66961,1,0,0:0:0:0:
256,192,67284,1,8,0:0:0:0:
256,192,67445,1,0,0:0:0:0:
256,192,67767,1,0,0:0:0:0:
256,192,67929,1,8,0:0:0:0:
256,192,68251,1,0,0:0:0:0:
256,192,68735,1,0,0:0:0:0:
256,192,69058,1,0,0:0:0:0:
256,192,69219,1,8,0:0:0:0:
256,192,69542,1,0,0:0:0:0:
256,192,69864,1,8,0:0:0:0:
256,192,70025,1,0,0:0:0:0:
256,192,70348,1,0,0:0:0:0:
256,192,70509,1,8,0:0:0:0:
256,192,70832,1,8,0:0:0:0:
256,192,71155,1,8,0:0:0:0:
256,192,71316,1,0,0:0:0:0:
256,192,71477,1,0,0:0:0:0:
256,192,71800,1,8,0:0:0:0:
256,192,72122,1,0,0:0:0:0:
256,192,72445,1,8,0:0:0:0:
256,192,72606,1,0,0:0:0:0:
256,192,72767,1,0,0:0:0:0:
256,192,73090,1,8,0:0:0:0:
256,192,73413,1,0,0:0:0:0:
256,192,73896,1,8,0:0:0:0:
256,192,74058,1,0,0:0:0:0:
256,192,74380,1,8,0:0:0:0:
256,192,74703,1,8,0:0:0:0:
256,192,74864,1,8,0:0:0:0:
256,192,75025,1,0,0:0:0:0:
256,192,75187,1,8,0:0:0:0:
256,192,75348,1,0,0:0:0:0:
256,192,75671,1,0,0:0:0:0:
256,192,75993,1,12,0:0:0:0:
256,192,76155,1,0,0:0:0:0:
256,192,76235,1,0,0:0:0:0:
256,192,76316,1,0,0:0:0:0:
256,192,76477,1,8,0:0:0:0:
256,192,76961,1,8,0:0:0:0:
256,192,77284,1,8,0:0:0:0:
256,192,77445,1,0,0:0:0:0:
256,192,77606,1,8,0:0:0:0:
256,192,77929,1,8,0:0:0:0:
256,192,78090,1,8,0:0:0:0:
256,192,78251,1,0,0:0:0:0:
256,192,78413,1,0,0:0:0:0:
256,192,78574,1,8,0:0:0:0:
256,192,78896,1,0,0:0:0:0:
256,192,79058,1,8,0:0:0:0:
256,192,79380,1,0,0:0:0:0:
256,192,79542,1,8,0:0:0:0:
256,192,79703,1,8,0:0:0:0:
256,192,79864,1,0,0:0:0:0:
256,192,80025,1,8,0:0:0:0:
256,192,80348,1,0,0:0:0:0:
256,192,80509,1,8,0:0:0:0:
256,192,80671,1,0,0:0:0:0:
256,192,80832,1,8,0:0:0:0:
256,192,80993,1,8,0:0:0:0:
256,192,81074,1,8,0:0:0:0:
256,192,81155,1,8,0:0:0:0:
256,192,81316,1,0,0:0:0:0:
256,192,81477,1,0,0:0:0:0:
256,192,81638,1,8,0:0:0:0:
256,192,82122,1,0,0:0:0:0:
256,192,82445,1,8,0:0:0:0:
256,192,82606,1,0,0:0:0:0:
256,192,82767,1,8,0:0:0:0:
256,192,82929,1,8,0:0:0:0:
256,192,83090,1,0,0:0:0:0:
256,192,83413,1,8,0:0:0:0:
256,192,83574,1,0,0:0:0:0:
256,192,83735,1,8,0:0:0:0:
256,192,83896,1,0,0:0:0:0:
256,192,83977,1,0,0:0:0:0:
256,192,84058,1,0,0:0:0:0:
256,192,84219,1,8,0:0:0:0:
256,192,84542,1,8,0:0:0:0:
256,192,84703,1,0,0:0:0:0:
256,192,84864,1,0,0:0:0:0:
256,192,85025,1,8,0:0:0:0:
256,192,85348,1,8,0:0:0:0:
256,192,85509,1,8,0:0:0:0:
256,192,85671,1,0,0:0:0:0:
256,192,85751,1,0,0:0:0:0:
256,192,85832,1,0,0:0:0:0:
256,192,85993,1,8,0:0:0:0:
256,192,86074,1,8,0:0:0:0:
256,192,86155,1,8,0:0:0:0:
256,192,86316,1,12,0:0:0:0:
256,192,86800,1,8,0:0:0:0:
256,192,87122,1,8,0:0:0:0:
256,192,87284,1,0,0:0:0:0:
256,192,87606,1,8,0:0:0:0:
256,192,87767,1,8,0:0:0:0:
256,192,87929,1,0,0:0:0:0:
256,192,88090,1,0,0:0:0:0:
256,192,88251,1,8,0:0:0:0:
256,192,88413,1,8,0:0:0:0:
256,192,88574,1,0,0:0:0:0:
256,192,88735,1,8,0:0:0:0:
256,192,88816,1,8,0:0:0:0:
256,192,88896,1,8,0:0:0:0:
256,192,89219,1,0,0:0:0:0:
256,192,89380,1,8,0:0:0:0:
256,192,89703,1,8,0:0:0:0:
256,192,89864,1,0,0:0:0:0:
256,192,90025,1,0,0:0:0:0:
256,192,90187,1,8,0:0:0:0:
256,192,90348,1,0,0:0:0:0:
256,192,90509,1,8,0:0:0:0:
256,192,90832,1,8,0:0:0:0:
256,192,90993,1,0,0:0:0:0:
256,192,91155,1,8,0:0:0:0:
256,192,91235,1,8,0:0:0:0:
256,192,91316,1,8,0:0:0:0:
256,192,91477,1,0,0:0:0:0:
256,192,91961,1,8,0:0:0:0:
256,192,92284,1,8,0:0:0:0:
256,192,92445,1,0,0:0:0:0:
256,192,92606,1,8,0:0:0:0:
256,192,92687,1,8,0:0:0:0:
256,192,92767,1,8,0:0:0:0:
256,192,92929,1,0,0:0:0:0:
256,192,93090,1,8,0:0:0:0:
256,192,93251,1,0,0:0:0:0:
256,192,93413,1,8,0:0:0:0:
256,192,93735,1,0,0:0:0:0:
256,192,93896,1,0,0:0:0:0:
256,192,94058,1,8,0:0:0:0:
256,192,94380,1,0,0:0:0:0:
256,192,94542,1,8,0:0:0:0:
256,192,94622,1,8,0:0:0:0:
256,192,94703,1,8,0:0:0:0:
256,192,94864,1,0,0:0:0:0:
256,192,95025,1,8,0:0:0:0:
256,192,95348,1,8,0:0:0:0:
256,192,95509,1,0,0:0:0:0:
256,192,95590,1,0,0:0:0:0:
256,192,95671,1,0,0:0:0:0:
256,192,95832,1,8,0:0:0:0:
256,192,95993,1,0,0:0:0:0:
256,192,96155,1,0,0:0:0:0:
256,192,96316,1,8,0:0:0:0:
256,192,96638,1,0,0:0:0:0:
256,192,97122,1,0,0:0:0:0:
256,192,97445,1,0,0:0:0:0:
256,192,97606,1,8,0:0:0:0:
256,192,97929,1,0,0:0:0:0:
256,192,98413,1,0,0:0:0:0:
256,192,98735,1,0,0:0:0:0:
256,192,98896,1,8,0:0:0:0:
256,192,99219,1,0,0:0:0:0:
256,192,99380,1,0,0:0:0:0:
256,192,99542,1,8,0:0:0:0:
256,192,99703,1,0,0:0:0:0:
256,192,100025,1,0,0:0:0:0:
256,192,100187,1,8,0:0:0:0:
256,192,100509,1,12,0:0:0:0:
