osu file format v14

[General]
AudioFilename: audio.mp3
AudioLeadIn: 0
PreviewTime: 4860
Countdown: 0
SampleSet: Soft
StackLeniency: 0.7
Mode: 0
LetterboxInBreaks: 0
WidescreenStoryboard: 1

[Editor]
Bookmarks: 1151,15344,25667,35989,45021,55344,65667,75989,86312,96634,100505
DistanceSpacing: 1.2
BeatDivisor: 4
GridSize: 8
TimelineZoom: 1.900006

[Metadata]
Title:Sentou! Aqua-dan / Magma-dan no Leader
TitleUnicode:戦闘! アクア団・マグマ団のリーダー
Artist:Adachi Minako, Kuroda Hideaki
ArtistUnicode:足立美奈子, 黒田英明
Creator:Realazy
Version:Trynna's Hard
Source:ポケモン オメガルビー・アルファサファイア
Tags:Trynna Hakura egg and cheese Kalibe video game instrumental pokémon pokemon pocket monsters omega ruby alpha sapphire emerald oras rse battle team aqua magma 増田 順 Junichi Masuda
BeatmapID:1939272
BeatmapSetID:779775

[Difficulty]
HPDrainRate:5
CircleSize:4
OverallDifficulty:7
ApproachRate:8
SliderMultiplier:1.5
SliderTickRate:1

[Events]
//Background and Video events
0,0,"pokemon.jpg",0,0
//Break Periods
//Storyboard Layer 0 (Background)
//Storyboard Layer 1 (Fail)
//Storyboard Layer 2 (Pass)
//Storyboard Layer 3 (Foreground)
//Storyboard Sound Samples

[TimingPoints]
-139,322.58064516129,4,2,1,50,1,0
-139,-133.333333333333,4,2,1,50,0,0
15344,-111.111111111111,4,2,1,80,0,0
25667,-100,4,2,1,90,0,0
35989,-117.647058823529,4,2,1,70,0,0
39860,-133.333333333333,4,2,1,40,0,0
42441,-133.333333333333,4,2,1,30,0,0
45021,-111.111111111111,4,2,1,60,0,0
55344,-90.9090909090909,4,2,2,90,0,0
55989,-90.9090909090909,4,2,2,90,0,0
56634,-90.9090909090909,4,2,2,90,0,0
57925,-90.9090909090909,4,2,2,90,0,0
58570,-90.9090909090909,4,2,2,90,0,0
59215,-90.9090909090909,4,2,2,90,0,0
60505,-90.9090909090909,4,2,2,90,0,0
61150,-90.9090909090909,4,2,2,90,0,0
61796,-90.9090909090909,4,2,2,90,0,0
63086,-90.9090909090909,4,2,2,90,0,0
63731,-90.9090909090909,4,2,2,90,0,0
64376,-90.9090909090909,4,2,2,90,0,0
65667,-125,4,2,1,70,0,0
75989,-111.111111111111,4,2,1,80,0,0
86312,-100,4,2,1,90,0,0
96634,-100,4,2,1,70,0,0
100505,-125,4,2,1,50,0,0

[Colours]
Combo1 : 237,173,109
Combo2 : 108,151,221
Combo3 : 245,98,90
Combo4 : 113,213,234

[HitObjects]
57,108,505,5,0,3:0:0:0:
57,108,828,1,0,0:0:0:0:
142,63,1151,1,0,0:0:0:0:
142,63,1474,1,0,0:0:0:0:
233,119,1796,6,0,P|281:126|348:117,1,112.500004291535,0|0,3:0|0:0,0:0:0:0:
430,14,2441,2,0,P|382:7|315:16,1,112.500004291535,0|0,3:0|0:0,0:0:0:0:
419,195,3086,5,0,0:0:0:0:
419,195,3409,1,0,0:0:0:0:
487,112,3731,1,0,0:0:0:0:
487,112,4054,1,0,3:0:0:0:
476,250,4376,6,0,L|363:244,1,112.500004291535,0|0,3:0|3:0,0:0:0:0:
277,160,5022,6,0,B|181:149|214:218|119:198,1,168.750006437302,2|0,3:2|3:0,0:0:0:0:
11,84,5828,1,0,0:0:0:0:
59,15,5989,2,0,P|86:40|95:78,1,56.2500021457673,8|0,0:3|0:0,0:0:0:0:
15,113,6312,6,0,L|24:235,1,112.500004291535,0|0,3:0|0:0,0:0:0:0:
98,275,6796,2,0,P|56:311|1:316,1,112.500004291535,2|0,3:2|0:0,0:0:0:0:
113,191,7280,2,0,P|161:212|172:230,1,56.2500021457673,8|8,0:3|0:3,0:0:0:0:
178,240,7521,1,8,0:3:0:0:
178,240,7602,6,0,B|195:266|217:282|217:282|244:281|278:272,1,112.500004291535,0|0,3:0|0:0,0:0:0:0:
346,234,8086,2,0,B|373:227|400:226|400:226|422:242|439:268,1,112.500004291535,0|0,3:0|0:0,0:0:0:0:
465,348,8570,1,8,0:3:0:0:
413,195,8893,6,0,P|398:122|405:21,1,168.750006437302,0|2,3:0|3:2,0:0:0:0:
256,106,9699,1,0,0:0:0:0:
181,145,9860,2,0,L|124:140,1,56.2500021457673,8|8,0:3|0:3,0:0:0:0:
107,120,10102,1,8,0:3:0:0:
107,120,10183,6,0,B|90:165|90:165|94:231,1,112.500004291535,2|0,3:2|0:0,0:0:0:0:
13,256,10667,2,0,L|4:143,1,112.500004291535,0|0,3:0|0:0,0:0:0:0:
0,59,11150,1,8,0:3:0:0:
168,50,11473,6,0,B|255:31|241:91|330:73,1,168.750006437302,2|2,3:2|3:2,0:0:0:0:
501,30,12280,1,0,0:0:0:0:
411,13,12441,2,0,P|410:39|420:68,1,56.2500021457673,8|8,0:3|0:3,0:0:0:0:
454,144,12763,6,0,P|443:209|443:275,1,112.500004291535,2|0,3:2|0:0,0:0:0:0:
499,341,13247,2,0,B|454:320|435:286|435:286|399:309|357:311,1,168.750006437302,2|8,3:2|0:3,0:0:0:0:
195,356,14054,6,0,P|200:300|205:243,1,112.500004291535,0|0,3:0|0:0,0:0:0:0:
156,174,14538,1,0,3:0:0:0:
110,103,14699,2,0,P|150:58|215:130,1,168.750006437302,2|0,0:0|0:0,0:0:0:0:
132,196,15344,6,0,P|65:199|11:238,1,134.999995880127,6|8,3:1|0:0,0:0:0:0:
92,288,15828,2,2,P|158:291|210:331,1,134.999995880127,2|0,3:1|1:0,0:1:0:0:
297,293,16312,1,10,0:1:0:0:
475,353,16634,6,0,P|459:322|450:290,1,67.4999979400635,0|2,3:0|0:0,0:0:0:0:
394,214,16957,2,0,P|409:183|418:151,1,67.4999979400635,8|2,0:0|3:2,0:0:0:0:
484,83,17280,2,0,L|474:9,2,67.4999979400635,2|0|10,1:0|0:0|0:1,0:0:0:0:
310,141,17925,6,0,B|233:157|254:106|179:127,1,134.999995880127,2|8,3:1|0:0,0:0:0:0:
110,190,18409,2,2,P|81:130|104:69,1,134.999995880127,2|2,3:1|0:1,0:1:0:0:
190,28,18892,1,10,0:1:0:0:
206,216,19215,6,0,L|210:283,1,67.4999979400635,2|2,3:2|0:2,0:0:0:0:
115,275,19538,2,0,L|119:342,1,67.4999979400635,8|2,0:0|3:2,0:0:0:0:
220,378,19860,2,0,P|252:372|280:353,1,67.4999979400635,2|0,1:0|0:0,0:0:0:0:
343,282,20183,2,0,P|375:287|403:306,1,67.4999979400635,10|8,0:1|0:3,0:0:0:0:
421,332,20425,1,8,0:3:0:0:
421,332,20505,6,0,P|418:263|416:190,1,134.999995880127,2|8,3:1|0:0,0:0:0:0:
479,126,20989,2,2,P|419:96|353:126,1,134.999995880127,2|0,3:1|1:0,0:1:0:0:
289,184,21473,1,10,0:1:0:0:
124,91,21796,6,0,P|108:55|89:8,1,67.4999979400635,0|2,3:0|0:0,0:0:0:0:
221,81,22118,2,0,P|216:114|202:144,1,67.4999979400635,8|2,0:0|3:2,0:0:0:0:
99,178,22441,2,0,P|68:163|44:140,2,67.4999979400635,2|0|10,1:0|0:0|0:1,0:0:0:0:
213,359,23086,6,0,P|183:298|171:232,1,134.999995880127,2|8,3:1|0:0,0:0:0:0:
270,276,23570,2,2,P|311:263|353:343,1,134.999995880127,2|2,3:1|0:1,0:1:0:0:
439,378,24054,1,10,0:1:0:0:
345,237,24376,6,0,P|336:151|342:89,1,134.999995880127,2|8,3:2|0:0,0:0:0:0:
412,42,24860,1,0,3:0:0:0:
502,69,25021,2,0,L|509:36,2,33.7499989700318,2|0|0,1:2|0:0|0:0,0:0:0:0:
457,152,25344,2,0,L|479:260,1,101.249996910095,2|2,0:0|0:0,0:0:0:0:
497,274,25667,6,0,P|433:307|413:377,1,150,6|8,3:1|0:0,0:0:0:0:
329,315,26150,2,2,B|248:307|265:354|184:340,1,150,2|0,3:1|0:0,0:1:0:0:
79,335,26634,1,10,0:1:0:0:
179,150,26957,6,0,P|190:185|200:221,1,75,0|2,3:0|0:0,0:0:0:0:
76,159,27280,2,0,P|86:122|97:87,1,75,8|2,0:0|3:2,0:0:0:0:
194,46,27602,2,0,B|230:55|230:55|259:81,1,75,2|0,1:0|0:0,0:0:0:0:
354,123,27925,2,0,B|390:113|390:113|419:87,1,75,10|8,0:1|0:3,0:0:0:0:
438,72,28167,1,8,0:3:0:0:
438,72,28247,6,0,P|441:147|449:222,1,150,2|8,3:1|0:0,0:0:0:0:
490,318,28731,2,2,P|443:264|377:288,1,150,2|2,3:1|0:1,0:1:0:0:
298,358,29215,1,10,0:1:0:0:
209,167,29538,6,0,P|205:117|221:76,1,75,2|2,3:2|0:0,0:0:0:0:
316,98,29860,2,0,P|320:148|304:189,1,75,8|2,0:0|3:2,0:0:0:0:
194,192,30183,2,0,P|150:177|117:172,2,75,2|0|10,1:0|0:0|0:1,0:0:0:0:
9,293,30828,6,0,P|30:221|43:147,1,150,2|8,3:1|0:0,0:0:0:0:
8,47,31312,2,2,B|44:39|75:16|75:16|90:51|124:73,1,150,2|0,3:1|0:0,0:1:0:0:
220,31,31796,2,0,P|271:37|311:38,1,75,10|8,0:1|0:3,0:0:0:0:
320,58,32038,1,8,0:3:0:0:
320,58,32118,6,0,P|342:26|394:6,1,75,0|2,3:0|0:0,0:0:0:0:
416,105,32440,2,0,P|431:139|422:194,1,75,8|2,0:0|3:2,0:0:0:0:
326,165,32763,2,0,P|286:161|243:126,2,75,2|0|10,1:0|0:0|0:1,0:0:0:0:
453,333,33409,6,0,P|398:337|298:383,1,150,2|8,3:1|0:0,0:0:0:0:
213,334,33892,2,2,P|181:285|259:275,1,150,2|2,3:1|0:1,0:1:0:0:
206,164,34376,2,0,P|169:172|138:193,1,75,10|0,0:1|0:0,0:0:0:0:
94,288,34698,6,0,P|95:325|111:359,1,75,2|0,3:2|0:0,0:0:0:0:
132,378,34941,1,0,0:0:0:0:
132,378,35021,1,8,0:0:0:0:
18,200,35344,2,2,P|41:145|67:35,1,150,2|0,1:0|0:0,0:1:0:0:
255,140,35989,6,0,P|317:124|385:148,1,127.50000243187,2|8,3:2|0:0,0:0:0:0:
435,218,36473,2,0,P|393:239|346:233,1,95.6250018239022,2|0,3:2|0:0,0:0:0:0:
320,223,36796,1,0,1:0:0:0:
248,285,36957,2,0,P|255:315|263:350,1,63.7500012159348,10|0,0:0|0:0,0:0:0:0:
170,376,37280,6,0,L|138:229,1,127.50000243187,2|8,3:2|0:0,0:0:0:0:
49,230,37764,2,0,L|68:136,1,95.6250018239022,2|0,3:2|0:0,0:0:0:0:
75,111,38086,1,0,1:0:0:0:
130,33,38247,2,0,P|90:16|43:24,1,63.7500012159348,10|0,0:0|0:0,0:0:0:0:
182,105,38570,6,0,P|251:99|318:61,1,127.50000243187,2|8,3:2|0:0,0:0:0:0:
362,148,39054,2,0,P|332:210|332:287,1,127.50000243187,2|0,3:2|0:0,0:0:0:0:
234,282,39538,2,0,P|194:225|127:186,1,127.50000243187,8|6,0:0|0:0,0:0:0:0:
256,192,39941,12,0,42441,0:0:0:0:
197,58,44054,6,0,L|203:137,1,56.2500021457673,0|0,1:0|0:0,0:0:0:0:
290,147,44376,2,0,L|284:188,2,28.1250010728836,2|2|2,0:3|0:3|0:3,0:0:0:0:
338,64,44699,2,0,P|387:110|392:135,1,84.3750032186509,0|0,1:0|0:0,0:0:0:0:
408,143,45021,6,0,P|404:199|394:293,1,134.999995880127,6|10,3:2|0:0,0:0:0:0:
442,367,45505,2,0,P|376:381|320:330,1,134.999995880127,2|0,3:2|0:0,0:0:0:0:
227,262,45989,2,0,P|276:261|309:253,1,67.4999979400635,10|0,0:0|0:0,0:0:0:0:
185,352,46312,6,0,B|149:328|135:304|135:304|111:317|71:323,1,134.999995880127,2|8,3:2|0:0,0:0:0:0:
87,223,46796,2,0,B|108:179|108:179|99:93,1,134.999995880127,2|0,3:2|0:0,0:0:0:0:
1,64,47280,2,0,L|6:132,1,67.4999979400635,8|0,0:0|0:0,0:0:0:0:
93,6,47602,6,0,P|156:24|186:83,1,134.999995880127,2|10,3:2|0:0,0:0:0:0:
264,148,48086,2,0,P|293:89|356:70,1,134.999995880127,2|0,3:2|0:0,0:0:0:0:
439,12,48570,2,0,P|471:21|504:23,1,67.4999979400635,8|0,0:0|0:0,0:0:0:0:
371,93,48892,6,0,P|381:156|400:224,1,134.999995880127,2|10,3:2|0:0,0:0:0:0:
501,213,49376,2,0,P|490:276|472:344,1,134.999995880127,2|0,3:2|0:0,0:0:0:0:
370,360,49860,2,0,P|345:335|328:307,1,67.4999979400635,10|0,0:0|0:0,0:0:0:0:
221,359,50183,6,0,B|240:296|240:296|238:226,1,134.999995880127,6|8,3:2|0:0,0:0:0:0:
162,159,50667,2,0,B|143:96|143:96|144:26,1,134.999995880127,2|2,3:2|0:3,0:0:0:0:
243,8,51150,2,0,L|239:75,1,67.4999979400635,10|0,0:0|0:0,0:0:0:0:
145,175,51473,6,0,P|83:152|18:177,1,134.999995880127,2|8,3:2|0:0,0:0:0:0:
84,250,51957,2,0,L|85:392,1,134.999995880127,2|2,3:2|0:3,0:0:0:0:
169,317,52441,2,0,B|203:306|203:306|236:310,1,67.4999979400635,10|0,0:0|0:0,0:0:0:0:
283,214,52763,6,0,P|316:253|399:225,1,134.999995880127,2|8,3:2|0:0,0:0:0:0:
462,309,53247,2,0,P|482:260|482:162,1,134.999995880127,2|2,3:2|0:3,0:0:0:0:
439,88,53731,2,0,B|470:76|470:76|504:78,1,67.4999979400635,10|0,0:0|0:0,0:0:0:0:
348,42,54054,6,0,B|284:73|284:73|220:64,1,134.999995880127,2|8,3:2|0:0,0:0:0:0:
127,23,54538,1,0,3:0:0:0:
104,114,54699,2,0,L|83:236,1,101.249996910095,4|0,1:0|1:0,0:0:0:0:
62,230,55021,2,0,P|81:257|93:289,1,67.4999979400635,12|8,0:0|0:0,0:0:0:0:
192,348,55344,6,0,P|231:357|272:350,2,82.5000025177003,0|0|14,1:0|3:0|0:1,0:0:0:0:
379,204,55989,2,0,P|339:194|298:201,2,82.5000025177003,0|0|14,1:0|0:0|0:1,0:0:0:0:
418,11,56634,6,0,P|402:55|390:98,1,82.5000025177003,0|0,1:0|3:0,0:0:0:0:
401,116,56876,1,0,0:0:0:0:
401,116,56957,2,2,P|442:137|461:234,1,123.75000377655,14|0,0:1|0:0,0:1:0:0:
489,228,57280,2,0,L|485:310,2,82.5000025177003,2|2|14,1:2|0:0|0:0,0:0:0:0:
268,305,57925,6,0,P|302:328|323:364,2,82.5000025177003,0|0|14,1:0|3:0|0:1,0:0:0:0:
21,319,58570,2,0,P|61:319|98:301,2,82.5000025177003,0|0|14,1:0|0:0|0:1,0:0:0:0:
175,137,59215,6,0,P|178:96|198:61,1,82.5000025177003,0|0,1:0|3:0,0:0:0:0:
229,231,59538,2,2,P|304:197|391:201,2,165.000005035401,14|2|14,0:1|1:0|0:1,0:1:0:0:
417,40,60505,6,0,B|404:82|404:82|413:119,2,82.5000025177003,0|0|14,1:0|3:0|0:1,0:0:0:0:
497,274,61150,2,0,B|506:236|506:236|493:194,2,82.5000025177003,0|0|14,1:0|0:0|0:1,0:0:0:0:
340,343,61796,6,0,P|301:327|260:325,1,82.5000025177003,0|0,1:0|3:0,0:0:0:0:
231,337,62038,1,0,0:0:0:0:
231,337,62119,2,2,P|173:355|126:288,1,123.75000377655,14|0,0:1|0:0,0:1:0:0:
104,303,62441,2,0,P|115:258|120:221,2,82.5000025177003,2|2|14,1:2|0:0|0:0,0:0:0:0:
143,91,63086,6,0,P|103:89|63:100,2,82.5000025177003,0|0|14,1:0|3:0|0:1,0:0:0:0:
299,259,63731,2,0,P|339:261|379:250,2,82.5000025177003,0|0|14,1:0|0:0|0:1,0:0:0:0:
489,61,64376,6,0,P|443:74|391:74,1,82.5000025177003,0|0,1:0|3:0,0:0:0:0:
326,163,64699,2,2,B|284:89|284:89|302:11,2,165.000005035401,14|2|14,0:1|1:0|0:0,0:1:0:0:
431,179,65505,1,0,3:0:0:0:
431,179,65586,1,0,3:0:0:0:
431,179,65667,1,2,3:1:0:0:
256,192,65747,12,8,70505,0:0:0:0:
439,331,70828,6,2,P|391:297|352:251,1,120,2|8,3:1|0:0,0:1:0:0:
451,226,71312,2,0,P|425:171|415:112,1,120,0|0,3:0|0:0,0:0:0:0:
512,147,71796,1,8,0:0:0:0:
388,16,72118,6,0,P|337:46|316:101,1,120,0|8,3:0|0:0,0:0:0:0:
234,139,72602,2,0,P|212:84|162:54,1,120,0|0,3:0|0:0,0:0:0:0:
71,51,73086,1,8,0:0:0:0:
39,228,73409,6,0,L|157:212,1,120,0|8,3:0|0:0,0:0:0:0:
99,309,73892,2,0,L|217:293,1,120,0|0,3:0|0:0,0:0:0:0:
275,363,74376,1,8,0:0:0:0:
454,344,74699,6,0,P|448:286|398:257,1,120,0|8,3:0|0:0,0:0:0:0:
310,234,75183,2,0,P|260:204|254:147,1,120,0|0,3:0|0:0,0:0:0:0:
277,59,75667,2,0,P|305:70|326:92,1,60,8|0,0:0|0:0,0:0:0:0:
182,92,75989,6,0,B|125:129|125:129|58:119,1,134.999995880127,6|8,3:1|0:0,0:0:0:0:
9,208,76473,2,2,L|142:229,1,134.999995880127,2|0,3:1|0:0,0:1:0:0:
202,311,76957,2,0,P|235:295|274:288,1,67.4999979400635,10|8,0:1|0:3,0:0:0:0:
291,293,77199,1,8,0:3:0:0:
291,293,77280,6,0,P|324:309|363:316,1,67.4999979400635,0|2,3:0|0:0,0:0:0:0:
454,329,77602,2,0,P|451:292|437:255,1,67.4999979400635,8|2,0:0|3:2,0:0:0:0:
404,170,77925,2,0,P|373:190|348:220,2,67.4999979400635,2|0|10,1:0|0:0|0:1,0:0:0:0:
310,16,78570,6,0,P|373:37|441:37,1,134.999995880127,2|8,3:1|0:0,0:0:0:0:
273,106,79054,2,2,P|209:127|141:127,1,134.999995880127,2|2,3:1|0:1,0:1:0:0:
194,40,79538,1,10,0:1:0:0:
91,214,79860,6,0,L|106:309,1,67.4999979400635,2|2,3:2|0:0,0:0:0:0:
16,336,80183,2,0,L|5:269,1,67.4999979400635,8|2,0:0|3:2,0:0:0:0:
131,363,80505,2,0,P|158:344|178:316,1,67.4999979400635,2|0,1:0|0:0,0:0:0:0:
279,314,80828,2,0,P|306:332|326:360,1,67.4999979400635,10|8,0:1|0:3,0:0:0:0:
355,375,81070,1,8,0:3:0:0:
355,375,81150,6,0,P|349:299|351:211,1,134.999995880127,2|8,3:1|0:0,0:0:0:0:
259,192,81634,2,2,P|265:116|263:28,1,134.999995880127,2|0,3:1|0:0,0:1:0:0:
358,17,82118,1,10,0:1:0:0:
172,99,82441,6,0,P|119:95|84:98,1,67.4999979400635,0|2,3:0|0:0,0:0:0:0:
7,121,82763,2,0,P|3:87|11:54,1,67.4999979400635,8|2,0:0|3:2,0:0:0:0:
72,185,83086,2,0,P|75:218|67:251,2,67.4999979400635,2|0|10,1:0|0:0|0:1,0:0:0:0:
197,345,83731,6,0,B|248:321|248:321|274:343|321:343,1,134.999995880127,2|8,3:1|0:0,0:0:0:0:
418,311,84215,2,2,P|381:255|317:241,1,134.999995880127,2|2,3:1|0:1,0:1:0:0:
263,155,84699,2,0,P|235:173|220:203,1,67.4999979400635,10|0,0:1|0:0,0:0:0:0:
355,146,85021,6,0,B|369:102|369:102|361:11,1,134.999995880127,2|8,3:2|0:0,0:0:0:0:
463,11,85505,1,0,3:0:0:0:
473,112,85667,2,0,L|506:108,2,33.7499989700318,2|0|0,1:0|0:0|0:0,0:0:0:0:
486,212,85989,2,0,P|435:213|392:237,1,101.249996910095,2|2,0:0|0:0,0:0:0:0:
383,264,86312,6,0,L|228:254,1,150,6|8,3:1|0:0,0:0:0:0:
160,330,86796,2,2,B|126:264|126:264|140:189,1,150,2|0,3:1|0:0,0:1:0:0:
167,87,87280,1,10,0:1:0:0:
367,148,87602,6,0,L|444:136,1,75,0|2,3:0|0:0,0:0:0:0:
502,50,87925,2,0,L|425:38,1,75,8|2,0:0|3:2,0:0:0:0:
327,69,88247,2,0,P|297:92|285:126,1,75,2|0,1:0|0:0,0:0:0:0:
323,225,88570,2,0,P|357:238|394:232,1,75,10|8,0:1|0:3,0:0:0:0:
419,250,88812,1,8,0:3:0:0:
419,250,88892,6,0,P|379:280|325:372,1,150,2|8,3:1|0:0,0:0:0:0:
238,306,89376,2,2,P|169:278|99:300,1,150,2|2,3:1|0:1,0:1:0:0:
13,362,89860,1,10,0:1:0:0:
62,157,90183,6,0,B|66:120|66:120|57:83,1,75,2|2,3:2|0:0,0:0:0:0:
147,18,90505,2,0,B|143:55|143:55|151:91,1,75,8|2,0:0|3:2,0:0:0:0:
231,160,90828,2,0,L|325:142,2,75,2|0|10,1:0|0:0|0:1,0:0:0:0:
438,191,91473,6,0,B|452:113|452:113|407:58,1,150,2|8,3:1|0:0,0:0:0:0:
335,143,91957,2,2,P|349:217|356:291,1,150,2|0,3:1|0:0,0:1:0:0:
426,370,92441,1,10,0:1:0:0:
322,384,92602,1,8,0:3:0:0:
322,384,92683,1,8,0:3:0:0:
322,384,92763,6,0,L|236:372,1,75,0|2,3:0|0:0,0:0:0:0:
163,309,93086,2,0,L|88:319,1,75,8|2,0:0|3:2,0:0:0:0:
252,268,93409,2,0,P|244:220|242:159,1,75,2|0,1:0|0:0,0:0:0:0:
144,156,93731,2,0,P|152:108|154:47,1,75,10|0,0:1|0:0,0:0:0:0:
258,98,94054,6,0,P|298:113|335:219,1,150,2|8,3:1|0:0,0:0:0:0:
421,270,94538,2,2,P|435:221|414:101,1,150,2|2,3:1|0:1,0:1:0:0:
360,40,95021,2,0,P|330:17|295:5,1,75,10|0,0:1|0:0,0:0:0:0:
175,54,95344,6,0,B|119:61|119:61|84:84|84:84|32:90,2,150,2|8|2,3:2|0:0|1:0,0:0:0:0:
186,264,96312,2,2,P|130:234|47:233,1,112.5,2|0,1:0|0:0,0:1:0:0:
55,236,96634,6,0,L|71:388,1,150,0|8,3:0|0:0,0:0:0:0:
170,350,97118,2,0,L|281:362,1,112.5,0|0,3:0|0:0,0:0:0:0:
306,351,97441,1,0,1:0:0:0:
407,375,97602,2,0,P|405:337|397:301,1,75,8|0,0:0|0:0,0:0:0:0:
313,237,97925,6,0,P|275:194|298:97,1,150,0|8,3:0|0:0,0:0:0:0:
379,159,98409,2,0,P|446:178|489:173,1,112.5,0|0,3:0|0:0,0:0:0:0:
510,160,98731,1,0,1:0:0:0:
446,76,98892,2,0,L|451:1,1,75,8|0,0:0|0:0,0:0:0:0:
332,22,99215,6,0,B|278:20|278:20|239:31|239:31|182:25,1,150,0|8,3:0|0:0,0:0:0:0:
172,130,99699,2,0,B|118:128|118:128|79:139|79:139|22:133,1,150,0|0,3:0|0:0,0:0:0:0:
12,238,100183,1,8,0:0:0:0:
153,328,100505,5,4,0:0:0:0:
