osu file format v14

[General]
AudioFilename: audio.mp3
AudioLeadIn: 0
PreviewTime: 9963
Countdown: 0
SampleSet: Soft
StackLeniency: 0.7
Mode: 0
LetterboxInBreaks: 0
WidescreenStoryboard: 1

[Editor]
Bookmarks: 4738,10931,23318,35705,48092,60480,66673,72867,86802
DistanceSpacing: 1.9
BeatDivisor: 8
GridSize: 16
TimelineZoom: 2.1

[Metadata]
Title:Sentou! Lusamine
TitleUnicode:戦闘!ルザミーネ
Artist:Adachi Minako
ArtistUnicode:足立美奈子
Creator:-Waterlemon
Version:Motherly Love
Source:ポケットモンスター サン・ムーン
Tags:animestyle stompy_ bluirre ajmosca ajmeowsca sylvantia battle battle! aether president theme instrumental video game videogame vgm ost original soundtrack orchestral pokémon pokemon pocket monsters sun and & moon sm ポケットモンスター ウルトラサン・ウルトラムーン ultra sun ultra moon usum freak nintendo ポケモン gen generation 7 alola
BeatmapID:3707291
BeatmapSetID:1807662

[Difficulty]
HPDrainRate:5.5
CircleSize:5
OverallDifficulty:9
ApproachRate:9.3
SliderMultiplier:2
SliderTickRate:0.5

[Events]
//Background and Video events
0,0,"looosamine.jpg",0,0
//Break Periods
//Storyboard Layer 0 (Background)
//Storyboard Layer 1 (Fail)
//Storyboard Layer 2 (Pass)
//Storyboard Layer 3 (Foreground)
//Storyboard Layer 4 (Overlay)
//Storyboard Sound Samples

[TimingPoints]
93,387.096774193548,4,2,1,20,1,0
1641,-125,4,2,1,45,0,0
4738,-200,4,2,4,55,0,0
4931,-200,4,2,1,55,0,0
5512,-200,4,2,2,55,0,0
5705,-200,4,2,1,55,0,0
6867,-200,4,2,2,55,0,0
7254,-200,4,2,1,55,0,0
7834,-200,4,2,4,55,0,0
8028,-200,4,2,1,55,0,0
8609,-200,4,2,2,55,0,0
8802,-200,4,2,1,55,0,0
10351,-200,4,2,2,55,0,0
10738,-200,4,2,1,55,0,0
10931,-62.5,4,2,1,70,0,0
11318,-83.3333333333333,4,2,1,70,0,0
12092,-83.3333333333333,4,2,2,70,0,0
12286,-83.3333333333333,4,2,1,70,0,0
13641,-62.5,4,2,1,70,0,0
13834,-62.5,4,2,2,70,0,0
14028,-66.6666666666667,4,2,4,70,0,0
14222,-66.6666666666667,4,2,1,70,0,0
14802,-83.3333333333333,4,2,1,70,0,0
15189,-83.3333333333333,4,2,2,70,0,0
15383,-83.3333333333333,4,2,1,70,0,0
17125,-62.5,4,2,4,70,0,0
17318,-62.5,4,2,1,70,0,0
17512,-83.3333333333333,4,2,1,70,0,0
18286,-83.3333333333333,4,2,2,70,0,0
18480,-83.3333333333333,4,2,1,70,0,0
20222,-66.6666666666667,4,2,4,70,0,0
20415,-66.6666666666667,4,2,1,70,0,0
20609,-66.6666666666667,4,2,2,70,0,0
20802,-66.6666666666667,4,2,1,70,0,0
20996,-83.3333333333333,4,2,1,70,0,0
21576,-83.3333333333333,4,2,2,70,0,0
21770,-83.3333333333333,4,2,1,70,0,0
22931,-71.4285714285714,4,2,1,70,0,0
23318,-125,4,2,4,60,0,0
23512,-125,4,2,1,60,0,0
24480,-125,4,2,2,60,0,0
24673,-125,4,2,1,60,0,0
25254,-125,4,2,2,60,0,0
25447,-125,4,2,1,60,0,0
26028,-125,4,2,2,60,0,0
26222,-125,4,2,1,60,0,0
26415,-125,4,2,4,60,0,0
26609,-125,4,2,1,60,0,0
26802,-250,4,2,1,60,0,0
27189,-83.3333333333333,4,2,1,60,0,0
27576,-83.3333333333333,4,2,2,60,0,0
27770,-83.3333333333333,4,2,1,60,0,0
28351,-125,4,2,2,60,0,0
28544,-125,4,2,1,60,0,0
29125,-125,4,2,3,60,0,0
29318,-125,4,2,1,60,0,0
29512,-125,4,2,4,60,0,0
29705,-125,4,2,1,60,0,0
30286,-76.9230769230769,4,2,1,60,0,0
30576,-125,4,2,1,60,0,0
30673,-125,4,2,2,60,0,0
30867,-125,4,2,1,60,0,0
32222,-125,4,2,3,60,0,0
32415,-125,4,2,1,60,0,0
32609,-250,4,2,4,60,0,0
32802,-250,4,2,1,60,0,0
32996,-250,4,2,2,60,0,0
33189,-250,4,2,1,60,0,0
33383,-125,4,2,1,60,0,0
33770,-125,4,2,2,60,0,0
33963,-125,4,2,1,60,0,0
34157,-83.3333333333333,4,2,1,60,0,0
34544,-100,4,2,1,60,0,0
35705,-125,4,2,4,60,0,0
35899,-125,4,2,1,60,0,0
36286,-62.5,4,2,1,60,0,0
36867,-62.5,4,2,2,60,0,0
37060,-250,4,2,1,60,0,0
38222,-62.5,4,2,1,60,0,0
38609,-50,4,2,3,60,0,0
38705,-50,4,2,1,60,0,0
38996,-50,4,2,4,60,0,0
39189,-50,4,2,1,60,0,0
40351,-83.3333333333333,4,2,1,60,0,0
41899,-50,4,2,1,60,0,0
42480,-62.5,4,2,1,60,0,0
42673,-83.3333333333333,4,2,1,60,0,0
43060,-125,4,2,1,60,0,0
43447,-83.3333333333333,4,2,1,60,0,0
44222,-50,4,2,1,60,0,0
44996,-83.3333333333333,4,2,1,60,0,0
46157,-71.4285714285714,4,2,2,60,0,0
46351,-62.5,4,2,1,60,0,0
46544,-50,4,2,1,60,0,0
48092,-62.5,4,2,4,75,0,0
48286,-62.5,4,2,1,75,0,0
48673,-62.5,4,2,2,75,0,0
48867,-62.5,4,2,1,75,0,0
49254,-62.5,4,2,2,75,0,0
49447,-83.3333333333333,4,2,1,75,0,0
49641,-83.3333333333333,4,2,2,75,0,0
49834,-83.3333333333333,4,2,1,75,0,0
50222,-166.666666666667,4,2,1,75,0,0
50802,-62.5,4,2,1,75,0,0
50996,-62.5,4,2,2,75,0,0
51189,-62.5,4,2,4,75,0,0
51383,-62.5,4,2,1,75,0,0
51770,-125,4,2,1,75,0,0
52351,-62.5,4,2,2,75,0,0
52641,-62.5,4,2,1,75,0,0
52738,-83.3333333333333,4,2,1,75,0,0
53705,-50,4,2,1,75,0,0
54286,-62.5,4,2,4,75,0,0
54480,-62.5,4,2,1,75,0,0
55447,-62.5,4,2,2,75,0,0
55641,-83.3333333333333,4,2,1,75,0,0
56415,-166.666666666667,4,2,1,75,0,0
56996,-62.5,4,2,1,75,0,0
57189,-62.5,4,2,2,75,0,0
57383,-62.5,4,2,4,75,0,0
57576,-62.5,4,2,1,75,0,0
57963,-125,4,2,1,75,0,0
58544,-62.5,4,2,2,75,0,0
58738,-62.5,4,2,1,75,0,0
60092,-83.3333333333333,4,2,1,75,0,0
60480,-166.666666666667,4,2,4,40,0,0
60673,-166.666666666667,4,2,1,40,0,0
63383,-166.666666666667,4,2,3,40,0,0
63576,-166.666666666667,4,2,4,40,0,0
63770,-142.857142857143,4,2,1,40,0,0
65125,-166.666666666667,4,2,1,40,0,0
66480,-62.5,4,2,3,40,0,0
66673,-62.5,4,2,4,50,0,0
66867,-62.5,4,2,1,50,0,0
67254,-83.3333333333333,4,2,1,50,0,0
67834,-83.3333333333333,4,2,2,50,0,0
68028,-83.3333333333333,4,2,1,50,0,0
69576,-83.3333333333333,4,2,3,50,0,0
69770,-55.5555555555556,4,2,4,50,0,0
69963,-55.5555555555556,4,2,1,50,0,0
70351,-83.3333333333333,4,2,2,50,0,0
70447,-83.3333333333333,4,2,1,50,0,0
70931,-83.3333333333333,4,2,2,50,0,0
71222,-83.3333333333333,4,2,1,50,0,0
71512,-83.3333333333333,4,2,2,50,0,0
71609,-83.3333333333333,4,2,1,50,0,0
71705,-83.3333333333333,4,2,2,50,0,0
71802,-83.3333333333333,4,2,1,50,0,0
72286,-83.3333333333333,4,2,2,50,0,0
72480,-200,4,2,1,50,0,0
72867,-55.5555555555556,4,2,3,80,0,1
75576,-200,4,2,2,80,0,0
75963,-55.5555555555556,4,2,3,80,0,1
78286,-55.5555555555556,4,2,2,80,0,1
78673,-100,4,2,2,80,0,0
79060,-55.5555555555556,4,2,3,80,0,1
81383,-55.5555555555556,4,2,2,80,0,1
81770,-200,4,2,2,80,0,0
82157,-55.5555555555556,4,2,3,80,0,1
84480,-55.5555555555556,4,2,2,80,0,1
84867,-100,4,2,2,80,0,0
85254,-100,4,2,1,65,0,0
86028,-100,4,2,1,75,0,0
86802,-100,4,2,4,75,0,0

[Colours]
Combo1 : 130,233,255
Combo2 : 255,252,106
Combo3 : 169,255,128
Combo4 : 217,174,255
SliderBorder : 255,255,189

[HitObjects]
256,192,93,12,0,1544,0:0:0:0:
473,82,1641,6,0,L|478:29,3,40,2|2|2|2,0:0|0:0|0:0|0:0,0:0:0:0:
396,151,2028,5,2,0:0:0:0:
392,170,2124,1,2,0:0:0:0:
396,189,2221,1,2,0:0:0:0:
408,206,2318,1,2,0:0:0:0:
473,201,2415,6,0,L|525:195,3,40,2|2|2|2,0:0|0:0|0:0|0:0,0:0:0:0:
445,290,2802,5,2,0:0:0:0:
433,309,2898,1,2,0:0:0:0:
412,320,2995,1,2,0:0:0:0:
388,320,3092,1,2,0:0:0:0:
328,291,3189,6,0,L|317:247,1,40,2|2,0:0|0:0,0:0:0:0:
263,331,3383,2,0,L|252:287,1,40,2|2,0:0|0:0,0:0:0:0:
334,279,3576,6,0,L|324:220,1,40,2|2,0:0|0:0,0:0:0:0:
256,342,3770,2,0,L|236:286,1,40,2|2,0:0|0:0,0:0:0:0:
340,267,3963,6,0,L|335:208,1,40,2|2,0:0|0:0,0:0:0:0:
248,353,4157,2,0,L|224:299,1,40,2|2,0:0|0:0,0:0:0:0:
346,255,4351,6,0,L|346:196,1,40,2|2,0:0|0:0,0:0:0:0:
242,364,4544,2,0,L|212:312,1,40,2|2,0:0|0:0,0:0:0:0:
11,121,4738,6,0,B|104:83|91:158|180:123,1,175,8|8,0:0|0:0,0:0:0:0:
327,35,5512,5,8,0:0:0:0:
317,29,6286,5,10,0:0:0:0:
322,48,6383,1,8,0:0:0:0:
327,67,6480,1,10,0:0:0:0:
332,86,6576,1,8,0:0:0:0:
429,146,6673,5,2,3:2:0:0:
439,157,6867,5,8,0:0:0:0:
417,230,6964,1,8,0:0:0:0:
396,303,7060,1,8,0:0:0:0:
433,370,7834,5,10,0:0:0:0:
142,265,8028,2,0,P|205:248|279:233,1,125,0|8,0:0|0:0,0:0:0:0:
4,303,8609,5,10,0:0:0:0:
0,314,9963,5,8,0:0:0:0:
45,337,10157,1,0,3:2:0:0:
143,355,10351,1,8,0:0:0:0:
286,313,10544,1,8,0:0:0:0:
403,151,10738,1,0,3:2:0:0:
195,237,10931,6,0,L|162:-5,1,240,4|0,3:2|0:0,0:0:0:0:
95,16,11318,2,0,L|104:84,1,59.9999981689454,2|0,0:0|0:0,0:0:0:0:
253,143,11512,2,0,L|245:83,1,59.9999981689454,2|0,0:0|0:0,0:0:0:0:
59,283,11705,6,0,B|159:253|134:331|231:303,1,179.999994506836,2|0,0:0|3:2,0:0:0:0:
396,186,12092,1,6,0:0:0:0:
412,360,12286,1,2,3:2:0:0:
444,300,12383,1,0,3:2:0:0:
354,321,12480,6,0,P|341:348|345:377,1,59.9999981689454,2|0,3:2|0:0,0:0:0:0:
512,315,12673,2,0,P|515:285|502:259,1,59.9999981689454,2|0,3:2|3:2,0:0:0:0:
260,153,12867,1,2,3:2:0:0:
325,140,12963,1,0,3:2:0:0:
396,186,13060,1,0,3:2:0:0:
512,29,13254,5,8,0:0:0:0:
322,0,13447,2,0,P|322:29|336:55,1,59.9999981689454,10|0,0:0|0:0,0:0:0:0:
495,99,13641,2,0,L|503:-5,1,80,10|0,0:0|0:0,0:0:0:0:
512,269,13834,5,10,0:0:0:0:
425,192,13931,1,8,0:0:0:0:
275,237,14028,6,0,P|130:258|20:269,1,225.000008583069,10|0,0:0|3:2,0:0:0:0:
19,282,14415,2,0,P|66:277|106:272,1,75.0000028610231,0|0,3:2|0:0,0:0:0:0:
250,100,14609,1,2,3:2:0:0:
194,53,14705,1,0,3:2:0:0:
107,84,14802,6,0,P|118:112|124:140,1,59.9999981689454,2|0,3:2|0:0,0:0:0:0:
58,196,14995,2,0,P|76:172|97:150,1,59.9999981689454,2|0,0:0|0:0,0:0:0:0:
180,182,15189,2,0,P|148:176|120:168,1,59.9999981689454,6|0,0:0|0:0,0:0:0:0:
0,66,15383,6,0,P|18:88|42:109,1,59.9999981689454,2|0,0:0|0:0,0:0:0:0:
250,100,15576,2,0,P|219:104|188:113,1,59.9999981689454,2|0,0:0|0:0,0:0:0:0:
98,296,15770,2,0,P|107:268|114:235,1,59.9999981689454,2|0,0:0|0:0,0:0:0:0:
302,268,15963,6,0,P|283:329|270:387,2,119.999996337891,10|8|8,0:0|0:0|0:0,0:0:0:0:
375,246,16447,1,8,0:0:0:0:
404,272,16544,1,8,0:0:0:0:
221,241,16738,1,8,0:0:0:0:
380,114,16931,5,0,3:2:0:0:
295,42,17028,1,0,3:2:0:0:
146,78,17125,6,0,P|324:50|397:43,1,240,12|0,3:2|3:2,0:0:0:0:
455,55,17512,2,0,P|454:25|440:0,1,59.9999981689454,2|0,3:2|0:0,0:0:0:0:
349,176,17705,2,0,P|323:191|307:216,1,59.9999981689454,2|0,0:0|0:0,0:0:0:0:
507,311,17899,6,0,P|463:236|377:237,1,179.999994506836,2|8,0:0|0:0,0:0:0:0:
227,351,18286,1,4,0:0:0:0:
88,226,18480,1,2,3:2:0:0:
62,286,18576,1,0,3:2:0:0:
155,259,18673,6,0,P|184:252|213:247,1,59.9999981689454,2|0,3:2|0:0,0:0:0:0:
58,166,18867,2,0,P|28:159|0:154,1,59.9999981689454,2|0,3:2|3:2,0:0:0:0:
178,0,19060,1,2,3:2:0:0:
221,50,19156,1,0,3:2:0:0:
211,128,19253,1,0,3:2:0:0:
357,45,19447,6,0,L|476:31,1,119.999996337891,8|10,0:0|0:0,0:0:0:0:
398,205,19738,1,0,0:0:0:0:
453,168,19834,2,0,L|540:158,1,59.9999981689454,10|0,0:0|0:0,0:0:0:0:
278,330,20028,1,2,3:2:0:0:
366,349,20125,1,0,3:2:0:0:
328,200,20222,6,0,P|264:96|158:90,1,225.000008583069,10|8,0:0|0:0,0:0:0:0:
132,79,20609,2,0,P|179:71|239:66,1,75.0000028610231,4|0,0:0|0:0,0:0:0:0:
263,259,20802,1,2,3:2:0:0:
200,244,20899,1,0,3:2:0:0:
143,293,20996,6,0,P|178:255|191:238,1,59.9999981689454,2|0,3:2|0:0,0:0:0:0:
54,223,21190,2,0,P|69:272|77:292,1,59.9999981689454,2|0,0:0|0:0,0:0:0:0:
159,183,21383,2,0,P|108:171|87:168,1,59.9999981689454,2|0,3:2|0:0,0:0:0:0:
125,367,21576,6,0,P|95:361|66:354,1,59.9999981689454,10|0,0:0|0:0,0:0:0:0:
233,163,21769,2,0,P|243:191|251:220,1,59.9999981689454,2|0,0:0|0:0,0:0:0:0:
0,172,21963,2,0,P|19:148|40:127,1,59.9999981689454,2|0,3:2|3:2,0:0:0:0:
154,95,22157,6,0,P|139:39|86:16,2,119.999996337891,2|0|0,3:2|3:2|3:2,0:0:0:0:
207,25,22641,1,0,3:2:0:0:
240,4,22738,1,0,3:2:0:0:
357,148,22931,6,0,P|349:117|335:77,1,69.9999978637696,4|0,0:0|0:0,0:0:0:0:
432,13,23125,2,0,P|420:46|411:79,1,69.9999978637696
512,255,23318,6,0,B|401:221|429:307|322:277,1,200,12|0,0:0|0:0,0:0:0:0:
189,236,23899,1,2,3:2:0:0:
181,226,24092,2,0,P|205:161|227:107,1,120,2|0,0:0|0:0,0:0:0:0:
41,345,24480,1,8,0:0:0:0:
31,337,24673,5,10,0:0:0:0:
48,321,24770,1,8,0:0:0:0:
66,305,24867,5,10,0:0:0:0:
78,220,24963,1,8,0:0:0:0:
0,157,25060,1,10,0:0:0:0:
137,59,25254,6,0,P|196:64|247:72,2,80,10|0|8,0:0|3:2|0:0,0:0:0:0:
68,18,25738,1,8,0:0:0:0:
60,0,25834,1,10,0:0:0:0:
139,171,26028,1,10,0:0:0:0:
281,43,26222,1,10,0:0:0:0:
342,99,26318,1,8,0:0:0:0:
453,87,26415,6,0,P|389:80|344:129,1,120,8|0,3:2|0:0,0:0:0:0:
446,241,26802,6,0,L|520:248,1,60,2|8,0:0|0:0,0:0:0:0:
512,259,27189,6,0,L|301:238,1,179.999994506836,10|0,0:0|0:0,0:0:0:0:
149,224,27576,1,8,0:0:0:0:
277,375,27770,1,2,3:2:0:0:
270,310,27867,1,0,3:2:0:0:
262,235,27963,5,2,3:2:0:0:
269,225,28157,1,2,0:0:0:0:
123,300,28351,2,0,P|83:302|50:282,1,80,10|0,0:0|3:2,0:0:0:0:
0,189,28641,1,0,3:2:0:0:
59,154,28738,6,0,L|114:157,1,40,0|0,3:2|3:2,0:0:0:0:
25,59,28931,1,0,3:2:0:0:
218,91,29125,2,0,L|162:94,1,40,8|0,0:0|0:0,0:0:0:0:
225,102,29318,1,8,0:0:0:0:
463,0,29512,6,0,P|397:38|395:160,1,200,8|0,0:0|0:0,0:0:0:0:
431,237,30092,1,2,3:2:0:0:
425,248,30286,6,0,P|374:154|317:60,1,194.999991073609,2|0,3:2|0:0,0:0:0:0:
186,0,30673,1,8,0:0:0:0:
179,13,30867,5,2,3:2:0:0:
147,20,30963,1,0,3:2:0:0:
116,25,31060,5,2,3:2:0:0:
102,104,31157,1,0,3:2:0:0:
178,160,31254,1,2,3:2:0:0:
17,241,31447,6,0,P|56:236|96:233,2,80,2|0|0,0:0|3:2|3:2,0:0:0:0:
149,279,32028,2,0,L|227:272,1,40,0|0,3:2|0:0,0:0:0:0:
0,361,32222,1,10,0:0:0:0:
12,355,32415,5,8,0:0:0:0:
77,365,32512,1,8,0:0:0:0:
151,377,32609,6,0,L|245:369,1,80,10|8,3:2|0:0,0:0:0:0:
481,215,33189,1,8,0:0:0:0:
445,195,33286,1,8,0:0:0:0:
389,234,33383,6,0,L|201:218,1,160,8|8,0:0|0:0,0:0:0:0:
0,22,33963,1,0,3:2:0:0:
82,3,34060,1,0,3:2:0:0:
156,86,34157,6,0,P|145:130|136:155,1,59.9999981689454,2|2,0:0|0:0,0:0:0:0:
15,199,34351,2,0,P|4:155|-5:130,1,59.9999981689454,2|2,0:0|0:0,0:0:0:0:
134,109,34544,6,0,P|123:153|114:178,1,50,2|2,0:0|0:0,0:0:0:0:
31,207,34738,2,0,P|20:163|11:138,1,50,2|2,3:2|3:2,0:0:0:0:
79,296,34931,5,2,3:2:0:0:
97,335,35028,1,2,3:2:0:0:
131,364,35125,1,2,3:2:0:0:
173,376,35222,1,2,3:2:0:0:
216,371,35318,5,2,3:2:0:0:
281,333,35415,1,2,3:2:0:0:
342,278,35512,1,2,3:2:0:0:
428,253,35609,1,2,3:2:0:0:
512,297,35705,6,0,L|507:340,1,40,14|0,0:0|0:0,0:0:0:0:
431,384,35899,2,0,L|426:344,1,40,2|0,0:0|0:0,0:0:0:0:
502,283,36092,2,0,L|497:326,1,40,2|0,0:0|0:0,0:0:0:0:
290,217,36286,6,0,L|210:208,1,80,2|0,0:0|0:0,0:0:0:0:
421,70,36576,1,8,0:0:0:0:
433,79,36673,2,0,L|512:87,1,80,10|8,0:0|0:0,0:0:0:0:
342,12,36867,1,4,0:0:0:0:
224,169,37060,1,10,0:0:0:0:
161,113,37157,1,8,0:0:0:0:
54,156,37254,6,0,P|24:157|0:173,1,60,0|8,3:2|0:0,0:0:0:0:
47,242,37641,1,8,0:0:0:0:
67,167,37738,1,8,0:0:0:0:
91,93,37834,1,8,0:0:0:0:
266,252,38028,1,0,0:0:0:0:
262,263,38222,6,0,L|341:255,1,80,2|0,0:0|0:0,0:0:0:0:
163,329,38415,1,0,0:0:0:0:
469,177,38609,6,0,B|347:165|347:165|286:246|286:246|185:236,1,300,14|0,0:0|0:0,0:0:0:0:
173,4,38996,2,0,B|217:8|217:8|276:146|276:146|406:159,1,300,14|0,3:2|0:0,0:0:0:0:
380,156,39383,1,0,3:2:0:0:
335,23,39576,5,2,0:0:0:0:
317,47,39705,5,2,0:0:0:0:
348,50,39834,5,2,0:0:0:0:
310,24,39963,5,2,0:0:0:0:
331,71,40092,5,2,0:0:0:0:
360,27,40221,5,2,0:0:0:0:
434,31,40351,6,0,L|480:-1,2,39.9999987792969,2|2|2,0:0|0:0|0:0,0:0:0:0:
492,72,40544,2,0,L|446:40,2,39.9999987792969,2|2|2,0:0|0:0|0:0,0:0:0:0:
476,138,40738,2,0,L|467:176,3,39.9999987792969,2|2|2|2,0:0|0:0|0:0|0:0,0:0:0:0:
512,308,41125,5,2,0:0:0:0:
420,338,41254,5,2,0:0:0:0:
316,257,41383,5,2,0:0:0:0:
263,313,41512,6,0,L|291:323,1,29.9999990844727,2|0,0:0|0:0,0:0:0:0:
174,214,41657,2,0,L|168:184,1,29.9999990844727,2|0,0:0|0:0,0:0:0:0:
132,340,41802,2,0,L|109:359,1,29.9999990844727,2|0,0:0|0:0,0:0:0:0:
217,375,41899,6,0,L|255:155,2,200,4|8|8,3:2|0:0|0:0,0:0:0:0:
225,38,42480,2,0,L|285:245,1,160,0|2,3:2|0:0,0:0:0:0:
138,235,42738,2,0,L|129:285,2,39.9999987792969,2|2|2,0:0|0:0|0:0,0:0:0:0:
122,170,42963,1,2,0:0:0:0:
32,236,43060,6,0,B|11:253|-2:272|-2:272|54:247|107:241,1,160,2|10,0:0|0:0,0:0:0:0:
281,329,43641,1,0,3:2:0:0:
318,384,43738,1,0,3:2:0:0:
395,375,43834,6,0,L|404:283,2,89.9999972534181,0|2|2,3:2|0:0|0:0,0:0:0:0:
205,145,44222,6,0,B|222:161|222:161|298:156,1,100,6|0,0:0|0:0,0:0:0:0:
505,227,44415,2,0,B|487:210|487:210|204:230,1,300,6|0,0:0|0:0,0:0:0:0:
82,63,44802,1,0,3:2:0:0:
144,110,44899,1,0,3:2:0:0:
259,83,44996,6,0,L|270:6,1,59.9999981689454,4|0,3:2|0:0,0:0:0:0:
419,4,45189,2,0,L|410:63,1,59.9999981689454,0|0,3:2|3:2,0:0:0:0:
421,79,45383,2,0,L|432:2,1,59.9999981689454,0|0,3:2|0:0,0:0:0:0:
254,42,45576,2,0,L|245:101,2,59.9999981689454,8|8|8,0:0|0:0|0:0,0:0:0:0:
0,241,45963,6,0,P|30:249|56:262,1,59.9999981689454,2|0,0:0|0:0,0:0:0:0:
126,307,46157,2,0,P|97:326|64:337,1,69.9999978637696,6|0,0:0|0:0,0:0:0:0:
157,204,46351,2,0,P|195:220|226:243,1,80,2|0,0:0|0:0,0:0:0:0:
329,384,46544,6,0,L|276:139,2,200,6|0|0,0:0|3:2|3:2,0:0:0:0:
405,0,47125,6,0,L|352:245,1,200,6|0,0:0|3:2,0:0:0:0:
439,164,47415,1,0,3:2:0:0:
366,117,47512,1,0,3:2:0:0:
274,161,47609,1,0,3:2:0:0:
176,93,47705,1,6,3:2:0:0:
185,79,47899,5,8,0:0:0:0:
152,215,47996,1,8,0:0:0:0:
13,260,48092,6,0,P|-6:219|11:165,1,80,14|0,0:0|0:0,0:0:0:0:
236,273,48287,2,0,P|210:309|155:321,1,80,10|8,0:0|0:0,0:0:0:0:
137,72,48480,2,0,P|181:75|218:118,1,80,10|0,0:0|0:0,0:0:0:0:
109,339,48673,6,0,P|201:327|268:176,1,240,10|0,0:0|0:0,0:0:0:0:
283,195,49060,2,0,L|300:292,1,80,10|8,0:0|0:0,0:0:0:0:
442,333,49254,1,4,0:0:0:0:
512,82,49447,6,0,P|454:80|335:136,1,179.999994506836,10|0,0:0|0:0,0:0:0:0:
318,122,49834,2,0,L|387:42,1,59.9999981689454,2|0,3:2|3:2,0:0:0:0:
239,18,50028,1,0,3:2:0:0:
174,0,50125,1,0,3:2:0:0:
67,101,50222,6,0,B|142:68|139:138|215:107,1,149.999995422363,2|0,3:2|0:0,0:0:0:0:
225,116,50802,6,0,L|134:151,1,80,8|0,0:0|0:0,0:0:0:0:
9,326,50996,1,4,0:0:0:0:
104,287,51092,1,8,0:0:0:0:
236,368,51189,6,0,P|287:357|335:340,1,80,14|0,0:0|0:0,0:0:0:0:
427,305,51383,2,0,P|442:255|452:205,1,80,2|0,3:2|3:2,0:0:0:0:
471,110,51576,2,0,P|435:71|397:38,1,80,2|0,3:2|0:0,0:0:0:0:
250,233,51770,6,0,B|205:281|143:242|152:218|115:189|54:229,1,200,2|8,3:2|0:0,0:0:0:0:
34,214,52351,6,0,L|128:186,1,80,4|0,0:0|0:0,0:0:0:0:
111,26,52544,1,10,0:0:0:0:
152,91,52641,1,10,0:0:0:0:
235,108,52738,6,0,P|236:77|226:49,1,59.9999981689454,10|0,0:0|0:0,0:0:0:0:
229,262,52931,2,0,P|198:267|171:257,1,59.9999981689454,8|8,3:2|0:0,0:0:0:0:
469,200,53125,5,8,3:2:0:0:
386,226,53222,1,8,0:0:0:0:
412,290,53318,1,8,3:2:0:0:
369,324,53415,1,8,0:0:0:0:
378,362,53512,1,8,3:2:0:0:
391,368,53705,6,0,B|282:163|346:-82|554:16|521:133|453:145|426:106,1,500,14|8,3:2|0:0,0:0:0:0:
432,128,54286,6,0,P|474:148|521:124,1,80,14|0,0:0|0:0,0:0:0:0:
241,170,54480,2,0,P|244:216|288:245,1,80,2|0,3:2|3:2,0:0:0:0:
108,25,54673,2,0,P|69:51|66:104,1,80,2|0,3:2|0:0,0:0:0:0:
377,0,54867,6,0,P|278:41|140:104,1,240,10|0,0:0|0:0,0:0:0:0:
148,114,55254,2,0,L|290:86,1,80,10|8,0:0|0:0,0:0:0:0:
0,36,55447,1,4,0:0:0:0:
80,200,55641,6,0,L|100:378,1,179.999994506836,10|0,0:0|0:0,0:0:0:0:
113,384,56028,2,0,L|127:304,1,59.9999981689454,2|0,3:2|3:2,0:0:0:0:
228,281,56222,1,0,3:2:0:0:
304,269,56318,1,0,3:2:0:0:
402,329,56415,6,0,B|439:345|494:286|421:223,1,149.999995422363,2|0,3:2|0:0,0:0:0:0:
419,206,56996,6,0,L|498:272,1,80,8|0,0:0|0:0,0:0:0:0:
464,6,57189,1,4,0:0:0:0:
397,70,57286,1,4,0:0:0:0:
261,35,57383,6,0,P|231:27|152:19,1,80,14|0,0:0|0:0,0:0:0:0:
73,120,57576,2,0,P|102:112|181:104,1,80,2|0,3:2|3:2,0:0:0:0:
280,222,57770,2,0,P|250:214|171:206,1,80,2|0,3:2|0:0,0:0:0:0:
42,334,57963,6,0,B|93:348|127:318|118:250|214:259|246:309,1,200,2|0,3:2|0:0,0:0:0:0:
213,306,58544,6,0,L|149:200,1,80,4|0,0:0|0:0,0:0:0:0:
357,380,58738,1,2,2:2:0:0:
370,309,58834,1,2,2:2:0:0:
434,264,58931,6,0,L|538:246,1,80,2|0,3:2|0:0,0:0:0:0:
267,127,59125,2,0,L|163:145,1,80,0|0,3:2|0:0,0:0:0:0:
431,40,59318,1,0,3:2:0:0:
419,111,59415,1,0,3:2:0:0:
408,178,59512,1,0,3:2:0:0:
135,36,59705,5,10,0:0:0:0:
216,13,59802,1,8,0:0:0:0:
287,59,59899,1,8,0:0:0:0:
56,119,60092,6,0,L|51:57,1,59.9999981689454,0|0,3:2|0:0,0:0:0:0:
15,289,60286,1,0,3:2:0:0:
111,220,60383,1,0,3:2:0:0:
262,232,60480,6,0,B|417:252|418:418|270:455|241:329|310:315,1,329.9999899292,12|0,0:0|0:0,0:0:0:0:
276,318,61641,2,0,P|250:336|238:382,1,59.9999981689454,0|2,0:0|0:0,0:0:0:0:
485,232,62028,2,0,B|552:211|575:88|428:71|341:114|499:241|300:266|275:199,1,389.999988098145,2|0,0:0|0:0,0:0:0:0:
329,154,63383,1,8,2:2:0:0:
64,111,63576,6,0,B|131:29|260:0|301:27|301:27|259:25|229:50,1,329.9999899292,12|0,0:0|0:0,0:0:0:0:
240,57,64738,2,0,P|227:88|237:127,1,69.9999978637696,0|2,0:0|0:0,0:0:0:0:
142,262,65125,2,0,B|82:232|72:116|186:152|207:41|148:-44|29:5|67:86,1,389.999988098145,2|0,0:0|0:0,0:0:0:0:
11,157,66480,6,0,L|90:162,1,80,8|0,0:0|0:0,0:0:0:0:
363,300,66673,2,0,L|283:294,1,80,12|0,0:0|0:0,0:0:0:0:
175,234,66867,1,10,0:0:0:0:
153,304,66963,1,8,0:0:0:0:
131,374,67060,1,10,0:0:0:0:
349,179,67254,6,0,P|434:156|514:196,1,179.999994506836,2|0,3:2|0:0,0:0:0:0:
454,237,67641,1,8,0:0:0:0:
435,169,67738,1,8,0:0:0:0:
497,75,67834,1,6,0:0:0:0:
505,62,68028,5,10,0:0:0:0:
407,69,68125,1,8,0:0:0:0:
306,77,68222,6,0,P|235:46|222:-5,1,119.999996337891,2|8,3:2|0:0,0:0:0:0:
185,217,68512,2,0,P|147:179|153:103,1,119.999996337891,8|8,0:0|0:0,0:0:0:0:
10,277,68802,2,0,P|-3:225|39:162,2,119.999996337891,8|8|8,0:0|0:0|0:0,0:0:0:0:
89,383,69383,1,8,0:0:0:0:
260,150,69576,1,12,0:0:0:0:
338,212,69673,1,0,0:0:0:0:
494,190,69770,6,0,P|352:225|233:271,1,269.999991760254,12|0,0:0|3:2,0:0:0:0:
228,284,70157,1,2,3:2:0:0:
12,71,70351,6,0,P|98:55|174:100,1,179.999994506836,10|0,0:0|0:0,0:0:0:0:
221,161,70738,1,10,0:0:0:0:
432,0,70931,1,6,0:0:0:0:
327,12,71125,1,10,0:0:0:0:
512,182,71318,5,10,0:0:0:0:
505,189,71512,5,8,0:0:0:0:
440,173,71609,1,8,0:0:0:0:
429,241,71706,1,8,0:0:0:0:
343,205,71803,1,8,0:0:0:0:
274,279,71899,1,8,0:0:0:0:
7,314,72092,5,8,0:0:0:0:
120,288,72189,1,8,0:0:0:0:
189,380,72286,1,8,0:0:0:0:
174,384,72480,6,0,L|149:289,1,75,4|0,0:0|3:2,0:0:0:0:
222,56,72867,6,0,B|159:120|159:120|181:207,2,179.999994506836,14|0|0,0:0|3:2|3:2,0:0:0:0:
473,280,73447,2,0,B|536:216|536:216|502:88,2,179.999994506836,6|0|0,0:0|3:2|3:2,0:0:0:0:
307,2,74028,2,0,B|395:-21|395:-21|459:42,2,179.999994506836,6|0|0,0:0|3:2|3:2,0:0:0:0:
386,332,74609,2,0,B|299:355|299:355|235:292,2,179.999994506836,6|0|0,0:0|3:2|3:2,0:0:0:0:
339,143,75189,1,2,2:2:0:0:
343,147,75383,5,0,3:2:0:0:
347,151,75480,1,0,3:2:0:0:
351,155,75576,2,0,L|326:70,1,75,6|8,3:2|0:0,0:0:0:0:
448,344,75963,6,0,B|361:321|361:321|267:414,2,179.999994506836,14|0|0,0:0|3:2|3:2,0:0:0:0:
18,306,76544,2,0,B|104:328|104:328|198:235,2,179.999994506836,6|0|0,0:0|3:2|3:2,0:0:0:0:
430,172,77125,2,0,B|343:149|343:149|249:242,2,179.999994506836,6|0|0,0:0|3:2|3:2,0:0:0:0:
0,134,77706,2,0,B|86:156|86:156|180:63,2,179.999994506836,6|0|0,0:0|3:2|3:2,0:0:0:0:
245,0,78286,1,6,0:0:0:0:
232,8,78480,5,0,3:2:0:0:
273,14,78576,1,0,3:2:0:0:
314,20,78673,1,6,0:0:0:0:
462,144,78867,1,8,0:0:0:0:
371,116,78963,1,8,0:0:0:0:
252,194,79060,6,0,B|277:228|277:228|516:209,1,269.999991760254,14|0,0:0|3:2,0:0:0:0:
504,210,79447,1,0,3:2:0:0:
182,154,79641,2,0,B|163:192|163:192|299:389,1,269.999991760254,6|0,0:0|3:2,0:0:0:0:
292,380,80028,1,0,3:2:0:0:
181,74,80222,2,0,B|138:77|138:77|35:293,1,269.999991760254,6|0,0:0|3:2,0:0:0:0:
40,283,80609,1,0,3:2:0:0:
250,34,80802,2,0,B|226:0|226:0|-12:18,1,269.999991760254,6|0,0:0|3:2,0:0:0:0:
0,17,81189,1,0,3:2:0:0:
319,73,81383,1,6,0:0:0:0:
323,69,81577,5,0,3:2:0:0:
327,65,81674,1,0,3:2:0:0:
331,61,81770,2,0,L|427:53,1,75,6|8,0:0|0:0,0:0:0:0:
203,253,82157,6,0,B|168:229|168:229|186:-10,1,269.999991760254,14|0,0:0|3:2,0:0:0:0:
186,3,82544,1,0,3:2:0:0:
297,262,82738,2,0,B|335:243|335:243|353:4,1,269.999991760254,6|0,0:0|3:2,0:0:0:0:
353,17,83125,1,0,3:2:0:0:
194,375,83318,2,0,B|197:332|197:332|-1:197,1,269.999991760254,6|0,0:0|3:2,0:0:0:0:
10,203,83705,1,0,3:2:0:0:
288,384,83899,2,0,B|291:341|291:341|507:238,1,269.999991760254,6|0,0:0|3:2,0:0:0:0:
497,244,84286,1,0,3:2:0:0:
257,177,84480,1,6,0:0:0:0:
244,186,84673,5,0,3:2:0:0:
247,149,84770,1,0,3:2:0:0:
253,66,84867,1,6,0:0:0:0:
87,282,85060,1,8,0:0:0:0:
131,274,85157,1,8,0:0:0:0:
176,321,85254,6,0,L|170:386,2,50,2|2|2,0:0|0:0|0:0,0:0:0:0:
236,268,85544,1,2,0:0:0:0:
248,260,85641,2,0,P|271:252|296:252,1,50,2|2,0:0|0:0,0:0:0:0:
338,328,85834,2,0,P|313:328|289:320,1,50,2|2,0:0|0:0,0:0:0:0:
459,201,86028,5,2,3:2:0:0:
470,134,86125,1,2,3:2:0:0:
405,116,86222,1,2,3:2:0:0:
386,50,86318,1,2,3:2:0:0:
320,61,86415,1,2,3:2:0:0:
273,8,86511,1,2,3:2:0:0:
211,43,86609,1,2,3:2:0:0:
140,11,86705,1,2,3:2:0:0:
63,75,86802,5,14,3:2:0:0:
