osu file format v14

[General]
AudioFilename: audio.mp3
AudioLeadIn: 0
PreviewTime: 9963
Countdown: 0
SampleSet: Soft
StackLeniency: 0.7
Mode: 0
LetterboxInBreaks: 0
WidescreenStoryboard: 1

[Editor]
Bookmarks: 4738,10931,23318,35705,48092,60480,66673,72867,86802
DistanceSpacing: 0.8
BeatDivisor: 2
GridSize: 4
TimelineZoom: 1.1

[Metadata]
Title:Sentou! Lusamine
TitleUnicode:戦闘!ルザミーネ
Artist:Adachi Minako
ArtistUnicode:足立美奈子
Creator:-Waterlemon
Version:AnimeStyle's Beginner
Source:ポケットモンスター サン・ムーン
Tags:animestyle stompy_ bluirre ajmosca ajmeowsca sylvantia battle battle! aether president theme instrumental video game videogame vgm ost original soundtrack orchestral pokémon pokemon pocket monsters sun and & moon sm ポケットモンスター ウルトラサン・ウルトラムーン ultra sun ultra moon usum freak nintendo ポケモン gen generation 7 alola
BeatmapID:3749873
BeatmapSetID:1807662

[Difficulty]
HPDrainRate:0
CircleSize:2
OverallDifficulty:0.5
ApproachRate:1
SliderMultiplier:0.75
SliderTickRate:0.5

[Events]
//Background and Video events
0,0,"looosamine.jpg",0,0
//Break Periods
2,35905,46412
2,60680,61703
2,63583,64800
2,66680,67896
2,69776,71187
//Storyboard Layer 0 (Background)
//Storyboard Layer 1 (Fail)
//Storyboard Layer 2 (Pass)
//Storyboard Layer 3 (Foreground)
//Storyboard Layer 4 (Overlay)
//Storyboard Sound Samples

[TimingPoints]
93,387.096774193548,4,2,1,20,1,0
1641,-100,4,2,1,45,0,0
4738,-100,4,2,4,55,0,0
4931,-100,4,2,1,55,0,0
5512,-100,4,2,2,55,0,0
5705,-100,4,2,1,55,0,0
6867,-100,4,2,2,55,0,0
7254,-100,4,2,1,55,0,0
7834,-100,4,2,4,55,0,0
8028,-100,4,2,1,55,0,0
8609,-100,4,2,2,55,0,0
8802,-100,4,2,1,55,0,0
10351,-100,4,2,2,55,0,0
10738,-100,4,2,1,55,0,0
10931,-100,4,2,1,70,0,0
12092,-100,4,2,2,70,0,0
12286,-100,4,2,1,70,0,0
13834,-100,4,2,2,70,0,0
14028,-100,4,2,4,70,0,0
14222,-100,4,2,1,70,0,0
15189,-100,4,2,2,70,0,0
15383,-100,4,2,1,70,0,0
17125,-100,4,2,4,70,0,0
17318,-100,4,2,1,70,0,0
18286,-100,4,2,2,70,0,0
18480,-100,4,2,1,70,0,0
20222,-100,4,2,4,70,0,0
20415,-100,4,2,1,70,0,0
20609,-100,4,2,2,70,0,0
20802,-100,4,2,1,70,0,0
21576,-100,4,2,2,70,0,0
21770,-100,4,2,1,70,0,0
23318,-100,4,2,4,60,0,0
23512,-100,4,2,1,60,0,0
24480,-100,4,2,2,60,0,0
24673,-100,4,2,1,60,0,0
25254,-100,4,2,2,60,0,0
25447,-100,4,2,1,60,0,0
26028,-100,4,2,2,60,0,0
26222,-100,4,2,1,60,0,0
26415,-100,4,2,4,60,0,0
26609,-100,4,2,1,60,0,0
27576,-100,4,2,2,60,0,0
27770,-100,4,2,1,60,0,0
28351,-100,4,2,2,60,0,0
28544,-100,4,2,1,60,0,0
29125,-100,4,2,3,60,0,0
29318,-100,4,2,1,60,0,0
29512,-100,4,2,4,60,0,0
29705,-100,4,2,1,60,0,0
30673,-100,4,2,2,60,0,0
30867,-100,4,2,1,60,0,0
32222,-100,4,2,3,60,0,0
32415,-100,4,2,1,60,0,0
32609,-100,4,2,4,60,0,0
32802,-100,4,2,1,60,0,0
32996,-100,4,2,2,60,0,0
33189,-100,4,2,1,60,0,0
33770,-100,4,2,2,60,0,0
33963,-100,4,2,1,60,0,0
35705,-100,4,2,4,60,0,0
35899,-100,4,2,1,60,0,0
36867,-100,4,2,2,60,0,0
37060,-100,4,2,1,60,0,0
38609,-100,4,2,3,60,0,0
38705,-100,4,2,1,60,0,0
38996,-100,4,2,4,60,0,0
39189,-100,4,2,1,60,0,0
46157,-100,4,2,2,60,0,0
46351,-100,4,2,1,60,0,0
48092,-100,4,2,4,75,0,0
48286,-100,4,2,1,75,0,0
48673,-100,4,2,2,75,0,0
48867,-100,4,2,1,75,0,0
49254,-100,4,2,2,75,0,0
49447,-100,4,2,1,75,0,0
49641,-100,4,2,2,75,0,0
49834,-100,4,2,1,75,0,0
50996,-100,4,2,2,75,0,0
51189,-100,4,2,4,75,0,0
51383,-100,4,2,1,75,0,0
52351,-100,4,2,2,75,0,0
52641,-100,4,2,1,75,0,0
54286,-100,4,2,4,75,0,0
54480,-100,4,2,1,75,0,0
55447,-100,4,2,2,75,0,0
55641,-100,4,2,1,75,0,0
57189,-100,4,2,2,75,0,0
57383,-100,4,2,4,75,0,0
57576,-100,4,2,1,75,0,0
58544,-100,4,2,2,75,0,0
58738,-100,4,2,1,75,0,0
60480,-100,4,2,4,40,0,0
60673,-100,4,2,1,40,0,0
63383,-100,4,2,3,40,0,0
63576,-100,4,2,4,40,0,0
63770,-100,4,2,1,40,0,0
66480,-100,4,2,3,40,0,0
66673,-100,4,2,4,50,0,0
66867,-100,4,2,1,50,0,0
67834,-100,4,2,2,50,0,0
68028,-100,4,2,1,50,0,0
69576,-100,4,2,3,50,0,0
69769,-100,4,2,4,50,0,0
69963,-100,4,2,1,50,0,0
70351,-100,4,2,2,50,0,0
70447,-100,4,2,1,50,0,0
70931,-100,4,2,2,50,0,0
71222,-100,4,2,1,50,0,0
71512,-100,4,2,2,50,0,0
71609,-100,4,2,1,50,0,0
71705,-100,4,2,2,50,0,0
71802,-100,4,2,1,50,0,0
72286,-100,4,2,2,50,0,0
72480,-100,4,2,1,50,0,0
72867,-100,4,2,3,80,0,1
75576,-100,4,2,2,80,0,1
75963,-100,4,2,3,80,0,1
78286,-100,4,2,2,80,0,1
79060,-100,4,2,3,80,0,1
81383,-100,4,2,2,80,0,1
82157,-100,4,2,3,80,0,1
84480,-100,4,2,2,80,0,1
85254,-100,4,2,1,65,0,0
86028,-100,4,2,1,75,0,0
86802,-100,4,2,4,75,0,0

[Colours]
Combo1 : 130,233,255
Combo2 : 255,252,106
Combo3 : 169,255,128
Combo4 : 217,174,255
SliderBorder : 255,255,189

[HitObjects]
87,129,4738,5,8,0:0:0:0:
101,247,5512,2,0,B|118:355|118:355|265:334,1,225,8|2,0:0|3:2,0:0:0:0:
291,329,7060,1,8,0:0:0:0:
391,263,7834,5,10,0:0:0:0:
372,144,8609,2,0,B|356:35|356:35|209:56,1,225,10|2,0:0|0:0,0:0:0:0:
182,60,10157,1,0,3:2:0:0:
73,14,10931,5,4,3:2:0:0:
0,109,11705,2,0,L|30:265,1,150,2|2,0:0|3:2,0:0:0:0:
41,315,12867,1,2,3:2:0:0:
147,369,13641,5,10,0:0:0:0:
207,358,14028,2,0,L|363:328,1,150,10|2,0:0|3:2,0:0:0:0:
414,318,15189,1,6,0:0:0:0:
511,247,15963,1,10,0:0:0:0:
484,68,17125,5,12,3:2:0:0:
366,89,17899,2,0,L|210:119,1,150,2|2,0:0|3:2,0:0:0:0:
193,172,19061,1,2,3:2:0:0:
210,290,19835,5,10,0:0:0:0:
249,335,20222,2,0,L|396:306,1,150,10|2,0:0|3:2,0:0:0:0:
454,294,21383,1,2,3:2:0:0:
511,188,22157,1,2,3:2:0:0:
435,25,23318,6,0,P|367:-2|289:45,1,150,12|2,0:0|0:0,0:0:0:0:
232,127,24867,2,0,P|199:148|161:153,1,75,10|10,0:0|0:0,0:0:0:0:
47,125,26028,1,10,0:0:0:0:
5,168,26415,6,0,P|-15:237|37:311,1,150,8|10,3:2|0:0,0:0:0:0:
137,271,27963,2,0,P|175:271|208:289,1,75,2|10,3:2|0:0,0:0:0:0:
302,361,29125,1,8,0:0:0:0:
360,375,29512,6,0,P|427:349|454:261,1,150,8|2,0:0|3:2,0:0:0:0:
452,160,31060,2,0,P|425:130|390:116,1,75,2|2,3:2|0:0,0:0:0:0:
273,114,32222,1,10,0:0:0:0:
213,114,32609,6,0,P|146:88|119:0,2,150,10|8|2,3:2|0:0|0:0,0:0:0:0:
331,95,34931,1,2,3:2:0:0:
363,210,35705,5,14,0:0:0:0:
388,316,48092,6,0,L|497:292,2,112.5,14|10|4,0:0|0:0|0:0,0:0:0:0:
329,328,49641,1,8,0:0:0:0:
254,276,50222,1,2,3:2:0:0:
134,184,51189,6,0,L|24:207,2,112.5,14|2|4,0:0|3:2|0:0,0:0:0:0:
192,171,52738,2,0,P|240:145|169:46,1,187.5,10|14,0:0|3:2,0:0:0:0:
110,62,54286,6,0,L|0:85,2,112.5,14|10|4,0:0|0:0|0:0,0:0:0:0:
169,50,55835,1,0,3:2:0:0:
244,102,56416,1,2,3:2:0:0:
364,194,57383,6,0,L|473:170,2,112.5,14|2|4,0:0|3:2|0:0,0:0:0:0:
306,207,58931,2,0,P|258:233|295:329,1,150,2|10,3:2|0:0,0:0:0:0:
376,372,60480,5,12,0:0:0:0:
397,320,63383,5,8,2:2:0:0:
418,263,66480,5,8,0:0:0:0:
438,206,69576,5,12,0:0:0:0:
475,135,72867,6,0,P|474:82|403:56,1,112.5,14|6,0:0|0:0,0:0:0:0:
339,68,74028,1,6,0:0:0:0:
328,157,74609,1,6,0:0:0:0:
409,194,75189,2,0,L|411:273,1,75,2|6,2:2|3:2,0:0:0:0:
409,328,75963,6,0,P|372:366|319:357,1,112.5,14|6,0:0|0:0,0:0:0:0:
258,290,77124,1,6,0:0:0:0:
200,222,77705,1,6,0:0:0:0:
142,153,78286,2,0,L|147:66,1,75,6|6,0:0|0:0,0:0:0:0:
186,33,79060,6,0,P|235:16|283:75,1,112.5,14|6,0:0|0:0,0:0:0:0:
292,142,80221,1,6,0:0:0:0:
211,179,80802,1,6,0:0:0:0:
150,113,81382,2,0,L|73:133,1,75,6|6,0:0|0:0,0:0:0:0:
19,149,82157,6,0,P|-6:195|21:242,1,112.5,14|6,0:0|0:0,0:0:0:0:
108,278,83318,1,6,0:0:0:0:
190,310,83899,1,6,0:0:0:0:
275,340,84480,2,0,L|355:300,1,75,6|6,0:0|0:0,0:0:0:0:
397,282,85254,6,0,P|490:181|392:164,1,300,2|14,0:0|3:2,0:0:0:0:
