osu file format v14

[General]
AudioFilename: Axeria.mp3
AudioLeadIn: 0
PreviewTime: 65
Countdown: 1
SampleSet: Soft
StackLeniency: 0.3
Mode: 0
LetterboxInBreaks: 0
WidescreenStoryboard: 1

[Editor]
Bookmarks: 21360,41256,61153,68614,71101,110272
DistanceSpacing: 1
BeatDivisor: 4
GridSize: 16
TimelineZoom: 4.399998

[Metadata]
Title:Axeria
TitleUnicode:Axeria
Artist:AcuticNotes
ArtistUnicode:AcuticNotes
Creator:Hakurei Yoru
Version:Nightmare
Source:maimai ORANGE PLUS
Tags:Dream117er StarrStyx Necho _Stan
BeatmapID:971110
BeatmapSetID:394238

[Difficulty]
HPDrainRate:6
CircleSize:4.5
OverallDifficulty:8
ApproachRate:9.3
SliderMultiplier:1.6
SliderTickRate:1

[Events]
//Background and Video events
0,0,"img_0157.jpg",0,0
//Break Periods
2,68814,69925
//Storyboard Layer 0 (Background)
//Storyboard Layer 1 (Fail)
//Storyboard Layer 2 (Pass)
//Storyboard Layer 3 (Foreground)
//Storyboard Layer 4 (Overlay)
//Storyboard Sound Samples

[TimingPoints]
-1023,310.880829015544,4,2,1,20,1,0
220,-100,4,2,1,35,0,0
686,-400,4,2,1,35,0,0
842,-400,4,2,1,5,0,0
1464,-100,4,2,1,35,0,0
5660,-400,4,2,1,35,0,0
6438,-100,4,2,1,35,0,0
9624,-100,4,2,1,15,0,0
9857,-100,4,2,1,5,0,0
10168,-66.6666666666667,4,2,1,75,0,0
10790,-125,4,2,1,75,0,0
11567,-100,4,2,1,75,0,0
12500,-100,4,2,1,45,0,0
12655,-100,4,2,1,75,0,0
15142,-66.6666666666667,4,2,1,75,0,0
15764,-125,4,2,1,75,0,0
16541,-100,4,2,1,75,0,0
17629,-200,4,2,1,75,0,0
18717,-75.187969924812,4,2,1,75,0,0
18873,-66.6666666666667,4,2,1,75,0,0
19184,-50,4,2,1,75,0,0
19339,-66.6666666666667,4,2,1,75,0,0
19806,-50,4,2,1,75,0,0
20116,-75.187969924812,4,2,1,75,0,0
20583,-62.5,4,2,1,75,0,0
21049,-50,4,2,1,100,0,0
21204,-50,4,2,1,5,0,0
21360,-100,4,2,1,85,0,1
30842,-66.6666666666667,4,2,1,85,0,1
37526,-100,4,2,1,85,0,1
40790,-100,4,2,1,85,0,1
41256,-83.3333333333333,4,2,1,95,0,0
42655,-66.6666666666667,4,2,1,75,0,0
43743,-83.3333333333333,4,2,1,75,0,0
44987,-66.6666666666667,4,2,1,75,0,0
45609,-100,4,2,1,75,0,0
46230,-83.3333333333333,4,2,1,75,0,0
47629,-66.6666666666667,4,2,1,75,0,0
48717,-83.3333333333333,4,2,1,75,0,0
50116,-66.6666666666667,4,2,1,75,0,0
51204,-75.187969924812,4,2,1,75,0,0
51826,-66.6666666666667,4,2,1,75,0,0
52603,-100,4,2,1,75,0,0
53070,-200,4,2,1,75,0,0
53692,-66.6666666666667,4,2,1,75,0,0
54313,-100,4,2,1,75,0,0
55090,-66.6666666666667,4,2,1,75,0,0
55868,-100,4,2,1,75,0,0
56179,-75.187969924812,4,2,1,75,0,0
57267,-83.3333333333333,4,2,1,75,0,0
57578,-66.6666666666667,4,2,1,75,0,0
58044,-200,4,2,1,75,0,0
58666,-66.6666666666667,4,2,1,75,0,0
59287,-100,4,2,1,75,0,0
60531,-76.9230769230769,4,2,1,75,0,0
60842,-100,4,2,1,75,0,0
62396,-66.6666666666667,4,2,1,65,0,0
63018,-100,4,2,1,65,0,0
63640,-83.3333333333333,4,2,1,65,0,0
67215,-100,4,2,1,65,0,0
67370,-133.333333333333,4,2,1,65,0,0
70635,-133.333333333333,4,2,1,5,0,0
70790,-133.333333333333,4,2,1,65,0,0
70945,-133.333333333333,4,2,1,5,0,0
71101,-200,4,2,1,100,0,1
71567,-100,4,2,1,100,0,1
72189,-200,4,2,1,100,0,1
72500,-100,4,2,1,100,0,1
72655,-200,4,2,1,100,0,1
72966,-133.333333333333,4,2,1,100,0,1
73588,-100,4,2,1,100,0,1
74676,-200,4,2,1,100,0,1
74987,-100,4,2,1,100,0,1
75142,-200,4,2,1,100,0,1
75764,-100,4,2,1,100,0,1
76075,-200,4,2,1,100,0,1
76541,-100,4,2,1,100,0,1
77163,-200,4,2,1,100,0,1
77474,-100,4,2,1,100,0,1
77629,-200,4,2,1,100,0,1
78096,-100,4,2,1,100,0,1
78251,-200,4,2,1,100,0,1
78562,-100,4,2,1,100,0,1
79961,-200,4,2,1,100,0,1
80894,-100,4,2,1,100,0,1
81204,-200,4,2,1,100,0,1
83847,-100,4,2,1,100,0,1
85401,-83.3333333333333,4,2,1,100,0,1
86334,-66.6666666666667,4,2,1,100,0,1
88510,-185.185185185185,4,2,1,100,0,0
90997,-66.6666666666667,4,2,1,100,0,0
92707,-83.3333333333333,4,2,1,100,0,0
94106,-200,4,2,1,100,0,0
94572,-100,4,2,1,100,0,0
95971,-66.6666666666667,4,2,1,100,0,0
96593,-100,4,2,1,100,0,0
97837,-200,4,2,1,100,0,0
98147,-100,4,2,1,100,0,0
98458,-66.6666666666667,4,2,1,100,0,0
99080,-200,4,2,1,100,0,0
99702,-133.333333333333,4,2,1,70,0,0
100790,-66.6666666666667,4,2,1,100,0,0
104676,-100,4,2,1,100,0,0
105920,-83.3333333333333,4,2,1,100,0,0
107163,-75.187969924812,4,2,1,100,0,0
107785,-66.6666666666667,4,2,1,100,0,0
108096,-100,4,2,1,100,0,0
108407,-500,4,2,1,100,0,0
110272,-500,4,2,1,5,0,0

[Colours]
Combo1 : 255,0,0
Combo2 : 201,201,201
Combo3 : 128,128,255
Combo4 : 128,128,128
Combo5 : 225,225,225
Combo6 : 255,0,255
Combo7 : 0,255,255
Combo8 : 0,0,255

[HitObjects]
159,84,220,5,2,0:0:0:0:
223,150,375,1,0,0:0:0:0:
195,251,531,1,0,0:0:0:0:
259,317,686,2,0,L|343:312,1,80,2|2,0:0|0:0,0:0:0:0:
413,269,1464,6,0,P|424:219|415:184,1,80,0|2,0:0|0:0,0:0:0:0:
357,45,1774,2,0,P|346:95|355:130,1,80
419,192,2085,2,0,L|528:188,1,80,2|0,0:0|0:0,0:0:0:0:
180,282,2396,1,0,0:0:0:0:
326,307,2552,2,0,B|286:271|286:271|153:285,1,160,2|0,0:0|0:0,0:0:0:0:
27,161,3018,2,0,B|67:197|67:197|200:183,1,160,2|2,0:0|0:0,0:0:0:0:
130,31,3484,1,0,0:0:0:0:
94,121,3640,2,0,L|193:111,1,80,0|2,0:0|0:0,0:0:0:0:
346,48,3951,5,0,0:0:0:0:
346,48,4106,2,0,L|331:239,1,160,2|0,0:0|0:0,0:0:0:0:
139,230,4572,2,0,L|152:323,1,80,0|2,0:3|0:0,0:0:0:0:
63,369,4883,2,0,L|52:280,1,80,0|0,0:3|0:0,0:0:0:0:
231,340,5194,5,2,0:0:0:0:
266,258,5350,1,0,0:0:0:0:
350,225,5505,1,0,0:0:0:0:
431,263,5660,2,0,P|443:312|432:342,1,80,2|0,0:0|0:0,0:0:0:0:
291,370,6438,86,0,L|204:364,1,80,0|2,0:0|0:0,0:0:0:0:
365,304,6749,2,0,L|444:298,1,80
271,54,7059,2,0,P|259:91|270:129,1,80,2|0,0:0|0:0,0:0:0:0:
338,91,7370,1,0,0:0:0:0:
204,20,7526,2,0,P|185:112|223:186,1,160,2|0,0:0|0:0,0:0:0:0:
314,361,7992,2,0,P|333:269|295:195,1,160,2|2,0:0|0:0,0:0:0:0:
338,91,8458,1,0,0:0:0:0:
209,170,8614,2,0,L|98:177,1,80,0|2,0:0|0:0,0:0:0:0:
0,333,8925,6,0,P|78:312|155:346,1,160,4|0,0:1|0:0,0:0:0:0:
309,211,9391,1,0,0:0:0:0:
375,63,9546,6,2,B|413:128|386:208|386:208|381:147|314:129,1,240,2|2,0:2|0:2,0:1:0:0:
321,268,10168,54,0,P|310:240|309:211,1,60.0000022888184,4|0,1:2|0:0,0:0:0:0:
212,22,10324,2,0,P|202:50|206:81,1,60.0000022888184,0|0,1:0|0:0,0:0:0:0:
71,181,10479,2,0,B|144:260|75:358,1,180.000006866455,8|0,1:2|0:0,0:0:0:0:
83,345,10790,6,0,L|220:340,1,128,2|8,1:0|0:0,0:0:0:0:
395,278,11256,2,0,L|515:275,1,96,2|0,1:0|0:0,0:0:0:0:
490,275,11567,6,0,L|354:268,1,120,0|0,1:0|0:0,0:0:0:0:
348,267,11878,1,8,0:0:0:0:
180,59,12033,2,0,L|80:65,1,80,2|2,1:0|0:0,0:0:0:0:
152,303,12344,2,0,L|72:307,1,80,0|2,1:0|0:0,0:0:0:0:
382,348,12655,6,0,L|392:268,1,80,2|0,1:0|0:0,0:0:0:0:
330,171,12966,2,0,L|340:91,1,80,8|0,1:2|0:0,0:0:0:0:
210,352,13277,2,0,L|229:226,1,120,2|0,1:0|0:0,0:0:0:0:
235,206,13588,1,8,1:2:0:0:
177,84,13743,2,0,L|187:4,1,80,2|0,1:0|0:0,0:0:0:0:
235,206,14054,1,8,1:2:0:0:
86,165,14210,6,0,L|-12:164,1,80,0|2,1:2|1:2,0:0:0:0:
103,139,14521,1,0,1:0:0:0:
121,50,14676,1,2,0:0:0:0:
210,64,14831,1,8,1:2:0:0:
193,158,14986,1,2,0:0:0:0:
85,183,15142,54,0,P|88:220|113:272,1,60.0000022888184,4|0,1:2|0:0,0:0:0:0:
198,359,15298,2,0,P|210:320|210:269,1,60.0000022888184,0|0,1:0|0:0,0:0:0:0:
293,43,15453,2,0,P|280:124|357:230,1,180.000006866455,8|0,1:2|0:0,0:0:0:0:
324,207,15764,6,0,P|354:196|386:194,1,64,6|0,1:0|0:0,0:0:0:0:
376,281,16075,1,8,0:0:0:0:
228,110,16230,2,0,P|166:105|121:133,1,96,2|0,1:0|0:0,0:0:0:0:
240,220,16541,6,0,P|253:156|224:106,1,120,4|0,1:0|0:0,0:0:0:0:
228,110,16852,1,8,0:0:0:0:
83,273,17008,2,0,L|136:258,1,40,2|0,1:0|0:0,0:0:0:0:
191,292,17163,2,0,L|229:302,1,40,0|0,1:0|0:0,0:0:0:0:
300,270,17318,2,0,L|353:255,1,40,8|0,1:2|0:0,0:0:0:0:
408,289,17474,2,0,L|446:299,1,40,0|0,1:0|0:0,0:0:0:0:
488,291,17629,6,0,L|484:348,1,40,2|0,1:0|0:0,0:0:0:0:
387,102,17940,2,0,L|386:147,1,40,2|0,1:0|0:0,0:0:0:0:
229,267,18407,1,8,0:3:0:0:
196,282,18484,1,8,0:3:0:0:
159,282,18562,1,8,0:3:0:0:
126,266,18640,1,8,0:3:0:0:
109,233,18717,2,0,P|102:195|108:166,1,53.1999978082276,0|0,1:0|0:0,0:0:0:0:
175,31,18873,70,0,B|200:64|200:64|184:218,1,180.000006866455,4|0,1:2|0:0,0:0:0:0:
40,250,19184,2,0,P|28:199|38:157,1,80,8|0,1:2|0:0,0:0:0:0:
42,338,19339,6,0,B|105:326|127:266|127:266|172:296|228:277,1,180.000006866455,0|0,1:0|0:0,0:0:0:0:
262,266,19650,102,0,P|303:243|319:215,1,60.0000022888184,8|0,1:2|0:0,0:0:0:0:
370,59,19806,2,0,B|337:117|368:171|368:171|412:235|368:306,1,240,8|0,1:2|0:0,0:0:0:0:
252,344,20116,6,0,P|237:290|350:250,1,160,0|0,1:0|0:0,0:0:0:0:
378,286,20427,1,8,1:2:0:0:
258,376,20583,2,0,P|231:263|341:224,1,256,4|0,1:2|0:0,0:0:0:0:
430,245,21049,102,0,B|391:262|375:306|375:306|334:285|297:304,1,160,4|0,1:0|0:0,0:0:0:0:
157,284,21360,6,0,L|41:278,1,80,6|2,1:0|0:0,0:0:0:0:
103,361,21671,1,8,0:0:0:0:
84,199,21826,2,0,L|192:204,1,80,2|0,1:0|0:0,0:0:0:0:
134,128,22137,1,2,1:0:0:0:
406,269,22293,2,0,B|432:214|432:214|413:147,1,120,10|0,1:2|0:0,0:0:0:0:
391,142,22603,6,0,L|395:33,1,80,4|0,1:0|1:0,0:0:0:0:
395,42,22837,1,2,0:0:0:0:
395,42,22914,1,8,1:2:0:0:
303,47,23070,1,0,1:0:0:0:
211,49,23225,1,0,3:2:0:0:
211,49,23303,1,0,3:0:0:0:
211,49,23381,2,0,L|118:50,1,80,0|8,1:0|0:0,0:0:0:0:
36,47,23692,1,0,3:0:0:0:
36,47,23769,1,0,3:0:0:0:
36,47,23847,5,2,1:0:0:0:
40,141,24002,1,2,0:0:0:0:
143,193,24158,1,8,0:0:0:0:
149,292,24313,1,2,0:1:0:0:
231,357,24469,6,0,L|333:347,1,80,2|2,0:0|1:0,0:0:0:0:
463,252,24780,2,0,L|359:264,1,80,8|0,0:0|0:0,0:0:0:0:
337,185,25090,85,0,1:0:0:0:
345,97,25246,1,0,3:0:0:0:
345,97,25324,1,0,3:0:0:0:
345,97,25401,2,0,L|356:6,1,80,8|2,0:0|0:0,0:0:0:0:
474,36,25712,2,0,L|460:123,1,80,0|2,1:0|0:0,0:0:0:0:
229,79,26023,2,0,L|241:0,1,80,8|2,1:2|0:0,0:0:0:0:
73,265,26334,6,0,L|81:344,1,80,6|0,1:0|0:0,0:0:0:0:
0,318,26645,1,8,0:0:0:0:
163,331,26800,2,0,L|152:231,1,80,2|0,1:0|0:0,0:0:0:0:
139,87,27111,1,2,1:0:0:0:
75,43,27267,2,0,B|60:89|60:89|85:165,1,120,8|0,0:0|0:0,0:0:0:0:
98,184,27578,6,0,L|201:172,1,80,4|0,1:0|1:0,0:0:0:0:
250,168,27811,1,0,0:0:0:0:
250,168,27888,1,8,1:2:0:0:
261,305,28044,1,0,1:0:0:0:
418,346,28199,1,0,3:0:0:0:
418,346,28277,1,0,3:0:0:0:
418,346,28355,2,0,L|415:266,1,80,0|8,1:0|0:0,0:0:0:0:
409,176,28666,1,0,3:0:0:0:
409,176,28743,1,0,3:0:0:0:
409,176,28821,85,2,1:0:0:0:
401,49,28976,1,2,0:0:0:0:
271,196,29132,1,8,0:0:0:0:
249,65,29287,1,2,1:0:0:0:
77,140,29443,2,0,L|90:230,1,80,2|2,0:0|1:0,0:0:0:0:
201,382,29754,2,0,P|216:328|201:293,1,80,8|2,0:0|0:0,0:0:0:0:
164,83,30065,6,0,P|149:137|164:172,1,80,4|0,1:0|1:0,0:0:0:0:
174,178,30298,1,8,1:3:0:0:
199,188,30375,1,8,1:3:0:0:
311,186,30531,1,0,1:0:0:0:
311,186,30842,70,0,P|353:181|385:156,1,60.0000022888184,8|0,0:0|0:0,0:0:0:0:
313,271,30997,2,0,P|297:309|302:350,1,60.0000022888184,0|0,1:0|0:0,0:0:0:0:
238,231,31153,2,0,P|213:197|176:181,1,60.0000022888184,0|0,1:0|0:0,0:0:0:0:
59,131,31308,5,4,1:2:0:0:
151,104,31463,1,2,0:0:0:0:
125,17,31619,1,8,1:2:0:0:
31,42,31774,1,2,0:0:0:0:
286,131,31930,69,0,0:0:0:0:
356,5,32085,1,2,0:0:0:0:
215,259,32241,5,8,1:2:0:0:
442,127,32396,1,2,0:0:0:0:
357,258,32551,21,4,1:0:0:0:
215,259,32707,1,0,1:0:0:0:
239,300,32785,1,0,1:0:0:0:
263,340,32862,1,8,1:2:0:0:
134,377,33018,1,0,1:0:0:0:
4,290,33173,5,0,1:0:0:0:
16,243,33251,1,0,3:0:0:0:
32,197,33329,1,0,1:0:0:0:
17,59,33484,1,8,0:0:0:0:
148,115,33640,1,0,3:0:0:0:
196,108,33717,1,0,3:0:0:0:
241,99,33795,5,0,1:0:0:0:
275,241,33950,1,2,0:0:0:0:
413,208,34106,1,8,0:0:0:0:
380,72,34261,1,2,0:0:0:0:
186,198,34417,53,0,0:0:0:0:
165,318,34572,1,2,0:0:0:0:
207,72,34728,101,8,0:0:0:0:
77,243,34883,1,2,0:0:0:0:
380,72,35038,37,0,1:0:0:0:
423,229,35194,1,0,1:0:0:0:
434,185,35272,1,0,1:0:0:0:
448,141,35349,1,8,1:2:0:0:
343,291,35505,1,0,0:0:0:0:
214,346,35660,5,0,1:0:0:0:
169,345,35738,1,0,3:0:0:0:
126,346,35815,1,0,1:0:0:0:
16,380,35971,1,8,0:0:0:0:
68,199,36126,1,0,3:0:0:0:
68,199,36204,1,0,3:0:0:0:
68,199,36282,5,4,1:2:0:0:
35,87,36437,1,2,0:0:0:0:
180,163,36593,1,8,0:0:0:0:
144,50,36748,1,2,0:0:0:0:
166,251,36904,37,0,0:0:0:0:
262,165,37059,1,2,0:0:0:0:
99,324,37215,5,8,0:0:0:0:
322,223,37370,1,2,0:0:0:0:
461,353,37526,22,0,L|468:269,1,80,0|0,1:0|1:0,0:0:0:0:
473,206,37759,1,0,0:0:0:0:
473,206,37836,1,8,1:2:0:0:
481,89,37992,1,2,0:0:0:0:
365,79,38147,1,0,1:0:0:0:
365,79,38225,1,0,3:0:0:0:
365,79,38303,1,0,1:0:0:0:
250,66,38458,1,8,0:0:0:0:
276,203,38614,1,0,3:0:0:0:
276,203,38692,1,0,3:0:0:0:
276,203,38769,69,0,1:0:0:0:
302,333,38924,1,2,0:0:0:0:
200,142,39080,5,8,1:2:0:0:
389,319,39235,1,2,0:0:0:0:
415,51,39391,22,0,L|335:57,1,80,0|2,1:0|0:0,0:0:0:0:
98,244,39702,2,0,L|177:250,1,80,8|2,1:2|0:0,0:0:0:0:
312,256,40013,85,2,1:0:0:0:
466,369,40168,1,2,3:2:0:0:
456,361,40246,1,0,3:0:0:0:
447,353,40323,1,2,3:2:0:0:
437,345,40401,1,0,3:0:0:0:
428,336,40479,5,8,3:0:0:0:
432,288,40557,1,8,3:0:0:0:
437,240,40635,1,8,3:0:0:0:
441,192,40712,1,8,3:0:0:0:
449,144,40790,6,0,P|410:135|370:141,1,80,8|0,1:2|0:0,0:0:0:0:
287,218,41101,1,0,0:0:0:0:
474,217,41256,6,0,B|405:210|405:210|365:229|365:229|277:217,1,191.999994140625,4|0,1:2|1:2,0:0:0:0:
382,382,41723,5,2,1:0:0:0:
272,126,41878,1,0,1:0:0:0:
100,321,42033,1,2,2:0:0:0:
272,126,42189,1,0,1:0:0:0:
26,77,42344,2,0,B|11:112|11:112|24:174,1,95.9999970703126,2|0,1:2|0:0,0:0:0:0:
188,199,42655,102,0,P|198:136|84:120,1,180.000006866455,4|0,1:2|0:0,0:0:0:0:
91,119,42966,2,0,P|134:117|155:105,1,60.0000022888184,0|0,1:0|0:0,0:0:0:0:
249,44,43122,5,0,1:0:0:0:
91,119,43277,1,2,0:0:0:0:
249,44,43432,1,0,0:0:0:0:
156,298,43588,1,2,0:0:0:0:
249,44,43743,6,0,B|301:15|301:15|290:149,1,191.999994140625,4|0,1:2|1:0,0:0:0:0:
278,262,44210,1,0,1:0:0:0:
398,31,44365,2,0,L|393:142,1,95.9999970703126,0|2,1:0|0:0,0:0:0:0:
136,353,44676,2,0,L|131:242,1,95.9999970703126,0|8,1:0|3:0,0:0:0:0:
53,242,44909,1,8,3:0:0:0:
53,242,44987,2,0,L|143:231,1,60.0000022888184,8|0,3:0|0:0,0:0:0:0:
181,64,45142,102,0,B|228:133|228:133|186:232,1,180.000006866455,4|0,1:2|0:0,0:0:0:0:
84,154,45453,2,0,L|174:143,1,60.0000022888184,0|0,1:0|0:0,0:0:0:0:
349,121,45609,6,0,L|459:107,1,80,0|2,1:0|0:0,0:0:0:0:
166,249,45920,2,0,L|46:235,1,120,0|0,1:0|0:0,0:0:0:0:
47,236,46230,86,0,P|131:234|107:317,1,191.999994140625,4|0,1:2|1:0,0:0:0:0:
42,349,46697,1,0,1:0:0:0:
80,148,46852,1,0,1:0:0:0:
262,272,47008,1,2,0:0:0:0:
329,58,47163,1,0,1:0:0:0:
386,111,47318,2,0,P|342:134|297:129,1,95.9999970703126,0|0,1:0|0:0,0:0:0:0:
155,38,47629,102,0,B|112:105|112:105|164:198,1,180.000006866455,4|0,1:2|0:0,0:0:0:0:
179,203,47940,2,0,P|130:194|91:209,1,60.0000022888184,0|0,1:0|0:0,0:0:0:0:
45,236,48096,1,0,1:0:0:0:
214,322,48251,1,2,0:0:0:0:
140,269,48407,1,0,0:0:0:0:
124,359,48562,1,2,0:0:0:0:
214,322,48717,6,0,B|267:305|307:329|307:329|350:349|421:316,1,191.999994140625,4|0,1:2|1:0,0:0:0:0:
421,140,49184,1,0,1:0:0:0:
400,325,49339,2,0,L|410:217,1,95.9999970703126,0|2,1:0|0:0,0:0:0:0:
217,14,49650,2,0,L|225:109,1,95.9999970703126,0|8,1:0|3:0,0:0:0:0:
174,168,49883,1,8,3:0:0:0:
174,168,49961,2,0,L|111:161,1,47.9999985351563,8|0,3:0|0:0,0:0:0:0:
55,156,50116,102,0,B|116:148|116:148|88:277,1,180.000006866455,4|0,1:2|0:0,0:0:0:0:
34,312,50427,2,0,P|28:350|38:382,1,60.0000022888184,0|0,1:0|0:0,0:0:0:0:
109,339,50583,1,4,1:0:0:0:
185,367,50738,2,0,L|375:353,1,180.000006866455,4|0,1:2|0:0,0:0:0:0:
410,282,51049,2,0,P|406:252|411:222,1,60.0000022888184,0|0,1:0|0:0,0:0:0:0:
466,117,51204,6,0,P|474:139|434:87,1,372.399984657593,0|0,1:0|0:0,0:0:0:0:
405,95,51826,86,0,P|408:125|403:155,1,60.0000022888184,4|0,1:0|0:0,0:0:0:0:
193,154,51982,2,0,P|189:124|195:94,1,60.0000022888184,0|0,1:0|0:0,0:0:0:0:
466,277,52137,2,0,P|412:292|390:287,1,60.0000022888184,4|0,1:2|0:0,0:0:0:0:
107,219,52293,2,0,P|174:186|174:298,1,180.000006866455,2|0,1:2|0:0,0:0:0:0:
223,284,52603,6,0,P|181:292|135:269,1,80,4|0,1:2|0:0,0:0:0:0:
104,113,52914,1,0,1:0:0:0:
147,279,53070,6,0,L|136:369,1,80,0|0,1:0|0:0,0:0:0:0:
75,208,53536,1,0,1:0:0:0:
336,182,53692,22,0,P|385:158|403:133,1,60.0000022888184,0|0,1:0|0:0,0:0:0:0:
260,152,53847,2,0,P|256:206|268:234,1,60.0000022888184,0|0,1:0|0:0,0:0:0:0:
328,102,54002,2,0,P|339:48|276:-7,1,120.000004577637,0|0,1:0|0:0,0:0:0:0:
112,53,54313,86,0,B|149:77|149:77|290:61,1,160,4|0,1:2|1:0,0:0:0:0:
443,35,54780,2,8,L|435:104,2,40,8|8|8,3:0|3:0|3:0,3:0:0:0:
451,217,55090,102,0,P|370:242|383:347,1,180.000006866455,4|0,1:2|0:0,0:0:0:0:
379,335,55401,2,0,P|330:327|307:339,1,60.0000022888184,0|0,1:0|0:0,0:0:0:0:
257,369,55557,5,0,1:0:0:0:
194,293,55712,1,2,0:0:0:0:
96,309,55868,2,0,P|83:342|104:403,1,80,0|2,1:0|0:0,0:0:0:0:
81,127,56179,6,0,L|154:121,1,53.1999978082276,4|0,1:2|0:0,0:0:0:0:
259,174,56334,2,0,L|186:168,1,53.1999978082276,0|0,1:0|0:0,0:0:0:0:
163,52,56489,2,0,L|168:223,1,159.599993424683,0|0,1:0|0:0,0:0:0:0:
236,260,56800,5,4,1:2:0:0:
440,140,56956,1,2,0:0:0:0:
314,109,57111,1,0,1:0:0:0:
440,140,57267,2,0,L|430:264,1,95.9999970703126,0|0,1:0|0:0,0:0:0:0:
254,336,57578,86,0,B|359:309|359:309|443:353,1,180.000006866455,4|0,1:2|0:0,0:0:0:0:
444,353,57888,2,0,L|366:348,1,60.0000022888184,0|0,1:0|0:0,0:0:0:0:
179,329,58044,22,0,L|82:322,1,80,0|0,1:0|0:0,0:0:0:0:
55,247,58510,1,0,1:0:0:0:
4,129,58666,102,0,P|-1:158|2:188,1,60.0000022888184,0|0,1:0|0:0,0:0:0:0:
71,83,58821,2,0,P|77:44|66:4,1,60.0000022888184,0|0,1:0|0:0,0:0:0:0:
74,163,58976,2,0,L|248:152,1,120.000004577637,0|0,1:0|0:0,0:0:0:0:
475,286,59287,6,0,B|443:264|443:264|309:261,1,160,4|0,1:2|1:0,0:0:0:0:
199,322,59754,1,8,3:0:0:0:
199,322,59831,1,8,3:0:0:0:
199,322,59909,6,0,L|196:370,1,40,0|0,1:0|0:0,0:0:0:0:
177,254,60065,2,0,L|180:302,1,40,4|0,1:2|0:0,0:0:0:0:
360,89,60375,6,0,L|363:137,1,40,4|0,1:2|0:0,0:0:0:0:
301,192,60531,6,0,P|335:189|366:203,2,69.3333301595054,4|4|4,3:0|3:0|3:0,0:0:0:0:
454,270,60842,6,0,P|419:267|394:281,2,53.3333333333333,4|0|4,3:0|3:0|3:0,0:0:0:0:
437,337,61153,37,4,1:2:0:0:
182,320,61308,1,0,1:0:0:0:
29,122,61464,5,8,0:3:0:0:
50,106,61541,1,8,0:3:0:0:
77,103,61619,1,8,0:3:0:0:
102,115,61697,1,8,0:3:0:0:
121,136,61774,85,8,1:3:0:0:
182,320,61930,1,2,0:0:0:0:
206,333,62008,1,0,0:0:0:0:
232,326,62085,5,2,1:2:0:0:
255,311,62163,1,0,0:0:0:0:
264,284,62241,1,2,0:0:0:0:
255,257,62318,1,0,0:0:0:0:
292,275,62396,6,0,P|321:263|342:240,1,60.0000022888184,0|0,1:0|3:0,3:0:0:0:
301,74,62552,2,0,P|296:105|306:134,1,60.0000022888184,0|0,1:0|3:0,3:0:0:0:
426,210,62707,1,0,1:0:0:0:
445,240,62785,1,8,0:3:0:0:
448,275,62863,1,8,0:3:0:0:
434,307,62940,1,8,0:3:0:0:
409,327,63018,86,0,L|295:318,1,80,0|0,1:0|0:0,0:0:0:0:
235,358,63329,1,0,1:0:0:0:
203,340,63407,1,8,0:3:0:0:
167,335,63484,1,8,0:3:0:0:
131,341,63562,1,8,0:3:0:0:
100,359,63640,6,0,L|23:352,1,47.9999985351563,0|0,1:0|0:0,0:0:0:0:
89,281,63795,2,0,L|12:274,1,47.9999985351563,2|0,0:0|0:0,0:0:0:0:
152,135,63951,6,0,L|199:130,1,47.9999985351563,0|0,1:0|0:0,0:0:0:0:
163,56,64106,2,0,L|210:51,1,47.9999985351563,2|0,0:0|0:0,0:0:0:0:
271,100,64261,2,0,L|388:92,1,95.9999970703126,0|2,1:0|0:0,0:0:0:0:
193,236,64572,2,0,L|310:228,1,95.9999970703126,0|2,1:0|0:0,0:0:0:0:
359,257,64806,1,0,0:0:0:0:
359,257,64883,85,2,0:0:0:0:
442,248,65039,1,0,0:0:0:0:
408,328,65194,5,0,0:0:0:0:
274,131,65350,1,2,0:0:0:0:
377,161,65505,5,0,0:0:0:0:
191,189,65661,1,2,0:0:0:0:
55,80,65816,1,8,3:0:0:0:
88,75,65894,1,8,3:0:0:0:
120,70,65971,1,8,3:0:0:0:
153,65,66049,1,8,3:0:0:0:
186,60,66127,86,0,P|210:160|159:213,1,143.999995605469,0|0,1:0|0:0,0:0:0:0:
126,243,66438,2,0,B|114:288|114:288|141:352,1,95.9999970703126,0|0,1:0|0:0,0:0:0:0:
193,282,66671,1,0,3:0:0:0:
193,282,66749,1,0,3:0:0:0:
350,365,66904,6,0,L|339:296,1,47.9999985351563,0|0,1:0|0:0,0:0:0:0:
396,264,67059,2,0,L|407:195,1,47.9999985351563,0|0,1:0|0:0,0:0:0:0:
349,156,67215,2,0,L|339:95,1,40,0|0,1:0|0:0,0:0:0:0:
339,90,67370,6,0,L|354:17,1,60.0000022888184,0|2,1:0|0:0,0:0:0:0:
119,312,67681,102,0,L|104:239,1,60.0000022888184,0|2,0:0|0:0,0:0:0:0:
411,127,67992,6,0,L|426:54,1,60.0000022888184,2|0,0:0|0:0,0:0:0:0:
47,350,68303,102,0,L|32:277,1,60.0000022888184,2|0,0:0|0:0,0:0:0:0:
88,183,68614,5,4,0:0:0:0:
128,186,70479,6,0,L|203:177,1,60.0000022888184,2|0,0:0|0:0,0:0:0:0:
488,336,70790,2,0,L|413:327,1,60.0000022888184,2|0,0:0|0:0,0:0:0:0:
290,271,71101,6,0,P|257:259|222:260,1,60,4|0,1:2|0:0,0:0:0:0:
199,269,71412,85,8,0:0:0:0:
379,311,71567,2,0,P|466:271|457:187,1,160,2|0,1:0|0:0,0:0:0:0:
401,56,72033,54,0,L|395:117,1,40,8|0,0:2|0:0,0:0:0:0:
356,158,72189,6,0,L|319:174,1,40,2|0,1:0|0:0,0:0:0:0:
463,187,72500,102,0,L|431:164,1,40,2|0,1:0|0:0,0:0:0:0:
397,95,72655,6,0,L|400:55,1,40,8|0,0:0|0:0,0:0:0:0:
161,191,72966,86,0,L|166:121,1,60.0000022888184,0|2,1:0|0:0,0:0:0:0:
295,343,73277,2,0,L|300:273,1,60.0000022888184,8|2,1:2|0:0,0:0:0:0:
309,298,73588,102,0,L|298:204,1,80,0|0,1:0|0:0,0:0:0:0:
444,364,73899,2,0,L|433:270,1,80,8|2,0:0|0:0,0:0:0:0:
192,371,74210,2,0,L|181:277,1,80,2|0,0:0|0:0,0:0:0:0:
75,92,74521,22,0,L|134:98,1,40,8|0,0:0|0:0,0:0:0:0:
176,142,74676,6,0,L|216:138,1,40,2|0,1:0|0:0,0:0:0:0:
103,172,74987,102,0,L|63:167,1,40,2|0,1:0|0:0,0:0:0:0:
284,131,75142,6,0,L|323:126,1,40,8|0,0:0|0:0,0:0:0:0:
141,279,75453,70,0,L|109:274,1,20,0|0,1:0|0:0,0:0:0:0:
91,364,75609,2,0,L|59:359,1,20,0|0,1:0|0:0,0:0:0:0:
239,285,75764,6,0,L|381:277,1,120,8|0,0:0|0:0,0:0:0:0:
432,318,76075,102,0,P|484:309|504:312,1,60,4|0,1:0|0:0,0:0:0:0:
510,321,76386,1,8,0:0:0:0:
376,209,76541,2,0,P|351:142|393:50,1,160,0|0,1:0|0:0,0:0:0:0:
210,114,77008,22,0,L|152:99,1,40,8|0,0:0|0:0,0:0:0:0:
113,52,77163,6,0,L|102:13,1,40,2|0,1:0|0:3,0:3:0:0:
69,154,77474,102,0,L|98:126,1,40,2|0,1:0|0:3,0:3:0:0:
171,103,77629,6,0,L|209:113,1,40,8|0,0:0|0:3,0:3:0:0:
118,343,77940,1,0,1:0:0:0:
89,236,78096,102,0,L|117:207,1,40,2|0,1:0|0:3,0:3:0:0:
286,137,78251,6,0,L|324:147,1,40,8|0,0:0|0:3,0:3:0:0:
422,110,78562,86,0,P|445:54|429:11,1,80,0|0,1:0|0:0,0:0:0:0:
311,263,78873,2,0,P|334:319|318:362,1,80,8|2,0:0|0:0,0:0:0:0:
190,64,79184,2,0,P|190:103|169:137,1,80,2|0,0:0|0:0,0:0:0:0:
68,138,79495,101,8,0:0:0:0:
169,137,79650,2,0,P|201:217|163:259,1,120,0|0,1:0|0:0,0:0:0:0:
112,295,79961,38,0,B|66:280,1,40,0|0,1:0|0:0,0:0:0:0:
398,364,80272,38,0,B|445:349,1,40,0|0,1:0|0:0,0:0:0:0:
91,183,80583,102,0,L|126:198,1,40,0|0,1:0|0:0,0:0:0:0:
464,116,80894,70,0,L|426:129,1,40,8|0,1:2|0:0,0:0:0:0:
367,173,81049,2,0,L|328:161,1,40,0|0,1:0|0:0,0:0:0:0:
259,155,81204,54,0,L|221:168,1,40,8|0,1:2|0:0,0:0:0:0:
155,196,81515,5,0,1:0:0:0:
146,200,81826,5,0,1:0:0:0:
138,203,82137,5,0,1:0:0:0:
131,207,82448,5,0,1:0:0:0:
124,211,82759,5,0,1:0:0:0:
119,191,82837,1,0,3:0:0:0:
114,171,82914,1,0,1:0:0:0:
109,151,82992,1,0,3:0:0:0:
104,131,83070,1,0,1:0:0:0:
49,333,83225,1,0,1:0:0:0:
190,255,83381,1,2,0:0:0:0:
346,265,83536,5,0,1:0:0:0:
190,255,83692,1,0,0:0:0:0:
298,0,83847,2,0,L|294:159,1,160,8|0,0:0|1:0,0:0:0:0:
346,265,84313,1,2,0:0:0:0:
279,337,84469,2,0,L|174:341,1,80,8|2,1:2|0:0,0:0:0:0:
139,306,84702,1,0,3:0:0:0:
139,306,84780,86,0,L|130:259,1,40,2|0,1:0|0:0,0:0:0:0:
207,164,84935,2,0,L|216:117,1,40,0|0,1:0|0:0,0:0:0:0:
116,287,85090,2,0,L|124:327,1,40,8|0,1:2|0:0,0:0:0:0:
326,192,85246,2,0,L|333:152,1,40,2|0,1:0|0:0,0:0:0:0:
388,87,85401,70,0,L|464:98,1,47.9999985351563,0|0,1:0|0:0,0:0:0:0:
489,304,85557,2,0,L|441:310,1,47.9999985351563,2|0,1:0|0:0,0:0:0:0:
333,152,85712,2,0,L|459:171,1,95.9999970703126,8|0,1:2|1:0,0:0:0:0:
478,224,85945,1,0,3:0:0:0:
478,224,86023,5,4,1:0:0:0:
200,155,86179,1,2,0:0:0:0:
65,316,86334,2,0,L|279:296,1,180.000006866455,8|0,0:0|0:0,0:0:0:0:
271,296,86645,1,0,1:0:0:0:
33,249,86800,2,0,L|129:240,1,60.0000022888184,2|0,1:0|0:0,0:0:0:0:
288,200,86956,2,0,B|329:162|329:162|336:302,1,180.000006866455,8|0,0:0|0:0,0:0:0:0:
367,337,87267,6,0,L|362:251,1,60.0000022888184,4|0,1:0|0:0,0:0:0:0:
378,94,87422,2,0,L|371:3,1,60.0000022888184,2|0,0:0|0:0,0:0:0:0:
368,255,87578,1,8,0:0:0:0:
288,200,87733,2,0,L|277:58,1,120.000004577637,2|8,0:0|0:0,0:0:0:0:
79,333,88044,1,2,0:0:0:0:
168,384,88199,2,0,L|156:259,1,120.000004577637,8|0,0:0|0:0,0:0:0:0:
273,99,88510,86,0,B|228:114|197:153|198:228|270:261|270:261|317:233|286:173,1,302.400007382813,4|2,1:0|0:0,0:0:0:0:
408,131,90531,5,2,0:0:0:0:
380,138,90609,1,2,0:0:0:0:
352,133,90686,1,2,1:2:0:0:
303,80,90842,1,2,0:0:0:0:
207,91,90997,6,0,P|177:93|149:104,1,60.0000022888184,4|0,1:2|0:0,0:0:0:0:
30,46,91153,2,0,P|61:46|113:72,1,60.0000022888184,0|0,1:0|0:0,0:0:0:0:
123,186,91308,1,2,1:2:0:0:
55,130,91464,102,0,P|37:195|63:248,1,120.000004577637,0|0,1:0|0:0,0:0:0:0:
455,241,91774,2,0,P|475:185|457:130,1,120.000004577637,0|0,1:0|0:0,0:0:0:0:
123,186,92085,1,0,1:0:0:0:
390,182,92241,1,2,1:2:0:0:
363,169,92318,1,2,0:0:0:0:
332,169,92396,1,2,0:0:0:0:
255,206,92552,1,8,1:2:0:0:
331,343,92707,6,0,P|345:293|323:233,1,95.9999970703126,0|0,1:0|0:0,0:0:0:0:
177,251,93018,2,0,P|167:297|181:343,1,95.9999970703126,0|0,1:0|0:0,0:0:0:0:
256,293,93329,1,2,1:2:0:0:
93,254,93484,102,0,P|84:219|88:187,1,47.9999985351563,0|0,1:0|0:0,0:0:0:0:
194,64,93640,2,0,P|192:87|185:110,1,47.9999985351563,0|0,1:0|0:0,0:0:0:0:
84,207,93795,2,0,L|242:198,1,143.999995605469,8|0,1:2|0:0,0:0:0:0:
262,196,94106,70,0,L|350:202,1,80,2|0,0:0|0:0,0:0:0:0:
469,346,94572,2,0,P|399:320|331:338,1,120,2|0,0:0|0:0,0:0:0:0:
285,364,94883,2,0,P|238:368|194:348,1,80,0|0,1:0|0:0,0:0:0:0:
188,79,95194,1,0,1:0:0:0:
86,196,95350,6,0,P|180:200|165:64,1,240,8|0,1:2|0:0,0:0:0:0:
11,153,95971,22,0,P|-1:194|5:227,1,60.0000022888184,0|0,1:0|0:0,0:0:0:0:
47,333,96127,2,0,P|57:305|57:275,1,60.0000022888184,0|0,1:0|0:0,0:0:0:0:
0,210,96282,2,0,L|180:199,1,180.000006866455,0|0,1:0|0:0,0:0:0:0:
257,153,96593,70,0,L|270:57,1,80,8|2,1:2|0:0,0:0:0:0:
355,285,96904,2,0,L|368:189,1,80,0|2,0:0|0:0,0:0:0:0:
111,304,97215,5,2,0:0:0:0:
111,304,97370,2,0,L|124:208,1,80,0|0,1:0|0:0,0:0:0:0:
88,131,97681,22,0,L|101:61,1,40,0|0,1:0|0:0,0:0:0:0:
155,40,97837,6,0,L|142:-30,1,40,8|2,1:2|0:0,0:0:0:0:
333,244,98147,2,0,L|313:137,1,80,0|2,0:0|0:0,0:0:0:0:
489,18,98458,102,0,L|475:105,1,60.0000022888184,0|0,1:0|0:0,0:0:0:0:
412,224,98614,2,0,L|427:152,1,60.0000022888184,0|0,1:0|0:0,0:0:0:0:
479,77,98769,2,0,B|503:161|503:161|481:254,1,180.000006866455,0|0,1:0|0:0,0:0:0:0:
426,298,99080,6,0,P|420:351|436:380,2,80,8|0|0,1:2|0:0|0:0,0:0:0:0:
491,335,99857,70,0,L|497:275,1,60.0000022888184,0|0,1:0|0:0,0:0:0:0:
432,217,100168,2,0,L|425:153,1,60.0000022888184,0|0,1:0|0:0,0:0:0:0:
334,163,100479,2,0,L|314:86,1,60.0000022888184,0|0,1:0|0:0,0:0:0:0:
214,105,100790,5,0,0:0:0:0:
153,69,100945,38,8,P|172:46|200:36,1,60.0000022888184,0|0,1:0|0:0,0:0:0:0:
100,207,101101,2,8,P|70:201|47:182,1,60.0000022888184,0|0,1:3|0:0,3:3:0:0:
245,175,101256,2,0,P|254:203|249:232,1,60.0000022888184,8|0,1:2|0:0,0:0:0:0:
0,316,101412,6,0,B|29:276|29:276|183:296,1,180.000006866455,0|0,1:0|0:0,0:0:0:0:
234,304,101723,5,2,0:0:0:0:
399,379,102033,69,2,0:0:0:0:
399,379,102344,2,0,L|379:243,1,120.000004577637,0|0,1:0|0:0,0:0:0:0:
358,122,102655,1,0,1:0:0:0:
366,259,102811,6,0,L|297:253,1,60.0000022888184,4|0,1:2|0:0,0:0:0:0:
333,97,102966,2,0,L|269:91,1,60.0000022888184,0|0,1:0|0:0,0:0:0:0:
216,326,103122,2,0,L|118:317,1,60.0000022888184,0|0,1:0|0:0,0:0:0:0:
94,181,103277,2,0,L|-12:168,1,60.0000022888184,0|0,1:0|0:0,0:0:0:0:
4,168,103432,69,0,1:0:0:0:
139,67,103588,1,2,1:2:0:0:
309,260,103743,5,0,1:0:0:0:
94,181,103899,1,2,1:2:0:0:
264,364,104054,5,0,1:0:0:0:
230,150,104210,1,2,1:2:0:0:
203,269,104365,37,0,1:0:0:0:
376,189,104521,1,2,1:2:0:0:
314,26,104676,6,0,L|321:123,1,80,2|0,0:0|0:0,0:0:0:0:
334,355,104987,1,0,1:0:0:0:
347,339,105065,1,2,0:0:0:0:
352,320,105142,1,2,0:0:0:0:
347,300,105220,1,2,0:0:0:0:
330,288,105298,5,2,3:2:0:0:
370,272,105375,1,2,3:2:0:0:
390,232,105453,1,2,3:2:0:0:
376,189,105531,1,2,3:2:0:0:
335,170,105609,5,8,3:0:0:0:
291,170,105686,1,8,3:0:0:0:
261,137,105764,1,8,3:0:0:0:
272,94,105842,1,8,3:0:0:0:
307,68,105920,70,2,L|384:73,1,47.9999985351563
426,26,106075,2,2,L|503:31,2,47.9999985351563
180,109,106386,2,2,L|103:114,1,47.9999985351563
56,160,106541,2,2,L|-21:165,2,47.9999985351563
133,113,106774,1,0,0:0:0:0:
133,113,106852,5,8,3:0:0:0:
162,96,106930,1,8,3:0:0:0:
195,94,107008,1,8,3:0:0:0:
227,102,107085,1,8,3:0:0:0:
257,123,107163,6,2,L|311:117,1,53.1999978082276
431,169,107318,2,2,L|377:163,1,53.1999978082276
195,94,107474,6,2,L|247:99,1,53.1999978082276
493,185,107629,2,2,L|440:190,1,53.1999978082276
347,146,107785,70,2,L|351:66,1,60.0000022888184
110,187,107940,2,2,L|114:107,1,60.0000022888184
281,273,108096,6,2,L|287:205,1,40
13,296,108251,2,2,L|19:228,1,40
185,372,108407,6,0,L|200:181,1,192,4|0,1:2|0:0,0:0:0:0:
