osu file format v14

[General]
AudioFilename: audio.mp3
AudioLeadIn: 0
PreviewTime: 234620
Countdown: 0
SampleSet: Soft
StackLeniency: 0.2
Mode: 0
LetterboxInBreaks: 0
WidescreenStoryboard: 1

[Editor]
Bookmarks: 2420,9620,19220,38446,40846,45918,61220,79220,88820,98718,117620,136820,156020,165620,175220,177620,187220,196820,216020,244820,254420,264020,273620,292820,310820
DistanceSpacing: 1.1
BeatDivisor: 4
GridSize: 4
TimelineZoom: 2.599999

[Metadata]
Title:Abst:Re:Act
TitleUnicode:Abst:Re:Act
Artist:AcuticNotes
ArtistUnicode:AcuticNotes
Creator:Ryuusei Aika
Version:\u626d\u66f2
Source:
Tags:Abstreact An Reku レク AXENICK ORIGINE 0 artcore wothe Parad_X Dynamix DJMax 1112deng Suzuki_1112
BeatmapID:1756926
BeatmapSetID:839256

[Difficulty]
HPDrainRate:5
CircleSize:4.5
OverallDifficulty:8
ApproachRate:9
SliderMultiplier:1.6
SliderTickRate:1

[Events]
//Background and Video events
0,0,"Laplace operator in spherical coordinate.jpg",0,0
//Break Periods
//Storyboard Layer 0 (Background)
//Storyboard Layer 1 (Fail)
//Storyboard Layer 2 (Pass)
//Storyboard Layer 3 (Foreground)
//Storyboard Sound Samples

[TimingPoints]
20,300,4,2,30,14,1,0
2420,-200,4,2,1,14,0,0
4820,-200,4,2,1,16,0,0
6020,-200,4,2,1,22,0,0
7220,-200,4,2,1,26,0,0
8420,-200,4,2,1,30,0,0
9470,-100,4,2,1,50,0,0
9620,-100,4,2,1,50,0,0
9770,-200,4,2,1,50,0,0
10820,-100,4,2,1,50,0,0
10970,-200,4,2,1,50,0,0
11720,-100,4,2,1,50,0,0
12170,-200,4,2,1,50,0,0
13220,-100,4,2,1,50,0,0
13370,-200,4,2,1,50,0,0
14195,-100,4,2,1,50,0,0
14720,-200,4,2,1,50,0,0
15620,-100,4,2,1,50,0,0
15770,-200,4,2,1,50,0,0
16520,-100,4,2,1,50,0,0
16970,-200,4,2,1,50,0,0
18020,-100,4,2,1,50,0,0
18320,-133.333333333333,4,2,1,50,0,0
19070,-100,4,2,1,60,0,0
19220,-80,4,2,1,60,0,0
21170,-133.333333333333,4,2,1,60,0,0
21620,-80,4,2,1,60,0,0
25970,-133.333333333333,4,2,1,60,0,0
26420,-80,4,2,1,60,0,0
30770,-133.333333333333,4,2,1,60,0,0
31220,-80,4,2,1,60,0,0
35570,-133.333333333333,4,2,1,60,0,0
35945,-80,4,2,1,60,0,0
38420,-80,4,2,5,60,0,0
38495,-80,4,2,1,50,0,0
38720,-100,4,2,1,50,0,0
39020,-133.333333333333,4,2,1,40,0,0
39470,-100,4,2,1,30,0,0
39620,-133.333333333333,4,2,1,30,0,0
39920,-100,4,2,1,20,0,0
40220,-80,4,2,1,20,0,0
40820,-50,4,2,20,70,0,0
41120,-80,4,2,3,70,0,0
41270,-100,4,2,3,70,0,0
45170,-100,4,2,21,70,0,0
45245,-100,4,2,3,70,0,0
45620,-50,4,2,20,70,0,0
45920,-100,4,2,3,70,0,0
50420,-50,4,2,20,70,0,0
50495,-100,4,2,20,70,0,0
50720,-100,4,2,3,70,0,0
54770,-100,4,2,21,70,0,0
54845,-100,4,2,3,70,0,0
55220,-50,4,2,20,70,0,0
55520,-100,4,2,3,70,0,0
58820,-133.333333333333,4,2,3,50,0,0
60020,-66.6666666666667,4,2,20,50,0,0
60470,-100,4,2,8,50,0,0
60507,-100,4,2,3,50,0,0
61070,-133.333333333333,4,2,3,70,0,0
61145,-100,4,2,3,70,0,0
61370,-100,4,2,3,70,0,0
64370,-100,4,2,21,70,0,0
64445,-100,4,2,3,70,0,0
64820,-100,4,2,20,70,0,0
65120,-100,4,2,3,70,0,0
69170,-100,4,2,21,70,0,0
69245,-100,4,2,3,70,0,0
69620,-100,4,2,20,70,0,0
69695,-100,4,2,20,70,0,0
69920,-100,4,2,3,70,0,0
73970,-100,4,2,21,70,0,0
74045,-100,4,2,3,70,0,0
74420,-100,4,2,20,70,0,0
74720,-100,4,2,3,70,0,0
78020,-133.333333333333,4,2,3,70,0,0
78770,-133.333333333333,4,2,21,70,0,0
78845,-133.333333333333,4,2,3,70,0,0
79220,-133.333333333333,4,2,20,40,0,0
79445,-133.333333333333,4,2,2,40,0,0
83570,-133.333333333333,4,2,21,40,0,0
84020,-133.333333333333,4,2,20,40,0,0
84320,-133.333333333333,4,2,2,40,0,0
88370,-133.333333333333,4,2,21,40,0,0
88820,-133.333333333333,4,2,20,50,0,0
88970,-133.333333333333,4,2,22,70,0,0
89120,-133.333333333333,4,2,23,60,0,0
89270,-133.333333333333,4,2,24,50,0,0
89420,-133.333333333333,4,2,25,40,0,0
89570,-133.333333333333,4,2,26,30,0,0
89720,-133.333333333333,4,2,27,40,0,0
89870,-133.333333333333,4,2,28,50,0,0
90020,-133.333333333333,4,2,1,30,0,0
91220,-133.333333333333,4,2,1,40,0,0
91370,-133.333333333333,4,2,22,70,0,0
91520,-133.333333333333,4,2,23,60,0,0
91670,-133.333333333333,4,2,24,50,0,0
91820,-133.333333333333,4,2,25,40,0,0
91970,-133.333333333333,4,2,26,30,0,0
92120,-133.333333333333,4,2,27,40,0,0
92270,-133.333333333333,4,2,28,50,0,0
92420,-133.333333333333,4,2,1,30,0,0
93620,-133.333333333333,4,2,1,50,0,0
93770,-133.333333333333,4,2,22,70,0,0
93920,-133.333333333333,4,2,23,60,0,0
94070,-133.333333333333,4,2,24,50,0,0
94220,-133.333333333333,4,2,25,40,0,0
94370,-133.333333333333,4,2,26,30,0,0
94520,-133.333333333333,4,2,27,40,0,0
94670,-133.333333333333,4,2,28,50,0,0
94820,-133.333333333333,4,2,1,30,0,0
96020,-133.333333333333,4,2,1,50,0,0
96170,-133.333333333333,4,2,22,70,0,0
96320,-133.333333333333,4,2,23,60,0,0
96470,-133.333333333333,4,2,24,50,0,0
96620,-133.333333333333,4,2,25,40,0,0
96770,-133.333333333333,4,2,26,30,0,0
96920,-133.333333333333,4,2,27,40,0,0
97070,-133.333333333333,4,2,28,50,0,0
97220,-133.333333333333,4,2,1,30,0,0
98420,-100,4,2,20,70,0,0
98645,-100,4,2,4,70,0,0
102770,-100,4,2,21,70,0,0
102845,-100,4,2,4,70,0,0
103220,-100,4,2,20,70,0,0
103445,-100,4,2,4,70,0,0
108020,-100,4,2,20,70,0,0
108095,-100,4,2,20,70,0,0
108245,-100,4,2,4,70,0,0
112370,-100,4,2,21,70,0,0
112445,-100,4,2,4,70,0,0
112820,-100,4,2,20,70,0,0
113045,-100,4,2,4,70,0,0
116720,-133.333333333333,4,2,4,70,0,0
117620,-100,4,2,20,70,0,0
117695,-100,4,2,4,70,0,0
118070,-66.6666666666667,4,2,8,70,0,0
118107,-66.6666666666667,4,2,3,70,0,0
118670,-66.6666666666667,4,2,3,70,0,0
118820,-66.6666666666667,4,2,3,70,0,0
118970,-100,4,2,3,70,0,0
121970,-100,4,2,21,70,0,0
122045,-100,4,2,3,70,0,0
122420,-100,4,2,20,70,0,0
122720,-100,4,2,3,70,0,0
126770,-100,4,2,21,70,0,0
126845,-100,4,2,3,70,0,0
127220,-100,4,2,20,70,0,0
127520,-100,4,2,3,70,0,0
131570,-100,4,2,21,70,0,0
131645,-100,4,2,3,70,0,0
132020,-100,4,2,20,70,0,0
132320,-100,4,2,3,70,0,0
135620,-133.333333333333,4,2,3,70,0,0
136370,-133.333333333333,4,2,21,70,0,0
136445,-133.333333333333,4,2,3,70,0,0
136820,-133.333333333333,4,2,29,40,0,0
137270,-133.333333333333,4,2,30,40,0,0
138020,-133.333333333333,4,2,31,40,0,0
138470,-133.333333333333,4,2,32,40,0,0
138920,-133.333333333333,4,2,33,40,0,0
139220,-133.333333333333,4,2,34,40,0,0
140270,-133.333333333333,4,2,35,40,0,0
141620,-133.333333333333,4,2,29,40,0,0
142070,-133.333333333333,4,2,30,40,0,0
142820,-133.333333333333,4,2,31,40,0,0
143270,-133.333333333333,4,2,32,40,0,0
143720,-133.333333333333,4,2,33,40,0,0
144020,-133.333333333333,4,2,34,40,0,0
145070,-133.333333333333,4,2,31,40,0,0
146420,-133.333333333333,4,2,29,40,0,0
146870,-133.333333333333,4,2,30,40,0,0
147620,-133.333333333333,4,2,31,40,0,0
148070,-133.333333333333,4,2,32,40,0,0
148520,-133.333333333333,4,2,33,40,0,0
148820,-133.333333333333,4,2,34,40,0,0
149870,-133.333333333333,4,2,35,40,0,0
151220,-133.333333333333,4,2,29,40,0,0
151670,-133.333333333333,4,2,30,40,0,0
152420,-133.333333333333,4,2,31,40,0,0
152870,-133.333333333333,4,2,32,40,0,0
153320,-133.333333333333,4,2,33,40,0,0
153620,-133.333333333333,4,2,34,40,0,0
154670,-133.333333333333,4,2,31,40,0,0
156020,-200,4,2,29,60,0,0
156470,-100,4,2,30,60,0,0
157220,-100,4,2,31,60,0,0
157370,-200,4,2,31,60,0,0
157670,-100,4,2,32,50,0,0
158120,-200,4,2,33,50,0,0
158420,-100,4,2,34,50,0,0
159020,-200,4,2,34,50,0,0
159470,-100,4,2,35,50,0,0
159770,-100,4,2,35,50,0,0
160220,-200,4,2,35,50,0,0
160820,-200,4,2,29,50,0,0
161270,-100,4,2,30,50,0,0
162020,-100,4,2,31,50,0,0
162170,-200,4,2,31,50,0,0
162470,-100,4,2,32,50,0,0
162920,-200,4,2,33,50,0,0
163220,-200,4,2,34,50,0,0
163670,-100,4,2,34,50,0,0
164270,-100,4,2,31,50,0,0
165020,-200,4,2,31,50,0,0
165620,-133.333333333333,4,2,29,60,0,0
166070,-133.333333333333,4,2,30,60,0,0
166820,-133.333333333333,4,2,31,60,0,0
167270,-133.333333333333,4,2,32,60,0,0
167720,-133.333333333333,4,2,33,60,0,0
168020,-133.333333333333,4,2,34,60,0,0
169070,-133.333333333333,4,2,35,60,0,0
170420,-133.333333333333,4,2,29,60,0,0
170870,-133.333333333333,4,2,30,60,0,0
171620,-133.333333333333,4,2,31,60,0,0
172070,-133.333333333333,4,2,32,60,0,0
172520,-133.333333333333,4,2,33,60,0,0
172820,-133.333333333333,4,2,34,60,0,0
173870,-133.333333333333,4,2,31,60,0,0
175220,-200,4,2,36,70,0,0
175370,-200,4,2,36,60,0,0
175520,-200,4,2,36,50,0,0
175670,-200,4,2,36,40,0,0
175820,-200,4,2,36,30,0,0
175970,-200,4,2,36,20,0,0
176120,-200,4,2,36,15,0,0
176270,-200,4,2,36,10,0,0
176420,-200,4,2,36,5,0,0
176570,-100,4,2,37,50,0,0
176870,-100,4,2,38,50,0,0
177020,-100,4,2,39,50,0,0
177170,-100,4,2,40,50,0,0
177320,-100,4,2,41,50,0,0
177470,-100,4,2,42,50,0,0
177620,-333.333333333333,4,2,1,50,0,0
178070,-333.333333333333,4,2,43,50,0,0
178370,-333.333333333333,4,2,40,50,0,0
178520,-333.333333333333,4,2,39,50,0,0
178670,-333.333333333333,4,2,43,50,0,0
179570,-333.333333333333,4,2,44,50,0,0
179870,-333.333333333333,4,2,40,50,0,0
180170,-333.333333333333,4,2,39,50,0,0
180320,-333.333333333333,4,2,38,50,0,0
180770,-333.333333333333,4,2,45,50,0,0
180920,-333.333333333333,4,2,46,50,0,0
181070,-333.333333333333,4,2,39,50,0,0
181970,-333.333333333333,4,2,40,50,0,0
182120,-333.333333333333,4,2,47,50,0,0
182270,-333.333333333333,4,2,40,50,0,0
182570,-333.333333333333,4,2,45,50,0,0
182645,-333.333333333333,4,2,37,50,0,0
182720,-333.333333333333,4,2,38,50,0,0
183020,-333.333333333333,4,2,37,50,0,0
183095,-333.333333333333,4,2,38,50,0,0
183170,-333.333333333333,4,2,39,50,0,0
183470,-333.333333333333,4,2,38,50,0,0
183620,-333.333333333333,4,2,39,50,0,0
183920,-333.333333333333,4,2,38,50,0,0
184220,-333.333333333333,4,2,37,50,0,0
184370,-333.333333333333,4,2,38,50,0,0
184670,-333.333333333333,4,2,37,50,0,0
184970,-333.333333333333,4,2,45,50,0,0
185570,-333.333333333333,4,2,46,50,0,0
186170,-333.333333333333,4,2,37,50,0,0
186320,-333.333333333333,4,2,38,50,0,0
186470,-333.333333333333,4,2,39,50,0,0
186620,-333.333333333333,4,2,40,50,0,0
186770,-333.333333333333,4,2,41,50,0,0
186920,-333.333333333333,4,2,42,50,0,0
187220,-133.333333333333,4,2,42,60,0,0
187370,-133.333333333333,4,2,44,60,0,0
187970,-133.333333333333,4,2,42,60,0,0
188120,-133.333333333333,4,2,39,60,0,0
188270,-133.333333333333,4,2,40,60,0,0
189170,-133.333333333333,4,2,44,60,0,0
189320,-133.333333333333,4,2,39,60,0,0
189470,-133.333333333333,4,2,40,60,0,0
189770,-133.333333333333,4,2,39,60,0,0
189920,-133.333333333333,4,2,38,60,0,0
190370,-133.333333333333,4,2,45,60,0,0
190520,-133.333333333333,4,2,46,60,0,0
190670,-133.333333333333,4,2,39,60,0,0
191570,-133.333333333333,4,2,40,60,0,0
191720,-133.333333333333,4,2,47,60,0,0
191870,-133.333333333333,4,2,40,60,0,0
192170,-133.333333333333,4,2,45,60,0,0
192245,-133.333333333333,4,2,37,60,0,0
192320,-133.333333333333,4,2,38,60,0,0
192620,-133.333333333333,4,2,37,60,0,0
192695,-133.333333333333,4,2,38,60,0,0
192770,-133.333333333333,4,2,39,60,0,0
193070,-133.333333333333,4,2,38,60,0,0
193220,-133.333333333333,4,2,39,60,0,0
193520,-133.333333333333,4,2,38,60,0,0
193820,-133.333333333333,4,2,37,60,0,0
193970,-133.333333333333,4,2,38,60,0,0
194270,-133.333333333333,4,2,37,60,0,0
194570,-133.333333333333,4,2,45,60,0,0
195170,-133.333333333333,4,2,46,60,0,0
195770,-133.333333333333,4,2,37,60,0,0
195920,-133.333333333333,4,2,38,60,0,0
196070,-133.333333333333,4,2,39,60,0,0
196220,-133.333333333333,4,2,40,60,0,0
196370,-133.333333333333,4,2,41,60,0,0
196520,-133.333333333333,4,2,42,60,0,0
196820,-100,4,2,1,70,0,0
197120,-100,4,2,3,70,0,0
197270,-100,4,2,43,70,0,0
197570,-100,4,2,40,70,0,0
197720,-100,4,2,39,70,0,0
197870,-100,4,2,43,70,0,0
198770,-100,4,2,44,70,0,0
199070,-100,4,2,40,70,0,0
199370,-100,4,2,39,70,0,0
199520,-100,4,2,38,70,0,0
199970,-100,4,2,45,70,0,0
200120,-100,4,2,46,70,0,0
200270,-100,4,2,39,70,0,0
201170,-100,4,2,40,70,0,0
201320,-100,4,2,47,70,0,0
201470,-100,4,2,40,70,0,0
201770,-100,4,2,45,70,0,0
201845,-100,4,2,37,70,0,0
201920,-100,4,2,38,70,0,0
202220,-100,4,2,37,70,0,0
202295,-100,4,2,38,70,0,0
202370,-100,4,2,39,70,0,0
202670,-100,4,2,38,70,0,0
202820,-100,4,2,39,70,0,0
203120,-100,4,2,38,70,0,0
203420,-100,4,2,37,70,0,0
203570,-100,4,2,38,70,0,0
203870,-100,4,2,37,70,0,0
204170,-100,4,2,45,70,0,0
204770,-100,4,2,46,70,0,0
205370,-100,4,2,37,70,0,0
205520,-100,4,2,38,70,0,0
205670,-100,4,2,39,70,0,0
205820,-100,4,2,40,70,0,0
205970,-100,4,2,41,70,0,0
206120,-100,4,2,42,70,0,0
206570,-100,4,2,44,70,0,0
207170,-100,4,2,42,70,0,0
207320,-100,4,2,39,70,0,0
207470,-100,4,2,40,70,0,0
208370,-100,4,2,44,70,0,0
208520,-100,4,2,39,70,0,0
208670,-100,4,2,40,70,0,0
208970,-100,4,2,39,70,0,0
209120,-100,4,2,38,70,0,0
209570,-100,4,2,45,70,0,0
209720,-100,4,2,46,70,0,0
209870,-100,4,2,39,70,0,0
210770,-100,4,2,40,70,0,0
210920,-100,4,2,47,70,0,0
211070,-100,4,2,40,70,0,0
211370,-100,4,2,45,70,0,0
211445,-100,4,2,37,70,0,0
211520,-100,4,2,38,70,0,0
211820,-100,4,2,37,70,0,0
211895,-100,4,2,38,70,0,0
211970,-100,4,2,39,70,0,0
212270,-100,4,2,38,70,0,0
212420,-100,4,2,39,70,0,0
212720,-100,4,2,38,70,0,0
213020,-100,4,2,37,70,0,0
213170,-100,4,2,38,70,0,0
213470,-100,4,2,37,70,0,0
213770,-100,4,2,45,70,0,0
214370,-100,4,2,46,70,0,0
214970,-100,4,2,37,70,0,0
215120,-100,4,2,38,70,0,0
215270,-100,4,2,39,70,0,0
215420,-100,4,2,40,70,0,0
215570,-100,4,2,41,70,0,0
215720,-100,4,2,42,70,0,0
216020,-200,4,2,42,60,0,0
216470,-200,4,2,43,60,0,0
216770,-200,4,2,40,60,0,0
216920,-200,4,2,39,60,0,0
217070,-200,4,2,43,60,0,0
217970,-200,4,2,44,60,0,0
218270,-200,4,2,40,60,0,0
218570,-200,4,2,39,60,0,0
218720,-200,4,2,38,60,0,0
219170,-200,4,2,45,60,0,0
219320,-200,4,2,46,60,0,0
219470,-200,4,2,39,60,0,0
220370,-200,4,2,40,60,0,0
220520,-200,4,2,47,60,0,0
220670,-200,4,2,40,60,0,0
220970,-200,4,2,45,60,0,0
221045,-200,4,2,37,60,0,0
221120,-200,4,2,38,60,0,0
221420,-200,4,2,37,60,0,0
221495,-200,4,2,38,60,0,0
221570,-200,4,2,39,60,0,0
221870,-200,4,2,38,60,0,0
222020,-200,4,2,39,60,0,0
222320,-200,4,2,38,60,0,0
222620,-200,4,2,37,60,0,0
222770,-200,4,2,38,60,0,0
223070,-200,4,2,37,60,0,0
223370,-200,4,2,45,60,0,0
223970,-200,4,2,46,60,0,0
224570,-200,4,2,37,60,0,0
224720,-200,4,2,38,60,0,0
224870,-200,4,2,39,60,0,0
225020,-200,4,2,40,60,0,0
225170,-200,4,2,41,60,0,0
225320,-200,4,2,42,60,0,0
225620,-200,4,2,42,60,0,0
225770,-200,4,2,44,60,0,0
226370,-200,4,2,42,60,0,0
226520,-200,4,2,39,60,0,0
226670,-200,4,2,40,60,0,0
227570,-200,4,2,44,60,0,0
227720,-200,4,2,39,60,0,0
227870,-200,4,2,40,60,0,0
228170,-200,4,2,39,60,0,0
228320,-200,4,2,38,60,0,0
228770,-200,4,2,45,60,0,0
228920,-200,4,2,46,60,0,0
229070,-200,4,2,39,60,0,0
229970,-200,4,2,40,60,0,0
230120,-200,4,2,47,60,0,0
230270,-200,4,2,40,60,0,0
230570,-200,4,2,45,60,0,0
230645,-200,4,2,37,60,0,0
230720,-200,4,2,38,60,0,0
231020,-200,4,2,37,60,0,0
231095,-200,4,2,38,60,0,0
231170,-200,4,2,39,60,0,0
231470,-200,4,2,38,60,0,0
231620,-200,4,2,39,60,0,0
231920,-200,4,2,38,60,0,0
232220,-200,4,2,37,60,0,0
232370,-200,4,2,38,60,0,0
232670,-333.333333333333,4,2,37,60,0,0
232820,-100,4,2,100,50,0,0
234620,-133.333333333333,4,2,100,50,0,0
235220,-133.333333333333,4,2,100,50,0,0
235295,-133.333333333333,4,2,1,50,0,0
239420,-133.333333333333,4,2,1,50,0,0
240020,-133.333333333333,4,2,1,50,0,0
241820,-133.333333333333,4,2,1,50,0,0
242870,-133.333333333333,4,2,1,50,0,0
243320,-133.333333333333,4,2,1,50,0,0
243770,-133.333333333333,4,2,1,50,0,0
244820,-100,4,2,1,50,0,0
252020,-200,4,2,1,50,0,0
252995,-200,4,2,1,50,0,0
253070,-200,4,2,1,50,0,0
253220,-100,4,2,1,30,0,0
253520,-100,4,2,1,40,0,0
253820,-100,4,2,3,50,0,0
254120,-100,4,2,1,60,0,0
254420,-100,4,2,1,70,0,0
254495,-100,4,2,3,70,0,0
264020,-66.6666666666667,4,2,3,70,0,0
264320,-133.333333333333,4,2,3,70,0,0
264770,-100,4,2,3,30,0,0
265220,-100,4,1,100,100,0,0
265295,-100,4,2,100,70,0,0
265370,-100,4,2,100,70,0,0
266270,-100,4,2,100,50,0,0
266420,-100,4,2,3,70,0,0
272420,-133.333333333333,4,2,3,40,0,0
273620,-200,4,2,1,50,0,0
274070,-100,4,2,1,50,0,0
274820,-200,4,2,1,50,0,0
275270,-100,4,2,1,50,0,0
276620,-200,4,2,1,50,0,0
277220,-100,4,2,1,50,0,0
277820,-200,4,2,1,50,0,0
278120,-133.333333333333,4,2,1,50,0,0
278270,-100,4,2,1,50,0,0
279020,-200,4,2,1,50,0,0
279470,-100,4,2,1,50,0,0
280820,-200,4,2,1,50,0,0
281270,-100,4,2,1,50,0,0
283820,-200,4,2,1,50,0,0
284870,-100,4,2,1,50,0,0
286220,-200,4,2,1,50,0,0
286970,-100,4,2,1,50,0,0
288020,-200,4,2,1,50,0,0
288320,-100,4,2,1,50,0,0
288620,-200,4,2,1,50,0,0
289220,-100,4,2,1,50,0,0
290420,-200,4,2,1,50,0,0
290720,-100,4,2,1,50,0,0
292820,-333.333333333333,4,2,1,30,0,0
298520,-200,4,2,48,30,0,0
299420,-200,4,2,48,40,0,0
300470,-200,4,2,49,40,0,0
300920,-200,4,2,50,40,0,0
301370,-200,4,2,51,40,0,0
301820,-200,4,2,52,40,0,0
302120,-200,4,2,53,40,0,0
302720,-200,4,2,50,40,0,0
303620,-200,4,2,54,40,0,0
304220,-200,4,2,53,40,0,0
304820,-200,4,2,50,40,0,0
306020,-200,4,2,53,40,0,0
307220,-200,4,2,52,40,0,0
308420,-200,4,2,53,40,0,0
309620,-333.333333333333,4,2,49,40,0,0
309695,-333.333333333333,4,2,49,40,0,0
310820,-100,4,2,50,40,0,0

[Colours]
Combo1 : 48,106,171
Combo2 : 254,244,11
Combo3 : 65,181,254
Combo4 : 247,178,48

[HitObjects]
261,86,2420,6,0,L|255:141,1,40,2|2,0:0|0:0,0:0:0:0:
250,137,2720,2,0,L|256:192,1,40,2|2,0:0|0:0,0:0:0:0:
282,244,3020,2,0,L|286:204,2,40,2|2|2,0:0|0:0|0:0,0:0:0:0:
222,291,3470,2,0,L|236:380,1,80,2|2,0:0|0:0,0:0:0:0:
347,277,4070,2,0,P|389:274|429:303,2,80,2|2|2,0:0|0:0|0:0,0:0:0:0:
282,244,4820,6,0,L|276:198,1,40,2|2,0:0|0:0,0:0:0:0:
367,75,5270,2,0,L|456:65,1,80,2|2,0:0|0:0,0:0:0:0:
295,40,5870,2,0,B|269:22|269:22|207:35,2,80,2|2|2,0:0|0:0|0:0,0:0:0:0:
345,166,6770,1,2,0:0:0:0:
208,105,7070,1,2,0:0:0:0:
148,156,7220,6,0,L|144:208,1,40,2|2,0:0|0:0,0:0:0:0:
212,233,7520,2,0,L|216:285,1,40,2|2,0:0|0:0,0:0:0:0:
132,348,7820,2,0,L|136:296,2,40,2|2|2,0:0|0:0|0:0,0:0:0:0:
207,283,8270,2,0,P|231:308|231:368,1,80,2|2,0:0|0:0,0:0:0:0:
65,280,8870,6,0,B|48:232|75:193|75:193|103:146|74:101,1,180,2|0,0:0|0:0,0:0:0:0:
65,101,9620,6,0,L|56:58,1,40,0|0,3:0|0:0,0:0:0:0:
140,66,9770,2,0,B|183:88|222:57|222:57|272:25|315:66|315:66|350:94|395:69,1,260,0|0,3:0|0:0,0:0:0:0:
393,61,10820,6,0,L|442:48,1,40,0|0,3:0|0:0,0:0:0:0:
434,128,10970,2,0,B|484:114|484:114|463:242,1,180,0|0,3:0|0:0,0:0:0:0:
435,237,11720,2,0,P|412:246|385:275,1,40,0|0,3:0|0:0,0:0:0:0:
425,228,11870,2,0,P|402:237|375:266,1,40,0|0,3:0|0:0,0:0:0:0:
489,318,12020,2,0,L|444:312,1,40,0|0,3:0|0:0,0:0:0:0:
376,328,12170,6,0,B|316:295|316:295|121:318,1,260,0|0,3:0|0:0,0:0:0:0:
101,295,13220,2,0,L|111:236,1,40,0|0,3:0|0:0,0:0:0:0:
179,235,13370,2,0,B|214:212|213:157|174:136|174:136|138:106|166:58,1,200,0|0,3:0|0:0,0:0:0:0:
184,45,14195,2,0,L|239:52,1,40,0|0,3:0|0:0,0:0:0:0:
194,35,14345,2,0,L|249:42,1,40,0|0,0:0|3:0,0:0:0:0:
306,40,14495,2,0,P|304:17|279:-18,2,40,0|0|0,0:0|3:0|0:0,0:0:0:0:
267,107,14720,6,0,P|299:166|364:75,1,220,0|0,0:0|0:0,0:0:0:0:
380,65,15620,2,0,L|421:71,1,40,0|0,3:0|0:0,0:0:0:0:
482,113,15770,2,0,B|448:141|448:141|484:283,1,180,0|0,3:0|0:0,0:0:0:0:
466,302,16520,6,0,P|441:317|427:340,1,40,0|0,3:0|0:0,0:0:0:0:
457,296,16670,2,0,P|432:311|418:334,1,40,0|0,3:0|0:0,0:0:0:0:
358,355,16820,2,0,L|291:349,1,40,0|0,3:0|0:0,0:0:0:0:
260,304,16970,2,0,B|254:253|286:215|286:215|224:290|126:287,1,260,0|0,3:0|0:0,0:0:0:0:
125,310,18020,2,0,P|111:286|92:263,1,40,0|0,3:0|0:0,0:0:0:0:
32,254,18170,2,0,P|46:230|65:207,1,40,0|0,3:0|0:0,0:0:0:0:
128,204,18320,6,0,B|164:169|208:178|208:178|144:145|128:56|173:18|173:18|187:30|216:39,1,300.000011444092,0|8,0:0|0:1,0:0:0:0:
259,72,19145,1,0,0:0:0:0:
273,77,19220,6,0,P|310:66|334:41,2,50,4|0|0,1:0|0:0|0:0,0:0:0:0:
273,77,19670,6,0,P|305:98|321:131,1,50,0|0,3:0|0:0,0:0:0:0:
305,186,19820,2,0,L|412:168,1,100,8|0,0:0|0:0,0:0:0:0:
449,91,20045,1,0,0:0:0:0:
442,105,20120,2,0,L|460:212,1,100,2|0,0:0|0:0,0:0:0:0:
471,279,20345,1,0,0:0:0:0:
471,279,20420,5,0,0:0:0:0:
404,356,20570,2,0,L|350:354,1,50,0|0,3:0|0:0,0:0:0:0:
284,378,20720,5,0,0:0:0:0:
357,279,20870,2,0,L|359:223,1,50,0|0,1:0|0:0,0:0:0:0:
423,178,21020,1,8,0:0:0:0:
423,178,21095,1,0,0:0:0:0:
423,178,21170,6,0,L|426:59,1,120.000004577637,2|0,0:0|0:0,0:0:0:0:
192,113,21620,6,0,P|171:147|199:222,1,100,0|0,1:0|0:0,0:0:0:0:
281,232,21845,1,0,0:0:0:0:
294,219,21920,2,0,P|315:185|287:110,1,100,0|0,0:0|3:0,0:0:0:0:
245,168,22145,1,0,0:0:0:0:
245,168,22220,1,8,0:0:0:0:
331,59,22370,1,0,0:0:0:0:
331,59,22445,1,0,0:0:0:0:
331,59,22520,2,0,L|228:46,1,100,0|0,0:0|0:0,0:0:0:0:
240,41,22745,1,0,0:0:0:0:
248,36,22820,5,2,0:0:0:0:
97,123,22970,2,0,L|87:55,1,50,0|0,3:0|0:0,0:0:0:0:
98,5,23120,2,0,L|81:141,1,100,0|0,0:0|1:0,0:0:0:0:
21,147,23345,1,0,0:0:0:0:
9,160,23420,2,0,B|34:164|34:164|69:223,1,50,8|0,0:0|0:0,0:0:0:0:
36,260,23570,2,0,B|76:192|160:225|160:225|133:245|127:304,1,200,2|0,0:0|0:0,0:0:0:0:
213,286,23945,1,0,0:0:0:0:
209,305,24020,6,0,P|249:292|289:300,2,50,0|0|0,1:0|0:0|0:0,0:0:0:0:
146,350,24245,1,0,0:0:0:0:
147,367,24320,1,2,0:0:0:0:
209,305,24470,6,0,P|237:336|275:349,1,50,0|0,3:0|0:0,0:0:0:0:
323,337,24620,2,0,P|366:309|429:327,1,100,8|0,0:0|0:0,0:0:0:0:
493,361,24845,1,0,0:0:0:0:
478,350,24920,2,0,P|450:307|468:244,1,100,2|0,0:0|0:0,0:0:0:0:
498,196,25145,1,0,0:0:0:0:
498,196,25220,5,0,0:0:0:0:
387,231,25370,2,0,L|327:230,1,50,0|0,3:0|0:0,0:0:0:0:
262,227,25520,5,0,0:0:0:0:
389,153,25670,2,0,L|391:98,1,50,0|0,1:0|0:0,0:0:0:0:
350,36,25820,1,8,0:0:0:0:
350,36,25895,1,0,0:0:0:0:
350,36,25970,6,0,B|442:14|442:14|435:27|437:42,1,120.000004577637,2|0,0:0|0:0,0:0:0:0:
315,114,26420,6,0,B|293:141|293:141|213:134,1,100,0|0,1:0|0:0,0:0:0:0:
182,37,26645,1,0,0:0:0:0:
190,21,26720,2,0,B|212:-6|212:-6|292:1,1,100,2|0,0:0|3:0,0:0:0:0:
251,69,26945,1,0,0:0:0:0:
251,69,27020,5,8,0:0:0:0:
174,188,27170,1,0,0:0:0:0:
174,188,27245,1,0,0:0:0:0:
174,188,27320,2,0,B|137:134|137:134|108:173,1,100,2|0,0:0|0:0,0:0:0:0:
111,173,27545,1,0,0:0:0:0:
106,182,27620,5,0,0:0:0:0:
47,324,27770,2,0,L|104:314,1,50,0|0,3:0|0:0,0:0:0:0:
170,333,27920,2,0,L|45:315,1,100,0|0,0:0|1:0,0:0:0:0:
208,264,28145,1,0,0:0:0:0:
224,274,28220,2,0,P|251:276|288:240,1,50,8|0,0:0|0:0,0:0:0:0:
274,192,28370,2,0,B|251:141|251:141|334:163|334:163|368:249,1,200,2|0,0:0|0:0,0:0:0:0:
352,293,28745,1,0,0:0:0:0:
375,288,28820,6,0,P|402:288|440:315,2,50,0|0|0,1:0|0:0|0:0,0:0:0:0:
312,329,29045,1,0,0:0:0:0:
310,345,29120,1,0,0:0:0:0:
422,297,29270,6,0,P|421:266|432:235,1,50,0|0,3:0|0:0,0:0:0:0:
500,228,29420,2,0,B|495:185|495:185|488:174|488:174|481:98,1,100,8|0,0:0|0:0,0:0:0:0:
503,41,29645,1,0,0:0:0:0:
511,54,29720,2,0,B|468:59|468:59|457:66|457:66|381:73,1,100,2|0,0:0|0:0,0:0:0:0:
348,30,29945,1,0,0:0:0:0:
348,30,30020,5,0,0:0:0:0:
411,145,30170,2,0,P|390:157|358:159,1,50,0|0,3:0|0:0,0:0:0:0:
291,156,30320,5,0,0:0:0:0:
427,222,30470,2,0,P|433:249|426:285,1,50,0|0,1:0|0:0,0:0:0:0:
365,311,30620,1,8,0:0:0:0:
365,311,30695,1,0,0:0:0:0:
365,311,30770,2,0,B|349:331|349:331|288:305|288:305|268:329,1,120.000004577637,2|0,0:0|0:0,0:0:0:0:
200,222,31220,6,0,L|211:112,1,100,0|0,1:0|0:0,0:0:0:0:
80,62,31445,1,0,0:0:0:0:
70,73,31520,2,0,L|59:183,1,100,0|0,0:0|3:0,0:0:0:0:
136,146,31745,1,0,0:0:0:0:
136,146,31820,1,8,0:0:0:0:
30,249,31970,1,0,0:0:0:0:
30,249,32045,1,0,0:0:0:0:
30,249,32120,2,0,P|91:260|107:309,1,100,0|0,0:0|0:0,0:0:0:0:
107,299,32345,1,0,0:0:0:0:
108,308,32420,5,2,0:0:0:0:
245,344,32570,2,0,L|307:324,1,50,0|0,3:0|0:0,0:0:0:0:
362,337,32720,2,0,L|238:320,1,100,0|0,0:0|1:0,0:0:0:0:
188,283,32945,1,0,0:0:0:0:
206,269,33020,2,0,P|224:242|225:208,1,50,8|0,0:0|0:0,0:0:0:0:
307,211,33170,6,0,B|352:175|352:175|321:83|321:83|325:113|314:136,1,200,2|0,0:0|0:0,0:0:0:0:
242,146,33545,1,0,0:0:0:0:
221,149,33620,6,0,P|184:146|149:120,2,50,0|0|0,1:0|0:0|0:0,0:0:0:0:
317,127,33845,1,0,0:0:0:0:
318,113,33920,1,2,0:0:0:0:
213,113,34070,6,0,P|189:124|165:154,1,50,0|0,3:0|0:0,0:0:0:0:
133,221,34220,2,0,P|141:165|136:118,1,100,8|0,0:0|0:0,0:0:0:0:
150,38,34445,1,0,0:0:0:0:
164,47,34520,2,0,P|108:38|61:44,1,100,2|0,0:0|0:0,0:0:0:0:
10,98,34820,1,0,0:0:0:0:
10,98,34895,5,0,0:0:0:0:
7,249,34970,2,0,L|66:237,1,50,0|0,3:0|0:0,0:0:0:0:
133,221,35120,1,0,0:0:0:0:
294,276,35270,2,0,L|305:217,1,50,0|0,1:0|0:0,0:0:0:0:
234,189,35420,1,8,0:0:0:0:
234,189,35495,1,0,0:0:0:0:
234,189,35570,6,0,P|186:230|205:288,1,120.000004577637,2|0,0:0|0:0,0:0:0:0:
329,349,36020,6,0,B|374:331|374:331|438:346,1,100,0|0,1:0|0:0,0:0:0:0:
480,186,36245,1,0,0:0:0:0:
461,175,36320,2,0,B|416:193|416:193|352:178,1,100,2|0,0:0|3:0,0:0:0:0:
401,264,36545,1,0,0:0:0:0:
401,264,36620,1,8,0:0:0:0:
311,129,36770,1,0,0:0:0:0:
311,129,36845,1,0,0:0:0:0:
311,129,36920,2,0,P|317:80|371:62,1,100,2|0,0:0|0:0,0:0:0:0:
432,74,37145,1,0,0:0:0:0:
432,74,37220,5,0,0:0:0:0:
251,24,37370,2,0,L|226:96,1,50,0|0,3:0|0:0,0:0:0:0:
206,140,37520,2,0,L|173:27,1,100,0|0,0:0|1:0,0:0:0:0:
103,21,37745,1,0,0:0:0:0:
80,15,37820,2,0,B|56:9|56:9|22:44,1,50,8|0,0:0|0:0,0:0:0:0:
14,105,37970,2,0,P|81:118|115:159,1,100,2|0,0:0|0:0,0:0:0:0:
158,237,38270,1,0,0:0:0:0:
158,237,38345,1,0,0:0:0:0:
158,237,38420,6,0,B|138:254|105:252|105:252|72:226|99:184,1,100,4|2,3:1|0:0,0:0:0:0:
232,277,38720,2,0,B|240:258|262:250|262:250|290:258|302:294,1,80,0|0,0:0|0:0,0:0:0:0:
157,319,39020,2,0,B|181:337|181:337|176:381,1,60.0000022888184,2|0,0:0|0:0,0:0:0:0:
220,190,39320,6,0,L|224:126,1,60.0000022888184,0|2,0:0|0:0,0:0:0:0:
357,209,39620,2,0,B|360:246|360:246|385:264,1,60.0000022888184,0|0,0:0|0:0,0:0:0:0:
454,326,39920,2,0,B|457:292|457:292|452:280|452:280|457:236,1,80,2|0,0:0|0:0,0:0:0:0:
497,152,40220,2,0,P|512:103|470:61,1,100,0|2,0:0|0:0,0:0:0:0:
353,83,40520,2,0,P|338:132|380:174,1,100,0|0,0:0|0:0,0:0:0:0:
416,30,40820,6,0,P|383:5|327:8,2,80,6|0|2,1:2|0:0|0:0,0:0:0:0:
353,83,41120,6,0,L|299:96,1,50,8|0,0:1|0:0,0:0:0:0:
285,176,41270,2,0,L|253:38,1,120,0|0,0:0|0:0,0:0:0:0:
185,29,41570,1,0,3:0:0:0:
185,29,41645,1,0,0:0:0:0:
185,29,41720,2,0,P|119:39|101:68,1,80,8|2,0:1|0:0,0:0:0:0:
50,180,42020,6,0,L|105:188,2,40,0|0|2,1:0|0:0|0:0,0:0:0:0:
138,120,42320,2,0,P|171:170|165:208,1,80,8|0,0:1|1:0,0:0:0:0:
127,256,42545,1,0,0:0:0:0:
110,268,42620,2,0,P|89:294|86:321,1,40,0|0,3:0|3:0,0:0:0:0:
163,327,42770,2,0,L|175:377,1,40,0|0,3:0|0:0,0:0:0:0:
253,356,42920,2,0,P|298:326|345:341,1,80,8|2,0:1|0:0,0:0:0:0:
397,357,43145,1,0,0:0:0:0:
417,348,43220,6,0,L|428:304,2,40,0|0|0,1:0|0:0|0:0,0:0:0:0:
335,237,43445,2,0,L|367:268,2,40,10|0|0,0:0|0:0|0:0,0:0:0:0:
472,221,43670,2,0,L|428:233,1,40,10|0,0:0|0:0,0:0:0:0:
383,175,43820,2,0,P|376:144|357:119,2,40,0|0|0,3:0|3:0|1:0,0:0:0:0:
250,246,44120,2,0,P|196:216|148:219,1,80,8|0,0:1|0:0,0:0:0:0:
114,265,44345,1,0,0:0:0:0:
116,285,44420,6,0,P|99:306|90:346,2,40,2|0|0,3:2|0:0|0:0,0:0:0:0:
39,246,44645,2,0,P|29:220|0:192,2,40,10|0|0,0:0|0:0|0:0,0:0:0:0:
111,198,44870,2,0,P|137:202|176:190,1,40,10|0,0:0|0:0,0:0:0:0:
222,168,45020,2,0,L|216:127,1,40,0|0,3:0|0:0,0:0:0:0:
76,33,45170,2,0,L|82:74,1,40,2|0,1:2|0:0,0:0:0:0:
48,138,45320,2,0,B|57:112|57:112|121:99|121:99|141:121,1,120,8|0,0:1|0:0,0:0:0:0:
216,128,45620,6,0,P|273:114|293:73,2,80,2|0|2,1:2|0:0|0:0,0:0:0:0:
225,50,45920,6,0,L|231:1,1,40,8|0,0:1|0:0,0:0:0:0:
152,19,46070,2,0,L|303:3,1,120,0|0,0:0|0:0,0:0:0:0:
355,28,46370,1,0,3:0:0:0:
355,28,46445,1,0,0:0:0:0:
355,28,46520,2,0,B|383:42|383:42|368:109,1,80,8|2,0:1|0:0,0:0:0:0:
489,230,46820,6,0,P|497:259|513:282,2,40,0|0|2,1:0|0:0|0:0,0:0:0:0:
470,98,47120,2,0,P|437:137|443:171,1,80,8|0,0:1|1:0,0:0:0:0:
409,237,47345,1,0,0:0:0:0:
399,257,47420,2,0,P|372:267|345:294,1,40,0|0,3:0|3:0,0:0:0:0:
278,301,47570,2,0,L|317:335,1,40,0|0,3:0|0:0,0:0:0:0:
385,354,47720,2,0,P|340:350|309:378,1,80,8|2,0:1|0:0,0:0:0:0:
234,370,47945,1,0,0:0:0:0:
219,354,48020,6,0,L|188:324,2,40,0|0|0,1:0|0:0|0:0,0:0:0:0:
226,217,48245,2,0,L|215:258,2,40,10|0|0,0:0|0:0|0:0,0:0:0:0:
104,280,48470,2,0,L|145:268,1,40,10|0,0:0|0:0,0:0:0:0:
120,168,48620,2,0,P|146:183|164:218,2,40,0|0|0,3:0|3:0|1:0,0:0:0:0:
20,307,48920,2,0,L|34:218,1,80,8|0,0:1|0:0,0:0:0:0:
43,149,49145,1,0,0:0:0:0:
25,138,49220,6,0,P|9:112|8:97,2,40,2|0|0,3:2|0:0|0:0,0:0:0:0:
97,48,49445,2,0,P|87:65|85:85,2,40,10|0|0,0:0|0:0|0:0,0:0:0:0:
164,89,49670,2,0,P|190:73|205:71,1,40,10|0,0:0|0:0,0:0:0:0:
275,97,49820,2,0,L|282:57,1,40,0|0,3:0|0:0,0:0:0:0:
428,22,49970,2,0,L|421:62,1,40,0|0,1:0|0:0,0:0:0:0:
356,114,50120,2,0,P|423:93|455:110,1,80,8|2,0:1|0:0,0:0:0:0:
503,132,50345,1,0,0:0:0:0:
489,148,50420,6,0,P|477:170|506:239,2,80,6|0|2,1:2|0:0|0:0,0:0:0:0:
413,243,50720,6,0,L|399:294,1,40,8|0,0:1|0:0,0:0:0:0:
470,309,50870,2,0,P|412:283|345:298,1,120,0|0,0:0|0:0,0:0:0:0:
295,338,51170,1,0,3:0:0:0:
295,338,51245,1,0,0:0:0:0:
295,338,51320,6,0,B|242:331|242:331|208:355,1,80,8|2,0:1|0:0,0:0:0:0:
136,224,51620,2,0,P|115:213|80:211,2,40,0|0|2,1:0|0:0|0:0,0:0:0:0:
111,134,51920,2,0,P|64:139|33:176,1,80,8|0,0:1|1:0,0:0:0:0:
28,235,52145,1,0,0:0:0:0:
21,257,52220,2,0,L|33:305,1,40,0|0,3:0|3:0,0:0:0:0:
108,296,52370,2,0,P|122:314|151:328,1,40,0|0,3:0|0:0,0:0:0:0:
200,274,52520,2,0,P|241:249|297:263,1,80,8|2,0:1|0:0,0:0:0:0:
347,277,52745,1,0,0:0:0:0:
368,269,52820,6,0,P|380:250|391:222,2,40,0|0|0,1:0|0:0|0:0,0:0:0:0:
393,355,53045,2,0,P|370:354|340:358,2,40,10|0|0,0:0|0:0|0:0,0:0:0:0:
455,291,53270,2,0,P|465:310|484:334,1,40,10|0,0:0|0:0,0:0:0:0:
495,218,53420,2,0,L|486:173,2,40,0|0|0,3:0|3:0|1:0,0:0:0:0:
421,140,53720,2,0,P|426:86|464:64,1,80,8|0,0:1|0:0,0:0:0:0:
510,31,53945,1,0,0:0:0:0:
497,18,54020,6,0,P|471:1|450:-1,2,40,2|0|0,3:2|0:0|0:0,0:0:0:0:
413,61,54245,2,0,P|382:67|366:80,2,40,10|0|0,0:0|0:0|0:0,0:0:0:0:
318,25,54470,2,0,P|287:17|257:22,1,40,10|0,0:0|0:0,0:0:0:0:
226,74,54620,2,0,L|219:130,1,40,0|0,3:0|0:0,0:0:0:0:
269,250,54770,2,0,L|276:194,1,40,2|0,1:2|0:0,0:0:0:0:
198,189,54920,2,0,B|186:292,1,80,8|2,0:1|0:0,0:0:0:0:
243,326,55145,1,0,0:0:0:0:
241,347,55220,6,0,P|205:373|152:367,2,80,2|0|2,1:2|0:0|0:0,0:0:0:0:
184,295,55520,6,0,P|159:285|130:289,1,40,8|0,0:1|0:0,0:0:0:0:
97,349,55670,2,0,P|111:299|68:234,1,120,0|0,0:0|0:0,0:0:0:0:
7,212,55970,1,0,3:0:0:0:
7,212,56045,1,0,0:0:0:0:
7,212,56120,6,0,P|20:168|-4:130,1,80,8|2,0:1|0:0,0:0:0:0:
163,213,56420,2,0,L|221:222,2,40,0|0|2,1:0|0:0|0:0,0:0:0:0:
287,125,56720,2,0,L|197:144,1,80,8|0,0:1|1:0,0:0:0:0:
133,137,56945,1,0,0:0:0:0:
116,123,57020,2,0,P|117:103|136:66,1,40,0|0,3:0|3:0,0:0:0:0:
201,61,57170,2,0,P|227:42|271:39,1,40,0|0,3:0|0:0,0:0:0:0:
314,42,57320,2,0,P|347:63|406:52,1,80,8|2,0:1|0:0,0:0:0:0:
461,35,57545,1,0,0:0:0:0:
482,55,57620,6,0,P|481:79|496:119,2,40,0|0|0,1:0|0:0|0:0,0:0:0:0:
376,124,57845,2,0,P|397:112|424:79,2,40,10|0|0,0:0|0:0|0:0,0:0:0:0:
489,182,58070,2,0,P|468:169|426:162,1,40,10|0,0:0|0:0,0:0:0:0:
384,210,58220,2,0,L|325:225,2,40,0|0|0,3:0|3:0|1:0,0:0:0:0:
291,281,58520,2,0,L|192:275,1,80,8|0,0:1|0:0,0:0:0:0:
152,330,58745,1,0,0:0:0:0:
143,344,58820,6,0,P|115:308|123:270,1,60.0000022888184,2|2,0:0|0:0,0:0:0:0:
33,272,59045,1,8,0:0:0:0:
19,263,59120,2,0,P|55:235|93:243,1,60.0000022888184,0|8,0:0|0:0,0:0:0:0:
91,153,59345,1,0,0:0:0:0:
100,139,59420,6,0,P|114:156|115:182,3,30.0000011444092,2|2|2|2,0:0|0:0|0:0|0:0,0:0:0:0:
189,193,59720,2,0,P|181:234|180:269,1,60.0000022888184,0|0,3:0|3:0,0:0:0:0:
258,284,59945,1,0,3:0:0:0:
264,267,60020,6,0,P|272:226|273:191,2,60.0000022888184,6|0|2,1:2|0:0|0:0,0:0:0:0:
328,329,60320,6,0,B|397:315|397:315|419:324|419:324|489:310|489:310|528:272|510:224|469:216|469:216|390:231|390:231|372:223|372:223|362:172|362:172|376:157|376:157|473:138|473:138,1,540.000020599366,0|2,0:0|0:3,0:0:0:0:
506,86,61070,6,0,P|490:72|466:68,1,30.0000011444092,2|0,0:3|0:0,0:0:0:0:
482,68,61370,6,0,P|458:93|420:105,1,40,2|0,0:0|0:0,0:0:0:0:
374,83,61520,1,8,0:1:0:0:
341,60,61595,1,0,0:0:0:0:
302,54,61670,1,0,1:0:0:0:
263,64,61745,1,0,0:0:0:0:
238,93,61820,2,0,L|191:106,1,40,0|0,3:0|3:0,0:0:0:0:
138,159,61970,2,0,P|109:153|91:138,1,40,0|0,3:0|0:0,0:0:0:0:
50,83,62120,2,0,P|72:130|66:175,1,80,8|2,0:1|0:0,0:0:0:0:
26,229,62345,1,0,0:0:0:0:
17,254,62420,6,0,B|69:237|69:237|82:252|104:265,1,80,0|0,1:0|0:0,0:0:0:0:
147,307,62645,1,10,0:0:0:0:
165,324,62720,2,0,P|222:322|258:280,1,80,0|10,0:0|0:0,0:0:0:0:
318,347,63020,1,0,3:0:0:0:
352,327,63095,1,0,3:0:0:0:
391,322,63170,1,0,1:0:0:0:
430,333,63245,1,0,0:0:0:0:
464,363,63320,6,0,B|444:347|444:347|455:272,1,80,8|0,0:1|0:0,0:0:0:0:
499,226,63545,1,0,0:0:0:0:
509,209,63620,2,0,P|465:177|421:189,1,80,2|0,3:2|0:0,0:0:0:0:
371,219,63845,1,10,0:0:0:0:
371,219,63920,1,0,0:0:0:0:
467,94,64070,1,10,0:0:0:0:
467,94,64145,1,0,0:0:0:0:
467,94,64220,6,0,L|402:107,1,40,0|0,3:0|0:0,0:0:0:0:
359,61,64370,2,0,L|365:21,1,40,2|0,1:2|0:0,0:0:0:0:
298,113,64520,2,0,P|242:110|217:74,1,80,8|2,0:1|0:0,0:0:0:0:
186,11,64745,1,0,0:0:0:0:
182,32,64820,2,0,P|167:45|140:54,1,40,2|0,1:2|0:0,0:0:0:0:
45,109,64970,2,0,P|68:120|98:151,1,40,2|0,0:0|0:2,0:0:0:0:
126,193,65120,5,8,0:1:0:0:
94,299,65270,2,0,B|88:284|73:273|73:273|125:273|147:338,1,120,0|0,0:0|0:0,0:0:0:0:
15,376,65570,2,0,P|17:356|27:338,1,40,0|0,3:0|0:0,0:0:0:0:
146,336,65720,2,0,L|246:346,1,80,8|2,0:1|0:0,0:0:0:0:
346,270,66020,5,0,1:0:0:0:
252,343,66170,1,2,0:0:0:0:
322,384,66320,2,0,P|365:354|415:363,1,80,8|0,0:1|1:0,0:0:0:0:
469,373,66545,1,0,0:0:0:0:
489,360,66620,2,0,P|500:328|490:297,1,40,0|0,3:0|3:0,0:0:0:0:
428,281,66770,2,0,L|421:226,1,40,0|0,3:0|0:0,0:0:0:0:
448,167,66920,2,0,P|395:144|351:162,1,80,8|2,0:1|0:0,0:0:0:0:
302,108,67220,5,0,1:0:0:0:
270,132,67295,1,0,0:0:0:0:
231,140,67370,1,0,0:0:0:0:
193,131,67445,1,10,0:0:0:0:
162,109,67520,2,0,B|108:99|108:99|74:129,1,80,0|10,0:0|0:0,0:0:0:0:
37,225,67820,1,0,3:0:0:0:
70,203,67895,1,0,3:0:0:0:
109,195,67970,1,0,1:0:0:0:
148,202,68045,1,0,0:0:0:0:
183,223,68120,6,0,P|162:264|174:313,1,80,8|0,0:1|0:0,0:0:0:0:
217,361,68345,1,0,0:0:0:0:
217,361,68420,1,2,3:2:0:0:
320,247,68570,2,0,L|368:235,1,40,0|10,0:0|0:0,0:0:0:0:
427,274,68720,1,0,0:0:0:0:
305,362,68870,1,10,0:0:0:0:
305,362,68945,1,0,0:0:0:0:
305,362,69020,6,0,P|298:330|308:297,1,40,0|0,3:0|0:0,0:0:0:0:
387,346,69170,2,0,P|394:378|384:411,1,40,2|0,1:2|0:0,0:0:0:0:
474,346,69320,2,0,B|459:294|459:294|478:248,1,80,8|2,0:1|0:0,0:0:0:0:
500,197,69545,1,0,0:0:0:0:
491,176,69620,6,0,P|469:162|434:162,1,40,6|0,1:2|0:0,0:0:0:0:
371,115,69770,2,0,L|429:91,1,40,2|0,0:0|0:0,0:0:0:0:
449,31,69920,1,8,0:1:0:0:
307,66,70070,2,0,L|181:53,1,120,0|0,0:0|0:0,0:0:0:0:
135,142,70370,2,0,L|189:129,1,40,0|0,3:0|0:0,0:0:0:0:
109,64,70520,2,0,P|73:35|22:40,1,80,8|2,0:1|0:0,0:0:0:0:
16,174,70820,5,0,1:0:0:0:
135,142,70970,1,2,0:0:0:0:
89,208,71120,2,0,P|74:248|100:295,1,80,8|0,0:1|1:0,0:0:0:0:
154,322,71345,1,0,0:0:0:0:
165,338,71420,2,0,L|152:388,1,40,0|0,3:0|3:0,0:0:0:0:
39,376,71570,2,0,P|69:364|97:364,1,40,0|0,3:0|0:0,0:0:0:0:
154,376,71720,2,0,P|213:375|250:334,1,80,8|2,0:1|0:0,0:0:0:0:
273,289,72020,5,0,1:0:0:0:
310,277,72095,1,0,0:0:0:0:
349,285,72170,1,0,0:0:0:0:
380,309,72245,1,10,0:0:0:0:
393,344,72320,2,0,B|384:287|384:287|406:254,1,80,0|10,0:0|0:0,0:0:0:0:
493,164,72620,5,0,3:0:0:0:
460,186,72695,1,0,3:0:0:0:
421,194,72770,1,0,1:0:0:0:
382,186,72845,1,0,0:0:0:0:
346,163,72920,2,0,P|329:123|344:85,1,80,8|0,0:1|0:0,0:0:0:0:
391,27,73145,1,0,0:0:0:0:
391,27,73220,5,2,3:2:0:0:
258,96,73370,2,0,P|234:93|212:78,1,40,0|10,0:0|0:0,0:0:0:0:
266,19,73520,1,0,0:0:0:0:
142,63,73670,1,10,0:0:0:0:
142,63,73745,1,0,0:0:0:0:
142,63,73820,2,0,L|74:84,1,40,0|0,3:0|0:0,0:0:0:0:
9,34,73970,2,0,L|77:13,1,40,2|0,1:2|0:0,0:0:0:0:
35,113,74120,2,0,B|49:139|49:139|37:215,1,80,8|2,0:1|0:0,0:0:0:0:
85,261,74345,1,0,0:0:0:0:
101,247,74420,6,0,P|131:233|160:239,1,40,2|0,1:2|0:0,0:0:0:0:
172,155,74570,2,0,L|220:172,1,40,2|0,0:0|0:2,0:0:0:0:
256,234,74720,1,8,0:1:0:0:
389,158,74870,2,0,L|511:136,1,120,0|0,0:0|0:0,0:0:0:0:
462,221,75170,2,0,P|462:246|444:280,1,40,0|0,3:0|0:0,0:0:0:0:
349,224,75320,2,0,P|313:175|327:129,1,80,8|2,0:1|0:0,0:0:0:0:
434,71,75620,5,0,1:0:0:0:
310,33,75770,1,2,0:0:0:0:
211,145,75920,2,0,B|236:130|236:130|244:69,1,80,8|0,0:1|1:0,0:0:0:0:
184,30,76145,1,0,0:0:0:0:
163,46,76220,2,0,L|120:59,1,40,0|0,3:0|3:0,0:0:0:0:
38,104,76370,2,0,P|69:114|93:142,1,40,0|0,3:0|0:0,0:0:0:0:
132,178,76520,2,0,P|138:212|109:274,1,80,8|2,0:1|0:0,0:0:0:0:
27,341,76820,5,0,1:0:0:0:
56,313,76895,1,0,0:0:0:0:
93,301,76970,1,0,0:0:0:0:
133,307,77045,1,10,0:0:0:0:
158,324,77120,2,0,B|208:330|208:330|240:295,1,80,0|10,0:0|0:0,0:0:0:0:
304,283,77345,1,0,0:0:0:0:
323,270,77420,2,0,P|374:274|410:325,1,80,0|0,3:0|1:0,0:0:0:0:
478,369,77720,5,8,0:1:0:0:
445,346,77795,1,0,0:0:0:0:
431,310,77870,1,0,0:0:0:0:
441,272,77945,1,0,0:0:0:0:
466,240,78020,6,0,B|479:212|479:212|473:178,1,60.0000022888184,2|0,3:2|0:0,0:0:0:0:
392,156,78320,2,0,B|379:184|379:184|385:218,1,60.0000022888184,0|10,0:0|0:0,0:0:0:0:
457,108,78545,1,0,0:0:0:0:
470,95,78620,2,0,P|476:78|476:59,1,30.0000011444092,0|0,3:0|0:0,0:0:0:0:
412,25,78770,1,2,1:2:0:0:
412,25,78845,1,0,0:0:0:0:
412,25,78920,2,0,P|376:40|331:38,1,60.0000022888184,8|2,0:1|0:0,0:0:0:0:
229,24,79220,5,6,1:2:0:0:
287,77,79370,1,2,0:0:0:0:
224,123,79520,1,2,0:3:0:0:
219,196,79670,1,0,0:0:0:0:
229,24,79970,1,2,0:0:0:0:
148,294,80420,5,2,0:0:0:0:
288,237,80720,1,0,0:0:0:0:
358,285,80870,1,2,0:0:0:0:
56,365,81320,1,2,0:0:0:0:
69,286,81470,1,2,0:0:0:0:
148,294,81620,5,4,3:0:0:0:
209,343,81770,1,0,0:0:0:0:
221,267,81920,1,2,0:0:0:0:
282,316,82070,1,2,0:0:0:0:
448,254,82370,1,2,0:3:0:0:
160,211,82820,5,2,0:0:0:0:
314,160,83120,1,2,0:0:0:0:
295,237,83270,1,2,0:0:0:0:
179,134,83570,1,2,0:0:0:0:
256,105,83720,1,0,0:0:0:0:
372,217,84020,6,0,L|412:211,1,30.0000011444092,2|0,0:0|0:0,0:0:0:0:
503,196,84170,2,0,L|463:202,1,30.0000011444092,2|0,0:0|0:0,0:0:0:0:
424,141,84320,1,2,0:0:0:0:
411,66,84470,1,0,0:0:0:0:
448,273,84770,1,2,0:3:0:0:
134,381,85220,5,4,3:0:0:0:
281,292,85520,1,2,0:0:0:0:
205,271,85670,1,2,0:0:0:0:
501,351,86120,5,2,0:0:0:0:
512,271,86270,1,2,0:0:0:0:
438,298,86420,1,4,3:0:0:0:
425,378,86570,1,2,0:0:0:0:
373,248,86720,1,0,0:0:0:0:
360,328,86870,1,0,0:0:0:0:
258,212,87170,1,2,0:3:0:0:
512,0,87620,5,2,0:0:0:0:
401,125,87920,1,2,0:0:0:0:
480,138,88070,1,4,3:0:0:0:
365,11,88370,1,2,0:0:0:0:
334,81,88520,1,0,3:0:0:0:
176,49,88820,6,0,L|216:56,1,30.0000011444092,2|0,1:2|0:0,0:0:0:0:
36,75,88970,2,0,L|6:69,1,30.0000011444092,2|2,0:0|0:0,0:0:0:0:
106,63,89120,2,0,L|101:129,1,60.0000022888184,2|2,0:0|0:0,0:0:0:0:
161,173,89420,2,0,L|236:163,1,60.0000022888184,2|2,0:0|0:0,0:0:0:0:
295,181,89720,2,0,L|299:121,1,60.0000022888184,2|2,0:0|0:0,0:0:0:0:
241,239,90020,6,0,P|255:281|289:296,1,60.0000022888184,0|0,3:0|3:0,0:0:0:0:
314,352,90320,2,0,P|353:371|388:358,1,60.0000022888184,8|0,0:0|3:0,0:0:0:0:
444,379,90620,2,0,L|435:334,2,30.0000011444092,0|0|2,0:0|0:0|0:0,0:0:0:0:
506,280,90920,2,0,L|437:273,1,60.0000022888184,0|0,3:0|0:0,0:0:0:0:
313,199,91220,6,0,P|355:183|374:151,1,60.0000022888184,0|2,3:0|0:0,0:0:0:0:
444,121,91520,2,0,P|436:165|455:197,1,60.0000022888184,2|2,0:0|0:0,0:0:0:0:
446,273,91820,2,0,P|411:244|373:244,1,60.0000022888184,2|2,0:0|0:0,0:0:0:0:
258,140,92120,2,0,L|272:74,1,60.0000022888184,2|2,0:0|0:0,0:0:0:0:
207,39,92420,6,0,L|131:59,1,60.0000022888184,0|0,3:0|3:0,0:0:0:0:
123,124,92720,2,0,L|47:104,1,60.0000022888184,8|0,0:0|3:0,0:0:0:0:
16,219,93020,2,0,L|9:137,1,60.0000022888184,0|2,0:0|0:0,0:0:0:0:
73,278,93320,2,0,P|111:258|174:276,1,90.0000034332277,0|0,3:0|0:0,0:0:0:0:
175,274,93620,6,0,L|186:203,1,60.0000022888184,0|2,3:0|0:0,0:0:0:0:
257,242,93920,2,0,L|247:301,1,60.0000022888184,2|2,0:0|0:0,0:0:0:0:
321,331,94220,2,0,L|399:314,1,60.0000022888184,2|2,0:0|0:0,0:0:0:0:
454,322,94520,2,0,L|437:244,1,60.0000022888184,2|2,0:0|0:0,0:0:0:0:
491,145,94820,6,0,P|480:178|455:195,1,60.0000022888184,0|0,3:0|3:0,0:0:0:0:
386,209,95120,2,0,P|351:215|324:202,1,60.0000022888184,8|0,0:0|3:0,0:0:0:0:
279,150,95420,2,0,L|283:116,2,30.0000011444092,0|0|2,0:0|0:0|0:0,0:0:0:0:
229,63,95720,2,0,P|201:45|160:47,1,60.0000022888184,0|0,3:0|0:0,0:0:0:0:
72,132,96020,6,0,L|112:122,2,30.0000011444092,0|0|2,3:0|0:0|0:0,0:0:0:0:
163,175,96320,2,0,L|154:251,1,60.0000022888184,2|2,0:0|0:0,0:0:0:0:
222,279,96620,2,0,L|291:266,1,60.0000022888184,2|2,0:0|0:0,0:0:0:0:
354,297,96920,2,0,L|361:237,1,60.0000022888184,2|2,0:0|0:0,0:0:0:0:
509,226,97220,6,0,P|459:238|442:265,1,60.0000022888184,0|0,3:0|3:0,0:0:0:0:
430,315,97520,2,0,P|428:366|450:389,1,60.0000022888184,8|0,0:0|3:0,0:0:0:0:
410,179,97820,2,0,L|414:141,2,30.0000011444092,0|0|2,0:0|0:0|0:0,0:0:0:0:
354,297,98120,2,0,P|312:283|272:297,1,60.0000022888184,0|0,3:0|0:0,0:0:0:0:
164,347,98420,6,0,L|106:357,1,40,6|0,1:2|0:0,0:0:0:0:
12,331,98570,2,0,L|70:321,1,40,2|0,3:2|0:0,0:0:0:0:
222,259,98720,6,0,L|164:269,1,40,8|0,0:1|0:0,0:0:0:0:
177,189,98870,2,0,L|119:199,1,40,2|0,0:1|0:0,0:0:0:0:
221,171,99170,6,0,L|163:181,1,40,0|0,3:0|0:0,0:0:0:0:
176,101,99320,2,0,L|118:111,1,40,8|0,0:1|0:0,0:0:0:0:
131,31,99470,2,0,L|73:41,1,40,2|0,0:1|0:0,0:0:0:0:
330,208,99770,1,0,3:0:0:0:
330,208,99845,1,0,3:0:0:0:
330,208,99920,6,0,L|272:218,1,40,8|0,0:1|0:0,0:0:0:0:
425,257,100220,6,0,L|367:267,1,40,0|0,1:0|0:0,0:0:0:0:
380,187,100370,2,0,L|322:197,1,40,0|0,3:0|0:0,0:0:0:0:
418,117,100670,1,2,0:1:0:0:
418,117,100745,1,0,0:0:0:0:
418,117,100820,6,0,L|476:127,1,40,0|0,1:0|0:0,0:0:0:0:
336,37,101120,6,0,L|394:47,1,40,8|0,0:0|0:0,0:0:0:0:
291,107,101270,2,0,L|349:117,1,40,0|0,3:0|0:0,0:0:0:0:
238,89,101570,6,0,L|296:99,1,40,2|0,0:1|0:0,0:0:0:0:
193,159,101720,2,0,L|251:169,1,40,8|0,0:0|0:0,0:0:0:0:
148,229,101870,2,0,L|206:239,1,40,2|0,0:1|0:0,0:0:0:0:
295,312,102170,1,0,3:0:0:0:
295,312,102245,1,0,3:0:0:0:
295,312,102320,6,0,L|353:322,1,40,8|0,0:0|0:0,0:0:0:0:
399,272,102470,1,2,0:1:0:0:
331,201,102620,2,0,P|327:221|347:262,1,40,0|0,1:0|0:0,0:0:0:0:
410,335,102770,2,0,P|414:315|394:274,1,40,2|0,1:2|3:0,0:0:0:0:
295,312,102920,2,0,P|272:336|211:327,1,80,8|2,0:0|0:1,0:0:0:0:
126,361,103220,6,0,P|148:367|177:403,1,40,6|0,1:2|0:0,0:0:0:0:
263,353,103370,2,0,P|241:347|212:311,1,40,2|0,3:2|0:0,0:0:0:0:
52,322,103520,6,0,P|77:300|92:276,1,40,8|0,0:1|0:0,0:0:0:0:
147,253,103670,2,0,P|149:219|142:192,1,40,2|0,0:1|0:0,0:0:0:0:
149,193,103970,6,0,P|127:168|103:153,1,40,0|0,3:0|0:0,0:0:0:0:
142,88,104120,2,0,P|108:85|81:92,1,40,8|0,0:1|0:0,0:0:0:0:
62,18,104270,2,0,P|37:40|22:63,1,40,2|0,0:1|0:0,0:0:0:0:
27,63,104570,1,0,3:0:0:0:
27,63,104645,1,0,3:0:0:0:
27,63,104720,6,0,P|24:96|31:123,1,40,8|0,0:1|0:0,0:0:0:0:
22,118,105020,6,0,P|44:142|67:157,1,40,0|0,1:0|0:0,0:0:0:0:
104,201,105170,2,0,P|137:203|164:196,1,40,0|0,3:0|0:0,0:0:0:0:
160,211,105470,6,0,P|185:189|199:165,1,40,2|0,0:1|0:0,0:0:0:0:
243,129,105620,2,0,P|245:95|238:68,1,40,0|0,1:0|0:0,0:0:0:0:
260,85,105920,6,0,P|238:60|214:45,1,40,8|0,0:0|0:0,0:0:0:0:
178,2,106070,2,0,P|144:0|117:6,1,40,0|0,3:0|0:0,0:0:0:0:
116,0,106370,6,0,P|91:22|76:45,1,40,2|0,0:1|0:0,0:0:0:0:
33,82,106520,2,0,P|30:115|37:142,1,40,8|0,0:0|0:0,0:0:0:0:
32,198,106670,2,0,P|54:222|77:237,1,40,2|0,0:1|0:0,0:0:0:0:
74,250,106970,5,0,3:0:0:0:
74,250,107045,1,0,3:0:0:0:
74,250,107120,2,0,P|101:241|128:237,1,40,8|0,0:0|0:0,0:0:0:0:
138,233,107420,6,0,P|163:245|185:261,1,40,0|0,1:0|0:0,0:0:0:0:
244,276,107570,2,0,P|253:303|257:330,1,40,0|0,1:0|3:0,0:0:0:0:
266,335,107870,6,0,P|253:360|237:382,1,40,2|0,0:1|0:0,0:0:0:0:
325,274,108020,2,0,P|349:263|396:275,1,40,6|0,1:2|0:0,0:0:0:0:
473,279,108170,2,0,P|449:290|402:278,1,40,2|0,3:2|0:0,0:0:0:0:
401,153,108320,6,0,L|394:210,1,40,8|0,0:1|0:0,0:0:0:0:
483,138,108470,2,0,L|476:195,1,40,2|0,0:1|0:0,0:0:0:0:
378,99,108770,6,0,L|385:156,1,40,0|0,3:0|0:0,0:0:0:0:
296,84,108920,2,0,L|303:141,1,40,8|0,0:1|0:0,0:0:0:0:
214,69,109070,2,0,L|221:126,1,40,2|0,0:1|0:0,0:0:0:0:
233,13,109370,1,0,3:0:0:0:
233,13,109445,1,0,3:0:0:0:
233,13,109520,6,0,L|226:70,1,40,8|0,0:1|0:0,0:0:0:0:
296,84,109820,6,0,L|303:141,1,40,0|0,1:0|0:0,0:0:0:0:
214,69,109970,2,0,L|221:126,1,40,0|0,3:0|0:0,0:0:0:0:
311,137,110270,6,0,L|304:194,1,40,2|0,0:1|0:0,0:0:0:0:
393,122,110420,2,0,L|386:179,1,40,0|0,1:0|0:0,0:0:0:0:
295,186,110720,6,0,L|302:243,1,40,8|0,0:0|0:0,0:0:0:0:
213,171,110870,2,0,L|220:228,1,40,0|0,3:0|0:0,0:0:0:0:
308,241,111170,6,0,L|301:298,1,40,2|0,0:1|0:0,0:0:0:0:
390,226,111320,2,0,L|383:283,1,40,8|0,0:0|0:0,0:0:0:0:
472,211,111470,2,0,L|465:268,1,40,2|0,0:1|0:0,0:0:0:0:
491,324,111620,1,0,1:0:0:0:
357,363,111770,1,0,3:0:0:0:
357,363,111845,1,0,3:0:0:0:
357,363,111920,6,0,L|289:358,1,40,8|0,0:0|0:0,0:0:0:0:
247,381,112070,1,2,0:1:0:0:
156,253,112220,2,0,P|139:269|126:301,1,40,0|0,1:0|0:0,0:0:0:0:
145,380,112370,2,0,P|162:364|175:332,1,40,2|0,1:2|3:0,0:0:0:0:
77,339,112520,2,0,L|-15:362,1,80,8|2,0:0|0:1,0:0:0:0:
97,205,112820,6,0,L|33:196,1,40,6|0,1:2|0:0,0:0:0:0:
0,122,112970,2,0,L|64:131,1,40,2|0,3:2|0:0,0:0:0:0:
173,177,113120,2,0,P|162:152|143:136,1,40,8|0,0:1|0:0,0:0:0:0:
119,74,113270,2,0,P|93:64|68:66,1,40,2|0,0:1|0:0,0:0:0:0:
81,63,113570,6,0,P|100:61|118:52,1,40,0|0,3:0|0:0,0:0:0:0:
200,81,113720,2,0,P|216:69|227:53,1,40,8|0,0:1|0:0,0:0:0:0:
312,37,113870,2,0,P|320:18|322:0,1,40,2|0,0:1|0:0,0:0:0:0:
322,0,114170,5,0,3:0:0:0:
322,0,114245,1,0,3:0:0:0:
322,0,114320,2,0,P|323:19|332:37,1,40,8|0,0:1|0:0,0:0:0:0:
332,37,114620,6,0,P|307:58|295:94,1,40,0|0,1:0|0:0,0:0:0:0:
239,110,114770,2,0,P|235:141|252:175,1,40,0|0,3:0|0:0,0:0:0:0:
237,149,115070,6,0,P|211:129|173:127,1,40,2|0,0:1|0:0,0:0:0:0:
143,77,115220,2,0,P|111:81|82:107,1,40,0|0,1:0|0:0,0:0:0:0:
104,85,115520,6,0,P|129:105|141:141,1,40,8|0,0:0|0:0,0:0:0:0:
197,157,115670,2,0,P|200:188|183:222,1,40,0|0,3:0|0:0,0:0:0:0:
198,196,115970,6,0,P|223:176|261:174,1,40,2|0,0:1|0:0,0:0:0:0:
291,124,116120,2,0,P|322:128|351:154,1,40,8|0,0:0|0:0,0:0:0:0:
407,138,116270,2,0,P|426:163|428:201,1,40,2|0,0:1|0:0,0:0:0:0:
399,242,116420,5,0,1:0:0:0:
479,254,116570,1,0,3:0:0:0:
479,254,116645,1,0,3:0:0:0:
479,254,116720,2,0,L|487:303,3,30.0000011444092,8|0|2|0,0:0|0:0|0:1|0:0,0:0:0:0:
419,346,117020,2,0,L|411:297,3,30.0000011444092,2|2|2|2,0:0|0:0|0:0|0:0,0:0:0:0:
344,359,117320,2,0,L|272:351,1,60.0000022888184,0|0,3:0|3:0,0:0:0:0:
215,324,117620,6,0,B|235:290|235:290|185:257|185:257|176:188,1,160,6|0,1:2|0:0,0:0:0:0:
383,116,118070,6,0,B|339:98|301:114|301:114|283:130|283:130|235:163|279:210|279:210|330:166|283:130|283:130|267:113|267:113|251:102|198:96,1,360.000013732911,0|2,0:1|0:3,0:0:0:0:
214,86,118670,2,0,B|189:103|189:103|151:100,1,60.0000022888184,4|0,0:0|0:0,0:0:0:0:
74,19,118970,6,0,P|85:38|85:84,1,40,0|0,1:0|0:0,0:0:0:0:
35,117,119120,2,0,L|25:234,1,80,8|2,0:1|0:0,0:0:0:0:
98,232,119345,1,0,0:0:0:0:
116,249,119420,2,0,P|139:254|174:248,1,40,4|0,1:2|0:0,0:0:0:0:
200,322,119570,2,0,L|258:303,1,40,4|0,3:2|0:0,0:0:0:0:
320,320,119720,2,0,P|356:292|418:317,1,80,8|2,0:1|0:0,0:0:0:0:
467,322,119945,1,0,0:0:0:0:
484,306,120020,6,0,L|479:259,1,40,4|0,1:0|0:0,0:0:0:0:
412,217,120170,2,0,P|400:194|366:178,1,40,2|0,3:0|0:0,0:0:0:0:
310,187,120320,2,0,L|320:96,1,80,8|2,0:0|0:0,0:0:0:0:
386,63,120545,1,0,0:0:0:0:
376,37,120620,2,0,P|357:18|336:14,3,40,0|0|0|0,1:0|0:0|3:0|0:0,0:0:0:0:
264,45,120920,2,0,L|165:63,1,80,8|2,0:1|0:0,0:0:0:0:
114,29,121145,1,0,0:0:0:0:
96,16,121220,6,0,L|90:77,1,40,0|0,3:0|0:0,0:0:0:0:
40,118,121370,1,0,3:0:0:0:
40,118,121445,1,0,0:0:0:0:
40,118,121520,2,0,L|46:179,1,40,8|0,0:0|0:0,0:0:0:0:
105,213,121670,2,0,B|192:187|192:187|182:205|177:237,1,120,0|0,1:0|0:0,0:0:0:0:
129,303,121970,2,0,L|76:294,1,40,6|0,1:2|0:0,0:0:0:0:
21,357,122120,2,0,P|55:325|114:342,1,80,8|2,0:1|0:0,0:0:0:0:
179,370,122345,1,0,0:0:0:0:
199,354,122420,6,0,L|268:338,1,40,6|0,1:2|0:0,0:0:0:0:
307,305,122570,2,0,P|330:307|356:327,1,40,6|0,1:2|0:0,0:0:0:0:
415,355,122720,2,0,P|463:354|494:329,1,80,8|2,0:0|0:0,0:0:0:0:
512,259,122945,1,0,0:0:0:0:
494,240,123020,2,0,L|408:232,1,80,0|0,3:0|1:0,0:0:0:0:
335,225,123245,1,0,0:0:0:0:
320,207,123320,2,0,L|328:121,1,80,8|2,0:1|0:0,0:0:0:0:
407,150,123545,1,0,0:0:0:0:
432,151,123620,6,0,P|472:139|489:117,1,40,0|0,3:0|0:0,0:0:0:0:
502,68,123770,1,0,3:0:0:0:
502,68,123845,1,0,1:0:0:0:
502,68,123920,2,0,B|409:60,1,80,8|2,0:1|0:0,0:0:0:0:
354,17,124145,1,0,0:0:0:0:
337,34,124220,2,0,P|314:50|277:52,1,40,4|0,1:2|0:0,0:0:0:0:
241,108,124370,2,0,L|194:98,1,40,4|0,3:2|0:0,0:0:0:0:
133,52,124520,2,0,L|32:68,1,80,8|2,0:0|0:0,0:0:0:0:
23,139,124745,1,0,0:0:0:0:
48,141,124820,6,0,P|75:146|111:172,1,40,4|0,1:0|0:0,0:0:0:0:
129,221,124970,2,0,L|197:207,1,40,2|0,3:0|0:0,0:0:0:0:
244,245,125120,2,0,P|270:287|261:327,1,80,8|2,0:0|0:0,0:0:0:0:
208,366,125345,1,0,0:0:0:0:
188,377,125420,2,0,P|164:386|136:383,3,40,0|0|0|0,1:0|0:0|3:0|0:0,0:0:0:0:
89,332,125720,2,0,P|45:312|9:317,1,80,8|2,0:1|0:0,0:0:0:0:
0,241,125945,1,0,0:0:0:0:
21,225,126020,6,0,L|34:178,1,40,0|0,3:0|0:0,0:0:0:0:
104,149,126170,1,0,3:0:0:0:
104,149,126245,1,0,0:0:0:0:
104,149,126320,2,0,P|130:141|168:143,1,40,8|0,0:0|0:0,0:0:0:0:
226,173,126470,2,0,B|245:180|257:192|257:192|259:158|217:99,1,120,0|0,1:0|0:0,0:0:0:0:
163,62,126770,2,0,P|184:38|196:15,1,40,6|0,1:2|0:0,0:0:0:0:
266,49,126920,2,0,P|298:66|362:40,1,80,8|2,0:1|0:0,0:0:0:0:
410,15,127145,1,0,0:0:0:0:
429,37,127220,6,0,L|419:92,1,40,6|0,1:2|0:0,0:0:0:0:
366,135,127370,2,0,P|380:151|392:192,1,40,6|0,1:2|0:0,0:0:0:0:
462,204,127520,2,0,L|453:303,1,80,8|2,0:0|0:0,0:0:0:0:
386,333,127745,1,0,0:0:0:0:
370,311,127820,2,0,P|324:287|270:304,1,80,0|0,3:0|1:0,0:0:0:0:
229,331,128045,1,0,0:0:0:0:
206,344,128120,2,0,L|112:355,1,80,8|2,0:1|0:0,0:0:0:0:
54,324,128345,1,0,0:0:0:0:
37,305,128420,6,0,L|49:244,1,40,0|0,3:0|0:0,0:0:0:0:
122,244,128570,1,0,3:0:0:0:
122,244,128645,1,0,1:0:0:0:
122,244,128720,2,0,P|156:214|210:220,1,80,8|2,0:1|0:0,0:0:0:0:
268,233,128945,1,0,0:0:0:0:
291,229,129020,2,0,P|312:207|317:189,1,40,4|0,1:2|0:0,0:0:0:0:
272,134,129170,2,0,L|279:83,1,40,4|0,3:2|0:0,0:0:0:0:
304,14,129320,2,0,L|206:31,1,80,8|2,0:0|0:0,0:0:0:0:
181,95,129545,1,0,0:0:0:0:
165,109,129620,6,0,L|107:98,1,40,4|0,1:0|0:0,0:0:0:0:
62,153,129770,2,0,P|74:177|77:208,1,40,2|0,3:0|0:0,0:0:0:0:
79,266,129920,2,0,P|137:268|173:309,1,80,8|2,0:0|0:0,0:0:0:0:
208,340,130145,1,0,0:0:0:0:
235,348,130220,2,0,L|288:340,3,40,0|0|0|0,1:0|0:0|3:0|0:0,0:0:0:0:
340,291,130520,2,0,L|354:197,1,80,8|2,0:1|0:0,0:0:0:0:
289,166,130745,1,0,0:0:0:0:
266,155,130820,6,0,P|256:132|256:109,1,40,0|0,3:0|0:0,0:0:0:0:
318,64,130970,1,0,3:0:0:0:
318,64,131045,1,0,0:0:0:0:
318,64,131120,2,0,L|322:19,1,40,8|0,0:0|0:0,0:0:0:0:
398,50,131270,2,0,B|449:56|480:18|480:18|473:39|469:64,1,120,0|0,1:0|0:0,0:0:0:0:
509,133,131570,2,0,P|480:125|462:125,1,40,6|0,1:2|0:0,0:0:0:0:
397,156,131720,2,0,P|376:189|394:247,1,80,8|2,0:1|0:0,0:0:0:0:
431,290,131945,1,0,0:0:0:0:
448,309,132020,6,0,P|430:322|412:354,1,40,6|0,1:2|0:0,0:0:0:0:
348,304,132170,2,0,L|284:325,1,40,6|0,1:2|0:0,0:0:0:0:
246,364,132320,2,0,L|143:349,1,80,8|2,0:0|0:0,0:0:0:0:
90,367,132545,1,0,0:0:0:0:
66,358,132620,2,0,P|37:308|55:269,1,80,0|0,3:0|1:0,0:0:0:0:
119,263,132845,1,0,0:0:0:0:
132,241,132920,2,0,L|240:230,1,80,8|2,0:1|0:0,0:0:0:0:
287,198,133220,6,0,L|292:150,1,40,0|0,3:0|0:0,0:0:0:0:
231,106,133370,1,0,3:0:0:0:
231,106,133445,1,0,1:0:0:0:
231,106,133520,2,0,B|205:98|205:98|216:42,1,80,8|2,0:1|0:0,0:0:0:0:
287,10,133745,1,0,0:0:0:0:
311,14,133820,2,0,P|330:23|354:56,1,40,4|0,1:2|0:0,0:0:0:0:
416,79,133970,2,0,L|400:140,1,40,4|0,3:2|0:0,0:0:0:0:
368,190,134120,2,0,P|424:202|452:239,1,80,8|2,0:0|0:0,0:0:0:0:
488,284,134345,1,0,0:0:0:0:
487,307,134420,6,0,L|433:325,1,40,4|0,1:0|0:0,0:0:0:0:
383,360,134570,2,0,L|323:346,1,40,2|0,3:0|0:0,0:0:0:0:
282,301,134720,2,0,P|238:285|192:297,1,80,8|2,0:0|0:0,0:0:0:0:
136,329,134945,1,0,0:0:0:0:
121,348,135020,2,0,L|73:361,1,40,0|0,1:0|0:0,0:0:0:0:
0,384,135170,2,0,L|6:342,1,40,0|0,3:0|0:0,0:0:0:0:
58,285,135320,2,0,B|77:268|77:268|70:213,1,80,8|2,0:1|0:0,0:0:0:0:
3,174,135545,1,0,0:0:0:0:
17,156,135620,6,0,L|26:89,1,60.0000022888184,4|2,1:0|0:0,0:0:0:0:
90,51,135845,1,0,0:0:0:0:
98,64,135920,2,0,P|104:85|100:106,3,30.0000011444092,2|0|2|0,0:0|0:0|0:0|0:0,0:0:0:0:
140,165,136220,1,0,3:0:0:0:
140,165,136295,1,0,0:0:0:0:
140,165,136370,2,0,L|179:147,1,30.0000011444092,2|0,1:2|0:0,0:0:0:0:
243,168,136520,2,0,P|262:197|252:255,1,90.0000034332277,0|0,3:0|0:0,0:0:0:0:
192,299,136820,6,0,B|145:291|145:291|130:297|130:297|57:287,1,120.000004577637,6|0,0:0|0:0,0:0:0:0:
74,289,137270,1,2,0:0:0:0:
28,224,137420,2,0,P|34:183|57:164,1,60.0000022888184,0|0,0:0|0:0,0:0:0:0:
118,145,137645,1,0,0:0:0:0:
131,135,137720,2,0,P|168:147|189:184,1,60.0000022888184,0|0,0:0|0:0,0:0:0:0:
204,236,137945,1,0,0:0:0:0:
197,251,138020,6,0,L|335:222,1,120.000004577637,2|0,0:0|0:0,0:0:0:0:
314,226,138470,1,2,0:0:0:0:
395,243,138620,2,0,L|390:280,2,30.0000011444092,0|0|0,0:0|0:0|0:0,0:0:0:0:
464,285,138920,2,0,L|476:355,1,60.0000022888184,2|0,0:0|0:0,0:0:0:0:
348,336,139220,6,0,P|298:318|274:324,1,60.0000022888184,2|0,0:0|0:0,0:0:0:0:
183,355,139520,2,0,L|113:363,1,60.0000022888184,0|0,0:0|0:0,0:0:0:0:
49,340,139745,1,0,0:0:0:0:
35,322,139820,2,0,L|44:281,3,30.0000011444092,0|0|0|0,0:0|0:0|0:0|0:0,0:0:0:0:
119,286,140120,2,0,P|150:265|159:219,1,60.0000022888184,0|2,0:0|0:0,0:0:0:0:
122,174,140345,1,0,0:0:0:0:
99,165,140420,6,0,L|82:89,1,60.0000022888184,2|0,0:0|0:0,0:0:0:0:
159,24,140720,2,0,P|201:42|216:76,1,60.0000022888184,0|0,0:0|0:0,0:0:0:0:
230,128,140945,1,0,0:0:0:0:
222,146,141020,2,0,L|188:142,2,30.0000011444092,0|0|0,0:0|0:0|0:0,0:0:0:0:
283,239,141320,2,0,L|273:323,1,60.0000022888184,0|0,0:0|0:0,0:0:0:0:
339,346,141545,1,0,0:0:0:0:
365,353,141620,6,0,L|497:330,1,120.000004577637,2|0,0:0|0:0,0:0:0:0:
483,332,142070,1,2,0:0:0:0:
409,265,142220,2,0,P|392:237|394:205,1,60.0000022888184,0|0,0:0|0:0,0:0:0:0:
455,154,142445,1,0,0:0:0:0:
475,144,142520,2,0,P|489:98|477:73,1,60.0000022888184,0|0,0:0|0:0,0:0:0:0:
425,34,142745,1,0,0:0:0:0:
404,24,142820,6,0,L|269:40,1,120.000004577637,2|0,0:0|0:0,0:0:0:0:
284,38,143270,1,2,0:0:0:0:
231,107,143420,2,0,P|195:88|162:89,1,60.0000022888184,0|0,0:0|0:0,0:0:0:0:
95,115,143645,1,0,0:0:0:0:
80,127,143720,2,0,L|69:232,1,90.0000034332277,2|0,0:0|0:0,0:0:0:0:
59,234,144020,6,0,P|106:239|134:264,1,60.0000022888184,2|0,0:0|0:0,0:0:0:0:
248,292,144320,2,0,L|251:359,1,60.0000022888184,0|0,0:0|0:0,0:0:0:0:
326,371,144545,1,0,0:0:0:0:
338,351,144620,2,0,L|336:312,3,30.0000011444092,0|0|0|0,0:0|0:0|0:0|0:0,0:0:0:0:
399,277,144920,2,0,P|432:281|462:312,1,60.0000022888184,0|2,0:0|0:0,0:0:0:0:
490,369,145145,1,0,0:0:0:0:
468,378,145220,6,0,L|478:243,1,120.000004577637,0|0,0:0|0:0,0:0:0:0:
476,258,145670,1,0,0:0:0:0:
419,200,145820,2,0,L|378:208,2,30.0000011444092,0|0|0,0:0|0:0|0:0,0:0:0:0:
480,97,146120,2,0,P|454:77|418:75,1,60.0000022888184,0|0,0:0|0:0,0:0:0:0:
368,128,146345,1,0,0:0:0:0:
346,132,146420,5,2,0:0:0:0:
360,34,146570,1,0,0:0:0:0:
331,124,146720,5,0,0:0:0:0:
345,26,146870,1,2,0:0:0:0:
272,66,147020,1,0,0:0:0:0:
272,66,147170,1,0,0:0:0:0:
272,66,147320,1,0,0:0:0:0:
272,66,147470,1,0,0:0:0:0:
272,66,147620,6,0,L|205:77,1,60.0000022888184,2|0,0:0|0:0,0:0:0:0:
139,118,147920,2,0,L|72:107,1,60.0000022888184,0|2,0:0|0:0,0:0:0:0:
23,51,148220,1,0,0:0:0:0:
23,51,148370,1,0,0:0:0:0:
23,51,148520,1,2,0:0:0:0:
23,51,148670,1,0,0:0:0:0:
79,108,148820,5,2,0:0:0:0:
117,216,148970,1,0,0:0:0:0:
12,161,149120,1,0,0:0:0:0:
40,236,149270,1,0,0:0:0:0:
5,302,149420,1,0,0:0:0:0:
5,302,149570,1,0,0:0:0:0:
5,302,149720,1,0,0:0:0:0:
5,302,149870,2,0,L|52:313,1,30.0000011444092,2|0,0:0|0:0,0:0:0:0:
88,362,150020,6,0,L|172:348,1,60.0000022888184,2|0,0:0|0:0,0:0:0:0:
208,301,150320,2,0,P|226:338|219:376,1,60.0000022888184,0|0,0:0|0:0,0:0:0:0:
296,384,150620,2,0,L|306:341,2,30.0000011444092,0|0|0,0:0|0:0|0:0,0:0:0:0:
378,354,150920,1,0,0:0:0:0:
378,354,151070,1,0,0:0:0:0:
439,300,151220,5,2,0:0:0:0:
341,286,151370,1,0,0:0:0:0:
437,284,151520,5,0,0:0:0:0:
339,270,151670,1,2,0:0:0:0:
397,213,151820,1,0,0:0:0:0:
397,213,151970,1,0,0:0:0:0:
397,213,152120,1,0,0:0:0:0:
397,213,152270,2,0,L|389:172,1,30.0000011444092,0|0,0:0|0:0,0:0:0:0:
451,131,152420,6,0,L|464:66,1,60.0000022888184,2|0,0:0|0:0,0:0:0:0:
394,26,152720,2,0,P|358:38|343:75,1,60.0000022888184,0|2,0:0|0:0,0:0:0:0:
326,132,153020,2,0,L|285:150,2,30.0000011444092,0|0|0,0:0|0:0|0:0,0:0:0:0:
283,219,153320,2,0,L|198:206,1,60.0000022888184,2|0,0:0|0:0,0:0:0:0:
152,247,153545,1,0,0:0:0:0:
161,262,153620,5,2,0:0:0:0:
260,301,153770,1,0,0:0:0:0:
176,363,153920,1,0,0:0:0:0:
110,323,154070,1,0,0:0:0:0:
47,281,154220,2,0,L|16:285,2,30.0000011444092,0|0|0,0:0|0:0|0:0,0:0:0:0:
77,214,154520,1,0,0:0:0:0:
77,214,154670,2,0,L|84:171,1,30.0000011444092,2|0,0:0|0:0,0:0:0:0:
67,109,154820,6,0,L|0:98,1,60.0000022888184,0|0,0:0|0:0,0:0:0:0:
121,50,155120,2,0,L|188:61,1,60.0000022888184,0|0,0:0|0:0,0:0:0:0:
257,73,155345,1,0,0:0:0:0:
275,64,155420,2,0,L|267:24,2,30.0000011444092,0|0|0,0:0|0:0|0:0,0:0:0:0:
350,82,155720,1,0,0:0:0:0:
350,82,155870,1,0,0:0:0:0:
241,154,156020,6,0,P|233:207|254:241,1,80,2|0,3:2|0:0,0:0:0:0:
345,315,156470,6,0,L|388:306,1,40,2|0,3:2|0:0,0:0:0:0:
436,246,156620,1,8,0:0:0:0:
423,173,156770,1,0,0:0:0:0:
423,173,156845,1,0,0:0:0:0:
423,173,156920,1,0,0:0:0:0:
406,96,157070,1,0,0:0:0:0:
391,27,157220,5,2,0:0:0:0:
269,118,157370,2,0,L|197:128,1,60,0|0,3:2|0:0,0:0:0:0:
187,140,157670,6,0,L|193:88,1,40,2|0,3:2|0:0,0:0:0:0:
201,23,157820,1,8,0:0:0:0:
112,112,157970,1,0,0:0:0:0:
112,112,158045,1,0,0:0:0:0:
112,112,158120,2,0,P|106:155|118:178,1,60,2|0,0:0|0:0,0:0:0:0:
124,183,158420,6,0,B|144:201|144:201|131:278,1,80,2|0,3:2|0:0,0:0:0:0:
82,371,158720,2,0,B|62:353|62:353|75:276,1,80,0|0,0:0|3:0,0:0:0:0:
190,364,159020,6,0,P|234:371|276:347,1,80,8|0,0:0|0:0,0:0:0:0:
361,277,159470,1,2,0:0:0:0:
361,277,159545,1,0,0:0:0:0:
361,277,159620,5,2,0:0:0:0:
250,225,159770,2,0,L|198:216,1,40,0|0,3:0|0:0,0:0:0:0:
151,269,159920,5,0,0:0:0:0:
290,155,160070,2,0,L|345:144,1,40,0|0,3:0|0:0,0:0:0:0:
239,94,160220,6,0,L|153:77,1,80,8|0,0:0|0:0,0:0:0:0:
292,35,160670,1,0,0:0:0:0:
292,35,160745,1,0,0:0:0:0:
292,35,160820,6,0,L|379:16,1,80,2|0,3:2|0:0,0:0:0:0:
488,88,161270,2,0,P|484:123|459:144,1,40,2|0,3:2|0:0,0:0:0:0:
417,170,161420,1,8,0:0:0:0:
339,166,161570,1,0,0:0:0:0:
339,166,161645,1,0,0:0:0:0:
339,166,161720,1,0,0:0:0:0:
261,162,161870,2,0,L|208:157,1,40,0|0,0:0|0:0,0:0:0:0:
146,152,162020,5,2,0:0:0:0:
244,237,162170,2,0,P|258:266|259:295,1,60,0|0,3:2|0:0,0:0:0:0:
245,308,162470,2,0,L|173:324,1,40,2|0,3:2|0:0,0:0:0:0:
146,366,162620,1,8,0:0:0:0:
146,366,162770,1,0,0:0:0:0:
28,260,162920,2,0,L|20:330,1,60,2|0,0:0|0:0,0:0:0:0:
19,338,163220,6,0,B|76:320|76:320|66:337|67:354,1,80,2|0,3:2|0:0,0:0:0:0:
125,216,163670,2,0,L|118:152,1,40,0|0,3:0|0:0,0:0:0:0:
48,155,163820,1,8,0:0:0:0:
63,80,163970,1,0,0:0:0:0:
63,80,164045,1,0,0:0:0:0:
63,80,164120,1,0,0:0:0:0:
71,0,164270,2,0,L|133:18,1,40,2|0,0:0|0:0,0:0:0:0:
157,75,164420,6,0,L|254:61,1,80,0|0,0:0|0:0,0:0:0:0:
364,109,164720,2,0,B|338:124|338:124|331:189,1,80,0|0,0:0|3:0,0:0:0:0:
272,225,164945,1,0,0:0:0:0:
281,249,165020,2,0,P|250:286|199:278,1,80,8|0,0:0|0:0,0:0:0:0:
90,329,165470,1,0,0:0:0:0:
90,329,165545,1,0,0:0:0:0:
90,329,165620,6,0,L|101:404,1,60.0000022888184,2|0,3:2|3:0,0:0:0:0:
179,362,165845,1,0,3:0:0:0:
193,349,165920,2,0,L|182:274,1,60.0000022888184,8|2,0:0|0:0,0:0:0:0:
96,216,166220,6,0,P|62:203|27:209,1,60.0000022888184,0|0,3:0|3:0,0:0:0:0:
8,275,166445,1,0,0:0:0:0:
21,291,166520,2,0,P|55:304|90:298,1,60.0000022888184,8|0,0:0|3:0,0:0:0:0:
186,195,166820,6,0,L|266:175,1,60.0000022888184,2|0,3:2|3:0,0:0:0:0:
315,230,167045,1,0,3:0:0:0:
313,251,167120,2,0,L|307:319,1,60.0000022888184,8|2,0:0|3:2,0:0:0:0:
372,350,167345,1,0,0:0:0:0:
372,350,167420,1,0,3:0:0:0:
460,282,167570,1,0,3:0:0:0:
449,175,167720,2,0,L|371:188,1,60.0000022888184,10|0,0:0|3:0,0:0:0:0:
309,80,168020,6,0,P|288:32|296:3,1,60.0000022888184,2|0,3:2|3:0,0:0:0:0:
448,41,168320,2,0,P|469:89|461:118,1,60.0000022888184,8|0,0:0|3:0,0:0:0:0:
309,165,168620,1,0,3:0:0:0:
281,152,168695,1,0,0:0:0:0:
252,148,168770,1,0,3:0:0:0:
222,151,168845,1,0,0:0:0:0:
196,164,168920,2,0,L|125:176,1,60.0000022888184,8|2,0:0|3:2,0:0:0:0:
59,154,169145,1,0,3:0:0:0:
44,143,169220,6,0,L|34:221,1,60.0000022888184,2|0,3:2|3:0,0:0:0:0:
160,247,169520,2,0,P|180:280|181:312,1,60.0000022888184,8|0,0:0|3:0,0:0:0:0:
133,362,169745,1,0,3:0:0:0:
133,362,169820,1,0,3:0:0:0:
261,312,169970,2,0,L|298:320,1,30.0000011444092,0|0,3:0|0:0,0:0:0:0:
350,368,170120,2,0,L|437:359,1,60.0000022888184,8|0,0:0|3:0,0:0:0:0:
490,255,170420,6,0,P|501:205|486:179,1,60.0000022888184,2|0,3:2|3:0,0:0:0:0:
418,180,170645,1,0,3:0:0:0:
399,187,170720,2,0,P|388:237|403:263,1,60.0000022888184,8|2,0:0|3:2,0:0:0:0:
294,163,171020,6,0,P|298:134|286:107,1,60.0000022888184,0|0,3:0|3:0,0:0:0:0:
196,100,171245,1,0,3:0:0:0:
186,118,171320,2,0,P|182:147|195:175,1,60.0000022888184,8|0,0:0|3:0,0:0:0:0:
250,238,171545,1,0,3:0:0:0:
247,258,171620,2,0,L|186:285,1,60.0000022888184,2|0,3:2|3:0,0:0:0:0:
120,315,171845,1,0,3:0:0:0:
120,315,171920,5,8,0:0:0:0:
37,216,172070,2,0,L|32:184,1,30.0000011444092,2|0,3:2|0:0,0:0:0:0:
16,293,172220,2,0,L|8:357,1,60.0000022888184,0|0,3:0|3:0,0:0:0:0:
120,315,172520,2,0,L|112:251,1,60.0000022888184,10|0,0:0|3:0,0:0:0:0:
249,333,172820,5,2,3:2:0:0:
351,350,172970,1,0,3:0:0:0:
387,280,173120,5,8,0:0:0:0:
285,263,173270,1,0,3:0:0:0:
351,350,173420,5,0,3:0:0:0:
319,194,173570,1,0,3:0:0:0:
454,363,173720,5,8,0:0:0:0:
422,207,173870,2,0,L|471:216,1,30.0000011444092,2|0,3:2|0:0,0:0:0:0:
498,146,174020,5,0,3:0:0:0:
478,142,174095,1,0,3:0:0:0:
458,138,174170,1,0,3:0:0:0:
438,135,174245,1,0,3:0:0:0:
394,120,174320,5,8,0:0:0:0:
413,116,174395,1,0,3:0:0:0:
433,112,174470,1,0,3:0:0:0:
453,109,174545,1,0,3:0:0:0:
469,77,174620,5,0,3:0:0:0:
446,96,174695,1,0,3:0:0:0:
418,107,174770,1,0,3:0:0:0:
388,108,174845,1,0,3:0:0:0:
360,99,174920,5,8,0:0:0:0:
306,161,175070,1,0,3:0:0:0:
222,64,175220,2,0,B|188:5|89:-29|26:20|32:127|120:146|157:100,1,320,6|2,1:0|0:1,0:0:0:0:
107,247,176570,5,2,0:0:0:0:
187,220,176870,5,2,0:0:0:0:
265,284,177020,1,2,0:0:0:0:
286,185,177170,1,2,0:0:0:0:
157,146,177320,1,2,0:0:0:0:
208,343,177470,1,2,0:0:0:0:
299,109,177620,6,0,P|326:117|358:157,1,71.9999978027344,4|2,0:0|0:0,0:0:0:0:
130,225,178370,1,2,0:0:0:0:
167,153,178520,1,2,0:0:0:0:
212,220,178670,1,2,0:0:0:0:
144,310,178820,5,0,0:0:0:0:
144,310,178970,2,0,L|171:314,1,23.9999992675781,2|0,0:0|0:0,0:0:0:0:
255,355,179270,2,0,L|228:351,1,23.9999992675781,2|0,0:0|0:0,0:0:0:0:
458,262,179570,2,0,L|462:286,1,23.9999992675781,2|0,0:0|0:0,0:0:0:0:
321,217,179870,1,2,0:0:0:0:
397,330,180020,5,0,0:0:0:0:
325,294,180170,1,2,0:0:0:0:
329,371,180320,1,2,0:0:0:0:
321,217,180770,5,2,0:0:0:0:
394,191,180920,1,2,0:0:0:0:
334,142,181070,2,0,L|302:136,1,23.9999992675781,2|0,0:0|0:0,0:0:0:0:
306,63,181370,2,0,L|338:57,1,23.9999992675781,2|0,0:0|0:0,0:0:0:0:
243,170,181670,1,2,0:0:0:0:
111,116,181970,1,2,0:0:0:0:
119,39,182120,1,2,0:0:0:0:
42,146,182270,1,2,0:0:0:0:
121,247,182420,5,0,0:0:0:0:
77,323,182570,1,2,0:0:0:0:
88,321,182645,1,2,0:0:0:0:
99,319,182720,1,2,0:0:0:0:
191,216,182870,5,0,0:0:0:0:
174,304,183020,1,2,0:0:0:0:
197,306,183095,1,2,0:0:0:0:
220,308,183170,1,2,0:0:0:0:
364,373,183470,5,2,0:0:0:0:
422,326,183620,2,0,P|436:356|436:365,1,35.9999989013672,2|0,0:0|0:0,0:0:0:0:
438,375,183920,1,2,0:0:0:0:
438,375,184070,1,0,0:0:0:0:
309,263,184220,1,2,0:0:0:0:
317,189,184370,1,2,0:0:0:0:
383,237,184520,1,0,0:0:0:0:
383,237,184670,2,0,P|412:239|426:244,1,35.9999989013672,2|0,0:0|0:0,0:0:0:0:
438,248,184970,1,2,0:0:0:0:
510,334,185120,1,2,0:0:0:0:
417,162,185570,6,0,L|419:130,1,23.9999992675781,2|0,0:0|0:0,0:0:0:0:
481,67,185870,2,0,L|479:99,1,23.9999992675781,2|0,0:0|0:0,0:0:0:0:
338,157,186170,1,2,0:0:0:0:
261,148,186320,1,2,0:0:0:0:
184,139,186470,1,2,0:0:0:0:
242,224,186620,5,2,0:0:0:0:
279,73,186770,1,2,0:0:0:0:
160,215,186920,1,2,0:0:0:0:
160,215,187070,1,2,0:0:0:0:
160,215,187220,6,0,L|91:234,1,60.0000022888184,2|2,0:0|0:0,0:0:0:0:
34,271,187445,1,0,0:0:0:0:
21,258,187520,2,0,L|26:211,2,30.0000011444092,2|0|0,1:2|0:0|0:0,0:0:0:0:
232,298,187970,6,0,L|269:306,1,30.0000011444092,2|0,0:0|0:0,0:0:0:0:
336,227,188120,2,0,L|310:255,1,30.0000011444092,2|0,1:2|0:0,0:0:0:0:
345,352,188270,6,0,L|333:315,1,30.0000011444092,2|0,0:0|0:0,0:0:0:0:
411,305,188570,2,0,L|419:267,1,30.0000011444092,2|0,0:0|0:0,0:0:0:0:
491,297,188870,2,0,L|516:268,1,30.0000011444092,2|0,0:0|0:0,0:0:0:0:
415,152,189170,2,0,L|373:162,1,30.0000011444092,2|0,0:0|0:0,0:0:0:0:
278,182,189320,2,0,L|320:172,1,30.0000011444092,2|0,1:2|0:0,0:0:0:0:
334,104,189470,2,0,L|328:74,1,30.0000011444092,2|0,0:0|0:0,0:0:0:0:
309,3,189620,5,0,0:0:0:0:
199,135,189770,2,0,L|196:171,2,30.0000011444092,2|0|2,0:0|0:0|1:2,0:0:0:0:
140,218,190070,2,0,L|53:243,1,90.0000034332277,0|0,0:0|0:0,0:0:0:0:
34,249,190370,1,2,0:0:0:0:
73,158,190520,1,2,1:2:0:0:
108,307,190670,6,0,L|103:343,1,30.0000011444092,2|0,0:0|0:0,0:0:0:0:
189,288,190970,2,0,L|184:324,1,30.0000011444092,2|0,0:0|0:0,0:0:0:0:
270,269,191270,2,0,L|265:305,1,30.0000011444092,2|0,0:0|0:0,0:0:0:0:
392,344,191570,1,2,0:0:0:0:
509,286,191720,1,2,1:2:0:0:
401,214,191870,1,2,0:0:0:0:
434,279,192020,5,0,0:0:0:0:
478,216,192170,1,2,0:0:0:0:
480,201,192245,1,2,0:0:0:0:
482,186,192320,1,2,1:2:0:0:
401,214,192470,5,0,0:0:0:0:
437,127,192620,1,2,0:0:0:0:
440,97,192695,1,2,0:0:0:0:
443,67,192770,1,2,0:0:0:0:
262,92,193070,1,2,0:0:0:0:
219,162,193220,6,0,L|140:179,1,60.0000022888184,2|0,0:0|0:0,0:0:0:0:
97,226,193445,1,0,0:0:0:0:
111,238,193520,2,0,L|190:255,1,60.0000022888184,2|0,1:2|0:0,0:0:0:0:
235,295,193745,1,0,0:0:0:0:
254,285,193820,2,0,L|249:248,2,30.0000011444092,2|0|2,0:0|0:0|0:0,0:0:0:0:
137,362,194120,1,0,1:0:0:0:
137,362,194270,6,0,L|33:378,1,90.0000034332277,2|0,0:0|0:0,0:0:0:0:
26,380,194570,1,2,0:0:0:0:
73,295,194720,2,0,L|123:288,2,30.0000011444092,2|0|0,1:2|0:0|0:0,0:0:0:0:
38,195,195170,6,0,L|-6:189,1,30.0000011444092,2|0,0:0|0:0,0:0:0:0:
72,123,195470,2,0,L|28:117,1,30.0000011444092,2|0,0:0|0:0,0:0:0:0:
106,51,195770,2,0,L|62:45,1,30.0000011444092,2|0,0:0|0:0,0:0:0:0:
1,39,195920,1,2,1:2:0:0:
75,27,196070,1,2,0:0:0:0:
149,15,196220,1,2,0:0:0:0:
150,139,196370,1,2,0:0:0:0:
222,38,196520,1,2,0:0:0:0:
222,38,196670,1,2,0:0:0:0:
222,38,196820,6,0,P|268:18|325:47,1,80,4|0,3:2|0:0,0:0:0:0:
434,103,197120,2,0,L|487:110,1,40,8|0,0:1|0:0,0:0:0:0:
443,177,197270,1,2,0:0:0:0:
441,188,197345,1,0,0:0:0:0:
346,290,197570,6,0,L|297:280,1,40,2|0,3:2|0:0,0:0:0:0:
231,282,197720,2,0,P|218:252|221:225,1,40,10|0,0:0|0:0,0:0:0:0:
243,175,197870,1,2,0:0:0:0:
245,158,197945,1,0,0:0:0:0:
141,248,198170,1,2,3:2:0:0:
143,231,198245,1,0,0:0:0:0:
145,214,198320,5,8,0:0:0:0:
36,303,198470,2,0,P|57:293|84:293,1,40,2|0,0:0|0:0,0:0:0:0:
142,327,198620,1,0,3:0:0:0:
67,217,198770,1,2,3:2:0:0:
142,327,198920,2,0,L|235:338,1,80,8|2,0:0|0:0,0:0:0:0:
293,314,199145,1,0,0:0:0:0:
294,300,199220,5,0,3:0:0:0:
412,367,199370,2,0,L|403:324,1,40,2|0,0:0|0:0,0:0:0:0:
387,253,199520,2,0,P|406:252|444:269,1,40,10|0,0:0|0:0,0:0:0:0:
480,313,199670,1,0,0:0:0:0:
494,311,199745,1,0,0:0:0:0:
311,223,199970,6,0,L|316:180,1,40,2|0,3:2|0:0,0:0:0:0:
428,158,200120,2,0,L|388:175,1,40,10|0,0:0|0:0,0:0:0:0:
346,99,200270,1,2,0:0:0:0:
345,112,200345,1,0,0:0:0:0:
194,154,200570,6,0,P|175:144|136:144,1,40,2|0,3:2|0:0,0:0:0:0:
91,177,200720,1,8,0:0:0:0:
242,286,200870,1,2,0:0:0:0:
110,323,201020,1,0,3:0:0:0:
90,328,201095,1,0,0:0:0:0:
70,333,201170,1,2,3:2:0:0:
4,255,201320,2,0,P|29:256|59:272,1,40,10|0,0:0|0:0,0:0:0:0:
190,347,201470,2,0,P|206:365|216:397,1,40,2|0,0:0|0:0,0:0:0:0:
145,250,201620,5,0,3:0:0:0:
67,372,201770,1,2,0:0:0:0:
68,352,201845,1,2,0:0:0:0:
69,332,201920,1,10,0:0:0:0:
145,250,202070,6,0,L|140:205,1,40,0|0,0:0|0:0,0:0:0:0:
68,189,202220,1,2,0:0:0:0:
70,165,202295,1,2,0:0:0:0:
71,141,202370,1,2,3:2:0:0:
121,78,202520,1,8,0:0:0:0:
256,125,202670,2,0,P|279:148|284:182,1,40,2|0,0:0|0:0,0:0:0:0:
236,253,202820,6,0,P|270:230|313:228,1,80,2|0,0:0|3:0,0:0:0:0:
461,287,203120,2,0,L|456:335,1,40,10|0,0:0|0:0,0:0:0:0:
384,302,203270,1,0,0:0:0:0:
375,315,203345,1,0,0:0:0:0:
366,328,203420,1,2,3:2:0:0:
236,253,203570,2,0,P|206:258|180:275,1,40,2|0,3:2|0:0,0:0:0:0:
143,318,203720,1,8,0:0:0:0:
177,190,203870,1,2,0:0:0:0:
177,190,204020,6,0,P|115:171|74:198,1,80,0|2,3:0|0:0,0:0:0:0:
7,270,204320,2,0,L|1:317,1,40,10|0,0:0|0:0,0:0:0:0:
69,342,204470,1,0,0:0:0:0:
68,355,204545,1,0,0:0:0:0:
103,174,204770,2,0,L|108:121,1,40,2|0,3:2|0:0,0:0:0:0:
50,84,204920,1,8,0:0:0:0:
183,153,205070,1,2,0:0:0:0:
176,13,205220,5,0,0:0:0:0:
176,13,205370,2,0,P|208:18|237:43,1,40,2|0,3:2|0:0,0:0:0:0:
270,73,205520,1,10,0:0:0:0:
347,62,205670,1,2,0:0:0:0:
424,51,205820,1,2,3:2:0:0:
296,0,205970,1,2,3:2:0:0:
320,137,206120,1,10,0:0:0:0:
320,137,206270,1,2,0:0:0:0:
320,137,206420,6,0,P|378:155|397:182,1,80,2|2,3:2|0:0,0:0:0:0:
472,304,206720,2,0,L|469:347,1,40,10|0,0:0|0:0,0:0:0:0:
397,354,206870,1,0,0:0:0:0:
396,367,206945,1,0,0:0:0:0:
267,221,207170,2,0,P|237:229|218:255,1,40,2|0,3:2|0:0,0:0:0:0:
157,258,207320,2,0,P|141:284|146:316,1,40,10|0,0:0|0:0,0:0:0:0:
190,346,207470,1,2,0:0:0:0:
205,341,207545,1,0,0:0:0:0:
175,179,207770,5,2,3:2:0:0:
59,125,207920,1,8,0:0:0:0:
37,248,208070,2,0,L|98:240,1,40,2|0,0:0|0:0,0:0:0:0:
175,179,208220,1,0,3:0:0:0:
176,159,208295,1,0,0:0:0:0:
177,139,208370,5,2,3:2:0:0:
110,68,208520,2,0,P|55:48|8:68,1,80,10|2,0:0|0:0,0:0:0:0:
76,242,208820,2,0,L|85:299,1,40,0|0,3:0|0:0,0:0:0:0:
144,323,208970,2,0,P|169:327|199:315,1,40,2|0,0:0|0:0,0:0:0:0:
244,269,209120,1,10,0:0:0:0:
247,283,209195,1,0,0:0:0:0:
433,234,209570,6,0,P|443:204|440:181,1,40,2|0,3:2|0:0,0:0:0:0:
337,158,209720,2,0,P|357:181|379:190,1,40,10|0,0:0|0:0,0:0:0:0:
416,123,209870,1,2,0:0:0:0:
413,108,209945,1,0,0:0:0:0:
268,210,210170,6,0,L|224:219,1,40,2|0,3:2|0:0,0:0:0:0:
154,195,210320,1,8,0:0:0:0:
224,337,210470,1,2,0:0:0:0:
78,379,210620,1,0,3:0:0:0:
81,359,210695,1,0,0:0:0:0:
84,339,210770,1,2,3:2:0:0:
176,276,210920,2,0,P|154:279|131:301,1,40,10|0,0:0|0:0,0:0:0:0:
24,293,211070,2,0,P|10:310|9:342,1,40,2|0,0:0|0:0,0:0:0:0:
83,238,211220,5,0,3:0:0:0:
167,170,211370,1,2,0:0:0:0:
163,150,211445,1,2,0:0:0:0:
160,130,211520,1,10,0:0:0:0:
83,238,211670,5,0,0:0:0:0:
31,133,211820,1,2,0:0:0:0:
35,107,211895,1,2,0:0:0:0:
39,81,211970,1,2,3:2:0:0:
107,40,212120,1,8,0:0:0:0:
225,82,212270,2,0,L|271:98,1,40,2|0,0:0|0:0,0:0:0:0:
347,88,212420,6,0,P|303:94|261:145,1,80,2|0,0:0|3:0,0:0:0:0:
225,254,212720,2,0,L|218:321,1,40,10|0,0:0|0:0,0:0:0:0:
287,333,212870,1,0,0:0:0:0:
306,335,212945,1,0,0:0:0:0:
325,328,213020,1,2,3:2:0:0:
406,245,213170,2,0,L|400:203,1,40,2|0,3:2|0:0,0:0:0:0:
335,163,213320,1,8,0:0:0:0:
405,328,213470,1,2,0:0:0:0:
405,328,213620,6,0,L|497:344,1,80,0|2,3:0|0:0,0:0:0:0:
491,140,213920,2,0,P|462:144|439:167,1,40,10|0,0:0|0:0,0:0:0:0:
400,205,214070,1,0,0:0:0:0:
398,220,214145,1,0,0:0:0:0:
429,40,214370,5,2,3:2:0:0:
429,40,214520,2,0,P|404:32|371:38,1,40,8|0,0:0|0:0,0:0:0:0:
320,62,214670,1,2,0:0:0:0:
274,193,214820,1,0,0:0:0:0:
235,69,214970,2,0,L|242:19,1,40,2|0,3:2|0:0,0:0:0:0:
169,109,215120,5,10,0:0:0:0:
93,99,215270,1,2,0:0:0:0:
17,89,215420,1,2,3:2:0:0:
137,36,215570,1,2,3:2:0:0:
118,170,215720,1,10,0:0:0:0:
118,170,215870,1,2,0:0:0:0:
118,170,216020,6,0,P|64:180|38:205,1,80,4|0,0:0|1:0,0:0:0:0:
10,260,216470,1,2,0:0:0:0:
10,260,216620,1,0,0:0:0:0:
142,289,216770,1,2,0:0:0:0:
216,258,216920,1,2,1:2:0:0:
153,210,217070,1,2,0:0:0:0:
153,210,217220,6,0,P|169:183|173:161,1,40,0|2,0:0|0:0,0:0:0:0:
86,102,217520,2,0,P|101:129|118:143,1,40,0|2,1:0|0:0,0:0:0:0:
216,97,217820,1,0,0:0:0:0:
216,97,217970,2,0,P|184:96|163:104,1,40,2|0,0:0|1:0,0:0:0:0:
250,164,218270,1,2,0:0:0:0:
342,132,218420,6,0,L|335:96,4,20,0|0|2|0|2,0:0|0:0|0:0|0:0|1:2,0:0:0:0:
342,37,218870,2,0,L|306:44,3,20,0|0|0|0,0:0|0:0|0:0|0:0,0:0:0:0:
306,45,219170,1,2,0:0:0:0:
268,144,219320,1,2,1:2:0:0:
357,205,219470,2,0,L|376:201,2,20,2|0|0,0:0|0:0|0:0,0:0:0:0:
314,297,219770,2,0,L|295:301,2,20,2|0|0,0:0|0:0|1:0,0:0:0:0:
396,373,220070,2,0,L|415:369,2,20,2|0|0,0:0|0:0|0:0,0:0:0:0:
314,297,220370,5,2,0:0:0:0:
246,258,220520,1,2,1:2:0:0:
246,334,220670,1,2,0:0:0:0:
178,371,220820,5,0,0:0:0:0:
112,334,220970,1,2,0:0:0:0:
113,314,221045,1,2,0:0:0:0:
115,294,221120,1,2,1:2:0:0:
49,254,221270,5,0,0:0:0:0:
121,219,221420,1,2,0:0:0:0:
123,193,221495,1,2,0:0:0:0:
126,167,221570,1,2,0:0:0:0:
83,101,221720,1,0,1:0:0:0:
8,84,221870,1,2,0:0:0:0:
10,165,222020,6,0,P|42:169|61:181,1,40,2|0,0:0|0:0,0:0:0:0:
120,218,222320,2,0,P|139:225|159:226,1,40,2|0,1:2|0:0,0:0:0:0:
233,207,222620,1,2,0:0:0:0:
319,116,222770,1,2,0:0:0:0:
242,130,222920,1,0,1:0:0:0:
242,130,223070,1,2,0:0:0:0:
242,130,223220,6,0,L|225:115,4,20,0|0|2|0|2,0:0|0:0|0:0|0:0|1:2,0:0:0:0:
311,192,223670,2,0,L|328:207,4,20,0|0|0|0|2,0:0|0:0|0:0|0:0|0:0,0:0:0:0:
305,98,224120,6,0,L|308:72,2,20,0|0|2,1:0|0:0|0:0,0:0:0:0:
242,220,224420,2,0,L|239:246,2,20,0|0|2,0:0|0:0|0:0,0:0:0:0:
167,203,224720,1,2,1:2:0:0:
167,203,224870,6,0,L|164:229,2,20,2|0|2,0:0|0:0|0:0,0:0:0:0:
92,186,225170,1,2,0:0:0:0:
170,173,225320,1,2,1:2:0:0:
248,160,225470,1,2,0:0:0:0:
122,110,225620,1,2,0:0:0:0:
145,246,225770,1,2,0:0:0:0:
145,246,225920,1,2,1:2:0:0:
145,246,226070,6,0,P|105:257|83:286,1,80,0|2,0:0|0:0,0:0:0:0:
185,366,226520,1,2,1:2:0:0:
227,258,226670,2,0,P|225:291|231:313,1,40,2|0,0:0|0:0,0:0:0:0:
336,327,226970,2,0,P|346:356|357:371,1,40,2|0,0:0|1:0,0:0:0:0:
386,265,227270,1,2,0:0:0:0:
314,198,227420,1,0,0:0:0:0:
314,198,227570,6,0,L|264:192,1,40,2|2,0:0|1:2,0:0:0:0:
199,120,227870,1,2,0:0:0:0:
199,120,228020,6,0,L|202:92,4,20,0|0|2|0|2,0:0|0:0|0:0|0:0|1:2,0:0:0:0:
111,176,228470,2,0,L|108:204,3,20,0|0|0|0,0:0|0:0|0:0|0:0,0:0:0:0:
113,157,228770,1,2,0:0:0:0:
190,204,228920,1,2,1:2:0:0:
136,280,229070,6,0,L|107:287,2,20,2|0|0,0:0|0:0|0:0,0:0:0:0:
206,218,229370,2,0,L|214:189,2,20,2|0|0,0:0|0:0|1:0,0:0:0:0:
224,309,229670,2,0,L|244:330,2,20,2|0|0,0:0|0:0|0:0,0:0:0:0:
163,352,229970,1,2,0:0:0:0:
297,277,230120,1,2,1:2:0:0:
311,350,230270,1,2,0:0:0:0:
358,229,230420,5,0,0:0:0:0:
425,318,230570,1,2,0:0:0:0:
444,320,230645,1,2,0:0:0:0:
464,316,230720,1,2,1:2:0:0:
436,241,230870,5,0,0:0:0:0:
300,303,231020,1,2,0:0:0:0:
323,300,231095,1,2,0:0:0:0:
347,305,231170,1,2,0:0:0:0:
260,374,231320,1,0,1:0:0:0:
242,254,231470,1,2,0:0:0:0:
122,254,231620,6,0,P|94:262|78:280,1,40,2|0,0:0|0:0,0:0:0:0:
186,344,231920,2,0,P|178:372|186:395,1,40,2|0,1:2|0:0,0:0:0:0:
242,254,232220,1,2,0:0:0:0:
170,185,232370,1,2,0:0:0:0:
63,197,232520,1,0,1:0:0:0:
161,169,232670,6,0,P|122:142|48:166,1,119.999996337891,2|0,0:0|0:0,0:0:0:0:
256,192,233570,12,0,234470,0:0:0:0:
241,232,234620,6,0,L|276:223,1,30.0000011444092,8|0,0:0|0:0,0:0:0:0:
339,154,234770,2,0,L|304:163,1,30.0000011444092,0|0,0:0|0:0,0:0:0:0:
325,279,234920,2,0,L|355:272,2,30.0000011444092,0|0|0,0:0|0:0|0:0,0:0:0:0:
224,331,235220,6,0,P|202:371|210:401,1,60.0000022888184,4|0,0:0|0:0,0:0:0:0:
298,350,235520,1,0,0:0:0:0:
355,272,235670,2,0,B|381:225|381:225|254:261,1,180.000006866455,2|2,0:0|0:0,0:0:0:0:
376,368,236420,6,0,L|442:379,1,60.0000022888184,2|2,0:0|0:0,0:0:0:0:
508,232,236720,1,0,0:0:0:0:
508,232,237020,2,0,P|466:265|494:323,1,120.000004577637,2|2,0:0|0:0,0:0:0:0:
442,178,237620,6,0,P|466:129|454:45,1,120.000004577637,2|0,0:0|0:0,0:0:0:0:
334,74,238070,2,0,P|373:70|353:138,1,120.000004577637,2|2,0:0|0:0,0:0:0:0:
254,231,238670,2,0,B|206:211|171:243|171:243|130:279|68:257,1,180.000006866455,2|0,0:0|0:0,0:0:0:0:
251,147,239420,2,0,L|262:21,1,120.000004577637,2|2,0:0|0:0,0:0:0:0:
100,131,240020,6,0,P|103:170|126:194,1,60.0000022888184,4|0,0:3|0:0,0:0:0:0:
165,90,240320,1,0,0:0:0:0:
153,253,240470,2,0,P|197:293|311:271,1,180.000006866455,2|2,0:0|0:0,0:0:0:0:
435,351,241220,6,0,P|421:314|432:281,1,60.0000022888184,2|2,0:0|0:0,0:0:0:0:
492,221,241520,1,0,0:0:0:0:
492,221,241820,2,0,P|479:278|406:288,1,120.000004577637,2|2,0:0|0:0,0:0:0:0:
303,229,242420,6,0,P|228:217|188:254,1,120.000004577637,2|0,0:0|0:0,0:0:0:0:
213,384,242870,2,0,P|260:325|248:271,1,120.000004577637,2|0,0:0|0:0,0:0:0:0:
121,235,243320,2,0,P|73:293|79:330,1,90.0000034332277,2|0,0:0|0:0,0:0:0:0:
78,324,243620,5,0,0:0:0:0:
149,302,243770,1,0,0:0:0:0:
121,235,243920,2,0,L|117:200,2,30.0000011444092,8|0|0,0:1|0:0|0:0,0:0:0:0:
196,242,244220,5,0,0:0:0:0:
271,250,244370,1,0,0:0:0:0:
346,259,244520,2,0,L|342:224,2,30.0000011444092,8|0|0,0:1|0:0|0:0,0:0:0:0:
448,287,244820,6,0,P|480:314|485:363,1,80,0|0,0:0|0:0,0:0:0:0:
380,333,245120,2,0,L|288:342,1,80,8|0,0:1|0:0,0:0:0:0:
283,350,245345,1,0,0:0:0:0:
265,360,245420,2,0,L|174:370,1,80,0|0,0:0|0:0,0:0:0:0:
112,291,245720,2,0,P|118:264|133:248,2,40,8|0|0,0:1|0:0|0:0,0:0:0:0:
186,295,246020,5,0,0:0:0:0:
122,177,246170,1,0,0:0:0:0:
122,177,246320,2,0,P|94:164|69:163,2,40,8|0|2,0:1|0:0|0:0,0:0:0:0:
186,295,246620,2,0,L|289:301,1,80,2|0,0:0|0:0,0:0:0:0:
400,263,246920,2,0,P|432:295|425:349,1,80,8|0,0:1|0:0,0:0:0:0:
282,367,247220,6,0,B|259:350|259:350|269:265,1,80,0|0,0:0|0:0,0:0:0:0:
344,204,247520,1,8,0:1:0:0:
193,270,247670,2,0,L|143:264,1,40,2|2,0:0|0:0,0:0:0:0:
91,224,247820,2,0,P|78:277|104:319,1,80,2|0,0:0|0:0,0:0:0:0:
176,348,248120,1,8,0:1:0:0:
265,298,248270,1,0,0:0:0:0:
265,298,248420,6,0,L|360:306,1,80,0|0,0:0|0:0,0:0:0:0:
442,260,248720,2,0,P|433:231|413:209,2,40,8|0|2,0:1|0:0|0:0,0:0:0:0:
490,175,249020,2,0,P|438:147|391:161,1,80,2|0,0:0|0:0,0:0:0:0:
313,187,249320,2,0,L|317:91,1,80,8|0,0:1|0:0,0:0:0:0:
449,36,249620,6,0,P|402:53|389:103,1,80,0|0,0:0|0:0,0:0:0:0:
427,223,249920,2,0,P|446:243|478:244,2,40,8|0|2,0:1|0:0|0:0,0:0:0:0:
355,291,250220,2,0,P|300:295|267:323,1,80,2|0,0:0|0:0,0:0:0:0:
411,350,250520,2,0,B|457:329|457:329|419:317,1,80,8|0,0:1|0:0,0:0:0:0:
280,307,250820,6,0,L|286:219,1,80,0|0,0:0|0:0,0:0:0:0:
224,132,251120,2,0,P|196:119|172:119,2,40,8|0|2,0:1|0:0|0:0,0:0:0:0:
144,55,251420,2,0,P|112:99|118:142,1,80,2|0,0:0|0:0,0:0:0:0:
32,208,251720,2,0,B|55:220|55:220|77:305,1,80,8|0,0:1|0:0,0:0:0:0:
71,378,252020,6,0,B|11:411|-21:329|33:308|33:308|164:285,1,260,2|0,0:0|0:0,0:0:0:0:
213,330,253070,5,0,0:0:0:0:
280,298,253220,5,0,1:0:0:0:
277,371,253370,1,0,1:0:0:0:
268,290,253520,5,0,3:0:0:0:
288,376,253670,1,0,3:0:0:0:
350,317,253820,1,8,0:1:0:0:
387,304,253895,1,0,0:0:0:0:
426,311,253970,1,0,0:0:0:0:
457,335,254045,1,0,0:0:0:0:
473,370,254120,6,0,L|521:378,1,40,2|0,0:0|0:0,0:0:0:0:
482,293,254270,2,0,P|472:270|444:255,1,40,2|0,0:0|0:0,0:0:0:0:
503,196,254420,2,0,L|510:112,1,80,4|0,3:2|0:0,0:0:0:0:
402,71,254720,2,0,L|358:95,1,40,8|0,0:1|0:0,0:0:0:0:
288,95,254870,2,0,P|350:116|368:156,1,80,0|2,0:0|0:0,0:0:0:0:
287,272,255170,6,0,L|227:285,1,40,0|0,1:0|0:0,0:0:0:0:
193,337,255320,1,8,0:1:0:0:
91,362,255470,2,0,P|120:319|113:284,1,80,2|0,0:0|3:0,0:0:0:0:
45,197,255770,2,0,P|16:240|23:275,1,80,0|8,3:0|0:1,0:0:0:0:
127,220,256070,1,0,1:0:0:0:
127,220,256145,1,0,0:0:0:0:
127,220,256220,2,0,P|148:210|196:224,1,40,0|0,3:0|0:0,0:0:0:0:
240,184,256370,2,0,B|260:196|260:196|272:237,1,40,0|0,1:0|0:0,0:0:0:0:
334,254,256520,2,0,L|324:354,1,80,8|0,0:0|1:0,0:0:0:0:
211,371,256820,5,0,3:0:0:0:
265,212,256970,2,0,P|301:175|360:183,1,80,2|8,0:0|0:1,0:0:0:0:
419,238,257270,2,0,B|447:225|447:225|429:156,1,80,0|2,1:0|0:0,0:0:0:0:
503,61,257570,2,0,P|479:44|452:46,1,40,0|0,3:0|0:0,0:0:0:0:
394,56,257720,1,8,0:1:0:0:
295,135,257870,1,0,1:0:0:0:
295,135,257945,1,0,0:0:0:0:
295,135,258020,2,0,L|202:158,1,80,0|0,0:0|3:0,0:0:0:0:
68,38,258320,6,0,P|118:37|154:76,1,80,8|2,0:1|0:0,0:0:0:0:
140,134,258545,1,0,0:0:0:0:
121,144,258620,2,0,L|111:211,1,40,0|0,1:0|0:0,0:0:0:0:
49,236,258770,2,0,B|51:258|51:258|74:275,1,40,0|0,3:0|0:0,0:0:0:0:
123,322,258920,2,0,P|184:316|216:341,1,80,8|0,0:0|3:0,0:0:0:0:
311,384,259220,6,0,L|414:367,1,80,0|0,1:0|0:0,0:0:0:0:
483,282,259520,1,8,0:1:0:0:
354,298,259670,2,0,P|354:248|385:210,1,80,2|0,0:0|0:0,0:0:0:0:
498,200,259970,2,0,L|490:136,1,40,0|0,1:0|0:0,0:0:0:0:
418,141,260120,2,0,L|318:133,1,80,8|0,0:1|0:0,0:0:0:0:
466,77,260420,5,0,0:0:0:0:
302,66,260570,2,0,P|293:26|302:2,1,40,0|0,3:0|0:0,0:0:0:0:
363,2,260720,1,8,0:1:0:0:
338,134,260870,2,0,P|300:155|290:171,1,40,2|0,0:0|0:0,0:0:0:0:
295,233,261020,5,6,3:2:0:0:
256,223,261095,1,2,0:0:0:0:
220,238,261170,1,6,3:2:0:0:
199,271,261245,1,2,0:0:0:0:
200,310,261320,5,10,0:0:0:0:
174,302,261395,1,2,0:0:0:0:
148,307,261470,1,6,1:2:0:0:
127,323,261545,1,2,0:0:0:0:
118,348,261620,5,6,1:2:0:0:
0,294,261770,2,0,P|46:266|84:276,1,80,2|8,0:0|0:1,0:0:0:0:
172,175,262070,2,0,L|79:169,1,80,2|2,0:0|0:0,0:0:0:0:
20,51,262370,2,0,L|113:57,1,80,0|8,3:0|0:1,0:0:0:0:
230,116,262670,1,2,0:0:0:0:
230,116,262745,1,2,0:0:0:0:
230,116,262820,6,0,B|260:126|260:126|251:189,1,80,2|0,0:0|1:0,0:0:0:0:
160,281,263120,2,0,P|176:347|197:354,1,80,8|2,1:0|0:0,0:0:0:0:
257,373,263345,1,0,0:0:0:0:
270,360,263420,2,0,L|320:351,1,40,0|0,1:0|0:0,0:0:0:0:
386,362,263570,2,0,P|402:333|402:299,1,40,0|0,3:0|0:0,0:0:0:0:
437,253,263720,1,8,0:0:0:0:
437,226,263795,1,0,0:0:0:0:
427,202,263870,1,2,0:0:0:0:
407,184,263945,1,0,0:0:0:0:
382,172,264020,6,0,P|398:111|290:95,1,180.000006866455,4|0,3:2|0:0,0:0:0:0:
262,145,264320,6,0,B|232:169|232:169|158:157|158:157|187:130,1,150.000005722046,8|0,0:1|0:0,0:0:0:0:
183,58,264770,2,0,B|79:25|26:85|26:85|48:100|49:143,1,200,0|0,0:0|0:0,0:0:0:0:
33,191,265220,6,0,P|57:213|67:249,1,40,12|0,0:0|0:0,0:0:0:0:
76,297,265370,2,0,B|120:296|149:263|149:263|149:285|171:320,1,120,2|0,0:3|0:0,0:0:0:0:
222,355,265670,2,0,L|274:338,1,40,4|0,3:0|0:0,0:0:0:0:
333,357,265820,2,0,P|372:338|384:291,1,80,0|8,0:0|3:0,0:0:0:0:
362,195,266120,2,0,L|350:248,1,40,0|0,0:0|0:0,0:0:0:0:
487,301,266270,2,0,L|446:264,1,40,2|0,3:1|0:0,0:0:0:0:
441,199,266420,6,0,L|459:106,1,80,4|2,1:2|0:0,0:0:0:0:
363,23,266720,2,0,L|410:5,1,40,8|0,0:1|0:0,0:0:0:0:
375,107,266870,2,0,L|250:97,1,120,0|0,1:0|3:0,0:0:0:0:
182,129,267170,2,0,P|166:108|148:100,1,40,0|0,3:0|0:0,0:0:0:0:
132,25,267320,2,0,L|71:50,1,40,8|0,0:1|0:0,0:0:0:0:
54,108,267470,1,2,0:0:0:0:
122,242,267620,6,0,L|222:216,1,80,0|0,1:0|0:0,0:0:0:0:
281,239,267845,1,0,0:0:0:0:
304,243,267920,2,0,P|336:284|323:326,1,80,8|0,0:0|3:0,0:0:0:0:
280,371,268145,1,0,0:0:0:0:
256,368,268220,2,0,L|191:363,1,40,0|0,0:0|0:0,0:0:0:0:
156,318,268370,2,0,P|129:328|113:353,1,40,0|0,1:0|0:0,0:0:0:0:
57,297,268520,2,0,P|20:328|28:381,1,80,8|0,0:1|0:0,0:0:0:0:
45,216,268820,6,0,L|53:116,1,80,4|0,3:2|0:0,0:0:0:0:
184,104,269120,2,0,L|187:58,1,40,8|0,0:0|0:0,0:0:0:0:
131,10,269270,2,0,P|89:-7|35:15,1,80,2|0,0:0|3:0,0:0:0:0:
124,175,269570,2,0,P|151:179|180:166,1,40,2|0,1:2|0:0,0:0:0:0:
238,205,269720,2,0,B|294:194|294:194|320:215,1,80,8|2,0:1|0:0,0:0:0:0:
472,134,270020,6,0,P|434:112|374:140,1,80,2|2,1:2|0:0,0:0:0:0:
393,194,270245,1,0,0:2:0:0:
417,205,270320,2,0,L|436:305,1,80,8|0,0:1|0:0,0:0:0:0:
384,347,270545,1,0,0:0:0:0:
359,338,270620,2,0,P|327:344|306:361,1,40,2|0,0:0|0:0,0:0:0:0:
255,307,270770,2,0,L|198:298,1,40,0|0,3:0|0:0,0:0:0:0:
150,338,270920,1,8,0:1:0:0:
26,278,271070,1,2,0:0:0:0:
5,368,271220,6,0,P|36:322|25:286,1,80,0|2,1:0|0:0,0:0:0:0:
3,196,271520,2,0,L|16:130,1,40,8|0,0:1|0:0,0:0:0:0:
82,124,271670,1,0,1:0:0:0:
188,244,271970,6,0,L|245:228,1,40,0|0,3:0|0:0,0:0:0:0:
297,272,272120,2,0,L|305:315,1,40,8|0,0:0|0:0,0:0:0:0:
228,313,272270,1,2,0:0:0:0:
292,192,272420,5,0,0:0:0:0:
292,192,272570,2,0,P|334:179|362:186,1,60.0000022888184,0|0,0:0|0:0,0:0:0:0:
425,163,272870,1,0,0:0:0:0:
425,163,273020,2,0,P|460:186|472:222,1,60.0000022888184,0|0,0:0|0:0,0:0:0:0:
512,265,273320,2,0,L|504:310,1,30.0000011444092,0|0,0:0|0:0,0:0:0:0:
461,359,273470,2,0,P|444:367|429:368,1,30.0000011444092,0|0,0:0|0:0,0:0:0:0:
360,353,273620,6,0,P|315:332|278:341,1,80,4|2,3:2|0:0,0:0:0:0:
147,372,274070,2,0,L|156:320,1,40,0|0,3:0|0:0,0:0:0:0:
222,290,274220,1,8,0:0:0:0:
145,174,274370,2,0,P|102:157|42:184,1,80,2|0,0:0|0:0,0:0:0:0:
33,235,274595,1,0,0:0:0:0:
24,254,274670,2,0,L|83:240,1,40,2|0,0:0|0:0,0:0:0:0:
140,255,274820,1,0,0:0:0:0:
225,172,274970,6,0,P|237:136|226:104,1,60,2|0,3:2|0:0,0:0:0:0:
217,102,275270,2,0,L|208:33,1,40,2|0,3:2|0:0,0:0:0:0:
261,3,275420,1,8,0:0:0:0:
336,17,275570,1,2,0:0:0:0:
336,17,275645,1,0,0:0:0:0:
336,17,275720,1,2,0:0:0:0:
406,26,275870,1,2,0:0:0:0:
442,153,276020,6,0,P|468:113|449:67,1,80,2|2,3:2|0:0,0:0:0:0:
462,83,276470,6,0,L|474:134,1,40,2|0,3:2|0:0,0:0:0:0:
511,188,276620,2,0,L|500:264,1,60,8|0,0:0|0:0,0:0:0:0:
499,266,276920,1,0,0:0:0:0:
364,170,277070,1,2,0:0:0:0:
354,171,277145,1,0,0:0:0:0:
344,172,277220,5,0,0:0:0:0:
281,275,277370,2,0,P|275:305|284:331,1,40,0|0,3:0|0:0,0:0:0:0:
332,369,277520,1,0,3:0:0:0:
390,268,277670,2,0,P|364:248|333:247,1,40,2|0,3:2|0:0,0:0:0:0:
281,275,277820,6,8,L|230:291,1,40,8|2,0:0|0:0,0:0:0:0:
194,346,278045,1,0,0:0:0:0:
201,360,278120,2,0,L|152:351,1,30.0000011444092,2|0,0:0|0:0,0:0:0:0:
93,303,278270,2,0,L|131:291,1,40,2|0,0:0|0:0,0:0:0:0:
189,231,278420,5,2,3:2:0:0:
67,230,278570,1,0,0:0:0:0:
71,210,278645,1,0,0:0:0:0:
75,190,278720,1,0,0:0:0:0:
266,219,278870,2,0,P|260:194|244:174,1,40,2|0,3:2|0:0,0:0:0:0:
183,156,279020,2,0,L|188:79,1,60,8|0,0:0|0:0,0:0:0:0:
188,77,279320,5,2,0:0:0:0:
316,140,279470,2,0,L|357:123,1,40,0|0,0:0|0:0,0:0:0:0:
425,162,279620,5,0,0:0:0:0:
317,54,279770,2,0,P|317:22|327:1,1,40,2|0,3:2|0:0,0:0:0:0:
395,42,279920,1,0,0:0:0:0:
361,208,280070,2,0,L|351:262,1,40,0|0,3:0|0:0,0:0:0:0:
294,297,280220,5,10,0:0:0:0:
259,278,280295,1,2,0:0:0:0:
220,285,280370,1,2,0:0:0:0:
194,315,280445,1,2,0:0:0:0:
189,354,280520,5,2,0:0:0:0:
166,339,280595,1,2,0:0:0:0:
140,335,280670,1,2,0:0:0:0:
114,341,280745,1,2,0:0:0:0:
96,355,280820,5,2,3:2:0:0:
29,275,280970,2,8,L|36:209,1,60,2|0,0:0|0:0,0:0:0:0:
37,193,281270,2,0,P|64:173|99:175,1,40,2|0,3:2|0:0,0:0:0:0:
122,115,281420,2,8,P|173:129|200:171,1,80,8|2,0:0|0:0,0:0:0:0:
290,221,281720,5,0,0:0:0:0:
244,324,281870,1,2,0:0:0:0:
240,339,281945,1,0,0:0:0:0:
236,354,282020,1,0,0:0:0:0:
318,294,282170,2,8,P|343:288|378:298,1,40,2|0,3:2|0:0,0:0:0:0:
431,319,282320,5,0,0:0:0:0:
290,221,282470,2,8,P|282:187|295:162,1,40,2|0,3:2|0:0,0:0:0:0:
334,121,282620,5,8,0:0:0:0:
490,160,282770,1,2,0:0:0:0:
489,177,282845,1,0,0:0:0:0:
487,193,282920,1,0,0:0:0:0:
411,94,283070,2,0,L|405:39,1,40,2|0,0:0|0:0,0:0:0:0:
333,20,283220,6,8,P|288:-4|243:9,1,80,2|0,3:2|0:0,0:0:0:0:
187,36,283445,1,0,0:0:0:0:
173,50,283520,2,8,P|167:101|205:142,1,80,2|0,0:0|3:0,0:0:0:0:
363,164,283820,2,8,L|305:176,1,60,8|0,0:0|0:0,0:0:0:0:
282,180,284120,2,0,P|270:213|272:232,1,40,2|0,0:0|0:0,0:0:0:0:
320,275,284345,1,0,0:0:0:0:
340,280,284420,5,2,0:0:0:0:
324,356,284570,1,2,3:2:0:0:
270,217,284720,1,2,0:0:0:0:
357,287,284870,2,0,L|399:291,1,40,2|0,3:2|0:0,0:0:0:0:
460,329,285020,1,10,0:0:0:0:
472,199,285170,1,2,0:0:0:0:
512,268,285320,1,2,0:0:0:0:
472,342,285470,1,2,0:0:0:0:
349,360,285620,6,0,P|298:333|287:290,1,80,2|2,3:2|0:0,0:0:0:0:
348,179,285920,1,2,0:0:0:0:
402,48,286070,2,8,L|448:58,1,40,2|0,3:2|3:0,0:0:0:0:
495,113,286220,6,0,L|505:169,1,40,8|2,0:0|0:0,0:0:0:0:
436,220,286520,2,0,L|426:164,1,40,0|2,0:0|0:0,0:0:0:0:
348,179,286820,5,0,0:0:0:0:
243,102,286970,2,0,L|173:90,1,40,0|0,0:0|0:0,0:0:0:0:
143,146,287120,5,0,0:0:0:0:
263,29,287270,2,0,L|333:17,1,40,2|0,3:2|0:0,0:0:0:0:
378,36,287420,2,8,P|416:76|400:123,1,80,8|2,0:0|0:0,0:0:0:0:
369,163,287645,1,0,0:0:0:0:
348,179,287720,2,0,L|337:265,1,80,2|2,0:0|0:0,0:0:0:0:
451,290,288020,6,8,P|426:280|400:282,1,40,2|0,3:2|0:0,0:0:0:0:
357,338,288245,1,0,0:0:0:0:
354,353,288320,1,0,0:0:0:0:
259,244,288470,2,0,L|249:197,1,40,2|0,0:0|0:0,0:0:0:0:
192,158,288620,6,8,P|171:170|166:197,1,40,8|0,0:0|0:0,0:0:0:0:
100,218,288845,1,0,0:0:0:0:
85,222,288920,2,8,P|78:245|94:267,1,40,2|0,0:0|0:0,0:0:0:0:
110,330,289145,1,0,0:0:0:0:
126,336,289220,5,2,0:0:0:0:
246,243,289370,2,8,P|252:219|250:203,1,40,0|0,3:0|0:0,0:0:0:0:
192,158,289520,5,0,0:0:0:0:
201,308,289670,2,0,P|222:318|254:319,1,40,0|0,3:0|0:0,0:0:0:0:
308,290,289820,2,0,P|351:271|399:292,1,80,10|0,0:0|0:0,0:0:0:0:
495,269,290120,2,0,L|480:367,1,80,2|0,0:0|0:0,0:0:0:0:
401,317,290345,1,0,0:0:0:0:
401,330,290420,6,0,P|380:298|386:267,1,60,2|0,3:2|0:0,0:0:0:0:
392,258,290720,1,0,0:0:0:0:
301,117,290870,2,0,L|351:103,1,40,0|0,0:0|0:0,0:0:0:0:
416,72,291020,2,0,L|406:172,1,80,8|0,0:0|0:0,0:0:0:0:
279,205,291320,2,0,P|229:188|184:203,1,80,0|0,0:0|0:0,0:0:0:0:
138,234,291545,1,0,0:0:0:0:
128,248,291620,5,0,0:0:0:0:
242,304,291770,2,0,L|229:250,1,40,0|0,3:0|0:0,0:0:0:0:
315,274,291920,1,0,0:0:0:0:
159,364,292070,2,0,L|172:310,1,40,0|0,3:0|0:0,0:0:0:0:
86,334,292220,2,0,P|44:329|10:376,1,80,8|0,0:0|0:0,0:0:0:0:
30,254,292520,6,0,L|36:208,1,40,0|0,0:0|0:0,0:0:0:0:
117,167,292670,2,0,L|111:213,1,40,0|0,0:0|0:0,0:0:0:0:
46,130,292820,6,0,B|74:58|197:76|198:160|198:160|243:224|325:196|350:167|350:167|347:111|347:111|305:98|305:98|301:50|301:50|340:25|340:25|478:-18|549:174|410:219,1,911.99997216797,4|0,3:2|0:0,0:0:0:0:
442,291,298670,5,0,0:0:0:0:
339,229,298820,1,0,0:0:0:0:
339,229,298970,2,0,P|297:218|253:240,1,80,0|0,0:0|0:0,0:0:0:0:
211,289,299420,2,0,L|208:319,3,20
137,325,299720,2,0,L|134:355,3,20,0|0|0|0,0:0|0:0|0:0|0:0,0:0:0:0:
68,368,300020,6,0,P|34:337|34:296,1,80,8|0,0:0|0:0,0:0:0:0:
59,194,300470,2,0,P|93:225|93:266,1,80,8|0,0:0|0:0,0:0:0:0:
35,198,300920,2,0,L|45:114,1,80,8|0,0:0|0:0,0:0:0:0:
128,71,301370,2,0,L|118:155,1,80,8|0,0:0|0:0,0:0:0:0:
44,118,301820,6,0,L|35:72,1,40,8|0,0:0|0:0,0:0:0:0:
120,31,302120,2,0,L|129:77,1,40,8|0,0:0|0:0,0:0:0:0:
203,92,302420,1,0,0:0:0:0:
203,92,302720,6,0,P|261:72|337:140,1,160,8|0,0:0|0:0,0:0:0:0:
359,254,303620,2,0,L|402:242,1,40,8|0,0:0|0:0,0:0:0:0:
417,131,303920,2,0,P|405:153|404:179,1,40,0|0,0:0|0:0,0:0:0:0:
480,252,304220,2,0,L|470:207,1,40,8|0,0:0|0:0,0:0:0:0:
436,314,304520,2,0,L|446:359,1,40,0|0,0:0|0:0,0:0:0:0:
364,332,304820,5,8,0:0:0:0:
289,265,304970,2,0,P|262:257|240:260,1,40,0|0,0:0|0:0,0:0:0:0:
154,301,305270,1,0,0:0:0:0:
259,180,305570,2,0,P|276:137|240:64,1,120,0|8,0:0|0:0,0:0:0:0:
202,129,306170,1,0,0:0:0:0:
202,129,306470,6,0,P|144:133|125:157,1,80,0|0,0:0|0:0,0:0:0:0:
47,194,306920,2,0,P|53:226|69:244,1,40,0|0,0:0|0:0,0:0:0:0:
80,322,307220,1,8,0:0:0:0:
165,296,307370,1,0,0:0:0:0:
165,296,307670,2,0,P|210:326|215:397,1,120,0|0,0:0|0:0,0:0:0:0:
80,322,308420,1,8,0:0:0:0:
32,192,308570,2,0,L|42:98,1,80,0|0,0:0|0:0,0:0:0:0:
128,66,309020,2,0,P|172:76|196:119,1,80,0|0,0:0|0:0,0:0:0:0:
283,119,309620,6,0,L|275:270,1,143.999995605469,8|0,0:0|0:0,0:0:0:0:
275,262,310820,1,8,0:0:0:0:
